osu file format v14

[General]
AudioFilename: audio.mp3
AudioLeadIn: 0
PreviewTime: 48107
Countdown: 0
SampleSet: Soft
StackLeniency: 0.7
Mode: 3
LetterboxInBreaks: 0
SpecialStyle: 0
WidescreenStoryboard: 0

[Editor]
Bookmarks: 13823,27537,41251,48109,78966
DistanceSpacing: 1
BeatDivisor: 4
GridSize: 16
TimelineZoom: 1.600003

[Metadata]
Title:Stay Alive
TitleUnicode:Stay Alive
Artist:EMILIA (CV: Rie Takahashi)
ArtistUnicode:エミリア(CV:高橋李依)
Creator:Ayachi-
Version:4K Hard
Source:Re:ゼロから始める異世界生活
Tags:ed Sky_Demon Kuo Kyoka Re:zero kara hajimeru isekai seikatsu starting life in another world
BeatmapID:1137037
BeatmapSetID:480963

[Difficulty]
HPDrainRate:8
CircleSize:4
OverallDifficulty:8
ApproachRate:5
SliderMultiplier:1.4
SliderTickRate:1

[Events]
//Background and Video events
Video,0,"Re Zero kara Hajimeru Isekai Seikatsu - 16 [1080p] - Segment1(00_23_05.825-00_24_35.950).avi"
0,0,"59514938_p0.jpg",0,0
//Break Periods
//Storyboard Layer 0 (Background)
//Storyboard Layer 1 (Fail)
//Storyboard Layer 2 (Pass)
//Storyboard Layer 3 (Foreground)
//Storyboard Sound Samples
Sample,15232,0,"drum.wav",25
Sample,15303,0,"drum.wav",25
Sample,15375,0,"drum.wav",25
Sample,15446,0,"drum.wav",25
Sample,15518,0,"drum.wav",25
Sample,15589,0,"bass.wav",45
Sample,18660,0,"drum.wav",25
Sample,18732,0,"drum.wav",25
Sample,18803,0,"drum.wav",25
Sample,18875,0,"drum.wav",25
Sample,18946,0,"drum.wav",25
Sample,19018,0,"bass.wav",45
Sample,22089,0,"drum.wav",25
Sample,22160,0,"drum.wav",25
Sample,22232,0,"drum.wav",25
Sample,22303,0,"drum.wav",25
Sample,22375,0,"drum.wav",25
Sample,22446,0,"drum.wav",25
Sample,25518,0,"drum.wav",25
Sample,25589,0,"drum.wav",25
Sample,25660,0,"drum.wav",25
Sample,25732,0,"drum.wav",25
Sample,25803,0,"drum.wav",25
Sample,25875,0,"drum.wav",25
Sample,28446,0,"hihat.wav",30
Sample,31018,0,"bass.wav",45
Sample,31768,0,"hihat.wav",30
Sample,35303,0,"hihat.wav",30
Sample,36160,0,"hihat.wav",30
Sample,37875,0,"bass.wav",45
Sample,38625,0,"hihat.wav",30
Sample,38732,0,"hihat.wav",30
Sample,39589,0,"hihat.wav",30
Sample,76446,0,"kick.wav",45
Sample,76446,0,"crash.wav",45
Sample,76940,0,"drum.wav",25
Sample,77011,0,"drum.wav",25
Sample,77082,0,"drum.wav",25
Sample,77152,0,"drum.wav",25
Sample,77223,0,"drum.wav",25
Sample,77294,0,"bass.wav",45
Sample,80334,0,"drum.wav",25
Sample,80404,0,"drum.wav",25
Sample,80475,0,"drum.wav",25
Sample,80546,0,"drum.wav",25
Sample,80617,0,"drum.wav",25
Sample,80687,0,"bass.wav",45
Sample,83727,0,"drum.wav",25
Sample,83798,0,"drum.wav",25
Sample,83869,0,"drum.wav",25
Sample,83939,0,"drum.wav",25
Sample,84010,0,"drum.wav",25
Sample,84081,0,"bass.wav",45
Sample,85990,0,"crash.wav",25
Sample,87121,0,"drum.wav",25
Sample,87191,0,"drum.wav",25
Sample,87262,0,"drum.wav",25
Sample,87333,0,"drum.wav",25
Sample,87403,0,"drum.wav",25
Sample,87474,0,"bass.wav",45

[TimingPoints]
1018,428.571428571429,4,2,1,30,1,0
48160,-200,4,2,1,30,0,0
48910,-133.333333333333,4,2,1,30,0,1
49018,-100,4,2,1,30,0,1
76446,424.178154825027,4,2,1,30,1,0

[HitObjects]
64,192,1018,5,0,0:0:0:0:
320,192,1018,1,0,0:0:0:0:
448,192,1232,1,0,0:0:0:0:
64,192,1446,1,0,0:0:0:0:
320,192,1660,1,0,0:0:0:0:
192,192,1875,1,0,0:0:0:0:
64,192,1875,1,0,0:0:0:0:
448,192,2089,1,0,0:0:0:0:
448,192,2303,128,0,4446:0:0:0:0:
192,192,2303,1,0,0:0:0:0:
64,192,2518,1,0,0:0:0:0:
320,192,2732,1,0,0:0:0:0:
64,192,2946,1,0,0:0:0:0:
192,192,3160,1,0,0:0:0:0:
320,192,3375,1,0,0:0:0:0:
320,192,3589,128,0,4446:0:0:0:0:
192,192,4446,1,0,0:0:0:0:
64,192,4446,1,0,0:0:0:0:
320,192,4660,1,0,0:0:0:0:
64,192,4875,1,0,0:0:0:0:
448,192,5089,1,0,0:0:0:0:
64,192,5303,1,0,0:0:0:0:
320,192,5303,1,0,0:0:0:0:
192,192,5518,1,0,0:0:0:0:
448,192,5732,1,0,0:0:0:0:
64,192,5732,128,0,7875:0:0:0:0:
320,192,5946,1,0,0:0:0:0:
192,192,6160,1,0,0:0:0:0:
448,192,6375,1,0,0:0:0:0:
192,192,6589,1,0,0:0:0:0:
320,192,6803,1,0,0:0:0:0:
320,192,7018,128,0,7875:0:0:0:0:
192,192,7232,1,0,0:0:0:0:
448,192,7446,1,0,0:0:0:0:
192,192,7660,1,0,0:0:0:0:
192,192,7875,1,0,0:0:0:0:
448,192,7875,1,0,0:0:0:0:
320,192,8089,1,0,0:0:0:0:
64,192,8303,1,0,0:0:0:0:
192,192,8518,1,0,0:0:0:0:
448,192,8732,1,0,0:0:0:0:
320,192,8732,1,0,0:0:0:0:
320,192,8946,1,0,0:0:0:0:
64,192,9160,1,0,0:0:0:0:
448,192,9160,128,0,11303:0:0:0:0:
192,192,9375,1,0,0:0:0:0:
320,192,9589,1,0,0:0:0:0:
64,192,9803,1,0,0:0:0:0:
320,192,10018,1,0,0:0:0:0:
64,192,10232,1,0,0:0:0:0:
192,192,10446,1,0,0:0:0:0:
64,192,10660,1,0,0:0:0:0:
192,192,10875,128,0,11303:0:0:0:0:
320,192,11303,1,0,0:0:0:0:
64,192,11303,1,0,0:0:0:0:
192,192,11518,1,0,0:0:0:0:
448,192,11732,1,0,0:0:0:0:
64,192,11946,1,0,0:0:0:0:
192,192,12160,1,0,0:0:0:0:
320,192,12160,1,0,0:0:0:0:
448,192,12375,1,0,0:0:0:0:
64,192,12589,1,0,0:0:0:0:
320,192,12589,128,0,14732:0:0:0:0:
192,192,12803,1,0,0:0:0:0:
448,192,13018,1,0,0:0:0:0:
64,192,13232,1,0,0:0:0:0:
192,192,13446,1,0,0:0:0:0:
448,192,13660,1,0,0:0:0:0:
192,192,13875,1,0,0:0:0:0:
64,192,14089,1,0,0:0:0:0:
448,192,14303,1,0,0:0:0:0:
192,192,14518,1,0,0:0:0:0:
448,192,14732,1,0,0:0:0:45:crash.wav
64,192,14732,1,0,0:0:0:45:bass.wav
192,192,15160,128,0,15589:0:0:0:25:drum.wav
320,192,15589,1,0,0:0:0:25:drum.wav
448,192,15589,1,0,0:0:0:45:snare.wav
448,192,16018,1,0,0:0:0:45:snare.wav
192,192,16018,1,0,0:0:0:0:
64,192,16232,1,0,0:0:0:45:snare.wav
448,192,16232,1,0,0:0:0:45:bass.wav
192,192,16660,1,0,0:0:0:45:snare.wav
448,192,16660,1,0,0:0:0:0:
64,192,16875,1,0,0:0:0:45:snare.wav
448,192,16875,1,0,0:0:0:45:bass.wav
64,192,17303,1,0,0:0:0:25:crash.wav
192,192,17303,1,0,0:0:0:0:
192,192,17732,1,0,0:0:0:25:crash.wav
320,192,17732,1,0,0:0:0:0:
64,192,18160,1,0,0:0:0:45:bass.wav
448,192,18160,1,0,0:0:0:45:crash.wav
320,192,18160,1,0,0:0:0:0:
192,192,18589,128,0,19018:0:0:0:25:drum.wav
448,192,19018,1,0,0:0:0:25:drum.wav
64,192,19018,1,0,0:0:0:45:snare.wav
64,192,19446,1,0,0:0:0:45:snare.wav
320,192,19446,1,0,0:0:0:0:
448,192,19660,1,0,0:0:0:45:snare.wav
64,192,19660,1,0,0:0:0:45:bass.wav
64,192,20089,1,0,0:0:0:45:snare.wav
320,192,20089,1,0,0:0:0:0:
448,192,20303,1,0,0:0:0:45:snare.wav
64,192,20303,1,0,0:0:0:45:bass.wav
192,192,20732,1,0,0:0:0:45:snare.wav
448,192,20732,1,0,0:0:0:0:
320,192,20946,1,0,0:0:0:0:
192,192,21160,1,0,0:0:0:45:snare.wav
64,192,21160,1,0,0:0:0:0:
320,192,21375,1,0,0:0:0:45:snare.wav
448,192,21375,1,0,0:0:0:0:
192,192,21589,1,0,0:0:0:45:bass.wav
64,192,21589,1,0,0:0:0:45:crash.wav
448,192,21589,1,0,0:0:0:0:
448,192,22018,128,0,22446:0:0:0:25:drum.wav
192,192,22446,1,0,0:0:0:45:bass.wav
64,192,22446,1,0,0:0:0:45:snare.wav
64,192,22875,1,0,0:0:0:45:snare.wav
448,192,22875,1,0,0:0:0:0:
320,192,23089,1,0,0:0:0:45:bass.wav
64,192,23089,1,0,0:0:0:45:snare.wav
64,192,23518,1,0,0:0:0:45:snare.wav
448,192,23518,1,0,0:0:0:0:
320,192,23732,1,0,0:0:0:45:bass.wav
64,192,23732,1,0,0:0:0:45:snare.wav
192,192,24160,1,0,0:0:0:25:crash.wav
64,192,24160,128,0,24589:0:0:0:0:
320,192,24589,1,0,0:0:0:25:crash.wav
448,192,24589,1,0,0:0:0:0:
192,192,24803,1,0,0:0:0:25:crash.wav
64,192,25018,1,0,0:0:0:45:crash.wav
448,192,25018,1,0,0:0:0:45:bass.wav
64,192,25446,128,0,25875:0:0:0:25:drum.wav
320,192,25875,1,0,0:0:0:45:bass.wav
448,192,25875,1,0,0:0:0:45:snare.wav
448,192,26303,1,0,0:0:0:45:snare.wav
64,192,26303,1,0,0:0:0:0:
192,192,26518,1,0,0:0:0:45:bass.wav
64,192,26518,1,0,0:0:0:45:snare.wav
448,192,26732,128,0,27160:0:0:0:0:
192,192,26946,1,0,0:0:0:45:snare.wav
64,192,27160,128,0,27589:0:0:0:45:bass.wav
320,192,27160,1,0,0:0:0:45:snare.wav
192,192,27589,128,0,28018:0:0:0:45:snare.wav
448,192,27589,1,0,0:0:0:0:
320,192,27803,1,0,0:0:0:45:kick.wav
448,192,28018,128,0,28446:0:0:0:45:snare.wav
64,192,28018,1,0,0:0:0:0:
320,192,28232,1,0,0:0:0:45:bass.wav
192,192,28446,1,0,0:0:0:45:bass.wav
64,192,28446,1,0,0:0:0:45:crash.wav
320,192,28660,1,0,0:0:0:45:bass.wav
448,192,28660,1,0,0:0:0:30:hihat.wav
192,192,28875,1,0,0:0:0:30:hihat.wav
320,192,29089,1,0,0:0:0:30:hihat.wav
64,192,29303,1,0,0:0:0:45:snare.wav
448,192,29303,1,0,0:0:0:45:bass.wav
192,192,29518,1,0,0:0:0:30:hihat.wav
320,192,29732,1,0,0:0:0:30:hihat.wav
192,192,29946,1,0,0:0:0:45:bass.wav
64,192,29946,1,0,0:0:0:30:hihat.wav
448,192,30160,1,0,0:0:0:30:hihat.wav
320,192,30375,1,0,0:0:0:45:bass.wav
64,192,30375,1,0,0:0:0:30:hihat.wav
192,192,30589,1,0,0:0:0:30:hihat.wav
448,192,30803,1,0,0:0:0:30:hihat.wav
320,192,31018,1,0,0:0:0:30:hihat.wav
64,192,31018,1,0,0:0:0:45:snare.wav
192,192,31232,1,0,0:0:0:30:hihat.wav
320,192,31446,1,0,0:0:0:45:bass.wav
448,192,31446,1,0,0:0:0:30:hihat.wav
64,192,31660,1,0,0:0:0:30:hihat.wav
192,192,31875,1,0,0:0:0:30:hihat.wav
448,192,31875,1,0,0:0:0:45:bass.wav
320,192,32089,1,0,0:0:0:45:bass.wav
64,192,32089,1,0,0:0:0:30:hihat.wav
192,192,32303,1,0,0:0:0:30:hihat.wav
320,192,32518,1,0,0:0:0:30:hihat.wav
192,192,32732,1,0,0:0:0:45:snare.wav
64,192,32732,1,0,0:0:0:45:bass.wav
448,192,32946,1,0,0:0:0:30:hihat.wav
320,192,33160,1,0,0:0:0:30:hihat.wav
192,192,33375,1,0,0:0:0:30:hihat.wav
448,192,33375,1,0,0:0:0:45:bass.wav
64,192,33589,1,0,0:0:0:30:hihat.wav
192,192,33803,1,0,0:0:0:30:hihat.wav
320,192,33803,1,0,0:0:0:45:bass.wav
448,192,34018,1,0,0:0:0:30:hihat.wav
64,192,34232,1,0,0:0:0:30:hihat.wav
192,192,34446,1,0,0:0:0:45:bass.wav
448,192,34446,1,0,0:0:0:45:snare.wav
64,192,34660,1,0,0:0:0:45:bass.wav
448,192,34660,1,0,0:0:0:0:
192,192,34875,1,0,0:0:0:45:bass.wav
320,192,34875,1,0,0:0:0:45:snare.wav
64,192,35089,1,0,0:0:0:45:kick.wav
320,192,35089,1,0,0:0:0:0:
448,192,35303,1,0,0:0:0:45:bass.wav
64,192,35303,1,0,0:0:0:45:crash.wav
192,192,35518,1,0,0:0:0:45:bass.wav
448,192,35518,1,0,0:0:0:30:hihat.wav
320,192,35732,1,0,0:0:0:30:hihat.wav
192,192,35946,1,0,0:0:0:30:hihat.wav
64,192,36160,1,0,0:0:0:45:snare.wav
448,192,36160,1,0,0:0:0:45:bass.wav
320,192,36375,1,0,0:0:0:30:hihat.wav
64,192,36589,1,0,0:0:0:30:hihat.wav
192,192,36803,1,0,0:0:0:30:hihat.wav
448,192,36803,1,0,0:0:0:45:bass.wav
320,192,37018,1,0,0:0:0:30:hihat.wav
64,192,37232,1,0,0:0:0:30:hihat.wav
192,192,37232,1,0,0:0:0:45:bass.wav
448,192,37446,1,0,0:0:0:30:hihat.wav
64,192,37660,1,0,0:0:0:30:hihat.wav
192,192,37875,1,0,0:0:0:30:hihat.wav
320,192,37875,1,0,0:0:0:45:snare.wav
448,192,38089,1,0,0:0:0:30:hihat.wav
320,192,38303,1,0,0:0:0:45:bass.wav
64,192,38303,1,0,0:0:0:30:hihat.wav
192,192,38518,1,0,0:0:0:30:hihat.wav
64,192,38732,1,0,0:0:0:45:bass.wav
448,192,38732,1,0,0:0:0:45:crash.wav
64,192,38946,1,0,0:0:0:45:bass.wav
320,192,38946,1,0,0:0:0:30:hihat.wav
192,192,39160,1,0,0:0:0:30:hihat.wav
320,192,39375,1,0,0:0:0:30:hihat.wav
192,192,39589,1,0,0:0:0:45:bass.wav
64,192,39589,1,0,0:0:0:45:snare.wav
448,192,39803,1,0,0:0:0:30:hihat.wav
64,192,40018,1,0,0:0:0:30:hihat.wav
320,192,40232,1,0,0:0:0:45:bass.wav
192,192,40232,1,0,0:0:0:30:hihat.wav
448,192,40446,128,0,40875:0:0:0:45:crash.wav
64,192,40446,1,0,0:0:0:45:bass.wav
64,192,40875,128,0,41303:0:0:0:45:crash.wav
320,192,40875,1,0,0:0:0:45:bass.wav
192,192,41303,1,0,0:0:0:45:bass.wav
320,192,41303,128,0,41732:0:0:0:45:snare.wav
448,192,41518,1,0,0:0:0:45:bass.wav
64,192,41732,128,0,42160:0:0:0:45:kick.wav
192,192,41732,1,0,0:0:0:0:
320,192,41946,1,0,0:0:0:45:kick.wav
448,192,42160,128,0,48160:0:0:0:0:
192,192,43875,128,0,48160:0:0:0:0:
64,192,45589,128,0,48160:0:0:0:0:
320,192,48160,128,0,49018:0:0:0:0:
192,192,49018,1,0,0:0:0:45:bass.wav
64,192,49018,1,0,0:0:0:45:crash.wav
448,192,49018,1,0,0:0:0:0:
192,192,49446,1,0,0:0:0:45:bass.wav
448,192,49446,1,0,0:0:0:0:
64,192,49875,1,0,0:0:0:45:snare.wav
320,192,49875,1,0,0:0:0:45:bass.wav
448,192,49875,1,0,0:0:0:0:
192,192,50303,1,0,0:0:0:45:bass.wav
64,192,50303,1,0,0:0:0:0:
320,192,50732,1,0,0:0:0:45:bass.wav
448,192,50732,1,0,0:0:0:0:
320,192,51160,1,0,0:0:0:45:bass.wav
448,192,51160,1,0,0:0:0:0:
192,192,51589,1,0,0:0:0:45:bass.wav
64,192,51589,1,0,0:0:0:45:snare.wav
448,192,51589,1,0,0:0:0:0:
320,192,52018,1,0,0:0:0:45:bass.wav
64,192,52018,1,0,0:0:0:0:
192,192,52446,1,0,0:0:0:45:bass.wav
448,192,52446,1,0,0:0:0:45:crash.wav
320,192,52446,1,0,0:0:0:0:
320,192,52875,1,0,0:0:0:45:bass.wav
448,192,52875,1,0,0:0:0:0:
64,192,53303,1,0,0:0:0:45:bass.wav
192,192,53303,1,0,0:0:0:45:snare.wav
448,192,53303,1,0,0:0:0:0:
320,192,53732,1,0,0:0:0:45:bass.wav
64,192,53732,1,0,0:0:0:0:
192,192,54160,1,0,0:0:0:45:bass.wav
320,192,54160,1,0,0:0:0:0:
192,192,54589,1,0,0:0:0:45:bass.wav
320,192,54589,1,0,0:0:0:45:crash.wav
64,192,55018,1,0,0:0:0:45:snare.wav
192,192,55018,1,0,0:0:0:45:bass.wav
448,192,55018,1,0,0:0:0:0:
320,192,55446,1,0,0:0:0:45:crash.wav
448,192,55446,1,0,0:0:0:45:bass.wav
64,192,55875,1,0,0:0:0:45:bass.wav
192,192,55875,1,0,0:0:0:45:crash.wav
320,192,55875,1,0,0:0:0:0:
192,192,56303,1,0,0:0:0:45:bass.wav
448,192,56303,1,0,0:0:0:0:
64,192,56732,1,0,0:0:0:45:bass.wav
320,192,56732,1,0,0:0:0:45:snare.wav
448,192,56732,1,0,0:0:0:0:
192,192,57160,1,0,0:0:0:45:bass.wav
448,192,57160,1,0,0:0:0:0:
192,192,57589,1,0,0:0:0:45:bass.wav
448,192,57589,1,0,0:0:0:0:
192,192,58018,1,0,0:0:0:45:bass.wav
448,192,58018,1,0,0:0:0:0:
64,192,58446,1,0,0:0:0:45:bass.wav
320,192,58446,1,0,0:0:0:45:snare.wav
192,192,58446,1,0,0:0:0:0:
448,192,58875,1,0,0:0:0:45:bass.wav
320,192,58875,1,0,0:0:0:0:
64,192,59303,1,0,0:0:0:45:bass.wav
192,192,59303,1,0,0:0:0:45:crash.wav
448,192,59303,1,0,0:0:0:0:
320,192,59732,1,0,0:0:0:45:bass.wav
192,192,59732,1,0,0:0:0:0:
192,192,60160,1,0,0:0:0:45:bass.wav
320,192,60160,1,0,0:0:0:45:snare.wav
448,192,60160,1,0,0:0:0:0:
64,192,60589,1,0,0:0:0:45:bass.wav
448,192,60589,1,0,0:0:0:0:
64,192,61018,1,0,0:0:0:45:bass.wav
448,192,61018,1,0,0:0:0:0:
192,192,61446,1,0,0:0:0:45:bass.wav
448,192,61446,1,0,0:0:0:45:crash.wav
64,192,61875,1,0,0:0:0:45:bass.wav
320,192,61875,1,0,0:0:0:45:snare.wav
448,192,61875,1,0,0:0:0:0:
192,192,62089,1,0,0:0:0:45:bass.wav
64,192,62089,1,0,0:0:0:0:
320,192,62303,1,0,0:0:0:45:kick.wav
448,192,62303,1,0,0:0:0:0:
192,192,62518,1,0,0:0:0:45:kick.wav
64,192,62518,1,0,0:0:0:0:
320,192,62625,1,0,0:0:0:0:
448,192,62732,1,0,0:0:0:45:crash.wav
64,192,62732,1,0,0:0:0:45:bass.wav
192,192,62732,1,0,0:0:0:0:
320,192,63375,1,0,0:0:0:45:bass.wav
448,192,63375,1,0,0:0:0:0:
192,192,63589,1,0,0:0:0:45:snare.wav
64,192,63589,1,0,0:0:0:45:bass.wav
448,192,63589,1,0,0:0:0:0:
320,192,64232,1,0,0:0:0:45:bass.wav
448,192,64232,1,0,0:0:0:0:
320,192,64660,1,0,0:0:0:45:bass.wav
448,192,64660,1,0,0:0:0:0:
192,192,64875,1,0,0:0:0:45:bass.wav
64,192,64875,1,0,0:0:0:0:
64,192,65303,1,0,0:0:0:45:snare.wav
448,192,65303,1,0,0:0:0:45:bass.wav
320,192,65303,1,0,0:0:0:0:
192,192,65518,1,0,0:0:0:0:
320,192,65732,1,0,0:0:0:45:bass.wav
448,192,65732,1,0,0:0:0:0:
192,192,65946,1,0,0:0:0:30:hihat.wav
320,192,66053,1,0,0:0:0:30:hihat.wav
448,192,66160,1,0,0:0:0:45:bass.wav
64,192,66160,1,0,0:0:0:45:crash.wav
192,192,66160,1,0,0:0:0:30:hihat.wav
320,192,66803,1,0,0:0:0:45:bass.wav
448,192,66803,1,0,0:0:0:0:
448,192,67018,1,0,0:0:0:45:snare.wav
192,192,67018,1,0,0:0:0:45:bass.wav
64,192,67018,1,0,0:0:0:0:
64,192,67660,1,0,0:0:0:45:bass.wav
320,192,67660,1,0,0:0:0:0:
64,192,68089,1,0,0:0:0:45:bass.wav
320,192,68089,1,0,0:0:0:0:
320,192,68303,1,0,0:0:0:45:bass.wav
64,192,68303,1,0,0:0:0:0:
448,192,68732,1,0,0:0:0:45:bass.wav
64,192,68732,1,0,0:0:0:45:snare.wav
320,192,68732,1,0,0:0:0:0:
192,192,68946,1,0,0:0:0:0:
448,192,68946,1,0,0:0:0:0:
320,192,69160,1,0,0:0:0:45:snare.wav
64,192,69160,1,0,0:0:0:45:bass.wav
192,192,69375,1,0,0:0:0:45:snare.wav
448,192,69375,1,0,0:0:0:45:bass.wav
448,192,69589,1,0,0:0:0:45:crash.wav
320,192,69589,1,0,0:0:0:45:bass.wav
64,192,69589,128,0,71303:0:0:0:0:
192,192,70018,1,0,0:0:0:45:bass.wav
448,192,70018,1,0,0:0:0:0:
320,192,70446,1,0,0:0:0:45:bass.wav
192,192,70446,1,0,0:0:0:0:
320,192,70875,1,0,0:0:0:45:bass.wav
448,192,70875,1,0,0:0:0:0:
192,192,71303,1,0,0:0:0:45:bass.wav
448,192,71303,128,0,73018:0:0:0:45:snare.wav
320,192,71732,1,0,0:0:0:45:bass.wav
64,192,71732,1,0,0:0:0:45:snare.wav
192,192,72160,1,0,0:0:0:45:bass.wav
320,192,72160,1,0,0:0:0:45:snare.wav
192,192,72589,1,0,0:0:0:45:bass.wav
64,192,72589,1,0,0:0:0:45:snare.wav
192,192,73018,128,0,73446:0:0:0:45:bass.wav
320,192,73018,1,0,0:0:0:45:crash.wav
64,192,73446,1,0,0:0:0:45:crash.wav
448,192,73446,128,0,73875:0:0:0:45:bass.wav
320,192,73875,128,0,74303:0:0:0:45:crash.wav
192,192,73875,1,0,0:0:0:45:bass.wav
64,192,74303,1,0,0:0:0:45:bass.wav
448,192,74303,128,0,74732:0:0:0:45:crash.wav
192,192,74732,1,0,0:0:0:45:crash.wav
320,192,74732,1,0,0:0:0:45:bass.wav
64,192,74732,1,0,0:0:0:0:
320,192,74946,1,0,0:0:0:45:bass.wav
64,192,74946,1,0,0:0:0:0:
192,192,75160,1,0,0:0:0:45:kick.wav
448,192,75160,1,0,0:0:0:0:
320,192,75375,1,0,0:0:0:45:kick.wav
448,192,75375,1,0,0:0:0:0:
192,192,75589,1,0,0:0:0:45:snare.wav
64,192,75589,1,0,0:0:0:45:bass.wav
448,192,75732,1,0,0:0:0:45:snare.wav
320,192,75732,1,0,0:0:0:45:bass.wav
64,192,75875,1,0,0:0:0:45:kick.wav
192,192,76018,1,0,0:0:0:45:kick.wav
320,192,76160,1,0,0:0:0:45:kick.wav
448,192,76303,1,0,0:0:0:45:kick.wav
64,192,76446,1,0,0:0:0:45:bass.wav
192,192,76446,1,0,0:0:0:0:
192,192,76870,128,0,77294:0:0:0:25:drum.wav
320,192,77294,1,0,0:0:0:25:drum.wav
448,192,77294,1,0,0:0:0:45:snare.wav
64,192,77718,1,0,0:0:0:45:snare.wav
448,192,77718,1,0,0:0:0:0:
192,192,77930,1,0,0:0:0:45:bass.wav
448,192,77930,1,0,0:0:0:45:snare.wav
448,192,78354,1,0,0:0:0:45:snare.wav
64,192,78354,1,0,0:0:0:0:
192,192,78566,1,0,0:0:0:45:snare.wav
448,192,78566,1,0,0:0:0:45:bass.wav
320,192,78991,1,0,0:0:0:25:crash.wav
448,192,78991,1,0,0:0:0:0:
192,192,79415,1,0,0:0:0:25:crash.wav
64,192,79415,1,0,0:0:0:0:
64,192,79839,1,0,0:0:0:45:bass.wav
448,192,79839,1,0,0:0:0:45:crash.wav
448,192,80263,128,0,80687:0:0:0:25:drum.wav
320,192,80687,1,0,0:0:0:25:drum.wav
192,192,80687,1,0,0:0:0:45:snare.wav
64,192,81111,1,0,0:0:0:45:snare.wav
448,192,81111,1,0,0:0:0:0:
320,192,81324,1,0,0:0:0:45:snare.wav
64,192,81324,1,0,0:0:0:45:bass.wav
64,192,81748,1,0,0:0:0:45:snare.wav
448,192,81748,1,0,0:0:0:0:
320,192,81960,1,0,0:0:0:45:snare.wav
64,192,81960,1,0,0:0:0:45:bass.wav
192,192,82384,1,0,0:0:0:45:bass.wav
64,192,82384,1,0,0:0:0:45:snare.wav
320,192,82596,1,0,0:0:0:45:bass.wav
64,192,82808,1,0,0:0:0:45:bass.wav
448,192,82808,1,0,0:0:0:45:snare.wav
320,192,83020,1,0,0:0:0:45:bass.wav
64,192,83020,1,0,0:0:0:45:snare.wav
192,192,83232,1,0,0:0:0:45:bass.wav
448,192,83232,1,0,0:0:0:45:crash.wav
320,192,83657,128,0,84081:0:0:0:25:drum.wav
64,192,84081,1,0,0:0:0:25:drum.wav
448,192,84081,1,0,0:0:0:45:snare.wav
320,192,84505,1,0,0:0:0:45:snare.wav
448,192,84505,1,0,0:0:0:0:
64,192,84717,1,0,0:0:0:45:snare.wav
448,192,84717,1,0,0:0:0:45:bass.wav
320,192,85141,1,0,0:0:0:45:snare.wav
448,192,85141,1,0,0:0:0:0:
64,192,85353,1,0,0:0:0:45:snare.wav
448,192,85353,1,0,0:0:0:45:bass.wav
192,192,85777,128,0,86202:0:0:0:25:crash.wav
320,192,86202,1,0,0:0:0:25:crash.wav
64,192,86626,1,0,0:0:0:45:crash.wav
448,192,86626,1,0,0:0:0:45:bass.wav
448,192,87050,128,0,87474:0:0:0:25:drum.wav
320,192,87474,1,0,0:0:0:25:drum.wav
192,192,87474,1,0,0:0:0:45:snare.wav
64,192,87898,1,0,0:0:0:45:snare.wav
448,192,87898,1,0,0:0:0:0:
320,192,88110,1,0,0:0:0:45:snare.wav
448,192,88110,1,0,0:0:0:45:bass.wav
64,192,88535,1,0,0:0:0:45:snare.wav
448,192,88535,1,0,0:0:0:0:
192,192,88747,1,0,0:0:0:45:snare.wav
64,192,88747,1,0,0:0:0:45:bass.wav
320,192,88959,1,0,0:0:0:0:
448,192,88959,1,0,0:0:0:0:
192,192,89171,1,0,0:0:0:45:snare.wav
64,192,89171,1,0,0:0:0:45:bass.wav
64,192,89383,1,0,0:0:0:45:bass.wav
192,192,89383,1,0,0:0:0:45:snare.wav
192,192,89595,1,0,0:0:0:45:bass.wav
64,192,89595,1,0,0:0:0:45:snare.wav
320,192,89807,1,0,0:0:0:45:crash.wav
448,192,89807,1,0,0:0:0:45:bass.wav
64,192,89807,1,0,0:0:0:0:
