osu file format v14

[General]
AudioFilename: audio.mp3
AudioLeadIn: 3000
PreviewTime: 47196
Countdown: 0
SampleSet: None
StackLeniency: 0.7
Mode: 0
LetterboxInBreaks: 0
WidescreenStoryboard: 0

[Editor]
DistanceSpacing: 0.8
BeatDivisor: 4
GridSize: 4
TimelineZoom: 1

[Metadata]
Title:Stay Alive
TitleUnicode:Stay Alive
Artist:EMILIA (CV: Rie Takahashi)
ArtistUnicode:エミリア(CV:高橋李依)
Creator:[C u r i]
Version:Normal
Source:Re:ゼロから始める異世界生活
Tags:Re: Zero Kara Hajimeru Isekai Seikatsu Life in a different world from zero Re:zero Tv Size Ed Ending K_i_A_i
BeatmapID:1039693
BeatmapSetID:487664

[Difficulty]
HPDrainRate:3
CircleSize:3.3
OverallDifficulty:4
ApproachRate:4.5
SliderMultiplier:2.2
SliderTickRate:4

[Events]
//Background and Video events
0,0,"xTG3a1I.jpg",0,0
//Break Periods
//Storyboard Layer 0 (Background)
//Storyboard Layer 1 (Fail)
//Storyboard Layer 2 (Pass)
//Storyboard Layer 3 (Foreground)
//Storyboard Sound Samples

[TimingPoints]
54,857.142857142857,4,2,1,40,1,0
13768,-100,4,3,11,65,0,0
27482,-100,4,3,21,65,0,0
27911,-100,4,2,21,65,0,0
28339,-100,4,3,21,65,0,0
34554,-100,4,1,21,65,0,0
34768,-100,4,3,21,65,0,0
39482,-100,4,3,26,65,0,0
41196,-100,4,2,1,80,0,0
42911,-100,4,2,1,65,0,0
47196,-100,4,2,1,80,0,0
48053,-100,4,3,100,90,0,1
69054,-100,4,3,100,30,0,1
69482,-100,4,3,100,40,0,1
69911,-100,4,3,100,50,0,1
70339,-100,4,3,100,60,0,1
70768,-100,4,3,100,70,0,1
71196,-100,4,3,100,80,0,1
71625,-100,4,3,100,90,0,1
75482,848.056537102474,4,3,11,65,1,0
78874,851.063829787234,4,3,11,65,1,0
82278,845.070422535211,4,3,11,65,1,0
88193,-100,4,3,100,65,0,0
88827,-100,4,1,21,90,0,0

[Colours]
Combo1 : 255,187,187
Combo2 : 192,192,192
Combo3 : 146,36,255

[HitObjects]
123,149,54,6,0,P|166:125|239:128,1,110,4|0,0:0|0:0,0:0:0:0:
262,148,696,1,0,0:0:0:0:
262,148,911,2,0,P|307:146|323:142,2,55,2|0|0,0:0|0:0|0:0,0:0:0:0:
193,203,1768,2,0,L|201:319,1,110,0|0,0:0|0:0,0:0:0:0:
279,352,2625,2,0,P|334:340|418:347,1,110,2|0,0:0|0:0,0:0:0:0:
457,288,3482,6,0,L|449:172,1,110,4|0,0:0|0:0,0:0:0:0:
424,141,4125,1,0,0:0:0:0:
424,141,4339,2,0,L|417:72,2,55,2|0|0,0:0|0:0|0:0,0:0:0:0:
363,205,5196,2,0,P|304:215|249:199,1,110,0|0,0:0|0:0,0:0:0:0:
194,140,6054,2,0,P|135:130|80:146,1,110,2|0,0:0|0:0,0:0:0:0:
40,216,6911,6,0,L|49:342,1,110,4|0,0:0|0:0,0:0:0:0:
84,350,7554,1,0,0:0:0:0:
84,350,7768,2,0,P|114:359|166:349,2,55,2|0|0,0:0|0:0|0:0,0:0:0:0:
126,273,8625,2,0,P|185:255|246:261,1,110,0|0,0:0|0:0,0:0:0:0:
286,327,9482,2,0,P|345:345|406:339,1,110,2|0,0:0|0:0,0:0:0:0:
465,292,10339,6,0,P|483:233|477:172,1,110,4|0,0:0|0:0,0:0:0:0:
452,151,10982,1,0,0:0:0:0:
452,151,11196,2,0,P|445:103|451:80,2,55,2|0|0,0:0|0:0|0:0,0:0:0:0:
400,222,12054,2,0,P|347:216|275:228,1,110,0|0,0:0|0:0,0:0:0:0:
229,286,12911,2,0,P|177:294|163:292,1,55,2|0,0:0|0:0,0:0:0:0:
142,263,13339,2,0,P|90:255|76:257,1,55,0|0,0:0|0:0,0:0:0:0:
52,280,13768,5,4,1:0:0:0:
28,150,14411,1,2,0:0:0:0:
28,150,14625,2,0,P|74:124|152:123,1,110,4|4,0:0|0:0,0:0:0:0:
173,127,15268,2,0,P|219:134|247:127,1,55,8|0,0:0|0:0,0:0:0:0:
263,108,15696,1,4,0:0:0:0:
263,108,15911,2,0,P|309:101|337:108,2,55,8|0|8,0:0|0:0|0:1,0:0:0:0:
303,186,16768,1,2,0:1:0:0:
348,260,17196,6,0,P|293:274|244:252,1,110,8|2,1:0|0:0,0:0:0:0:
223,215,17839,1,2,0:0:0:0:
223,215,18054,1,4,0:0:0:0:
141,247,18482,2,0,L|147:310,1,55,4|8,0:0|0:0,0:0:0:0:
183,325,18911,2,0,L|177:388,2,55,0|4|8,0:0|0:0|0:0,0:0:0:0:
224,308,19554,1,0,0:0:0:0:
224,308,19768,2,0,P|262:299|302:307,1,55,4|2,0:0|0:0,0:0:0:0:
315,322,20196,2,0,P|353:331|393:323,1,55,4|4,0:0|0:0,0:0:0:0:
410,317,20625,5,4,1:0:0:0:
421,229,21054,2,0,L|414:115,1,110,2|4,0:0|0:0,0:0:0:0:
352,56,21911,2,0,P|316:49|269:59,1,55,4|8,0:0|0:0,0:0:0:0:
260,73,22339,1,0,0:0:0:0:
260,73,22554,2,0,P|224:80|177:70,1,55,4|8,0:0|0:0,0:0:0:0:
164,64,22982,1,0,0:0:0:0:
164,64,23196,2,0,P|97:53|32:86,1,110,2|0,0:1|2:0,0:0:0:0:
6,137,24054,6,0,P|-5:204|28:269,1,110,4|2,1:0|0:0,0:0:0:0:
36,276,24696,1,2,0:0:0:0:
36,276,24911,1,4,0:0:0:0:
111,320,25339,2,0,L|182:317,1,55,4|8,0:0|0:0,0:0:0:0:
201,291,25768,2,0,L|259:295,2,55,0|4|2,0:0|0:0|0:0,0:0:0:0:
197,247,26411,1,2,0:0:0:0:
197,247,26625,2,0,L|191:190,2,55,4|2|8,0:0|0:2|0:2,0:0:0:0:
283,231,27482,5,4,1:0:0:0:
283,231,27696,2,0,P|288:167|247:111,1,110,8|0,0:0|0:0,0:0:0:0:
228,107,28339,1,6,0:0:0:0:
153,59,28768,2,0,L|95:65,1,55,2|8,0:0|0:0,0:0:0:0:
64,92,29196,2,0,L|6:86,2,55,2|8|2,0:0|0:0|0:0,0:0:0:0:
102,112,29839,1,0,0:0:0:0:
102,112,30054,2,0,P|112:184|89:249,1,110,6|10,0:0|0:0,0:0:0:0:
86,260,30696,1,0,0:0:0:0:
86,260,30911,5,8,1:0:0:0:
127,337,31339,1,2,0:0:0:0:
209,308,31768,2,0,L|338:303,1,110,6|2,0:0|0:0,0:0:0:0:
360,318,32411,1,8,0:0:0:0:
360,318,32625,2,0,P|389:323|437:320,1,55,2|8,0:0|0:0,0:0:0:0:
452,300,33054,2,0,P|465:248|447:170,1,110,2|6,0:0|0:0,0:0:0:0:
432,156,33696,1,8,0:0:0:0:
432,156,33911,2,0,L|356:146,1,55,6|8,0:0|2:0,0:0:0:0:
358,109,34339,6,0,L|218:118,1,110,4|2,1:0|0:0,0:0:0:0:
164,90,35196,1,6,0:0:0:0:
91,140,35625,2,0,L|99:206,1,55,2|8,0:0|0:0,0:0:0:0:
123,230,36054,2,0,L|263:239,1,110,2|2,0:0|0:0,0:0:0:0:
317,212,36911,1,6,0:0:0:0:
317,212,37125,2,0,P|318:266|309:292,1,55,0|10,0:0|0:0,0:0:0:0:
296,305,37554,1,0,0:0:0:0:
296,305,37768,6,0,P|229:328|163:305,1,110,8|2,1:0|0:0,0:0:0:0:
138,251,38625,1,6,0:0:0:0:
150,163,39054,2,0,L|153:92,1,55,2|8,0:0|0:0,0:0:0:0:
177,71,39482,2,0,P|236:60|288:81,1,110,8|2,1:0|1:0,0:0:0:0:
360,116,40339,2,0,P|399:120|417:116,2,55,12|2|8,0:0|2:0|2:0,0:0:0:0:
285,162,41196,5,8,0:0:0:0:
285,162,42911,5,8,0:0:0:0:
285,162,44625,5,8,0:0:0:0:
285,162,46339,5,8,0:0:0:0:
120,111,47196,2,0,P|82:184|81:265,1,165,2|0,0:0|0:0,0:0:0:0:
101,305,48054,6,0,P|145:318|223:296,1,110,14|10,1:0|0:0,0:0:0:0:
239,276,48696,1,0,0:0:0:0:
239,276,48911,2,0,P|283:263|361:285,1,110,6|10,0:0|0:0,0:0:0:0:
417,325,49768,2,0,P|429:265|409:217,1,110,10|10,0:0|0:0,0:0:0:0:
378,191,50411,1,0,0:0:0:0:
378,191,50625,1,6,0:0:0:0:
398,105,51054,1,10,0:0:0:0:
319,65,51482,6,0,L|182:80,1,110,6|10,1:0|0:0,0:0:0:0:
171,98,52125,1,0,0:0:0:0:
171,98,52339,2,0,L|34:83,1,110,6|10,0:0|0:0,0:0:0:0:
13,159,53196,2,0,P|5:223|30:278,1,110,10|10,0:0|0:0,0:0:0:0:
103,294,54054,2,0,L|171:286,2,55,6|0|10,0:0|0:0|0:0,0:0:0:0:
97,206,54911,6,0,L|212:190,1,110,6|10,1:0|0:0,0:0:0:0:
274,245,55768,2,0,P|292:184|274:137,1,110,6|10,0:0|0:0,0:0:0:0:
242,114,56411,1,0,0:0:0:0:
242,114,56625,1,10,0:0:0:0:
276,32,57054,1,10,0:0:0:0:
348,81,57482,2,0,L|459:75,1,110,6|10,0:0|0:0,0:0:0:0:
497,56,58125,1,0,0:0:0:0:
497,56,58339,6,0,P|506:146|489:175,1,110,6|10,1:0|0:0,0:0:0:0:
467,191,58982,1,0,0:0:0:0:
467,191,59196,2,0,P|458:281|475:310,1,110,6|10,0:0|0:0,0:0:0:0:
510,371,60054,2,0,L|383:379,1,110,10|10,0:0|0:0,0:0:0:0:
330,323,60911,2,0,P|280:318|253:321,1,55,6|2,0:0|0:2,0:0:0:0:
237,339,61339,2,0,P|187:344|160:341,1,55,8|4,0:2|0:2,0:0:0:0:
141,328,61768,6,0,P|118:265|136:203,1,110,14|2,1:0|0:0,0:0:0:0:
158,195,62411,1,8,0:0:0:0:
158,195,62625,2,0,L|275:186,1,110,6|2,0:0|0:0,0:0:0:0:
305,163,63268,1,8,0:0:0:0:
305,163,63482,2,0,L|391:165,2,55,6|8|10,0:1|0:0|0:0,0:0:0:0:
267,83,64339,2,0,L|126:76,1,110,6|10,0:0|0:0,0:0:0:0:
114,87,64982,1,0,0:0:0:0:
114,87,65196,6,0,P|103:154|125:201,1,110,6|2,1:0|0:0,0:0:0:0:
152,218,65839,1,8,0:0:0:0:
152,218,66054,1,6,0:0:0:0:
237,197,66482,1,2,0:0:0:0:
316,235,66911,2,0,L|416:228,2,55,6|8|10,0:1|0:0|0:0,0:0:0:0:
247,290,67768,2,0,P|242:337|249:359,1,55,6|8,0:0|0:0,0:0:0:0:
280,368,68196,2,0,P|327:373|349:366,1,55,6|4,0:0|0:0,0:0:0:0:
363,339,68625,6,0,P|373:282|370:230,1,110,4|4,1:0|2:0,0:0:0:0:
315,161,69482,2,0,L|189:172,1,110,4|8,2:0|2:0,0:0:0:0:
130,216,70339,2,0,L|4:205,1,110,8|8,2:0|2:0,0:0:0:0:
30,118,71196,2,0,P|87:108|139:111,1,110,8|8,2:0|2:0,0:0:0:0:
205,170,72054,6,0,L|215:299,1,110,6|10,1:0|0:0,0:0:0:0:
297,307,72911,2,0,L|305:197,1,110,10|10,0:0|0:0,0:0:0:0:
329,160,73554,1,0,0:0:0:0:
329,160,73768,2,0,L|327:96,1,55,6|8,0:0|0:0,0:0:0:0:
312,63,74196,1,2,0:2:0:0:
312,63,74411,2,0,P|384:44|459:111,1,165,0|2,0:0|0:2,0:0:0:0:
463,137,75268,1,0,0:0:0:0:
463,137,75482,6,0,L|468:261,1,110,4|2,1:0|0:0,0:0:0:0:
454,288,76118,1,0,0:0:0:0:
454,288,76330,2,0,P|420:294|379:285,1,55,4|2,0:0|0:0,0:0:0:0:
367,262,76754,2,0,P|333:256|292:265,1,55,4|12,0:0|0:0,0:0:0:0:
248,317,77390,1,4,0:0:0:0:
248,317,77602,2,0,P|174:329|125:308,1,110,12|8,0:0|0:1,0:0:0:0:
80,256,78450,1,2,0:1:0:0:
133,186,78874,6,0,L|145:41,1,110,8|2,1:0|0:0,0:0:0:0:
168,41,79512,1,0,0:0:0:0:
168,41,79725,2,0,P|206:35|245:49,1,55,4|2,0:0|0:0,0:0:0:0:
256,65,80150,2,0,L|268:143,1,55,4|12,0:0|0:0,0:0:0:0:
330,177,80788,1,4,0:0:0:0:
330,177,81001,2,0,P|385:174|430:132,1,110,12|4,0:0|0:0,0:0:0:0:
465,61,81852,2,0,P|487:76|503:99,1,55,4|12,0:0|0:0,0:0:0:0:
507,143,82278,6,0,L|495:268,1,110,4|2,1:0|0:0,0:0:0:0:
469,287,82911,1,0,0:0:0:0:
469,287,83123,2,0,P|443:283|373:283,1,55,4|2,0:0|0:0,0:0:0:0:
376,302,83545,2,0,P|350:306|280:306,1,55,4|12,0:0|0:0,0:0:0:0:
245,276,84179,1,4,0:0:0:0:
245,276,84390,2,0,L|249:164,1,110,12|8,0:0|0:1,0:0:0:0:
222,82,85235,1,2,0:1:0:0:
151,135,85658,6,0,P|88:148|34:128,1,110,4|2,1:0|0:0,0:0:0:0:
15,102,86292,1,0,0:0:0:0:
15,102,86503,2,0,L|18:176,1,55,4|2,0:0|0:0,0:0:0:0:
17,200,86925,2,0,L|14:274,1,55,4|12,0:0|0:0,0:0:0:0:
75,318,87559,1,4,0:0:0:0:
75,318,87770,2,0,P|142:332|191:307,1,110,12|4,0:0|2:0,0:0:0:0:
215,292,88404,1,4,2:0:0:0:
215,292,88616,2,0,P|255:285|287:287,1,55,4|8,0:0|0:0,0:0:0:0:
