osu file format v14

[General]
AudioFilename: audio.mp3
AudioLeadIn: 0
PreviewTime: 49667
Countdown: 0
SampleSet: Soft
StackLeniency: 0.7
Mode: 0
LetterboxInBreaks: 0
WidescreenStoryboard: 1

[Editor]
Bookmarks: 5573,16607,38676,49711,71780,77297,77685,78030,78374,78719,79064,79409,79754,80099,80443,80788,81133,81478,81823,82167,82512,82857,83202,83547,83892,84236,84581,84926,85271,85616,85961,86305,86650,86995,87340,87685,88030,88331,91090,110400,121435,143504,154538
DistanceSpacing: 1
BeatDivisor: 4
GridSize: 4
TimelineZoom: 1.600001

[Metadata]
Title:Yoru no Jihanki
TitleUnicode:夜の自販機
Artist:EMA x sekai
ArtistUnicode:EMA × sekai
Creator:seros
Version:Patchouli-R's Hard
Source:
Tags:可不 kafu にほしか nihoshika cover xfff__o 柚璃遥 Yuzuri hal さんかくずわり Sankaku zuwari rei sirose dustcell japanese j-pop jpop pop female vocal Teages ttmnzk TT mouse S_Saika Patchouli-R
BeatmapID:3904228
BeatmapSetID:1871812

[Difficulty]
HPDrainRate:5
CircleSize:3.5
OverallDifficulty:7
ApproachRate:8
SliderMultiplier:1.4
SliderTickRate:1

[Events]
//Background and Video events
0,0,"bg1.jpg",0,0
Video,-60,"vid.mp4"
//Break Periods
2,77540,87624
//Storyboard Layer 0 (Background)
//Storyboard Layer 1 (Fail)
//Storyboard Layer 2 (Pass)
//Storyboard Layer 3 (Foreground)
//Storyboard Layer 4 (Overlay)
//Storyboard Sound Samples

[TimingPoints]
99,344.827586206897,4,2,0,69,1,0
5271,-100,4,2,6,50,0,0
5443,-100,4,2,8,50,0,0
5616,-100,4,2,5,50,0,0
5961,-100,4,2,6,50,0,0
10099,-100,4,2,1,50,0,0
11133,-100,4,2,6,40,0,0
15271,-100,4,2,1,50,0,0
15443,-100,4,2,1,50,0,0
16305,-100,4,2,8,50,0,0
16650,-100,4,2,1,75,0,0
37426,-100,4,2,1,15,0,0
37685,-100,4,2,1,75,0,0
37771,-100,4,2,1,15,0,0
38030,-100,4,2,1,75,0,0
38116,-100,4,2,1,15,0,0
38375,-100,4,2,1,55,0,0
38719,-117.647058823529,4,2,1,55,0,0
44323,-117.647058823529,4,2,1,15,0,0
44754,-117.647058823529,4,2,1,60,0,0
44840,-117.647058823529,4,2,1,15,0,0
45099,-117.647058823529,4,2,1,60,0,0
45530,-117.647058823529,4,2,1,15,0,0
45788,-117.647058823529,4,2,1,60,0,0
46995,-117.647058823529,4,2,1,75,0,0
47512,-117.647058823529,4,2,1,38,0,0
48030,-117.647058823529,4,2,1,30,0,0
48892,-117.647058823529,4,2,1,20,0,0
49754,-86.9565217391304,4,2,4,70,0,1
77340,-100,4,2,8,70,0,0
78202,-100,4,2,5,70,0,0
80099,-100,4,2,8,70,0,0
80961,-100,4,2,5,70,0,0
82857,-100,4,2,8,70,0,0
83202,-100,4,2,1,70,0,0
83288,-100,4,2,8,70,0,0
83719,-100,4,2,5,70,0,0
85616,-100,4,2,8,70,0,0
85961,-100,4,2,1,70,0,0
86047,-100,4,2,8,70,0,0
86478,-100,4,2,5,70,0,0
87167,-100,4,2,1,70,0,0
88374,-117.647058823529,4,2,9,70,0,0
90616,-117.647058823529,4,2,10,70,0,0
90788,-117.647058823529,4,2,9,70,0,0
90961,-117.647058823529,4,2,6,70,0,0
91133,-100,4,2,6,70,0,0
109150,-100,4,2,6,15,0,0
109409,-100,4,2,6,70,0,0
109495,-100,4,2,6,15,0,0
109581,-100,4,2,9,70,0,0
110443,-117.647058823529,4,2,9,70,0,0
114581,-117.647058823529,4,2,6,70,0,0
114754,-117.647058823529,4,2,9,70,0,0
115271,-117.647058823529,4,2,6,70,0,0
116047,-117.647058823529,4,2,6,15,0,0
116478,-117.647058823529,4,2,6,70,0,0
116564,-117.647058823529,4,2,6,15,0,0
116823,-117.647058823529,4,2,6,70,0,0
117253,-117.647058823529,4,2,6,15,0,0
117512,-117.647058823529,4,2,6,70,0,0
119409,-117.647058823529,4,2,6,55,0,0
120099,-117.647058823529,4,2,6,50,0,0
120616,-117.647058823529,4,2,5,45,0,0
120788,-117.647058823529,4,2,4,70,0,0
121133,-117.647058823529,4,2,4,55,0,0
121305,-117.647058823529,4,2,4,35,0,0
121478,-86.9565217391304,4,2,4,80,0,1
147685,-86.9565217391304,4,2,5,70,0,1
154236,-86.9565217391304,4,2,6,50,0,1
154408,-86.9565217391304,4,2,8,50,0,1
154581,-117.647058823529,4,2,5,50,0,0
154926,-117.647058823529,4,2,6,50,0,0
159064,-117.647058823529,4,2,1,50,0,0
160098,-117.647058823529,4,2,6,40,0,0
164236,-117.647058823529,4,2,1,50,0,0
165270,-117.647058823529,4,2,8,50,0,0
165615,-117.647058823529,4,2,1,75,0,0

[Colours]
Combo1 : 145,145,145
Combo2 : 225,225,225
Combo3 : 159,159,208
Combo4 : 184,227,183

[HitObjects]
58,54,15443,5,0,3:2:0:0:
142,54,15616,2,0,L|196:39,2,35,0|0|0,3:2|3:2|3:2,0:0:0:0:
98,126,15961,1,0,3:0:0:0:
90,150,16047,1,2,2:3:0:0:
82,174,16133,2,0,L|48:182,2,35,2|2|2,2:3|2:3|0:0,0:0:0:0:
155,216,16478,1,0,0:0:0:0:
207,125,16650,38,0,P|265:88|334:89,1,140,2|8,3:2|0:0,0:0:0:0:
393,148,17167,1,2,0:0:0:0:
473,122,17340,2,0,P|510:180|509:249,1,140,0|8,0:0|0:0,0:0:0:0:
466,322,17857,1,0,0:0:0:0:
393,278,18030,38,0,L|325:297,1,70,0|0,0:0|3:0,0:0:0:0:
305,378,18374,2,0,L|237:360,1,70,8|0,0:0|0:0,0:0:0:0:
194,287,18719,1,0,0:0:0:0:
213,205,18892,1,0,3:0:0:0:
298,143,19064,6,0,P|238:107|169:108,1,140,8|2,0:0|3:2,0:0:0:0:
3,133,19754,2,0,P|0:63|35:4,1,140,8|0,0:0|0:0,0:0:0:0:
120,5,20271,1,0,3:0:0:0:
162,77,20443,2,0,L|229:95,1,70,8|0,0:0|0:0,0:0:0:0:
271,168,20788,37,0,0:0:0:0:
191,315,21133,2,0,L|210:383,1,70,8|0,0:0|3:0,0:0:0:0:
116,357,21478,1,0,3:0:0:0:
52,301,21650,2,0,L|14:290,3,23.3333333333333,2|2|2|8,2:3|2:3|2:3|0:0,2:2:0:0:
87,224,21995,1,0,0:0:0:0:
172,229,22167,6,0,L|245:209,1,70,2|0,3:2|0:0,0:0:0:0:
261,129,22512,1,8,0:0:0:0:
342,148,22684,1,2,0:0:0:0:
318,67,22857,2,0,P|374:30|444:32,1,140,0|8,0:0|0:0,0:0:0:0:
506,92,23374,1,0,0:0:0:0:
444,150,23547,6,0,L|462:218,1,70,0|0,0:0|3:0,0:0:0:0:
380,239,23892,2,0,L|361:306,1,70,8|0,0:0|0:0,0:0:0:0:
289,348,24236,1,0,0:0:0:0:
289,179,24581,2,0,P|236:175|190:203,1,105,8|0,0:0|0:0,0:0:0:0:
167,203,24926,6,0,L|147:270,1,70,2|0,3:2|0:0,0:0:0:0:
62,270,25271,2,0,P|25:211|26:142,1,140,8|0,0:0|0:0,0:0:0:0:
68,69,25788,1,0,3:0:0:0:
141,111,25961,38,0,L|226:88,2,70,0|8|0,0:0|0:0|0:0,0:0:0:0:
62,270,26650,1,8,0:0:0:0:
138,306,26823,2,0,L|128:339,3,35,0|0|2|2,3:0|0:0|2:3|2:3,0:0:0:0:
142,358,27167,2,0,L|219:337,1,70,8|8,0:0|0:0,0:0:0:0:
284,377,27512,1,2,2:3:0:0:
389,377,27685,38,0,P|426:319|425:250,1,140,0|8,3:0|0:0,0:0:0:0:
484,190,28202,1,0,0:0:0:0:
460,108,28375,2,0,P|402:71|333:72,1,140,0|8,0:0|0:0,0:0:0:0:
259,114,28892,1,0,0:0:0:0:
259,198,29064,6,0,L|191:217,1,70,0|0,0:0|3:0,0:0:0:0:
170,298,29409,2,0,L|102:280,1,70,8|0,0:0|0:0,0:0:0:0:
60,207,29754,1,0,0:0:0:0:
80,123,29927,1,0,3:0:0:0:
35,24,30099,38,0,P|104:22|163:58,1,140,8|0,0:0|3:0,0:0:0:0:
247,203,30788,2,0,L|332:226,2,70,8|0|0,0:0|0:0|0:0,0:0:0:0:
204,130,31305,1,0,3:0:0:0:
120,130,31478,2,0,L|98:211,1,70,0|8,0:0|0:0,0:0:0:0:
28,239,31823,5,0,0:0:0:0:
146,357,32167,2,0,L|238:332,1,70,8|0,0:0|3:0,0:0:0:0:
170,265,32513,1,0,0:0:0:0:
227,208,32685,2,0,L|217:169,3,23.3333333333333,2|2|2|8,2:3|2:3|2:3|0:0,0:0:0:0:
304,235,33030,1,2,2:3:0:0:
294,317,33202,38,0,P|363:315|421:350,1,140,0|8,3:0|0:0,0:0:0:0:
495,308,33719,1,0,0:0:0:0:
452,235,33892,2,0,P|450:165|485:107,1,140,0|8,0:0|0:0,0:0:0:0:
426,46,34409,1,0,0:0:0:0:
368,107,34582,6,0,L|290:127,1,70,0|0,0:0|3:0,0:0:0:0:
279,205,34926,2,0,L|201:184,1,70,8|0,0:0|0:0,0:0:0:0:
129,208,35271,1,0,0:0:0:0:
104,125,35444,1,0,3:0:0:0:
16,62,35616,38,0,P|74:25|143:27,1,140,8|0,0:0|3:0,0:0:0:0:
288,110,36305,2,0,L|365:89,2,70,8|0|0,0:0|0:0|0:0,0:0:0:0:
245,183,36823,1,0,3:0:0:0:
288,255,36995,2,0,L|266:336,1,70,2|8,2:3|0:0,0:0:0:0:
197,365,37340,5,0,3:0:0:0:
181,337,37685,1,0,3:0:0:0:
165,309,38030,2,0,P|107:272|38:273,1,140,0|0,3:0|0:0,0:0:0:0:
38,131,38719,38,0,L|162:97,1,119.000002269745,0|8,3:0|0:0,0:0:0:0:
192,32,39236,1,0,3:0:0:0:
192,32,39409,2,0,L|316:65,1,119.000002269745,0|8,3:0|0:0,0:0:0:0:
348,128,39926,1,0,3:0:0:0:
264,213,40271,1,0,3:0:0:0:
295,333,40616,1,0,3:0:0:0:
295,333,40788,2,0,L|419:366,1,119.000002269745,0|8,3:0|0:0,0:0:0:0:
465,308,41305,1,2,2:3:0:0:
465,308,41478,38,0,L|435:193,1,119.000002269745,0|8,3:0|0:0,0:0:0:0:
367,153,41995,1,0,3:0:0:0:
367,153,42167,2,0,L|398:38,1,119.000002269745,0|8,3:0|0:0,0:0:0:0:
466,0,42685,1,0,3:0:0:0:
497,114,43030,1,0,3:0:0:0:
429,212,43374,1,0,3:0:0:0:
429,212,43547,2,0,L|372:227,2,59.5000011348725,0|2|8,3:0|2:3|0:0,0:0:0:0:
409,136,44064,1,2,2:3:0:0:
409,136,44236,38,0,P|349:132|299:163,1,119.000002269745,2|0,3:2|0:0,0:0:0:0:
261,229,44754,1,2,3:2:0:0:
245,257,45443,1,2,3:2:0:0:
214,141,45788,1,2,3:2:0:0:
98,167,46133,2,0,L|52:154,2,29.7500005674362,0|0|0,3:3|3:3|3:0,0:0:0:0:
142,231,46478,2,0,P|145:290|115:340,1,119.000002269745,0|0,3:0|0:0,0:0:0:0:
186,307,46995,22,0,P|246:304|296:334,1,119.000002269745,0|8,3:0|0:0,0:0:0:0:
364,295,47512,1,2,3:3:0:0:
364,295,47685,2,0,L|385:217,1,59.5000011348725,2|2,3:3|2:3,0:0:0:0:
432,179,48030,2,0,L|467:169,2,29.7500005674362,2|2|2,2:3|3:3|3:3,0:0:0:0:
356,163,48374,1,0,0:0:0:0:
36,100,49754,38,0,L|136:73,1,80.5000015354157,4|0,3:2|0:0,0:0:0:0:
176,16,50099,1,8,0:0:0:0:
264,36,50271,1,0,0:0:0:0:
237,120,50443,2,0,L|263:220,1,80.5000015354157,0|0,3:0|0:0,0:0:0:0:
234,283,50788,1,8,0:0:0:0:
296,347,50961,1,0,3:0:0:0:
357,283,51133,38,0,L|434:262,1,80.5000015354157,0|0,0:0|3:0,0:0:0:0:
479,185,51478,2,0,P|481:105|439:38,1,161.000003070831,10|0,0:0|3:0,0:0:0:0:
355,61,51995,1,0,3:0:0:0:
355,61,52167,6,0,P|287:18|208:21,1,161.000003070831,10|0,0:0|3:0,0:0:0:0:
239,197,52857,1,10,0:0:0:0:
164,122,53030,1,0,3:0:0:0:
137,222,53202,1,2,0:0:0:0:
62,147,53375,1,8,3:2:0:0:
35,248,53547,2,0,L|56:324,1,80.5000015354157,2|8,0:0|3:2,0:0:0:0:
133,370,53892,37,0,0:0:0:0:
208,324,54064,2,0,L|286:344,1,80.5000015354157,2|10,3:2|0:0,0:0:0:0:
362,299,54409,1,2,3:3:0:0:
389,291,54495,1,2,2:3:0:0:
416,283,54581,2,0,L|486:302,2,40.2500007677078,2|2|0,2:3|2:3|3:0,0:0:0:0:
367,208,54926,2,0,P|366:168|387:134,1,80.5000015354157,8|0,0:0|3:0,0:0:0:0:
341,57,55271,38,0,L|264:36,1,80.5000015354157,2|0,3:2|0:0,0:0:0:0:
186,80,55616,1,8,0:0:0:0:
102,104,55788,1,0,0:0:0:0:
126,188,55961,2,0,P|130:267|88:335,1,161.000003070831,2|8,0:0|0:0,0:0:0:0:
169,294,56478,1,0,3:0:0:0:
169,294,56650,6,0,P|249:290|317:332,1,161.000003070831,2|8,0:0|0:0,0:0:0:0:
409,332,57167,1,0,0:0:0:0:
409,332,57340,2,0,L|433:243,1,80.5000015354157,2|2,3:2|3:3,0:0:0:0:
405,240,57599,1,2,2:3:0:0:
380,226,57685,2,0,L|359:148,1,80.5000015354157,8|8,0:0|0:0,0:0:0:0:
282,103,58030,37,0,3:0:0:0:
206,148,58202,1,0,0:0:0:0:
129,103,58374,1,8,0:0:0:0:
206,10,58546,1,0,0:0:0:0:
282,103,58719,1,0,3:0:0:0:
359,59,58892,2,0,L|437:79,1,80.5000015354157,2|2,3:2|0:0,0:0:0:0:
480,155,59236,1,8,0:0:0:0:
460,241,59409,5,0,0:0:0:0:
373,221,59581,2,0,L|285:244,1,80.5000015354157,0|8,3:0|0:0,0:0:0:0:
250,318,59926,1,8,0:0:0:0:
223,310,60012,1,2,2:3:0:0:
196,302,60099,2,0,L|157:312,2,40.2500007677078,2|2|8,2:3|2:3|0:0,0:0:0:0:
134,226,60443,2,0,P|135:186|114:152,1,80.5000015354157,8|8,3:2|0:0,0:0:0:0:
28,129,60788,21,4,3:2:0:0:
47,42,60961,1,0,0:0:0:0:
135,62,61133,2,0,L|213:41,1,80.5000015354157,8|0,0:0|0:0,0:0:0:0:
235,126,61478,1,0,3:0:0:0:
320,146,61650,1,0,0:0:0:0:
293,230,61823,2,0,L|314:308,1,80.5000015354157,8|0,0:0|3:0,0:0:0:0:
390,351,62167,6,0,L|468:330,1,80.5000015354157,0|0,0:0|3:0,0:0:0:0:
511,253,62512,2,0,P|513:173|470:106,1,161.000003070831,10|0,0:0|3:0,0:0:0:0:
384,129,63030,1,0,3:0:0:0:
385,129,63202,38,0,P|317:86|238:92,1,161.000003070831,10|0,0:0|3:0,0:0:0:0:
271,267,63892,1,10,0:0:0:0:
180,214,64064,1,0,3:0:0:0:
128,304,64236,2,0,L|89:314,1,40.2500007677078,2|2,2:3|2:3,0:0:0:0:
69,334,64408,1,2,2:3:0:0:
16,242,64581,2,0,L|36:164,1,80.5000015354157,2|8,3:2|0:0,0:0:0:0:
12,78,64926,5,0,0:0:0:0:
97,101,65099,2,0,L|175:80,1,80.5000015354157,2|8,3:2|0:0,0:0:0:0:
218,2,65443,1,0,3:3:0:0:
245,10,65529,1,2,2:3:0:0:
272,18,65616,2,0,L|310:7,2,40.2500007677078,2|2|2,2:3|2:3|3:3,0:0:0:0:
311,97,65960,2,0,P|331:130|330:170,1,80.5000015354157,8|0,0:0|0:0,0:0:0:0:
267,233,66305,6,0,P|265:313|306:380,1,161.000003070831,2|8,3:2|0:0,0:0:0:0:
385,336,66822,1,0,3:0:0:0:
385,336,66995,2,0,L|463:315,1,80.5000015354157,2|0,0:0|3:0,0:0:0:0:
507,238,67340,1,8,0:0:0:0:
463,161,67512,1,0,3:0:0:0:
372,213,67685,37,2,3:2:0:0:
294,142,67857,1,0,0:0:0:0:
337,46,68030,1,8,0:0:0:0:
441,58,68202,1,0,0:0:0:0:
463,161,68374,2,0,L|374:184,1,80.5000015354157,2|2,3:2|2:3,0:0:0:0:
362,267,68719,1,8,0:0:0:0:
276,241,68892,1,8,0:0:0:0:
253,326,69064,6,0,L|175:346,1,80.5000015354157,2|0,3:2|0:0,0:0:0:0:
112,283,69408,1,0,3:0:0:0:
26,261,69580,1,8,0:0:0:0:
45,173,69754,2,0,L|14:60,1,80.5000015354157,2|10,0:0|0:0,0:0:0:0:
86,32,70099,2,0,L|199:62,1,80.5000015354157,2|8,0:0|0:0,0:0:0:0:
208,128,70443,38,2,P|287:127|354:170,1,161.000003070831,2|2,2:3|3:3,2:2:0:0:
291,234,70961,1,2,2:3:0:0:
284,261,71047,1,2,2:3:0:0:
276,288,71133,1,8,3:2:0:0:
232,364,71305,1,8,3:2:0:0:
320,364,71478,2,0,L|405:386,1,80.5000015354157,8|8,0:0|0:0,0:0:0:0:
474,340,71823,6,0,P|514:271|512:192,1,161.000003070831,12|10,3:2|0:0,0:0:0:0:
460,101,72339,1,0,3:0:0:0:
460,101,72512,2,0,L|382:80,1,80.5000015354157,0|0,3:0|3:0,0:0:0:0:
396,184,72857,2,0,L|318:163,1,80.5000015354157,10|0,0:0|0:0,0:0:0:0:
257,58,73202,38,0,P|176:56|109:98,1,161.000003070831,0|10,0:0|0:0,0:0:0:0:
57,188,73719,1,10,0:0:0:0:
57,188,73892,2,0,L|77:266,1,80.5000015354157,0|10,3:0|0:0,0:0:0:0:
161,202,74237,2,0,L|181:280,1,80.5000015354157,0|10,0:0|0:0,0:0:0:0:
258,323,74581,6,0,L|335:302,1,80.5000015354157,2|0,3:2|0:0,0:0:0:0:
380,224,74926,1,8,0:0:0:0:
465,247,75099,1,0,0:0:0:0:
487,333,75271,2,0,L|409:353,1,80.5000015354157,0|2,3:2|3:2,0:0:0:0:
335,301,75616,2,0,L|257:280,1,80.5000015354157,10|8,0:2|0:0,0:0:0:0:
212,108,76133,1,0,3:0:0:0:
204,77,76305,1,0,3:0:0:0:
196,46,76478,1,0,3:0:0:0:
216,11,76650,2,0,P|136:8|69:49,1,161.000003070831,0|0,3:0|0:0,0:0:0:0:
68,49,77340,21,2,3:2:0:0:
81,53,88374,22,0,L|212:17,1,119.000002269745,0|0,3:0|0:0,0:0:0:0:
265,61,88892,1,0,3:0:0:0:
221,129,89064,2,0,L|335:98,1,119.000002269745,0|0,3:0|0:0,0:0:0:0:
405,137,89582,1,0,3:0:0:0:
337,177,89754,6,0,P|335:235|368:284,2,119.000002269745,0|0|0,3:0|3:0|3:0,0:0:0:0:
441,117,90616,1,8,3:2:0:0:
381,13,90788,1,8,3:2:0:0:
277,73,90961,1,8,3:2:0:0:
337,177,91133,38,0,L|422:200,2,70,0|0|8,3:0|0:0|3:2,0:0:0:0:
265,221,91650,1,0,0:0:0:0:
265,305,91823,2,0,L|184:327,1,70,2|0,2:3|3:0,0:0:0:0:
125,365,92167,2,0,L|44:342,1,70,8|0,0:0|0:0,0:0:0:0:
17,273,92512,5,0,0:0:0:0:
85,119,92857,2,0,L|102:186,1,70,8|2,0:0|0:2,0:0:0:0:
183,209,93202,1,0,3:2:0:0:
239,145,93374,1,8,0:0:0:0:
215,65,93547,2,0,P|259:38|311:41,1,105,8|0,0:0|0:0,0:0:0:0:
323,19,93892,38,0,P|391:15|450:51,1,140,0|8,3:0|0:0,0:0:0:0:
493,124,94409,1,0,0:0:0:0:
418,161,94581,2,0,P|422:229|386:288,1,140,0|8,0:0|0:0,0:0:0:0:
386,373,95098,1,0,0:0:0:0:
313,330,95271,6,0,L|231:309,1,70,0|0,0:0|3:0,0:0:0:0:
203,239,95616,2,0,L|221:171,1,70,8|0,0:0|0:0,0:0:0:0:
293,129,95960,1,0,0:0:0:0:
174,9,96305,2,0,P|122:7|78:35,1,105,8|0,0:0|0:0,0:0:0:0:
53,35,96650,38,0,L|29:123,1,70,0|0,3:0|0:0,0:0:0:0:
117,124,96996,2,0,L|136:191,1,70,8|0,0:0|0:0,0:0:0:0:
208,233,97340,1,0,0:0:0:0:
280,191,97512,2,0,L|368:214,2,70,0|0|8,3:0|0:0|0:0,0:0:0:0:
238,117,98030,5,0,0:0:0:0:
280,44,98202,1,2,3:2:0:0:
303,37,98288,1,2,2:3:0:0:
328,36,98374,2,0,L|378:49,3,35,8|0|8|0,0:2|0:0|0:0|0:0,0:0:0:0:
382,57,98719,1,8,0:0:0:0:
426,219,99064,1,0,0:0:0:0:
344,236,99236,1,0,0:0:0:0:
322,317,99409,6,0,P|263:354|195:352,1,140,0|8,3:0|0:0,0:0:0:0:
122,309,99926,1,0,0:0:0:0:
122,225,100099,2,0,L|189:206,2,70,0|0|8,0:0|3:0|0:0,0:0:0:0:
49,183,100616,1,0,0:0:0:0:
49,99,100788,6,0,L|130:77,1,70,0|0,0:0|3:0,0:0:0:0:
138,0,101133,2,0,L|208:17,1,70,8|0,0:0|0:0,0:0:0:0:
248,89,101478,1,0,0:0:0:0:
205,251,101823,1,8,0:0:0:0:
286,230,101995,1,0,0:0:0:0:
305,312,102168,38,0,L|397:336,1,70,0|0,3:2|0:0,0:0:0:0:
445,287,102512,2,0,L|466:368,2,70,8|0|0,0:0|0:0|0:0,0:0:0:0:
488,214,103029,1,0,3:0:0:0:
445,141,103202,2,0,L|367:121,1,70,0|8,0:0|0:0,0:0:0:0:
304,166,103547,5,0,0:0:0:0:
220,20,103892,2,0,L|123:47,1,70,8|10,0:0|3:2,0:0:0:0:
139,60,104150,1,2,2:3:0:0:
127,82,104236,2,0,L|93:74,2,35,2|0|8,3:3|0:0|3:2,0:0:0:0:
149,163,104581,1,2,2:3:0:0:
229,137,104754,1,8,0:0:0:0:
288,195,104926,38,0,L|369:173,2,70,0|0|8,3:0|0:0|0:0,0:0:0:0:
246,268,105443,1,0,0:0:0:0:
288,341,105616,2,0,P|229:377|160:375,1,140,0|8,0:0|0:0,0:0:0:0:
87,333,106133,1,0,0:0:0:0:
124,258,106305,6,0,L|106:190,1,70,0|0,0:0|3:0,0:0:0:0:
24,168,106650,2,0,L|42:100,1,70,8|0,0:0|0:0,0:0:0:0:
1,27,106995,1,0,0:0:0:0:
169,27,107340,2,0,L|236:45,1,70,8|0,0:0|0:0,0:0:0:0:
279,118,107685,38,0,L|360:97,2,70,0|0|8,3:0|0:0|0:0,0:0:0:0:
237,191,108202,1,0,0:0:0:0:
279,264,108374,2,0,L|371:289,1,70,0|0,0:0|3:0,0:0:0:0:
368,363,108719,2,0,L|460:339,1,70,0|8,0:0|3:2,0:0:0:0:
478,272,109064,5,0,3:0:0:0:
469,240,109409,1,0,3:0:0:0:
461,209,109754,2,0,P|402:171|333:173,1,140,0|0,3:0|0:0,0:0:0:0:
363,312,110443,22,0,L|239:278,1,119.000002269745,0|2,3:0|0:2,0:0:0:0:
179,321,110961,1,0,3:0:0:0:
179,321,111133,2,0,L|146:196,1,119.000002269745,0|2,3:0|0:0,0:0:0:0:
187,138,111650,1,0,3:0:0:0:
187,138,111823,1,0,3:0:0:0:
128,34,112167,2,0,L|58:52,1,59.5000011348725,2|0,0:0|3:0,0:0:0:0:
31,116,112512,1,0,3:0:0:0:
97,215,112857,2,0,L|115:146,1,59.5000011348725,2|0,0:0|3:0,0:0:0:0:
187,138,113202,38,0,L|311:104,1,119.000002269745,0|2,3:0|0:0,0:0:0:0:
340,38,113719,1,0,3:0:0:0:
340,38,113892,2,0,L|464:70,1,119.000002269745,0|2,3:0|0:0,0:0:0:0:
494,134,114409,1,0,3:0:0:0:
461,252,114754,1,0,3:0:0:0:
461,252,114926,2,0,L|488:259,2,29.7500005674362,2|2|2,2:2|2:2|2:2,0:0:0:0:
393,213,115271,2,0,L|307:235,1,59.5000011348725,0|8,3:0|0:0,0:0:0:0:
296,294,115616,1,2,2:3:0:0:
236,190,115961,22,0,P|177:188|128:221,1,119.000002269745,0|0,3:0|0:0,0:0:0:0:
60,182,116478,2,0,P|29:232|33:290,1,119.000002269745,0|0,3:0|0:0,0:0:0:0:
117,374,117167,1,0,3:0:0:0:
231,343,117513,1,0,3:0:0:0:
147,259,117857,2,0,L|96:245,2,29.7500005674362,0|0|0,3:0|3:0|3:0,0:0:0:0:
168,184,118202,2,0,P|216:151|275:152,1,119.000002269745,0|0,3:0|0:0,0:0:0:0:
314,218,118719,6,0,P|312:276|344:325,1,119.000002269745,0|8,3:0|0:0,0:0:0:0:
415,368,119237,1,0,3:0:0:0:
415,368,119410,2,0,L|473:351,1,59.5000011348725,2|2,2:3|2:3,0:0:0:0:
493,276,119755,2,0,L|500:247,2,29.7500005674362,2|2|0,2:3|2:3|3:0,0:0:0:0:
418,256,120099,1,2,0:0:0:0:
49,57,121478,22,0,L|144:31,1,80.5000015354157,4|0,3:2|2:3,0:0:0:0:
152,121,121823,1,8,0:0:0:0:
236,145,121995,1,0,0:0:0:0:
212,229,122167,2,0,L|237:324,1,80.5000015354157,0|0,3:3|2:3,0:0:0:0:
295,370,122512,1,8,0:0:0:0:
381,347,122685,1,0,3:0:0:0:
358,261,122857,38,0,L|378:183,1,80.5000015354157,0|0,0:0|3:0,0:0:0:0:
464,160,123202,2,0,P|466:80|423:12,1,161.000003070831,10|0,0:0|3:0,0:0:0:0:
347,57,123720,1,0,3:0:0:0:
347,57,123892,6,0,P|279:14|200:17,1,161.000003070831,10|0,0:0|3:0,0:0:0:0:
231,193,124581,1,10,0:0:0:0:
130,222,124754,1,0,3:0:0:0:
54,294,124926,1,2,0:0:0:0:
22,193,125099,1,8,3:2:0:0:
94,117,125271,2,0,L|113:39,1,80.5000015354157,2|8,0:0|3:2,0:0:0:0:
200,16,125616,37,2,2:3:0:0:
223,101,125788,2,0,L|301:121,1,80.5000015354157,2|10,3:2|0:0,0:0:0:0:
345,198,126133,1,2,3:3:0:0:
372,190,126219,1,2,2:3:0:0:
399,182,126305,2,0,L|437:193,2,40.2500007677078,2|2|0,2:3|2:3|3:0,0:0:0:0:
437,102,126650,2,0,P|457:68|455:29,1,80.5000015354157,8|0,0:0|3:0,0:0:0:0:
368,47,126995,38,0,L|290:26,1,80.5000015354157,2|0,3:2|0:0,0:0:0:0:
227,89,127340,1,8,0:0:0:0:
141,110,127512,1,2,2:3:0:0:
44,53,127685,2,0,P|48:132|6:200,1,161.000003070831,2|8,0:0|0:0,0:0:0:0:
96,180,128202,1,0,3:0:0:0:
96,180,128374,6,0,P|139:247|137:327,1,161.000003070831,2|8,0:0|0:0,0:0:0:0:
218,373,128891,1,0,0:0:0:0:
218,373,129064,2,0,L|307:349,1,80.5000015354157,2|2,3:2|3:3,0:0:0:0:
310,327,129323,1,2,2:3:0:0:
324,302,129409,2,0,L|402:322,1,80.5000015354157,8|8,0:0|0:0,0:0:0:0:
464,260,129753,37,0,3:0:0:0:
439,174,129926,1,0,0:0:0:0:
353,148,130099,1,8,0:0:0:0:
428,54,130271,1,0,0:0:0:0:
353,148,130443,1,0,3:0:0:0:
308,70,130616,2,0,L|231:50,1,80.5000015354157,2|2,3:2|0:0,0:0:0:0:
153,94,130961,1,8,0:0:0:0:
66,112,131133,5,0,0:0:0:0:
86,197,131305,2,0,L|174:220,1,80.5000015354157,0|8,3:0|0:0,0:0:0:0:
208,294,131650,1,8,0:0:0:0:
236,287,131736,1,2,2:3:0:0:
265,279,131823,2,0,L|303:289,2,40.2500007677078,2|2|8,2:3|2:3|0:0,0:0:0:0:
265,190,132167,2,0,P|263:150|284:116,1,80.5000015354157,8|8,3:2|0:0,0:0:0:0:
261,30,132512,21,4,3:2:0:0:
347,7,132685,1,0,0:0:0:0:
370,92,132857,2,0,L|449:113,1,80.5000015354157,8|0,0:0|0:0,0:0:0:0:
511,176,133202,1,0,3:0:0:0:
489,261,133374,1,0,0:0:0:0:
404,239,133547,2,0,L|326:260,1,80.5000015354157,8|0,0:0|3:0,0:0:0:0:
282,337,133892,6,0,L|205:315,1,80.5000015354157,0|0,0:0|3:0,0:0:0:0:
127,358,134236,2,0,P|85:289|88:209,1,161.000003070831,10|0,0:0|3:0,0:0:0:0:
176,187,134754,1,0,3:0:0:0:
176,187,134926,38,0,P|172:107|216:42,1,161.000003070831,10|0,0:0|3:0,0:0:0:0:
352,157,135617,1,10,0:0:0:0:
324,54,135789,1,0,3:0:0:0:
425,28,135961,2,0,L|463:38,1,40.2500007677078,2|2,2:3|2:3,0:0:0:0:
491,32,136133,1,2,2:3:0:0:
464,133,136305,2,0,L|486:218,1,80.5000015354157,2|8,3:2|0:0,0:0:0:0:
440,287,136650,5,0,0:0:0:0:
363,241,136823,2,0,L|286:262,1,80.5000015354157,2|8,3:2|0:0,0:0:0:0:
241,338,137167,1,0,3:3:0:0:
213,330,137254,1,2,2:3:0:0:
185,322,137339,2,0,L|113:338,2,40.2500007677078,2|2|2,2:3|2:3|3:3,0:0:0:0:
185,233,137685,2,0,P|182:193|203:159,1,80.5000015354157,8|0,0:0|0:0,0:0:0:0:
292,159,138030,6,0,P|333:90|331:12,1,161.000003070831,2|8,3:2|0:0,0:0:0:0:
245,32,138547,1,0,3:0:0:0:
245,32,138720,2,0,L|166:11,1,80.5000015354157,2|0,0:0|3:0,0:0:0:0:
105,74,139064,1,8,0:0:0:0:
132,175,139236,1,0,3:0:0:0:
234,203,139409,5,2,3:2:0:0:
160,277,139581,1,0,0:0:0:0:
58,249,139754,1,8,0:0:0:0:
31,148,139926,1,0,0:0:0:0:
105,74,140099,2,0,L|182:94,1,80.5000015354157,2|2,3:2|2:3,0:0:0:0:
245,31,140443,1,8,0:0:0:0:
308,94,140616,1,8,0:0:0:0:
244,156,140788,6,0,L|225:234,1,80.5000015354157,2|0,3:2|0:0,0:0:0:0:
163,297,141132,1,0,3:0:0:0:
226,360,141305,1,8,0:0:0:0:
289,297,141478,2,0,L|375:320,1,80.5000015354157,2|10,0:0|0:0,0:0:0:0:
429,254,141823,2,0,L|399:141,1,80.5000015354157,2|8,0:0|0:0,0:0:0:0:
453,100,142167,38,2,P|385:59|305:63,1,161.000003070831,2|2,2:3|3:3,2:2:0:0:
305,152,142685,1,2,2:3:0:0:
277,160,142771,1,2,2:3:0:0:
249,168,142857,1,8,3:2:0:0:
161,168,143029,1,8,3:2:0:0:
205,244,143201,2,0,L|180:340,1,80.5000015354157,8|8,0:0|0:0,0:0:0:0:
107,366,143547,6,0,P|64:298|63:219,1,161.000003070831,12|10,3:2|0:0,0:0:0:0:
0,136,144063,1,0,3:0:0:0:
0,136,144236,2,0,L|78:115,1,80.5000015354157,0|0,3:0|3:0,0:0:0:0:
14,32,144581,2,0,L|92:11,1,80.5000015354157,10|0,0:0|3:0,0:0:0:0:
196,72,144926,38,0,P|277:70|344:112,1,161.000003070831,0|10,0:0|0:0,0:0:0:0:
274,179,145443,1,10,0:0:0:0:
274,179,145616,2,0,L|253:257,1,80.5000015354157,0|10,3:0|0:0,0:0:0:0:
357,243,145961,2,0,L|336:321,1,80.5000015354157,0|10,0:0|0:0,0:0:0:0:
399,383,146305,6,0,L|476:363,1,80.5000015354157,2|0,3:2|0:0,0:0:0:0:
453,277,146650,1,8,0:0:0:0:
512,212,146822,1,0,0:0:0:0:
449,149,146995,2,0,L|370:169,1,80.5000015354157,0|2,3:2|3:2,0:0:0:0:
327,247,147340,2,0,L|248:227,1,80.5000015354157,10|8,0:2|0:0,0:0:0:0:
172,271,147685,38,0,P|132:202|134:122,1,161.000003070831
110,36,148202,2,0,L|55:21,2,40.2500007677078
195,59,148547,1,8,3:2:0:0:
223,51,148633,1,2,2:3:0:0:
251,43,148719,1,8,0:0:0:0:
327,87,148891,1,8,0:0:0:0:
283,164,149064,38,0,P|279:223|308:275,1,120.750002303124,12|0,0:0|0:0,0:0:0:0:
313,308,149409,1,8,0:0:0:0:
313,308,149581,1,0,0:0:0:0:
403,360,149754,2,0,L|481:339,1,80.5000015354157,0|8,0:0|0:0,0:0:0:0:
417,256,150099,2,0,L|495:235,1,80.5000015354157,8|8,0:0|0:0,0:0:0:0:
419,111,150443,38,0,P|359:108|307:137,1,120.750002303124
279,137,150788,1,8,0:0:0:0:
279,137,150960,1,8,0:0:0:0:
279,242,151133,2,0,L|258:320,1,80.5000015354157,0|0,3:0|0:0,0:0:0:0:
175,256,151478,2,0,L|154:334,1,80.5000015354157,0|8,0:0|0:0,0:0:0:0:
71,269,151823,6,0,L|91:191,1,80.5000015354157,0|0,3:0|0:0,0:0:0:0:
47,114,152168,1,8,0:0:0:0:
109,52,152341,1,0,0:0:0:0:
194,77,152513,2,0,L|172:154,1,80.5000015354157,8|2,3:2|3:2,0:0:0:0:
91,192,152858,2,0,L|111:270,1,80.5000015354157,8|8,0:0|0:0,0:0:0:0:
284,315,153375,1,0,3:0:0:0:
314,323,153547,1,0,3:0:0:0:
345,332,153720,1,0,3:0:0:0:
366,366,153892,2,0,P|408:298|406:219,1,161.000003070831,0|0,3:0|0:0,0:0:0:0:
406,219,154581,38,0,P|356:186|298:187,1,119.000002269745,2|0,0:0|0:0,0:0:0:0:
231,224,155098,1,0,0:0:0:0:
215,252,155788,2,0,L|185:138,1,119.000002269745
117,97,156305,1,0,0:0:0:0:
133,69,156995,1,0,0:0:0:0:
248,39,157340,6,0,P|306:37|355:70,1,119.000002269745
395,135,157857,1,0,0:0:0:0:
379,163,158547,1,0,0:0:0:0:
399,238,158719,5,0,0:0:0:0:
