osu file format v14

[General]
AudioFilename: audio.mp3
AudioLeadIn: 0
PreviewTime: 184013
Countdown: 0
SampleSet: Soft
StackLeniency: 0.4
Mode: 0
LetterboxInBreaks: 0
WidescreenStoryboard: 0

[Editor]
DistanceSpacing: 1.3
BeatDivisor: 2
GridSize: 32
TimelineZoom: 1.1

[Metadata]
Title:Shinsekai
TitleUnicode:新世界
Artist:EMA
ArtistUnicode:EMA
Creator:SMOKELIND
Version:I
Source:
Tags:sirose rei 白瀬玲 DUSTCELL EM A Kudou Chitose 久遠千歳 Kudo vtuber youtube virtual youtuber Japanese Pop Pepekcz Elinor [_Eli_] Eli 哆啦小熙 RADWIMPS
BeatmapID:2814772
BeatmapSetID:1360189

[Difficulty]
HPDrainRate:5.4
CircleSize:4.2
OverallDifficulty:7.7
ApproachRate:9
SliderMultiplier:3.46999990463257
SliderTickRate:1

[Events]
//Background and Video events
0,0,"84103336_p0.jpg",0,0
//Break Periods
2,142880,152746
2,183013,184680
//Storyboard Layer 0 (Background)
//Storyboard Layer 1 (Fail)
//Storyboard Layer 2 (Pass)
//Storyboard Layer 3 (Foreground)
//Storyboard Layer 4 (Overlay)
//Storyboard Sound Samples

[TimingPoints]
1347,666.666666666667,4,2,77,47,1,0
1680,-212.765957446809,4,2,77,47,0,0
11930,-212.765957446809,4,2,77,5,0,0
12013,-129.87012987013,4,2,77,77,0,0
12263,-212.765957446809,4,2,77,5,0,0
12347,-129.87012987013,4,2,77,77,0,0
14597,-212.765957446809,4,2,77,5,0,0
14680,-129.87012987013,4,2,77,77,0,0
17263,-212.765957446809,4,2,77,5,0,0
17347,-129.87012987013,4,2,77,77,0,0
17597,-212.765957446809,4,2,77,5,0,0
17680,-129.87012987013,4,2,77,77,0,0
19930,-212.765957446809,4,2,77,5,0,0
20013,-129.87012987013,4,2,77,77,0,0
20930,-212.765957446809,4,2,77,5,0,0
21013,-129.87012987013,4,2,77,77,0,0
22930,-212.765957446809,4,2,77,5,0,0
23013,-129.87012987013,4,2,77,77,0,0
25347,-129.87012987013,4,2,77,77,0,0
41347,-129.87012987013,4,2,77,77,0,0
42430,-212.765957446809,4,2,77,5,0,0
42513,-129.87012987013,4,2,77,77,0,0
42680,-212.765957446809,4,2,77,47,0,0
44013,-129.87012987013,4,2,77,77,0,0
44263,-212.765957446809,4,2,77,5,0,0
44347,-129.87012987013,4,2,77,77,0,0
48013,-212.765957446809,4,2,77,47,0,0
49347,-129.87012987013,4,2,77,77,0,0
49597,-212.765957446809,4,2,77,5,0,0
49680,-129.87012987013,4,2,77,77,0,0
54930,-212.765957446809,4,2,77,5,0,0
55013,-129.87012987013,4,2,77,77,0,0
60013,-129.87012987013,4,2,77,77,0,0
61847,-370.370370370372,4,2,77,77,0,0
62597,-212.765957446809,4,2,77,5,0,0
62680,-114.942528735632,4,2,77,77,0,0
63013,-114.942528735632,4,2,77,77,0,0
63097,-212.765957446809,4,2,77,5,0,0
63180,-114.942528735632,4,2,77,77,0,0
63430,-212.765957446809,4,2,77,5,0,0
63513,-114.942528735632,4,2,77,77,0,0
63597,-212.765957446809,4,2,77,5,0,0
63680,-114.942528735632,4,2,77,77,0,0
63930,-212.765957446809,4,2,77,5,0,0
64013,-114.942528735632,4,2,77,77,0,0
64097,-212.765957446809,4,2,77,5,0,0
64180,-114.942528735632,4,2,77,77,0,0
65596,-212.765957446809,4,2,77,5,0,0
65680,-114.942528735632,4,2,77,77,0,0
65763,-212.765957446809,4,2,77,5,0,0
65847,-114.942528735632,4,2,77,77,0,0
66097,-212.765957446809,4,2,77,5,0,0
66180,-114.942528735632,4,2,77,77,0,0
66263,-212.765957446809,4,2,77,5,0,0
66347,-114.942528735632,4,2,77,77,0,0
66597,-212.765957446809,4,2,77,5,0,0
66680,-114.942528735632,4,2,77,77,0,0
66763,-212.765957446809,4,2,77,5,0,0
66847,-114.942528735632,4,2,77,77,0,0
67097,-212.765957446809,4,2,77,5,0,0
67180,-114.942528735632,4,2,77,77,0,0
67263,-212.765957446809,4,2,77,5,0,0
67347,-114.942528735632,4,2,77,77,0,0
68263,-212.765957446809,4,2,77,5,0,0
68347,-114.942528735632,4,2,77,77,0,0
68430,-212.765957446809,4,2,77,5,0,0
68513,-114.942528735632,4,2,77,77,0,0
68763,-212.765957446809,4,2,77,5,0,0
68847,-114.942528735632,4,2,77,77,0,0
68930,-212.765957446809,4,2,77,5,0,0
69013,-114.942528735632,4,2,77,77,0,0
69263,-212.765957446809,4,2,77,5,0,0
69347,-114.942528735632,4,2,77,77,0,0
69430,-212.765957446809,4,2,77,5,0,0
69513,-114.942528735632,4,2,77,77,0,0
70930,-212.765957446809,4,2,77,5,0,0
71013,-114.942528735632,4,2,77,77,0,0
71097,-212.765957446809,4,2,77,5,0,0
71180,-114.942528735632,4,2,77,77,0,0
71430,-212.765957446809,4,2,77,5,0,0
71513,-114.942528735632,4,2,77,77,0,0
71597,-212.765957446809,4,2,77,5,0,0
71680,-114.942528735632,4,2,77,77,0,0
71930,-212.765957446809,4,2,77,5,0,0
72013,-114.942528735632,4,2,77,77,0,0
72097,-212.765957446809,4,2,77,5,0,0
72180,-114.942528735632,4,2,77,77,0,0
72430,-212.765957446809,4,2,77,5,0,0
72513,-114.942528735632,4,2,77,77,0,0
72597,-212.765957446809,4,2,77,5,0,0
72680,-114.942528735632,4,2,77,77,0,0
72930,-212.765957446809,4,2,77,5,0,0
73013,-114.942528735632,4,2,77,77,0,0
73263,-212.765957446809,4,2,77,5,0,0
73347,-93.4579439252337,4,2,77,77,0,0
74347,-129.87012987013,4,2,77,77,0,0
84013,-129.87012987013,4,2,77,47,0,0
85347,-129.87012987013,4,2,77,77,0,0
86097,-212.765957446809,4,2,77,5,0,0
86180,-129.87012987013,4,2,77,77,0,0
86347,-370.370370370372,4,2,77,77,0,0
86597,-212.765957446809,4,2,77,5,0,0
86680,-129.87012987013,4,2,77,77,0,0
89013,-370.370370370372,4,2,77,77,0,0
89263,-212.765957446809,4,2,77,5,0,0
89347,-129.87012987013,4,2,77,77,0,0
91680,-370.370370370372,4,2,77,77,0,0
91930,-212.765957446809,4,2,77,5,0,0
92013,-129.87012987013,4,2,77,77,0,0
92930,-212.765957446809,4,2,77,5,0,0
93013,-129.87012987013,4,2,77,77,0,0
94180,-370.370370370372,4,2,77,77,0,0
94680,-370.370370370372,4,2,77,87,0,0
95180,-93.4579439252337,4,2,77,87,0,0
95513,-212.765957446809,4,2,77,87,0,0
95597,-212.765957446809,4,2,77,5,0,0
95680,-93.4579439252337,4,2,77,87,0,0
95930,-212.765957446809,4,2,77,5,0,0
96013,-93.4579439252337,4,2,77,87,0,0
97263,-212.765957446809,4,2,77,5,0,0
97347,-93.4579439252337,4,2,77,87,0,0
98180,-212.765957446809,4,2,77,87,0,0
98263,-212.765957446809,4,2,77,5,0,0
98347,-93.4579439252337,4,2,77,87,0,0
98597,-212.765957446809,4,2,77,5,0,0
98680,-93.4579439252337,4,2,77,87,0,0
99930,-212.765957446809,4,2,77,5,0,0
100013,-93.4579439252337,4,2,77,87,0,0
100847,-212.765957446809,4,2,77,87,0,0
100930,-212.765957446809,4,2,77,5,0,0
101013,-93.4579439252337,4,2,77,87,0,0
101930,-212.765957446809,4,2,77,5,0,0
102013,-93.4579439252337,4,2,77,87,0,0
102263,-212.765957446809,4,2,77,5,0,0
102347,-93.4579439252337,4,2,77,87,0,0
102597,-212.765957446809,4,2,77,5,0,0
102680,-93.4579439252337,4,2,77,87,0,0
105263,-212.765957446809,4,2,77,5,0,0
105347,-93.4579439252337,4,2,77,87,0,0
106180,-212.765957446809,4,2,77,87,0,0
106263,-212.765957446809,4,2,77,5,0,0
106347,-93.4579439252337,4,2,77,87,0,0
106597,-212.765957446809,4,2,77,5,0,0
106680,-93.4579439252337,4,2,77,87,0,0
107930,-212.765957446809,4,2,77,5,0,0
108013,-93.4579439252337,4,2,77,87,0,0
108847,-212.765957446809,4,2,77,87,0,0
108930,-212.765957446809,4,2,77,5,0,0
109013,-93.4579439252337,4,2,77,87,0,0
110597,-212.765957446809,4,2,77,5,0,0
110680,-93.4579439252337,4,2,77,87,0,0
111513,-212.765957446809,4,2,77,87,0,0
111597,-212.765957446809,4,2,77,5,0,0
111680,-93.4579439252337,4,2,77,87,0,0
111930,-212.765957446809,4,2,77,5,0,0
112013,-93.4579439252337,4,2,77,87,0,0
112597,-212.765957446809,4,2,77,5,0,0
112680,-93.4579439252337,4,2,77,87,0,0
112930,-212.765957446809,4,2,77,5,0,0
113013,-93.4579439252337,4,2,77,87,0,0
113263,-212.765957446809,4,2,77,5,0,0
113347,-93.4579439252337,4,2,77,87,0,0
114930,-212.765957446809,4,2,77,5,0,0
115013,-93.4579439252337,4,2,77,87,0,0
116013,-93.4579439252337,4,2,77,77,0,0
117013,-103.092783505155,4,2,77,77,0,0
117263,-212.765957446809,4,2,77,5,0,0
117347,-103.092783505155,4,2,77,77,0,0
117430,-212.765957446809,4,2,77,5,0,0
117513,-103.092783505155,4,2,77,77,0,0
119930,-212.765957446809,4,2,77,5,0,0
120013,-103.092783505155,4,2,77,77,0,0
120097,-212.765957446809,4,2,77,5,0,0
120180,-103.092783505155,4,2,77,77,0,0
124263,-212.765957446809,4,2,77,5,0,0
124347,-103.092783505155,4,2,77,77,0,0
124597,-212.765957446809,4,2,77,5,0,0
124680,-103.092783505155,4,2,77,77,0,0
124930,-212.765957446809,4,2,77,5,0,0
125013,-103.092783505155,4,2,77,77,0,0
125430,-212.765957446809,4,2,77,5,0,0
125513,-103.092783505155,4,2,77,77,0,0
127430,-212.765957446809,4,2,77,5,0,0
127513,-103.092783505155,4,2,77,77,0,0
129597,-212.765957446809,4,2,77,5,0,0
129680,-103.092783505155,4,2,77,77,0,0
130097,-212.765957446809,4,2,77,5,0,0
130180,-103.092783505155,4,2,77,77,0,0
132263,-212.765957446809,4,2,77,5,0,0
132347,-103.092783505155,4,2,77,77,0,0
132763,-212.765957446809,4,2,77,5,0,0
132847,-103.092783505155,4,2,77,77,0,0
134930,-212.765957446809,4,2,77,5,0,0
135013,-103.092783505155,4,2,77,77,0,0
138680,-129.87012987013,4,2,77,77,0,0
138930,-212.765957446809,4,2,77,5,0,0
139013,-129.87012987013,4,2,77,77,0,0
139347,-370.370370370379,4,2,77,77,0,0
139930,-212.765957446809,4,2,77,5,0,0
140013,714.285714285714,4,2,77,57,1,0
140013,-588.235294117647,4,2,77,57,0,0
140727,666.666666666667,4,2,77,57,1,0
140727,-588.235294117647,4,2,77,57,0,0
142060,621.11801242236,4,2,77,57,1,0
142370,-588.235294117647,4,2,77,57,0,0
142680,666.666666666667,4,2,77,27,1,0
153346,-100,4,2,77,77,0,0
154346,-129.87012987013,4,2,77,77,0,0
155930,-212.765957446809,4,2,77,5,0,0
156013,-129.87012987013,4,2,77,77,0,0
158596,-212.765957446809,4,2,77,5,0,0
158680,-129.87012987013,4,2,77,77,0,0
161263,-212.765957446809,4,2,77,5,0,0
161346,-129.87012987013,4,2,77,77,0,0
164263,-212.765957446809,4,2,77,5,0,0
164346,-129.87012987013,4,2,77,77,0,0
185347,-129.87012987013,4,2,77,87,0,0
185847,-93.4579439252337,4,2,77,87,0,0
186263,-212.765957446809,4,2,77,5,0,0
186346,-93.4579439252337,4,2,77,87,0,0
186596,-212.765957446809,4,2,77,5,0,0
186680,-93.4579439252337,4,2,77,87,0,0
187930,-212.765957446809,4,2,77,5,0,0
188013,-93.4579439252337,4,2,77,87,0,0
188930,-212.765957446809,4,2,77,5,0,0
189013,-93.4579439252337,4,2,77,87,0,0
190596,-212.765957446809,4,2,77,5,0,0
190680,-93.4579439252337,4,2,77,87,0,0
191596,-212.765957446809,4,2,77,5,0,0
191680,-93.4579439252337,4,2,77,87,0,0
193263,-212.765957446809,4,2,77,5,0,0
193346,-93.4579439252337,4,2,77,87,0,0
194263,-212.765957446809,4,2,77,5,0,0
194346,-93.4579439252337,4,2,77,87,0,0
195930,-212.765957446809,4,2,77,5,0,0
196013,-93.4579439252337,4,2,77,87,0,0
196930,-212.765957446809,4,2,77,5,0,0
197013,-93.4579439252337,4,2,77,87,0,0
199596,-212.765957446809,4,2,77,5,0,0
199680,-93.4579439252337,4,2,77,87,0,0
201263,-212.765957446809,4,2,77,5,0,0
201346,-93.4579439252337,4,2,77,87,0,0
202263,-212.765957446809,4,2,77,5,0,0
202346,-93.4579439252337,4,2,77,87,0,0
206596,-212.765957446809,4,2,77,5,0,0
206680,-93.4579439252337,4,2,77,87,0,0
207596,-212.765957446809,4,2,77,5,0,0
207680,-93.4579439252337,4,2,77,87,0,0
210263,-212.765957446809,4,2,77,5,0,0
210346,-93.4579439252337,4,2,77,87,0,0
212930,-212.765957446809,4,2,77,5,0,0
213013,-93.4579439252337,4,2,77,87,0,0
215596,-212.765957446809,4,2,77,5,0,0
215680,-93.4579439252337,4,2,77,87,0,0
216346,-129.87012987013,4,2,77,87,0,0
216596,-212.765957446809,4,2,77,5,0,0
216680,-129.87012987013,4,2,77,87,0,0
216930,-212.765957446809,4,2,77,5,0,0
217013,-129.87012987013,4,2,77,87,0,0
217263,-212.765957446809,4,2,77,5,0,0
217346,-129.87012987013,4,2,77,87,0,0
219013,-93.4579439252337,4,2,77,87,0,0
219263,-212.765957446809,4,2,77,5,0,0
219346,-93.4579439252337,4,2,77,87,0,0
221680,-129.87012987013,4,2,77,87,0,0
221930,-212.765957446809,4,2,77,5,0,0
222013,-129.87012987013,4,2,77,87,0,0
222263,-212.765957446809,4,2,77,5,0,0
222346,-129.87012987013,4,2,77,87,0,0
222596,-212.765957446809,4,2,77,5,0,0
222680,-129.87012987013,4,2,77,87,0,0
224346,-93.4579439252337,4,2,77,87,0,0
225263,-212.765957446809,4,2,77,5,0,0
225346,-93.4579439252337,4,2,77,87,0,0
228013,-103.092783505155,4,2,77,77,0,0
229346,-114.942528735632,4,2,77,77,0,0
230013,-175.438596491228,4,2,77,77,0,0
232013,-129.87012987013,4,2,77,77,0,0
248263,-212.765957446809,4,2,77,5,0,0
248346,-129.87012987013,4,2,77,77,0,0
248596,-212.765957446809,4,2,77,5,0,0
248680,-129.87012987013,4,2,77,77,0,0
248930,-212.765957446809,4,2,77,5,0,0
249013,-212.765957446809,4,2,77,77,0,0

[Colours]
Combo1 : 81,81,81
Combo2 : 53,0,106
Combo3 : 106,0,53
Combo4 : 0,106,106

[HitObjects]
72,188,1347,5,2,1:0:0:0:
72,188,1680,2,2,P|70:212|72:241,1,40.7724982572937,2|2,0:0|0:0,2:0:0:0:
150,298,2013,2,2,P|169:292|189:289,1,40.7724982572937,2|2,0:0|0:0,2:0:0:0:
295,314,2347,2,0,P|322:343|359:359,2,81.5449965145875,2|0|0,0:0|0:0|0:0,2:0:0:0:
295,314,3347,5,2,0:0:0:0:
295,314,3680,1,2,0:0:0:0:
488,220,4013,6,2,P|474:202|462:183,1,40.7724982572937,2|2,1:0|0:0,2:0:0:0:
359,103,4347,1,2,0:0:0:0:
347,114,4513,2,2,P|329:103|311:93,1,40.7724982572937,2|2,0:0|0:0,2:0:0:0:
197,143,4847,1,2,0:0:0:0:
208,154,5013,2,0,P|219:113|190:71,2,81.5449965145875,2|0|0,0:0|0:0|0:0,2:0:0:0:
208,154,6013,5,2,0:0:0:0:
208,154,6347,1,2,0:0:0:0:
38,324,6680,6,2,P|19:307|0:294,1,40.7724982572937,2|2,1:0|0:0,2:0:0:0:
127,253,7013,2,2,P|121:276|120:301,1,40.7724982572937,2|2,0:0|0:0,2:0:0:0:
26,214,7347,2,2,P|49:206|71:195,1,40.7724982572937,2|2,0:0|0:0,2:0:0:0:
102,95,7680,2,0,P|76:59|51:20,2,81.5449965145875,2|0|0,0:0|0:0|0:0,2:0:0:0:
283,86,8680,6,2,P|302:77|323:66,1,40.7724982572937,2|2,0:0|0:0,2:0:0:0:
391,110,9013,2,2,P|410:119|431:130,1,40.7724982572937,2|2,0:0|0:0,2:0:0:0:
483,66,9347,1,2,1:0:0:0:
483,66,9680,6,2,L|469:113,1,40.7724982572937,2|2,0:0|0:0,2:0:0:0:
412,203,10013,1,2,0:0:0:0:
412,203,10347,2,0,P|449:188|492:175,2,81.5449965145875,2|0|0,0:0|0:0|0:0,2:0:0:0:
293,342,11347,2,0,B|256:331|241:289|241:289|250:333|221:359,1,152.896868464852,2|0,0:0|0:0,2:0:0:0:
196,360,12013,6,0,P|227:334|208:259,1,116.895619468518,4|0,1:0|0:0,2:0:0:0:
204,261,12347,1,2,0:0:0:0:
128,290,12513,1,2,0:0:0:0:
45,149,12680,1,10,0:0:0:0:
99,203,12847,1,2,0:0:0:0:
220,55,13013,2,0,P|284:40|347:8,1,133.594993678307,2|0,0:0|0:0,2:0:0:0:
427,344,13680,6,0,P|415:311|401:273,1,66.7974968391534,0|0,1:0|0:0,2:0:0:0:
260,245,14013,2,0,P|294:251|334:257,1,66.7974968391534,10|0,0:0|0:0,2:0:0:0:
461,118,14347,2,0,P|424:160|383:210,1,116.895619468518,2|0,0:0|0:0,2:0:0:0:
377,218,14680,5,2,1:0:0:0:
326,145,14847,1,2,0:0:0:0:
147,169,15013,1,2,0:0:0:0:
198,242,15180,1,2,0:0:0:0:
325,306,15347,1,10,0:0:0:0:
303,231,15513,1,2,0:0:0:0:
154,349,15680,2,0,P|89:358|23:378,1,133.594993678307,2|0,0:0|0:0,2:0:0:0:
153,68,16347,6,0,P|124:50|95:33,1,66.7974968391534,0|0,1:0|0:0,2:0:0:0:
194,147,16680,2,0,P|162:160|132:174,1,66.7974968391534,10|0,0:0|0:0,2:0:0:0:
281,154,17013,2,0,P|274:187|260:280,1,116.895619468518,2|0,0:0|0:0,2:0:0:0:
267,278,17347,6,0,B|294:301|296:326|296:326|309:305|344:297,1,116.895619468518,2|0,1:0|0:0,2:0:0:0:
353,304,17680,1,2,0:0:0:0:
337,217,17847,1,2,0:0:0:0:
477,161,18013,1,10,0:0:0:0:
492,74,18180,1,2,0:0:0:0:
272,27,18347,2,0,P|321:37|285:3,1,133.594993678307,2|0,0:0|0:0,2:0:0:0:
30,141,19013,6,0,P|52:115|91:99,1,66.7974968391534,0|0,1:0|0:0,2:0:0:0:
196,227,19347,2,0,P|175:201|145:186,1,66.7974968391534,10|0,0:0|0:0,2:0:0:0:
33,314,19680,2,0,P|54:288|133:293,1,116.895619468518,2|0,0:0|0:0,2:0:0:0:
136,301,20013,5,2,1:0:0:0:
202,335,20180,1,2,0:0:0:0:
294,217,20347,1,2,0:0:0:0:
360,183,20514,1,2,0:0:0:0:
456,377,20680,2,0,P|470:316|483:253,1,116.895619468518,10|0,0:0|0:0,2:0:0:0:
474,257,21013,1,2,0:0:0:0:
474,257,21347,1,0,0:0:0:0:
226,49,21680,6,0,P|262:40|298:15,1,66.7974968391534,0|0,1:0|0:0,2:0:0:0:
143,105,22013,2,0,P|171:129|212:144,1,66.7974968391534,8|0,0:0|0:0,2:0:0:0:
49,100,22347,2,0,P|49:116|55:133,5,22.2658322797178,0|0|0|0|0|0,0:0|0:0|0:0|0:0|0:0|0:0,2:0:0:0:
65,130,22680,6,0,P|85:141|46:209,1,116.895619468518,2|0,1:0|0:0,2:0:0:0:
47,206,23013,1,2,0:0:0:0:
201,325,23180,2,2,P|268:345|333:370,1,133.594993678307,2|0,0:0|0:0,2:0:0:0:
479,232,23680,1,2,0:0:0:0:
426,278,23847,2,0,P|379:245|376:173,1,133.594993678307,2|0,0:0|0:0,2:0:0:0:
241,70,24347,1,2,1:0:0:0:
311,36,24513,1,2,0:0:0:0:
241,201,24680,2,0,P|208:191|164:176,1,66.7974968391534,10|0,0:0|0:0,2:0:0:0:
64,304,25013,2,0,L|91:296,5,22.2658322797178,2|0|0|0|0|0,0:0|0:0|0:0|0:0|0:0|0:0,2:0:0:0:
101,292,25347,5,2,1:0:0:0:
101,292,25680,1,2,0:0:0:0:
165,331,25847,2,0,P|191:301|193:260,1,66.7974968391534,2|8,0:0|0:0,2:0:0:0:
93,191,26124,5,0,0:0:0:0:
90,170,26235,5,0,0:0:0:0:
89,151,26346,5,2,0:0:0:0:
194,65,26513,1,2,0:0:0:0:
125,44,26680,2,0,P|190:29|256:24,1,133.594993678307,0|0,0:0|1:0,2:0:0:0:
289,182,27180,2,0,P|317:163|355:148,2,66.7974968391534,0|8|0,0:0|0:0|0:0,2:0:0:0:
466,237,27680,2,0,P|450:231|436:222,5,22.2658322797178,2|0|0|2|0|0,0:0|0:0|0:0|0:0|0:0|0:0,2:0:0:0:
439,215,28013,5,2,1:0:0:0:
439,215,28347,1,2,0:0:0:0:
388,289,28513,2,0,P|355:307|321:330,1,66.7974968391534,2|8,0:0|0:0,2:0:0:0:
218,367,28791,5,0,0:0:0:0:
220,351,28902,5,0,0:0:0:0:
221,337,29013,5,2,0:0:0:0:
76,207,29180,1,2,0:0:0:0:
86,280,29347,2,0,P|124:271|179:194,1,133.594993678307,0|2,0:0|1:0,2:0:0:0:
72,50,29847,2,0,P|96:65|128:96,2,66.7974968391534,2|8|0,0:0|0:0|0:0,2:0:0:0:
233,29,30347,2,0,P|224:45|216:62,5,22.2658322797178,2|0|0|0|0|0,0:0|0:0|0:0|0:0|0:0|0:0,2:0:0:0:
218,66,30680,5,2,1:0:0:0:
218,66,31013,1,0,0:0:0:0:
280,116,31180,1,0,0:0:0:0:
342,162,31347,5,8,0:0:0:0:
359,164,31458,5,0,0:0:0:0:
375,167,31569,5,0,0:0:0:0:
392,169,31680,5,0,0:0:0:0:
447,315,31847,1,0,0:0:0:0:
494,256,32013,2,0,L|363:307,2,133.594993678307,2|0|8,0:0|1:0|0:0,2:0:0:0:
330,235,32847,1,0,0:0:0:0:
268,299,33013,2,0,L|234:291,5,22.2658322797178,0|0|0|0|0|0,0:0|0:0|0:0|0:0|0:0|0:0,2:0:0:0:
231,289,33347,5,2,1:0:0:0:
231,289,33680,1,0,0:0:0:0:
163,325,33847,1,0,0:0:0:0:
91,300,34013,5,8,0:0:0:0:
88,282,34124,5,0,0:0:0:0:
86,264,34235,5,0,0:0:0:0:
84,246,34347,5,0,0:0:0:0:
173,139,34513,1,0,0:0:0:0:
221,194,34680,2,0,P|286:189|304:114,2,133.594993678307,2|0|8,0:0|1:0|0:0,2:0:0:0:
168,93,35513,1,0,0:0:0:0:
243,36,35680,2,0,L|271:43,5,22.2658322797178,0|0|0|0|0|0,0:0|0:0|0:0|0:0|0:0|0:0,2:0:0:0:
234,25,36013,5,2,1:0:0:0:
461,154,36347,1,0,0:0:0:0:
445,228,36513,1,0,0:0:0:0:
394,280,36680,5,8,0:0:0:0:
376,282,36791,5,0,0:0:0:0:
358,284,36902,5,0,0:0:0:0:
340,286,37013,5,0,0:0:0:0:
190,219,37180,1,0,0:0:0:0:
127,258,37347,2,0,P|180:213|139:167,1,133.594993678307,2|0,0:0|1:0,2:0:0:0:
151,170,38013,1,8,0:0:0:0:
77,145,38180,1,0,0:0:0:0:
45,68,38347,2,0,L|41:29,5,22.2658322797178,0|0|0|0|0|0,0:0|0:0|0:0|0:0|0:0|0:0,2:0:0:0:
41,31,38680,6,0,P|97:63|133:5,2,133.594993678307,2|0|8,1:0|0:0|0:0,2:0:0:0:
118,134,39458,5,0,0:0:0:0:
123,151,39569,5,0,0:0:0:0:
128,167,39680,5,0,0:0:0:0:
252,237,39847,1,0,0:0:0:0:
294,175,40013,2,0,P|361:158|438:142,1,133.594993678307,2|0,0:0|1:0,2:0:0:0:
424,144,40513,1,0,0:0:0:0:
478,298,40680,2,0,P|448:282|402:261,1,66.7974968391534,8|0,0:0|0:0,2:0:0:0:
312,348,41013,2,0,L|340:329,5,22.2658322797178,0|0|0|0|0|0,0:0|0:0|0:0|0:0|0:0|0:0,2:0:0:0:
303,353,41347,5,2,1:0:0:0:
303,353,41680,2,0,L|237:330,1,66.7974968391534,2|0,0:0|0:0,2:0:0:0:
57,361,42013,2,0,P|100:345|34:333,1,183.693116307672,10|0,0:0|0:0,2:0:0:0:
69,328,42513,1,2,0:0:0:0:
143,249,42680,2,0,L|136:194,2,40.7724982572937,2|2|2,0:0|0:0|0:0,2:0:0:0:
143,249,43180,1,2,0:0:0:0:
25,25,44013,6,0,B|44:56|44:56|87:33|131:68,1,116.895619468518,0|0,1:0|0:0,2:0:0:0:
124,70,44347,1,2,0:0:0:0:
79,128,44513,1,0,0:0:0:0:
116,267,44680,2,0,P|139:206|159:125,1,133.594993678307,10|0,0:0|0:0,2:0:0:0:
156,139,45180,1,2,0:0:0:0:
313,89,45347,1,2,0:0:0:0:
242,113,45513,1,2,0:0:0:0:
360,230,45680,1,2,1:0:0:0:
428,196,45847,2,0,P|405:129|389:65,1,133.594993678307,2|0,0:0|0:0,2:0:0:0:
360,230,46347,2,0,L|324:217,5,22.2658322797178,0|0|0|0|0|0,0:0|0:0|0:0|0:0|0:0|0:0,2:0:0:0:
370,243,46680,5,0,1:0:0:0:
72,311,47013,1,2,0:0:0:0:
135,347,47180,1,2,0:0:0:0:
224,206,47347,5,10,0:0:0:0:
206,209,47458,5,0,0:0:0:0:
192,220,47569,5,0,0:0:0:0:
182,234,47680,5,0,0:0:0:0:
244,280,47847,1,2,0:0:0:0:
306,323,48013,2,0,L|352:314,2,40.7724982572937,2|2|2,0:0|0:0|0:0,2:0:0:0:
306,323,48513,1,2,0:0:0:0:
436,43,49347,6,0,P|413:89|451:141,1,116.895619468518,0|0,1:0|0:0,2:0:0:0:
457,141,49680,1,2,0:0:0:0:
392,199,49847,1,2,0:0:0:0:
202,122,50013,2,0,P|266:147|331:175,1,133.594993678307,10|0,0:0|0:0,2:0:0:0:
325,172,50513,1,2,0:0:0:0:
232,279,50680,1,2,0:0:0:0:
208,206,50847,1,2,0:0:0:0:
329,352,51013,1,2,1:0:0:0:
267,381,51180,2,0,P|232:365|130:341,1,133.594993678307,2|0,0:0|0:0,2:0:0:0:
14,352,51680,2,0,P|23:343|30:329,5,22.2658322797178,0|0|0|0|0|0,0:0|0:0|0:0|0:0|0:0|0:0,2:0:0:0:
23,322,52013,5,0,1:0:0:0:
23,322,52347,1,2,0:0:0:0:
67,259,52513,1,2,0:0:0:0:
11,130,52680,2,0,P|30:173|86:121,1,133.594993678307,10|0,0:0|0:0,2:0:0:0:
89,138,53180,1,2,0:0:0:0:
189,35,53347,1,2,0:0:0:0:
236,97,53513,1,2,0:0:0:0:
412,36,53680,1,2,1:0:0:0:
359,94,53847,2,0,P|347:160|329:237,1,133.594993678307,2|0,0:0|0:0,2:0:0:0:
237,299,54347,2,0,P|252:290|274:283,5,22.2658322797178,0|0|0|0|0|0,0:0|0:0|0:0|0:0|0:0|0:0,2:0:0:0:
233,315,54680,6,0,P|207:349|130:346,1,116.895619468518,0|0,1:0|0:0,2:0:0:0:
131,342,55013,1,2,0:0:0:0:
94,280,55180,1,2,0:0:0:0:
228,198,55347,2,0,P|179:226|175:170,1,133.594993678307,10|0,0:0|0:0,2:0:0:0:
175,170,55847,1,2,0:0:0:0:
144,61,56013,1,2,0:0:0:0:
215,92,56180,1,2,0:0:0:0:
322,196,56347,1,2,1:0:0:0:
387,159,56513,2,0,P|353:216|328:278,1,133.594993678307,2|0,0:0|0:0,2:0:0:0:
423,338,57013,2,0,P|419:328|414:319,5,22.2658322797178,2|0|0|0|0|0,0:0|0:0|0:0|0:0|0:0|0:0,2:0:0:0:
422,353,57347,5,0,1:0:0:0:
512,148,57680,1,2,0:0:0:0:
457,200,57847,1,2,0:0:0:0:
279,95,58013,2,0,P|325:39|402:47,1,133.594993678307,10|0,0:0|0:0,2:0:0:0:
382,37,58513,1,2,0:0:0:0:
293,186,58680,1,2,0:0:0:0:
217,168,58847,1,2,0:0:0:0:
85,69,59013,1,2,1:0:0:0:
161,51,59180,1,2,0:0:0:0:
55,210,59347,1,8,0:0:0:0:
29,134,59513,1,0,0:0:0:0:
79,296,59680,2,0,P|137:315|191:346,1,116.895619468518,0|0,0:0|0:0,2:0:0:0:
200,361,60013,6,0,P|211:337|192:364,1,133.594993678307,0|2,1:0|0:0,2:0:0:0:
200,361,60513,1,2,0:0:0:0:
337,235,60680,2,0,P|401:251|466:285,1,133.594993678307,10|0,0:0|0:0,2:0:0:0:
460,281,61180,1,2,0:0:0:0:
310,120,61347,2,2,P|280:139|246:155,1,66.7974968391534,2|2,0:0|0:0,2:0:0:0:
54,46,61680,1,2,1:0:0:0:
119,11,61847,6,0,P|137:51|114:112,1,105.401249676487,2|0,0:0|0:0,2:0:0:0:
65,153,62680,6,0,P|127:138|194:167,1,132.07687247851,2|0,1:0|0:0,2:0:0:0:
191,171,63013,2,0,P|172:160|156:153,1,37.7362492795744,2|0,0:0|0:0,2:0:0:0:
207,65,63180,2,0,P|262:97|290:164,1,132.07687247851,2|0,0:0|0:0,2:0:0:0:
285,165,63513,2,0,P|278:143|272:127,1,37.7362492795744,2|0,0:0|0:0,2:0:0:0:
375,101,63680,2,0,P|392:162|365:230,1,132.07687247851,2|0,0:0|0:0,2:0:0:0:
361,227,64013,2,0,P|371:207|377:191,1,37.7362492795744,2|0,0:0|0:0,2:0:0:0:
241,255,64180,1,2,0:0:0:0:
297,320,64347,1,0,0:0:0:0:
297,320,64430,1,0,0:0:0:0:
297,320,64513,2,0,P|316:309|337:307,1,37.7362492795744,2|0,0:0|0:0,2:0:0:0:
412,341,64680,2,0,P|370:316|402:255,1,113.208747838723,2|0,0:0|0:0,2:0:0:0:
464,210,65013,2,0,L|469:182,5,25.1574995197163,2|0|0|0|0|0,0:0|0:0|0:0|0:0|0:0|0:0,2:0:0:0:
472,168,65347,6,0,P|419:137|338:125,1,132.07687247851,2|0,1:0|0:0,2:0:0:0:
336,116,65680,2,0,P|346:97|362:79,1,37.7362492795744,2|0,0:0|0:0,2:0:0:0:
368,211,65847,2,0,P|307:202|227:221,1,132.07687247851,2|0,0:0|0:0,2:0:0:0:
222,213,66180,2,0,P|224:191|232:168,1,37.7362492795744,2|0,0:0|0:0,2:0:0:0:
294,298,66347,2,0,P|234:312|167:360,1,132.07687247851,2|0,0:0|0:0,2:0:0:0:
159,354,66680,2,0,P|152:333|152:309,1,37.7362492795744,2|0,0:0|0:0,2:0:0:0:
62,179,66847,2,0,P|94:228|41:274,1,132.07687247851,2|0,0:0|0:0,2:0:0:0:
45,283,67180,2,0,P|81:274|92:264,1,37.7362492795744,2|0,0:0|0:0,2:0:0:0:
87,84,67347,2,0,P|119:104|173:82,1,75.4724985591488,10|0,0:0|0:0,2:0:0:0:
316,19,67680,2,0,L|310:52,5,25.1574995197163,2|0|0|0|0|0,0:0|0:0|0:0|0:0|0:0|0:0,2:0:0:0:
319,56,68013,6,0,L|340:191,1,132.07687247851,2|0,1:0|0:0,2:0:0:0:
348,190,68347,2,0,L|339:138,1,37.7362492795744,2|0,0:0|0:0,2:0:0:0:
220,142,68513,2,0,L|290:259,1,132.07687247851,2|0,0:0|0:0,2:0:0:0:
297,255,68847,2,0,L|269:210,1,37.7362492795744,2|0,0:0|0:0,2:0:0:0:
134,241,69013,2,0,L|242:323,1,132.07687247851,2|0,0:0|0:0,2:0:0:0:
247,316,69347,2,0,L|204:284,1,37.7362492795744,2|0,0:0|0:0,2:0:0:0:
21,347,69513,1,2,0:0:0:0:
72,286,69680,1,0,0:0:0:0:
72,286,69763,1,0,0:0:0:0:
72,286,69847,2,0,L|65:241,1,37.7362492795744,2|0,0:0|0:0,2:0:0:0:
16,122,70013,2,0,P|39:157|89:170,1,75.4724985591488,2|0,0:0|0:0,2:0:0:0:
141,71,70347,2,0,L|116:78,5,25.1574995197163,2|0|0|0|0|0,0:0|0:0|0:0|0:0|0:0|0:0,2:0:0:0:
151,55,70680,6,0,P|211:65|243:128,1,132.07687247851,2|0,1:0|0:0,2:0:0:0:
246,135,71013,2,0,L|296:124,1,37.7362492795744,2|0,0:0|0:0,2:0:0:0:
482,127,71180,2,0,P|421:129|381:188,1,132.07687247851,2|0,0:0|0:0,2:0:0:0:
377,194,71513,2,0,L|328:176,1,37.7362492795744,2|0,0:0|0:0,2:0:0:0:
166,215,71680,2,0,P|226:210|272:263,1,132.07687247851,2|0,0:0|0:0,2:0:0:0:
278,268,72013,2,0,L|323:245,1,37.7362492795744,2|0,0:0|0:0,2:0:0:0:
220,361,72180,2,0,P|156:342|85:332,1,132.07687247851,2|0,0:0|0:0,2:0:0:0:
87,325,72513,2,0,L|75:278,1,37.7362492795744,2|0,0:0|0:0,2:0:0:0:
291,367,72680,2,0,P|335:336|402:324,1,113.208747838723,10|0,0:0|0:0,2:0:0:0:
482,360,73013,2,0,P|443:352|471:285,1,132.07687247851,2|0,0:0|0:0,2:0:0:0:
464,274,73347,6,0,B|416:267|392:324|392:324|392:155|254:88,1,371.289978464814,6|8,1:0|0:0,2:0:0:0:
10,56,74347,2,0,P|43:45|94:19,1,66.7974968391534,0|0,0:0|0:0,2:0:0:0:
201,156,74680,1,2,0:0:0:0:
147,103,74847,1,0,0:0:0:0:
32,242,75013,1,0,1:0:0:0:
47,246,75096,1,0,0:0:0:0:
63,252,75179,1,0,0:0:0:0:
79,259,75262,1,0,0:0:0:0:
94,266,75346,1,8,0:0:0:0:
136,335,75513,1,0,0:0:0:0:
286,276,75680,1,0,0:0:0:0:
246,126,75847,1,0,0:0:0:0:
286,276,76013,6,0,B|354:293|337:224|406:241,1,133.594993678307,2|0,1:0|0:0,2:0:0:0:
406,241,76513,1,0,0:0:0:0:
293,191,76680,2,0,P|271:164|268:128,1,66.7974968391534,8|0,0:0|0:0,2:0:0:0:
425,55,77013,1,0,0:0:0:0:
391,122,77180,1,0,0:0:0:0:
234,28,77347,2,0,L|158:8,1,66.7974968391534,2|0,0:0|0:0,2:0:0:0:
57,143,77680,6,0,P|81:120|105:92,1,66.7974968391534,0|0,1:0|0:0,2:0:0:0:
151,242,78013,2,0,P|119:232|82:225,1,66.7974968391534,8|0,0:0|0:0,2:0:0:0:
194,109,78347,2,0,P|201:141|213:176,1,66.7974968391534,0|0,0:0|0:0,2:0:0:0:
245,257,78597,5,0,0:0:0:0:
254,266,78680,2,0,P|297:241|385:217,1,133.594993678307,2|0,1:0|0:0,2:0:0:0:
377,217,79180,1,0,0:0:0:0:
268,362,79347,2,0,P|236:350|201:341,1,66.7974968391534,8|0,0:0|0:0,2:0:0:0:
49,369,79680,1,0,0:0:0:0:
126,312,79847,1,0,0:0:0:0:
14,167,80013,2,0,L|3:238,1,66.7974968391534,2|0,0:0|0:0,2:0:0:0:
139,152,80347,1,0,1:0:0:0:
135,133,80431,1,0,0:0:0:0:
131,113,80514,1,0,0:0:0:0:
127,93,80597,1,0,0:0:0:0:
124,74,80680,1,8,0:0:0:0:
184,33,80847,1,0,0:0:0:0:
279,187,81013,1,0,0:0:0:0:
441,98,81180,1,0,0:0:0:0:
279,187,81347,6,0,B|311:155|311:155|348:179|407:188,1,133.594993678307,2|0,1:0|0:0,2:0:0:0:
394,185,81847,1,0,0:0:0:0:
491,76,82013,2,0,P|435:69|382:57,1,100.19624525873,8|0,0:0|0:0,2:0:0:0:
392,59,82347,1,0,0:0:0:0:
479,203,82513,1,0,0:0:0:0:
383,323,82680,2,0,P|349:333|309:346,1,66.7974968391534,2|0,0:0|0:0,2:0:0:0:
180,221,83013,1,0,1:0:0:0:
251,250,83180,1,0,0:0:0:0:
58,346,83347,1,8,0:0:0:0:
111,253,83513,1,0,0:0:0:0:
55,156,83680,2,0,L|63:121,6,22.2658322797178,0|0|0|0|0|0|0,0:0|0:0|0:0|0:0|0:0|0:0|0:0,2:0:0:0:
323,90,85180,5,2,0:0:0:0:
365,26,85347,1,2,0:0:0:0:
430,179,85513,1,2,0:0:0:0:
371,17,85680,1,2,1:0:0:0:
424,188,85847,2,0,P|376:218|319:261,1,116.895619468518,2|0,0:0|0:0,2:0:0:0:
326,266,86180,1,0,0:0:0:0:
148,169,86347,2,0,L|160:203,1,35.1337498921623,0|0,0:0|0:0,2:0:0:0:
126,268,86680,6,0,B|158:236|158:236|196:260|254:268,1,133.594993678307,0|2,1:0|0:0,2:0:0:0:
240,265,87180,1,2,0:0:0:0:
63,173,87347,2,0,P|41:106|26:37,1,133.594993678307,10|0,0:0|0:0,2:0:0:0:
27,44,87847,1,2,0:0:0:0:
108,85,88013,1,2,0:0:0:0:
294,6,88180,1,2,0:0:0:0:
225,128,88347,1,2,1:0:0:0:
227,144,88430,1,0,0:0:0:0:
230,160,88513,1,2,0:0:0:0:
233,177,88596,1,0,0:0:0:0:
236,193,88680,1,8,0:0:0:0:
291,244,88847,1,0,0:0:0:0:
384,132,89013,2,0,P|402:125|422:121,1,35.1337498921623,2|0,0:0|0:0,2:0:0:0:
442,194,89347,6,0,P|377:175|299:158,1,133.594993678307,0|2,1:0|0:0,2:0:0:0:
312,160,89847,1,2,0:0:0:0:
431,330,90013,2,0,P|462:314|415:319,1,133.594993678307,10|0,0:0|0:0,2:0:0:0:
410,305,90513,1,2,0:0:0:0:
273,364,90680,1,2,0:0:0:0:
202,349,90847,1,2,0:0:0:0:
109,238,91013,1,2,1:0:0:0:
180,253,91180,2,0,P|252:232|311:216,1,133.594993678307,2|0,0:0|0:0,2:0:0:0:
144,146,91680,2,0,L|137:110,1,35.1337498921623,0|0,0:0|0:0,2:0:0:0:
43,26,92013,6,0,P|83:63|102:7,1,133.594993678307,0|2,1:0|0:0,2:0:0:0:
102,7,92513,1,2,0:0:0:0:
302,110,92680,2,0,P|245:97|194:55,1,116.895619468518,8|0,0:0|0:0,2:0:0:0:
201,50,93013,1,2,0:0:0:0:
373,2,93180,1,0,0:0:0:0:
479,146,93347,1,2,0:0:0:0:
409,114,93513,1,2,0:0:0:0:
222,196,93680,1,2,1:0:0:0:
205,191,93763,1,0,0:0:0:0:
189,186,93846,1,2,0:0:0:0:
173,182,93929,1,0,0:0:0:0:
157,177,94013,1,8,0:0:0:0:
76,51,94180,2,2,L|50:58,2,23.4224999281082,2|2|2,0:0|0:0|0:0,2:0:0:0:
137,0,94680,5,6,1:0:0:0:
153,72,94847,1,2,0:0:0:0:
301,198,95013,1,2,0:0:0:0:
331,130,95180,2,0,P|306:97|253:97,1,92.8224946162035,2|8,0:0|0:0,2:0:0:0:
51,178,95513,2,0,L|54:208,1,30.5793736929703,2|0,0:0|0:0,2:0:0:0:
55,225,95680,2,0,B|139:203|118:288|202:267,1,162.439365578356,2|0,0:0|0:0,2:0:0:0:
205,283,96013,2,0,P|219:251|191:271,1,92.8224946162035,0|0,0:0|0:0,2:0:0:0:
352,362,96347,2,0,P|393:343|441:327,1,92.8224946162035,2|0,1:0|0:0,2:0:0:0:
264,185,96680,2,0,P|298:215|336:242,1,92.8224946162035,10|0,0:0|0:0,2:0:0:0:
459,115,97013,2,0,P|427:160|434:126,1,162.439365578356,2|0,0:0|0:0,2:0:0:0:
457,146,97347,5,2,1:0:0:0:
366,97,97513,1,2,0:0:0:0:
174,178,97680,1,2,0:0:0:0:
233,129,97847,2,0,P|242:83|257:35,1,92.8224946162035,2|8,0:0|0:0,2:0:0:0:
315,204,98180,2,0,P|319:219|328:236,1,30.5793736929703,2|0,0:0|0:0,2:0:0:0:
331,246,98347,2,0,B|301:239|284:212|284:212|256:264|185:272,1,162.439365578356,2|0,0:0|0:0,2:0:0:0:
194,260,98680,1,0,0:0:0:0:
124,212,98847,1,0,0:0:0:0:
300,333,99013,2,0,P|346:334|389:318,1,92.8224946162035,2|0,1:0|0:0,2:0:0:0:
412,103,99347,2,0,P|383:136|348:169,1,92.8224946162035,10|0,0:0|0:0,2:0:0:0:
172,10,99680,2,0,B|205:18|226:77|226:77|197:52|163:43,1,162.439365578356,2|0,0:0|0:0,2:0:0:0:
156,50,100013,5,2,1:0:0:0:
66,77,100180,1,2,0:0:0:0:
238,202,100347,1,2,0:0:0:0:
176,161,100513,2,0,P|128:154|85:188,1,92.8224946162035,2|8,0:0|0:0,2:0:0:0:
49,338,100847,2,0,P|65:333|78:320,1,30.5793736929703,2|0,0:0|0:0,2:0:0:0:
84,313,101013,2,0,B|181:288|157:386|255:361,1,185.644989232407,2|0,0:0|0:0,2:0:0:0:
251,362,101513,1,0,0:0:0:0:
445,223,101680,2,0,B|416:243|419:283|419:283|403:247|367:242,1,139.233741924305,2|0,1:0|0:0,2:0:0:0:
308,300,102013,2,0,B|279:279|282:239|282:239|266:275|230:280,1,139.233741924305,10|0,0:0|0:0,2:0:0:0:
147,224,102347,2,0,B|167:195|207:198|207:198|171:182|166:146,1,139.233741924305,2|0,0:0|0:0,2:0:0:0:
191,60,102680,6,0,P|146:47|92:23,1,92.8224946162035,2|0,1:0|0:0,2:0:0:0:
103,29,103013,1,2,0:0:0:0:
247,124,103180,2,0,P|289:105|334:93,1,92.8224946162035,2|8,0:0|0:0,2:0:0:0:
334,93,103513,1,2,0:0:0:0:
480,241,103680,2,0,P|470:192|461:135,1,92.8224946162035,2|0,0:0|0:0,2:0:0:0:
353,319,104013,1,0,0:0:0:0:
353,319,104347,5,2,1:0:0:0:
335,314,104430,1,0,0:0:0:0:
317,309,104513,1,0,0:0:0:0:
299,305,104596,1,0,0:0:0:0:
281,300,104680,1,10,0:0:0:0:
219,342,104847,1,0,0:0:0:0:
67,173,105013,2,0,P|102:209|86:149,1,162.439365578356,2|0,0:0|0:0,2:0:0:0:
99,178,105347,5,2,1:0:0:0:
193,151,105513,1,2,0:0:0:0:
396,29,105680,1,2,0:0:0:0:
320,0,105847,2,0,P|306:44|296:95,1,92.8224946162035,2|8,0:0|0:0,2:0:0:0:
381,246,106180,2,0,P|362:242|345:239,1,30.5793736929703,2|0,0:0|0:0,2:0:0:0:
339,228,106347,2,0,P|407:235|494:275,1,162.439365578356,2|0,0:0|0:0,2:0:0:0:
496,266,106680,2,0,P|454:243|394:225,1,92.8224946162035,0|0,0:0|0:0,2:0:0:0:
237,124,107013,2,0,P|279:104|332:121,1,92.8224946162035,2|0,1:0|0:0,2:0:0:0:
176,274,107347,2,0,P|208:242|214:196,1,92.8224946162035,10|0,0:0|0:0,2:0:0:0:
27,316,107680,2,0,P|104:335|189:363,1,162.439365578356,2|0,0:0|0:0,2:0:0:0:
195,351,108013,5,2,1:0:0:0:
165,270,108180,1,2,0:0:0:0:
49,196,108347,1,2,0:0:0:0:
79,115,108513,2,0,P|119:101|175:77,1,92.8224946162035,2|8,0:0|0:0,2:0:0:0:
330,18,108847,2,0,P|322:33|316:53,1,30.5793736929703,2|0,0:0|0:0,2:0:0:0:
308,51,109013,2,0,P|299:83|275:245,1,185.644989232407,2|0,0:0|0:0,2:0:0:0:
276,234,109680,2,0,P|321:255|360:285,1,92.8224946162035,2|0,1:0|0:0,2:0:0:0:
138,317,110013,2,0,P|184:300|233:295,1,92.8224946162035,10|0,0:0|0:0,2:0:0:0:
60,363,110347,2,0,B|26:325|26:325|83:276|72:211,1,162.439365578356,2|0,0:0|0:0,2:0:0:0:
65,221,110680,6,0,P|49:187|32:121,1,92.8224946162035,2|0,1:0|0:0,2:0:0:0:
34,133,111013,1,2,0:0:0:0:
225,99,111180,2,0,P|244:56|255:11,1,92.8224946162035,2|8,0:0|0:0,2:0:0:0:
309,151,111513,2,0,P|322:160|337:176,1,30.5793736929703,2|0,0:0|0:0,2:0:0:0:
334,184,111680,2,0,P|376:156|486:116,1,162.439365578356,2|0,0:0|0:0,2:0:0:0:
483,129,112013,2,0,P|492:97|476:124,1,92.8224946162035,0|0,0:0|0:0,2:0:0:0:
317,287,112347,2,0,B|278:277|269:234|269:234|283:258|321:267,1,139.233741924305,2|0,1:0|0:0,2:0:0:0:
416,231,112680,2,0,B|426:268|394:298|394:298|407:274|397:236,1,139.233741924305,10|0,0:0|0:0,2:0:0:0:
320,170,113013,2,0,B|347:141|389:154|389:154|361:155|334:183,1,139.233741924305,2|0,0:0|0:0,2:0:0:0:
321,267,113347,5,2,1:0:0:0:
134,68,113680,1,2,0:0:0:0:
196,106,113847,2,0,P|201:149|207:201,1,92.8224946162035,2|8,0:0|0:0,2:0:0:0:
206,198,114180,1,2,0:0:0:0:
55,277,114347,2,0,P|50:320|44:372,1,92.8224946162035,2|0,0:0|0:0,2:0:0:0:
210,370,114680,2,0,P|284:343|370:306,1,162.439365578356,0|0,0:0|0:0,2:0:0:0:
366,298,115013,2,0,P|332:274|273:264,1,92.8224946162035,0|0,1:0|0:0,2:0:0:0:
156,112,115347,2,0,P|191:156|224:98,1,139.233741924305,8|0,0:0|0:0,2:0:0:0:
231,92,115680,2,0,L|264:80,5,30.9408315387345,0|0|0|0|0|0,0:0|0:0|0:0|0:0|0:0|0:0,2:0:0:0:
273,78,116013,5,6,1:0:0:0:
486,200,116347,5,2,0:0:0:0:
421,237,116513,1,2,0:0:0:0:
348,223,116680,1,10,0:0:0:0:
196,352,116847,1,2,0:0:0:0:
270,347,117013,2,0,P|207:315|129:293,1,147.258124435665,2|0,0:0|0:0,2:0:0:0:
124,302,117347,2,0,P|96:277|84:238,1,63.110624758142,0|0,0:0|0:0,2:0:0:0:
93,245,117513,1,2,0:0:0:0:
169,177,117680,1,2,1:0:0:0:
86,72,117847,2,2,P|43:60|0:43,2,84.1474996775227,2|10|2,0:0|0:0|0:0,2:0:0:0:
196,11,118347,1,2,0:0:0:0:
196,11,118513,1,2,0:0:0:0:
369,146,118680,5,2,1:0:0:0:
369,146,119013,5,2,0:0:0:0:
322,81,119180,1,2,0:0:0:0:
358,16,119347,1,10,0:0:0:0:
266,178,119513,1,2,0:0:0:0:
241,248,119680,2,0,P|223:163|203:94,1,147.258124435665,2|0,0:0|0:0,2:0:0:0:
197,102,120013,2,0,P|166:92|136:88,1,63.110624758142,0|0,0:0|0:0,2:0:0:0:
129,95,120180,1,2,0:0:0:0:
2,186,120347,1,2,1:0:0:0:
56,248,120513,2,2,P|48:207|10:175,2,84.1474996775227,2|10|2,0:0|0:0|0:0,2:0:0:0:
121,347,121013,1,2,0:0:0:0:
121,347,121180,1,2,0:0:0:0:
272,294,121347,5,2,1:0:0:0:
475,78,121680,5,2,0:0:0:0:
451,153,121847,1,2,0:0:0:0:
431,225,122013,1,10,0:0:0:0:
256,108,122180,1,2,0:0:0:0:
234,176,122347,2,0,P|312:184|356:111,1,168.294999355045,2|0,0:0|0:0,2:0:0:0:
355,115,122847,5,2,0:0:0:0:
245,55,123013,1,2,1:0:0:0:
141,119,123180,1,2,0:0:0:0:
39,46,123347,2,2,P|29:87|17:130,2,84.1474996775227,10|2|2,0:0|0:0|0:0,2:0:0:0:
86,289,124013,6,0,P|146:249|230:243,1,147.258124435665,2|0,1:0|0:0,2:0:0:0:
226,252,124347,1,2,1:0:0:0:
225,145,124513,2,0,P|256:151|291:181,1,63.110624758142,2|0,0:0|0:0,2:0:0:0:
283,186,124680,1,0,1:0:0:0:
399,323,124847,2,0,P|408:292|424:252,1,63.110624758142,2|0,0:0|0:0,2:0:0:0:
432,254,125013,1,2,1:0:0:0:
477,47,125347,2,0,L|413:60,1,63.110624758142,2|0,0:0|0:0,2:0:0:0:
409,70,125513,2,0,L|499:51,2,84.1474996775227,2|0|2,0:0|0:0|0:0,2:0:0:0:
245,1,126013,5,2,1:0:0:0:
170,152,126180,1,2,1:0:0:0:
286,283,126347,2,0,P|302:270|329:267,1,42.0737498387614,2|0,1:0|1:0,2:0:0:0:
355,191,126513,2,0,P|374:196|392:217,1,42.0737498387614,0|0,1:0|1:0,2:0:0:0:
408,302,126680,5,6,1:0:0:0:
174,203,127013,1,2,0:0:0:0:
149,271,127180,2,0,P|176:236|268:174,1,147.258124435665,2|0,0:0|0:0,2:0:0:0:
268,185,127513,1,2,0:0:0:0:
145,384,127680,2,0,P|118:349|13:277,1,168.294999355045,2|0,0:0|0:0,2:0:0:0:
17,83,128180,5,2,0:0:0:0:
84,142,128347,1,2,1:0:0:0:
160,105,128513,2,2,P|177:63|194:17,2,84.1474996775227,2|10|2,0:0|0:0|0:0,2:0:0:0:
262,188,129013,1,2,0:0:0:0:
262,188,129180,1,2,0:0:0:0:
458,132,129347,6,0,B|381:151|400:74|324:93,1,147.258124435665,2|0,1:0|0:0,2:0:0:0:
317,103,129680,1,2,0:0:0:0:
333,323,129847,2,0,P|338:248|346:167,1,147.258124435665,2|0,0:0|0:0,2:0:0:0:
337,167,130180,1,2,0:0:0:0:
173,308,130347,2,0,P|214:295|264:287,1,84.1474996775227,2|0,0:0|0:0,2:0:0:0:
86,234,130680,2,0,P|99:193|107:143,1,84.1474996775227,0|0,0:0|0:0,2:0:0:0:
203,46,131013,1,2,1:0:0:0:
297,24,131180,2,2,P|254:35|215:44,2,84.1474996775227,2|10|2,0:0|0:0|0:0,2:0:0:0:
411,96,131680,1,2,0:0:0:0:
411,96,131847,1,2,0:0:0:0:
231,226,132013,6,0,B|260:204|260:204|295:243|362:243,1,147.258124435665,2|0,1:0|0:0,2:0:0:0:
368,235,132347,1,2,0:0:0:0:
239,330,132513,2,0,B|209:351|209:351|174:312|107:312,1,147.258124435665,2|0,0:0|0:0,2:0:0:0:
102,324,132847,1,2,0:0:0:0:
17,143,133013,2,0,P|52:141|108:158,2,84.1474996775227,2|0|0,0:0|0:0|0:0,2:0:0:0:
163,19,133513,1,2,0:0:0:0:
239,85,133680,1,2,1:0:0:0:
220,185,133847,1,2,0:0:0:0:
313,252,134013,1,10,0:0:0:0:
313,252,134347,2,0,L|349:248,5,28.0491665591742,2|0|0|0|0|0,0:0|0:0|0:0|0:0|0:0|0:0,2:0:0:0:
355,247,134680,6,0,P|321:193|386:146,1,147.258124435665,6|0,1:0|0:0,2:0:0:0:
388,148,135013,1,2,0:0:0:0:
233,22,135180,2,0,P|268:48|307:80,2,84.1474996775227,2|8|0,0:0|0:0|0:0,2:0:0:0:
110,207,135680,1,2,0:0:0:0:
149,145,135847,2,0,P|187:127|225:111,2,84.1474996775227,2|0|0,0:0|0:0|0:0,2:0:0:0:
274,292,136347,1,2,1:0:0:0:
280,279,136430,1,0,0:0:0:0:
286,266,136513,1,2,0:0:0:0:
292,253,136597,1,0,0:0:0:0:
297,240,136680,1,8,0:0:0:0:
185,293,136847,1,0,0:0:0:0:
65,260,137013,2,0,L|56:228,5,28.0491665591742,2|0|0|2|0|0,0:0|0:0|0:0|0:0|0:0|0:0,2:0:0:0:
70,274,137347,5,0,1:0:0:0:
292,171,137680,1,2,0:0:0:0:
343,229,137847,1,2,0:0:0:0:
465,86,138013,5,8,0:0:0:0:
439,56,138124,5,0,0:0:0:0:
404,41,138235,5,0,0:0:0:0:
365,44,138346,5,2,0:0:0:0:
384,136,138513,1,2,0:0:0:0:
292,282,138680,2,0,P|238:292|169:303,1,116.895619468518,2|0,0:0|0:0,2:0:0:0:
166,304,139013,1,0,1:0:0:0:
83,152,139347,6,0,P|102:187|144:196,1,81.9787497483788,8|0,0:3|0:0,2:0:0:0:
192,140,140013,6,0,L|196:114,2,19.6633329129334,8|8|8,0:3|0:3|0:3,2:0:0:0:
259,171,140727,2,0,L|262:147,2,19.6633329129334,8|8|8,0:3|0:3|0:3,2:0:0:0:
331,205,141393,2,0,L|334:181,3,14.7474996847,8|8|8|8,0:3|0:3|0:3|0:3,2:0:0:0:
410,136,142060,1,8,0:3:0:0:
410,136,142216,1,8,0:3:0:0:
377,51,142370,2,0,L|362:48,2,9.83166645646668,8|8|8,0:3|0:3|0:3,2:0:0:0:
447,21,142680,5,2,0:0:0:0:
76,28,153346,5,6,1:0:0:0:
49,104,153513,1,2,0:0:0:0:
148,255,153680,1,2,0:0:0:0:
175,179,153847,1,2,0:0:0:0:
312,132,154013,1,10,0:0:0:0:
285,56,154180,1,2,0:0:0:0:
447,173,154346,6,0,P|400:140|453:103,1,133.594993678307,2|0,0:0|0:0,2:0:0:0:
452,365,155013,2,0,P|431:338|390:324,1,66.7974968391534,0|0,1:0|0:0,2:0:0:0:
201,321,155346,2,0,P|233:316|264:327,1,66.7974968391534,10|0,0:0|0:0,2:0:0:0:
120,226,155680,2,0,P|99:167|82:111,1,116.895619468518,2|0,0:0|0:0,2:0:0:0:
96,100,156013,5,2,1:0:0:0:
169,59,156180,1,2,0:0:0:0:
275,117,156346,1,2,0:0:0:0:
348,158,156513,1,2,0:0:0:0:
461,41,156680,1,10,0:0:0:0:
388,82,156847,1,2,0:0:0:0:
499,265,157013,2,0,P|476:198|456:132,1,133.594993678307,2|0,0:0|0:0,2:0:0:0:
177,310,157680,2,0,P|209:315|242:322,1,66.7974968391534,0|0,1:0|0:0,2:0:0:0:
155,207,158013,2,0,P|187:212|220:219,1,66.7974968391534,10|0,0:0|0:0,2:0:0:0:
50,115,158346,2,0,B|75:132|75:132|42:170|45:226,1,116.895619468518,2|0,0:0|0:0,2:0:0:0:
57,224,158680,5,2,1:0:0:0:
106,284,158846,1,2,0:0:0:0:
232,365,159013,1,2,0:0:0:0:
281,305,159179,1,2,0:0:0:0:
172,176,159346,1,10,0:0:0:0:
221,236,159512,1,2,0:0:0:0:
416,140,159680,2,0,P|351:129|275:113,1,133.594993678307,2|0,0:0|0:0,2:0:0:0:
284,115,160346,5,0,1:0:0:0:
452,366,160680,2,0,P|470:335|497:301,1,66.7974968391534,10|0,0:0|0:0,2:0:0:0:
309,227,161013,2,0,P|334:254|350:342,1,116.895619468518,2|0,0:0|0:0,2:0:0:0:
337,337,161346,5,2,1:0:0:0:
267,360,161513,1,2,0:0:0:0:
192,269,161680,1,2,0:0:0:0:
122,246,161847,1,2,0:0:0:0:
25,342,162013,1,10,0:0:0:0:
203,167,162346,1,2,0:0:0:0:
203,167,162680,1,0,0:0:0:0:
203,167,163013,6,0,P|183:137|183:102,1,66.7974968391534,0|0,1:0|0:0,2:0:0:0:
318,65,163346,2,0,P|336:93|339:126,1,66.7974968391534,8|0,0:0|0:0,2:0:0:0:
220,26,163680,2,0,L|198:21,5,22.2658322797178,0|0|0|2|0|0,0:0|0:0|0:0|0:0|0:0|0:0,2:0:0:0:
227,44,164013,6,0,P|285:33|354:23,1,116.895619468518,2|0,1:0|0:0,2:0:0:0:
352,40,164346,1,2,0:0:0:0:
464,177,164513,2,0,P|406:185|326:205,1,133.594993678307,2|0,0:0|0:0,2:0:0:0:
169,299,165013,1,2,0:0:0:0:
202,364,165180,2,0,P|210:306|230:226,1,133.594993678307,2|0,0:0|0:0,2:0:0:0:
133,61,165680,1,2,1:0:0:0:
74,108,165846,1,2,0:0:0:0:
264,15,166013,2,0,P|228:20|184:29,1,66.7974968391534,8|0,0:0|0:0,2:0:0:0:
22,164,166346,2,0,L|23:186,5,22.2658322797178,2|0|0|2|0|0,0:0|0:0|0:0|0:0|0:0|0:0,2:0:0:0:
25,200,166680,5,2,1:0:0:0:
332,348,167013,1,2,0:0:0:0:
258,255,167180,2,0,P|261:288|266:321,1,66.7974968391534,2|8,0:0|0:0,2:0:0:0:
352,172,167457,5,0,0:0:0:0:
372,167,167568,5,0,0:0:0:0:
391,165,167679,5,2,0:0:0:0:
441,231,167846,1,2,0:0:0:0:
294,114,168013,2,0,P|229:86|164:53,1,133.594993678307,0|0,0:0|1:0,2:0:0:0:
45,150,168513,2,0,P|75:130|117:120,2,66.7974968391534,0|8|0,0:0|0:0|0:0,2:0:0:0:
209,207,169013,2,0,L|213:185,5,22.2658322797178,0|0|0|2|0|0,0:0|0:0|0:0|0:0|0:0|0:0,2:0:0:0:
217,171,169346,5,2,1:0:0:0:
402,11,169680,1,2,0:0:0:0:
341,39,169846,2,0,P|342:74|368:106,1,66.7974968391534,2|8,0:0|0:0,2:0:0:0:
486,144,170124,5,0,0:0:0:0:
470,138,170235,5,0,0:0:0:0:
457,133,170346,5,2,0:0:0:0:
388,185,170513,1,2,0:0:0:0:
489,284,170680,2,0,P|428:303|348:331,1,133.594993678307,0|2,0:0|1:0,2:0:0:0:
176,347,171180,2,0,P|208:358|243:370,2,66.7974968391534,2|8|0,0:0|0:0|0:0,2:0:0:0:
41,250,171680,2,0,L|69:273,5,22.2658322797178,2|0|0|0|0|0,0:0|0:0|0:0|0:0|0:0|0:0,2:0:0:0:
37,232,172013,6,0,P|74:194|142:241,1,133.594993678307,2|0,1:0|0:0,2:0:0:0:
189,331,172513,1,0,0:0:0:0:
278,202,172680,5,8,0:0:0:0:
276,185,172791,5,0,0:0:0:0:
275,169,172902,5,0,0:0:0:0:
274,152,173013,5,0,0:0:0:0:
337,100,173180,1,0,0:0:0:0:
113,39,173346,2,0,B|135:58|138:99|138:99|160:64|189:57,2,133.594993678307,2|0|8,0:0|1:0|0:0,2:0:0:0:
277,77,174180,1,0,0:0:0:0:
353,13,174346,2,0,L|387:5,5,22.2658322797178,0|0|0|0|0|0,0:0|0:0|0:0|0:0|0:0|0:0,2:0:0:0:
394,3,174680,5,2,1:0:0:0:
481,163,175013,1,0,0:0:0:0:
420,116,175180,1,0,0:0:0:0:
350,149,175346,5,8,0:0:0:0:
348,167,175458,5,0,0:0:0:0:
346,185,175569,5,0,0:0:0:0:
343,203,175680,5,0,0:0:0:0:
395,268,175846,1,0,0:0:0:0:
343,334,176013,2,0,L|211:289,2,133.594993678307,2|0|8,0:0|1:0|0:0,2:0:0:0:
428,318,176846,1,0,0:0:0:0:
482,255,177013,2,0,L|489:227,5,22.2658322797178,0|0|0|0|0|0,0:0|0:0|0:0|0:0|0:0|0:0,2:0:0:0:
493,216,177346,5,2,1:0:0:0:
236,50,177680,1,0,0:0:0:0:
170,103,177846,1,0,0:0:0:0:
84,74,178013,5,8,0:0:0:0:
66,72,178124,5,0,0:0:0:0:
48,70,178235,5,0,0:0:0:0:
30,68,178346,5,0,0:0:0:0:
66,223,178513,1,0,0:0:0:0:
40,292,178680,2,0,P|19:226|1:154,1,133.594993678307,2|0,0:0|1:0,2:0:0:0:
178,351,179346,1,8,0:0:0:0:
113,296,179513,1,0,0:0:0:0:
168,224,179680,2,0,L|172:185,5,22.2658322797178,0|0|0|0|0|0,0:0|0:0|0:0|0:0|0:0|0:0,2:0:0:0:
162,189,180013,6,0,L|140:45,2,133.594993678307,2|0|8,1:0|0:0|0:0,2:0:0:0:
250,32,180791,5,0,0:0:0:0:
266,37,180902,5,0,0:0:0:0:
283,42,181013,5,0,0:0:0:0:
426,35,181180,1,0,0:0:0:0:
463,107,181346,2,0,P|448:144|367:124,1,133.594993678307,2|0,0:0|1:0,2:0:0:0:
369,130,181846,1,0,0:0:0:0:
272,256,182013,2,0,P|297:230|345:224,1,66.7974968391534,8|0,0:0|0:0,2:0:0:0:
361,318,182346,2,0,L|342:305,6,22.2658322797178,0|0|0|0|0|0|0,0:0|0:0|0:0|0:0|0:0|0:0|0:0,2:0:0:0:
379,163,185347,5,6,1:0:0:0:
402,235,185514,1,0,0:0:0:0:
223,141,185681,1,2,0:0:0:0:
361,7,185847,2,0,P|406:24|454:36,1,92.8224946162035,2|8,0:0|0:0,2:0:0:0:
198,76,186180,2,0,P|214:98|221:126,1,46.4112473081018,2|0,0:0|0:0,2:0:0:0:
182,179,186347,2,0,P|254:141|330:115,1,162.439365578356,2|0,0:0|0:0,2:0:0:0:
337,126,186680,2,0,P|314:167|293:208,1,92.8224946162035,0|0,0:0|0:0,2:0:0:0:
382,362,187013,2,0,P|346:333|309:305,1,92.8224946162035,2|0,1:0|0:0,2:0:0:0:
81,268,187347,1,8,0:0:0:0:
105,335,187513,1,0,0:0:0:0:
156,212,187680,2,0,P|90:246|52:184,1,162.439365578356,2|0,0:0|0:0,2:0:0:0:
54,171,188013,6,0,P|101:149|142:108,1,92.8224946162035,2|0,1:0|0:0,2:0:0:0:
131,121,188347,1,2,0:0:0:0:
324,220,188513,2,0,P|277:198|236:157,1,92.8224946162035,2|8,0:0|0:0,2:0:0:0:
435,235,188846,2,0,P|421:213|416:188,1,46.4112473081018,2|0,0:0|0:0,2:0:0:0:
411,117,189013,2,0,P|422:85|389:126,1,185.644989232407,2|0,0:0|0:0,2:0:0:0:
379,124,189513,1,0,0:0:0:0:
497,345,189680,2,0,P|476:302|419:288,1,92.8224946162035,2|0,1:0|0:0,2:0:0:0:
229,370,190013,2,0,P|270:352|290:311,1,92.8224946162035,10|0,0:0|0:0,2:0:0:0:
61,328,190346,2,0,P|85:250|115:169,1,162.439365578356,2|0,0:0|0:0,2:0:0:0:
107,166,190680,6,0,P|90:206|75:256,1,92.8224946162035,2|0,1:0|0:0,2:0:0:0:
76,253,191013,1,2,0:0:0:0:
200,123,191180,2,0,P|244:109|287:92,1,92.8224946162035,2|8,0:0|0:0,2:0:0:0:
363,306,191513,2,0,P|345:293|317:284,1,46.4112473081018,2|0,0:0|0:0,2:0:0:0:
249,321,191680,2,0,P|283:303|204:265,1,185.644989232407,2|0,0:0|0:0,2:0:0:0:
208,254,192180,1,0,0:0:0:0:
386,183,192346,2,0,P|437:180|479:205,1,92.8224946162035,2|0,1:0|0:0,2:0:0:0:
286,115,192680,2,0,P|320:77|368:66,1,92.8224946162035,10|0,0:0|0:0,2:0:0:0:
163,179,193013,2,0,P|149:129|203:33,1,162.439365578356,2|0,0:0|0:0,2:0:0:0:
212,26,193346,5,2,1:0:0:0:
129,0,193513,1,0,0:0:0:0:
257,125,193680,1,2,0:0:0:0:
149,275,193846,2,0,P|105:260|52:246,1,92.8224946162035,2|8,0:0|0:0,2:0:0:0:
210,354,194180,2,0,P|240:343|258:324,1,46.4112473081018,2|0,0:0|0:0,2:0:0:0:
261,247,194346,2,0,B|307:253|329:303|329:303|324:249|364:221,1,185.644989232407,2|0,0:0|0:0,2:0:0:0:
363,221,194846,1,0,0:0:0:0:
202,133,195013,2,0,P|247:133|295:150,1,92.8224946162035,2|0,1:0|0:0,2:0:0:0:
107,7,195346,2,0,P|69:33|39:73,1,92.8224946162035,10|0,0:0|0:0,2:0:0:0:
99,122,195680,2,0,B|110:76|160:65|160:65|132:82|122:126,1,162.439365578356,2|0,0:0|0:0,2:0:0:0:
128,136,196013,6,0,P|121:189|140:240,1,92.8224946162035,2|0,1:0|0:0,2:0:0:0:
131,226,196346,1,2,0:0:0:0:
371,359,196513,2,0,P|333:336|265:327,1,92.8224946162035,2|8,0:0|0:0,2:0:0:0:
456,258,196846,2,0,P|430:241|399:228,1,46.4112473081018,2|0,0:0|0:0,2:0:0:0:
341,251,197013,2,0,B|363:228|392:225|392:225|346:172|350:88,1,185.644989232407,2|0,0:0|0:0,2:0:0:0:
349,107,197680,2,0,P|299:102|254:70,1,92.8224946162035,2|0,1:0|0:0,2:0:0:0:
143,207,198013,2,0,P|172:171|214:152,1,92.8224946162035,10|0,0:0|0:0,2:0:0:0:
47,238,198346,2,0,L|54:202,5,30.9408315387345,2|0|0|0|0|0,0:0|0:0|0:0|0:0|0:0|0:0,2:0:0:0:
64,249,198680,5,2,1:0:0:0:
207,325,198846,1,2,0:0:0:0:
341,215,199013,1,2,0:0:0:0:
512,330,199180,2,0,P|498:283|482:239,1,92.8224946162035,2|8,0:0|0:0,2:0:0:0:
267,89,199513,2,0,P|249:106|219:118,1,46.4112473081018,2|0,0:0|0:0,2:0:0:0:
152,127,199680,2,0,B|250:114|214:207|312:195,1,185.644989232407,2|0,0:0|0:0,2:0:0:0:
31,16,200346,2,0,P|79:34|140:49,1,92.8224946162035,2|0,1:0|0:0,2:0:0:0:
224,149,200680,2,0,P|267:132|312:120,1,92.8224946162035,10|0,0:0|0:0,2:0:0:0:
474,0,201013,2,0,P|408:47|408:128,1,162.439365578356,2|0,0:0|0:0,2:0:0:0:
416,126,201346,6,0,P|459:144|507:171,1,92.8224946162035,2|0,1:0|0:0,2:0:0:0:
499,166,201680,1,2,0:0:0:0:
248,290,201846,2,0,P|275:252|312:211,1,92.8224946162035,2|8,0:0|0:0,2:0:0:0:
220,129,202180,2,0,P|200:114|177:110,1,46.4112473081018,2|0,0:0|0:0,2:0:0:0:
96,104,202346,2,0,B|143:73|179:110|179:110|194:61|250:65,1,185.644989232407,2|0,0:0|0:0,2:0:0:0:
251,65,202846,1,0,0:0:0:0:
69,235,203013,2,0,P|101:198|136:166,1,92.8224946162035,2|0,1:0|0:0,2:0:0:0:
284,313,203346,2,0,P|251:276|217:244,1,92.8224946162035,10|0,0:0|0:0,2:0:0:0:
426,216,203680,2,0,L|391:201,5,30.9408315387345,2|0|0|0|0|0,0:0|0:0|0:0|0:0|0:0|0:0,2:0:0:0:
391,193,204013,5,2,1:0:0:0:
45,375,204513,6,0,P|31:330|16:286,1,92.8224946162035,2|8,0:0|0:0,2:0:0:0:
16,286,204846,1,2,0:0:0:0:
203,177,205013,2,0,P|163:201|123:224,1,92.8224946162035,2|0,0:0|0:0,2:0:0:0:
43,74,205346,1,0,0:0:0:0:
114,101,205513,1,0,0:0:0:0:
330,13,205680,1,2,1:0:0:0:
307,16,205763,1,0,0:0:0:0:
288,29,205846,1,0,0:0:0:0:
275,48,205930,1,0,0:0:0:0:
271,71,206013,1,10,0:0:0:0:
303,143,206180,1,0,0:0:0:0:
460,258,206346,2,0,B|424:230|424:230|399:290|321:306,1,162.439365578356,2|0,0:0|0:0,2:0:0:0:
322,290,206680,5,2,1:0:0:0:
334,219,206846,1,0,0:0:0:0:
156,113,207013,1,2,0:0:0:0:
19,313,207180,2,0,P|64:293|112:277,1,92.8224946162035,2|8,0:0|0:0,2:0:0:0:
163,102,207513,2,0,P|188:95|226:86,1,46.4112473081018,2|0,0:0|0:0,2:0:0:0:
348,46,207680,2,0,P|265:65|160:92,1,185.644989232407,2|0,0:0|0:0,2:0:0:0:
167,90,208180,1,0,0:0:0:0:
403,199,208346,2,0,P|427:155|460:114,1,92.8224946162035,2|0,1:0|0:0,2:0:0:0:
296,263,208680,2,0,P|264:224|223:190,1,92.8224946162035,10|0,0:0|0:0,2:0:0:0:
396,302,209013,2,0,L|432:314,5,30.9408315387345,2|0|0|0|0|0,0:0|0:0|0:0|0:0|0:0|0:0,2:0:0:0:
379,310,209346,6,0,P|337:326|283:343,1,92.8224946162035,2|0,1:0|0:0,2:0:0:0:
291,340,209680,1,2,0:0:0:0:
48,256,209846,2,0,P|71:295|97:334,1,92.8224946162035,2|8,0:0|0:0,2:0:0:0:
100,158,210180,2,0,P|80:146|55:145,1,46.4112473081018,2|0,0:0|0:0,2:0:0:0:
184,179,210346,2,0,B|173:219|128:240|128:240|200:233|219:197,1,185.644989232407,2|0,0:0|0:0,2:0:0:0:
217,202,210846,1,0,0:0:0:0:
357,128,211013,1,2,1:0:0:0:
352,150,211096,1,0,0:0:0:0:
348,173,211179,1,0,0:0:0:0:
344,196,211263,1,0,0:0:0:0:
340,219,211346,2,0,L|325:122,1,92.8224946162035,10|0,0:0|0:0,2:0:0:0:
144,64,211680,2,0,L|173:73,5,30.9408315387345,2|0|0|0|0|0,0:0|0:0|0:0|0:0|0:0|0:0,2:0:0:0:
186,76,212013,5,2,1:0:0:0:
456,28,212346,1,2,0:0:0:0:
390,63,212513,2,0,P|379:112|363:173,1,92.8224946162035,2|8,0:0|0:0,2:0:0:0:
449,315,212846,2,0,P|426:306|402:298,1,46.4112473081018,2|0,0:0|0:0,2:0:0:0:
325,302,213013,2,0,P|407:259|494:211,1,185.644989232407,2|0,0:0|0:0,2:0:0:0:
488,214,213513,1,0,0:0:0:0:
268,250,213680,2,0,P|222:235|147:214,1,92.8224946162035,2|0,1:0|0:0,2:0:0:0:
76,341,214013,2,0,B|91:322|124:320|124:320|75:292|75:223,1,139.233741924305,10|0,0:0|0:0,2:0:0:0:
46,180,214346,2,0,P|26:182|10:192,5,30.9408315387345,2|0|0|2|0|0,0:0|0:0|0:0|0:0|0:0|0:0,2:0:0:0:
3,178,214680,6,0,P|35:163|108:200,1,92.8224946162035,2|0,1:0|0:0,2:0:0:0:
88,176,215013,1,2,0:0:0:0:
276,108,215180,2,0,P|242:119|218:187,1,92.8224946162035,2|8,0:0|0:0,2:0:0:0:
329,319,215513,2,0,P|345:302|378:299,1,46.4112473081018,2|0,0:0|0:0,2:0:0:0:
399,356,215680,2,0,B|433:253|330:287|364:185,1,185.644989232407,2|0,0:0|0:0,2:0:0:0:
364,186,216180,1,0,0:0:0:0:
207,56,216346,6,2,P|173:52|212:71,1,100.19624525873,0|0,1:0|0:0,2:0:0:0:
303,70,216680,2,0,P|322:42|287:66,1,100.19624525873,10|0,0:0|0:0,2:0:0:0:
244,152,217013,2,0,P|258:182|254:139,1,100.19624525873,2|0,0:0|0:0,2:0:0:0:
193,93,217346,5,0,1:0:0:0:
94,256,217680,5,2,0:0:0:0:
70,178,217846,2,0,P|76:146|81:110,1,66.7974968391534,2|8,0:0|0:0,0:0:0:0:
154,319,218180,5,2,0:0:0:0:
178,241,218346,2,0,P|171:209|167:173,1,66.7974968391534,2|0,0:0|0:0,0:0:0:0:
75,336,218680,1,0,0:0:0:0:
277,356,219013,6,0,P|349:359|405:294,1,139.233741924305,0|0,1:0|0:0,2:0:0:0:
455,261,219346,1,8,0:0:0:0:
329,159,219680,2,0,P|289:149|304:172,1,92.8224946162035,2|0,0:0|0:0,2:0:0:0:
394,206,220013,5,0,1:0:0:0:
394,206,220346,2,0,P|421:181|421:218,1,92.8224946162035,2|0,0:0|0:0,2:0:0:0:
324,44,220680,1,8,0:0:0:0:
305,47,220763,1,0,0:0:0:0:
287,50,220846,1,0,0:0:0:0:
269,53,220930,1,0,0:0:0:0:
250,57,221013,1,0,0:0:0:0:
250,57,221346,1,0,0:0:0:0:
7,48,221680,6,0,B|32:33|59:51|59:51|39:46|14:60,1,100.19624525873,2|0,1:0|0:0,2:0:0:0:
146,53,222013,2,0,B|146:81|117:96|117:96|131:81|131:53,1,100.19624525873,10|0,0:0|0:0,2:0:0:0:
73,169,222346,2,0,B|47:154|49:122|49:122|55:142|80:156,1,100.19624525873,2|0,0:0|0:0,2:0:0:0:
158,166,222680,5,2,1:0:0:0:
248,291,223013,5,2,0:0:0:0:
338,267,223180,2,0,P|346:235|354:191,1,66.7974968391534,2|8,0:0|0:0,0:0:0:0:
512,190,223513,5,2,0:0:0:0:
422,166,223680,2,0,P|414:134|406:90,1,66.7974968391534,2|0,0:0|0:0,0:0:0:0:
446,266,224013,1,0,0:0:0:0:
315,344,224346,6,0,P|363:263|457:273,1,185.644989232407,0|8,1:0|0:0,2:0:0:0:
446,265,224846,1,0,0:0:0:0:
342,175,225013,2,0,P|320:97|296:15,1,162.439365578356,2|0,0:0|0:0,2:0:0:0:
284,16,225346,6,0,P|251:83|144:116,1,185.644989232407,2|0,1:0|0:0,2:0:0:0:
20,240,225846,1,0,0:0:0:0:
91,196,226013,5,8,0:0:0:0:
127,202,226124,5,0,0:0:0:0:
164,208,226235,5,0,0:0:0:0:
200,214,226346,5,2,0:0:0:0:
259,163,226513,1,0,0:0:0:0:
293,88,226680,1,2,0:0:0:0:
338,150,226846,1,0,0:0:0:0:
211,336,227013,6,0,P|174:307|115:296,1,92.8224946162035,0|0,1:0|0:0,2:0:0:0:
293,353,227346,2,0,P|286:306|251:257,1,92.8224946162035,8|0,0:0|0:0,2:0:0:0:
414,247,227680,2,0,P|406:258|399:274,5,30.9408315387345,2|0|0|0|0|0,0:0|0:0|0:0|0:0|0:0|0:0,2:0:0:0:
381,280,228013,6,0,P|412:218|501:176,1,168.294999355045,2|0,1:0|0:0,2:0:0:0:
264,72,228513,1,0,0:0:0:0:
218,136,228680,2,0,P|304:95|403:68,1,168.294999355045,8|0,0:0|0:0,2:0:0:0:
254,233,229180,5,0,0:0:0:0:
317,262,229346,2,0,B|237:242|257:321|178:301,1,150.944997118298,2|0,0:0|1:0,2:0:0:0:
50,137,229846,1,0,0:0:0:0:
118,90,230013,2,0,L|125:138,1,49.447498037407,8|0,0:0|0:0,2:0:0:0:
200,169,230346,2,0,L|193:217,1,49.447498037407,0|0,0:0|0:0,2:0:0:0:
273,128,230680,5,2,1:0:0:0:
472,47,231013,1,0,0:0:0:0:
454,126,231180,1,0,0:0:0:0:
435,213,231346,5,8,0:0:0:0:
417,216,231457,5,0,0:0:0:0:
399,218,231568,5,0,0:0:0:0:
381,220,231680,5,0,0:0:0:0:
325,275,231846,1,0,0:0:0:0:
271,330,232013,2,0,P|212:314|132:299,2,133.594993678307,2|0|8,0:0|1:0|0:0,2:0:0:0:
140,224,232846,1,0,0:0:0:0:
74,269,233013,2,0,L|46:276,5,22.2658322797178,0|0|0|0|0|0,0:0|0:0|0:0|0:0|0:0|0:0,2:0:0:0:
42,279,233346,5,2,1:0:0:0:
14,54,233680,1,0,0:0:0:0:
59,113,233846,1,0,0:0:0:0:
132,135,234013,5,8,0:0:0:0:
145,123,234124,5,0,0:0:0:0:
161,115,234235,5,0,0:0:0:0:
178,109,234346,5,0,0:0:0:0:
244,148,234513,1,0,0:0:0:0:
311,187,234680,2,0,P|362:136|320:51,1,133.594993678307,2|0,0:0|1:0,2:0:0:0:
470,267,235346,5,8,0:0:0:0:
400,307,235513,1,0,0:0:0:0:
333,352,235680,2,0,L|330:374,5,22.2658322797178,0|0|0|0|0|0,0:0|0:0|0:0|0:0|0:0|0:0,2:0:0:0:
334,333,236013,6,0,B|326:299|290:286|290:286|329:286|347:257,2,133.594993678307,2|0|8,1:0|0:0|0:0,2:0:0:0:
258,359,236791,5,0,0:0:0:0:
240,356,236902,5,0,0:0:0:0:
224,347,237013,5,0,0:0:0:0:
194,275,237180,1,0,0:0:0:0:
164,205,237346,2,0,P|120:159|50:203,1,133.594993678307,2|0,0:0|1:0,2:0:0:0:
60,180,237846,1,0,0:0:0:0:
222,137,238013,2,0,P|251:120|284:105,1,66.7974968391534,8|0,0:0|0:0,2:0:0:0:
402,138,238346,2,0,L|430:119,5,22.2658322797178,0|0|0|0|0|0,0:0|0:0|0:0|0:0|0:0|0:0,2:0:0:0:
431,130,238680,5,2,1:0:0:0:
303,353,239013,2,0,L|237:330,1,66.7974968391534,0|0,0:0|0:0,2:0:0:0:
66,365,239346,5,8,0:0:0:0:
82,357,239457,5,0,0:0:0:0:
94,344,239568,5,0,0:0:0:0:
101,327,239680,5,0,0:0:0:0:
64,246,239846,1,0,0:0:0:0:
71,166,240013,2,0,P|139:146|214:120,2,133.594993678307,2|0|8,0:0|1:0|0:0,2:0:0:0:
213,45,240846,1,0,0:0:0:0:
273,98,241013,2,0,L|301:105,5,22.2658322797178,0|0|0|0|0|0,0:0|0:0|0:0|0:0|0:0|0:0,2:0:0:0:
305,108,241346,5,2,1:0:0:0:
305,108,241680,1,0,0:0:0:0:
378,73,241846,1,0,0:0:0:0:
380,157,242013,5,8,0:0:0:0:
372,173,242124,5,0,0:0:0:0:
359,185,242235,5,0,0:0:0:0:
342,192,242347,5,0,0:0:0:0:
273,219,242513,1,0,0:0:0:0:
200,253,242680,1,2,0:0:0:0:
200,253,243013,2,0,P|189:291|176:323,1,66.7974968391534,0|0,1:0|0:0,2:0:0:0:
351,282,243346,2,0,P|323:253|302:226,1,66.7974968391534,8|0,0:0|0:0,2:0:0:0:
249,378,243680,2,0,P|287:368|321:363,1,66.7974968391534,0|0,0:0|0:0,2:0:0:0:
265,299,244013,5,2,1:0:0:0:
265,299,244346,1,0,0:0:0:0:
351,282,244513,1,0,0:0:0:0:
430,315,244679,5,8,0:0:0:0:
433,297,244790,5,0,0:0:0:0:
435,279,244901,5,0,0:0:0:0:
437,261,245013,5,0,0:0:0:0:
368,182,245179,1,0,0:0:0:0:
279,209,245346,2,0,P|214:204|196:129,2,133.594993678307,2|0|8,0:0|1:0|0:0,2:0:0:0:
328,103,246179,1,0,0:0:0:0:
253,46,246346,2,0,L|225:53,5,22.2658322797178,0|0|0|0|0|0,0:0|0:0|0:0|0:0|0:0|0:0,2:0:0:0:
212,44,246679,5,2,1:0:0:0:
126,321,247013,5,0,0:0:0:0:
101,249,247180,1,0,0:0:0:0:
46,127,247346,1,8,0:0:0:0:
30,198,247680,5,0,0:0:0:0:
30,198,248013,6,0,P|67:165|143:164,1,100.19624525873,2|0,0:0|0:0,2:0:0:0:
146,70,248346,2,0,P|186:98|204:172,1,100.19624525873,0|0,1:0|0:0,2:0:0:0:
299,160,248680,2,0,P|280:205|212:240,1,100.19624525873,8|0,0:0|0:0,2:0:0:0:
237,319,249013,2,0,P|196:309|165:278,1,81.5449965145875,0|0,0:0|0:0,2:0:0:0:
