osu file format v14

[General]
AudioFilename: audio.mp3
AudioLeadIn: 0
PreviewTime: 137797
Countdown: 0
SampleSet: Soft
StackLeniency: 0.4
Mode: 0
LetterboxInBreaks: 0
WidescreenStoryboard: 0

[Editor]
DistanceSpacing: 0.3
BeatDivisor: 8
GridSize: 32
TimelineZoom: 1.7

[Metadata]
Title:Hangyakusha no Bokura
TitleUnicode:反逆者の僕ら
Artist:EMA
ArtistUnicode:EMA
Creator:SMOKELIND
Version:Insane
Source:映画大好きポンポさん
Tags:rei sirose 白瀬玲 DUSTCELL EM A Kamitsubaki Studio 神椿スタジオ Kudou Chitose 久遠千歳 Kudo Vtuber Youtube Virtual Youtuber カンザキイオリ insert song Pompo the Cinephile Eiga Daisuki Pompo-san 玲架 Anime Japanese Rock Pop We of The Rebels
BeatmapID:3014400
BeatmapSetID:1467992

[Difficulty]
HPDrainRate:5.7
CircleSize:4.7
OverallDifficulty:8.7
ApproachRate:8.7
SliderMultiplier:3.17
SliderTickRate:1

[Events]
//Background and Video events
Video,0,"vid.mp4"
0,0,"EMA.jpg",0,0
//Break Periods
//Storyboard Layer 0 (Background)
//Storyboard Layer 1 (Fail)
//Storyboard Layer 2 (Pass)
//Storyboard Layer 3 (Foreground)
//Storyboard Layer 4 (Overlay)
//Storyboard Sound Samples

[TimingPoints]
447,447.761194029851,4,2,77,17,1,0
9402,-370.37037037037,4,2,77,27,0,0
16566,-149.253731343284,4,2,77,47,0,0
37163,-93.4579439252338,4,2,77,47,0,0
37387,-212.765957446809,4,2,77,47,0,0
38058,-129.87012987013,4,2,77,57,0,0
51939,-212.765957446809,4,2,77,57,0,0
52387,-114.942528735632,4,2,77,67,0,0
64924,-212.765957446809,4,2,77,67,0,0
66715,-93.4579439252336,4,2,77,77,0,0
67387,-175.438596491228,4,2,77,77,0,0
67611,-93.4579439252336,4,2,77,77,0,0
70969,-175.438596491228,4,2,77,77,0,0
71193,-93.4579439252336,4,2,77,77,0,0
74551,-175.438596491228,4,2,77,77,0,0
74775,-93.4579439252336,4,2,77,77,0,0
76566,-103.092783505155,4,2,77,77,0,0
81044,-93.4579439252336,4,2,77,77,0,0
81715,-175.438596491228,4,2,77,77,0,0
81939,-93.4579439252336,4,2,77,77,0,0
85297,-175.438596491228,4,2,77,77,0,0
85521,-93.4579439252336,4,2,77,77,0,0
88879,-175.438596491228,4,2,77,77,0,0
89103,-93.4579439252336,4,2,77,77,0,0
90894,-103.092783505155,4,2,77,77,0,0
95372,-588.235294117657,4,2,77,27,0,0
98954,-370.370370370374,4,2,77,27,0,0
102536,-149.253731343284,4,2,77,47,0,0
124029,-114.942528735632,4,2,77,67,0,0
138357,-93.4579439252336,4,2,77,77,0,0
139029,-175.438596491228,4,2,77,77,0,0
139252,-93.4579439252336,4,2,77,77,0,0
142610,-175.438596491228,4,2,77,77,0,0
142834,-93.4579439252336,4,2,77,77,0,0
146192,-175.438596491228,4,2,77,77,0,0
146416,-93.4579439252336,4,2,77,77,0,0
148207,-103.092783505155,4,2,77,77,0,0
152685,-93.4579439252336,4,2,77,77,0,0
153356,-175.438596491228,4,2,77,77,0,0
153580,-93.4579439252336,4,2,77,77,0,0
156938,-175.438596491228,4,2,77,77,0,0
157162,-93.4579439252336,4,2,77,77,0,0
160521,-175.438596491228,4,2,77,77,0,0
160745,-93.4579439252336,4,2,77,77,0,0
162535,-103.092783505155,4,2,77,77,0,0
167014,-114.942528735632,4,2,77,57,0,0
181341,-103.092783505155,4,2,77,77,0,0
191641,-149.253731343284,4,2,77,77,0,0
192087,-103.092783505155,4,2,77,67,0,0
195669,-114.942528735632,4,2,77,67,0,0
209551,-370.370370370369,4,2,77,27,0,0
224327,-93.4579439252336,4,2,77,77,0,0
224999,-175.438596491228,4,2,77,77,0,0
225223,-93.4579439252336,4,2,77,77,0,0
228581,-175.438596491228,4,2,77,77,0,0
228805,-93.4579439252336,4,2,77,77,0,0
232163,-175.438596491228,4,2,77,77,0,0
232387,-93.4579439252336,4,2,77,77,0,0
234178,-103.092783505155,4,2,77,77,0,0
238655,-93.4579439252336,4,2,77,77,0,0
239327,-175.438596491228,4,2,77,77,0,0
239551,-93.4579439252336,4,2,77,77,0,0
241118,-175.438596491228,4,2,77,77,0,0
241342,-93.4579439252336,4,2,77,77,0,0
248282,-175.438596491228,4,2,77,77,0,0
248506,-93.4579439252336,4,2,77,77,0,0
252984,-370.37037037037,4,2,77,27,0,0

[Colours]
Combo1 : 149,0,0
Combo2 : 234,75,39

[HitObjects]
256,192,447,12,0,9178,0:0:0:0:
256,192,9402,5,2,1:0:0:0:
193,152,9626,1,2,0:0:0:0:
121,183,9849,1,2,0:0:0:0:
39,84,10073,1,2,0:0:0:0:
186,235,10521,6,2,L|180:277,2,42.7950010447998
333,347,11193,5,2,0:0:0:0:
398,309,11417,1,2,0:0:0:0:
379,237,11641,1,2,0:0:0:0:
480,107,11864,1,2,0:0:0:0:
480,107,12312,6,2,L|428:97,2,42.7950010447998
363,165,12984,5,2,0:0:0:0:
326,98,13208,1,2,0:0:0:0:
285,162,13432,1,2,0:0:0:0:
176,29,13655,1,2,0:0:0:0:
176,29,14103,6,2,L|170:71,1,42.7950010447998
171,71,14551,1,2,0:0:0:0:
49,160,14775,5,2,0:0:0:0:
119,135,14999,1,2,0:0:0:0:
42,153,15223,1,2,0:0:0:0:
125,239,15447,1,2,0:0:0:0:
125,239,15894,6,2,P|146:247|168:258,1,42.7950010447998
164,256,16342,1,2,0:0:0:0:
320,340,16566,5,2,1:0:0:0:
255,288,16790,1,2,0:0:0:0:
338,260,17014,2,0,P|307:298|241:266,1,106.194994976738,10|2,0:0|0:0,0:0:0:0:
222,216,17349,1,8,0:0:0:0:
229,208,17461,2,0,L|245:85,1,106.194994976738,0|0,1:0|1:0,0:0:0:0:
397,37,17909,5,8,0:0:0:0:
404,44,18021,2,0,L|463:33,2,53.0974974883691
365,112,18357,5,2,1:0:0:0:
439,193,18581,1,2,0:0:0:0:
361,237,18805,2,0,P|390:192|451:201,1,106.194994976738,10|2,0:0|0:0,0:0:0:0:
491,253,19141,5,8,0:0:0:0:
488,262,19252,1,0,1:0:0:0:
361,340,19476,1,2,1:0:0:0:
208,244,19700,1,8,0:0:0:0:
286,216,19924,5,0,0:0:0:0:
285,226,20036,1,0,0:0:0:0:
284,236,20148,1,2,1:0:0:0:
259,303,20372,1,2,0:0:0:0:
37,341,20596,6,2,P|87:333|113:288,1,106.194994976738,10|2,0:0|0:0,0:0:0:0:
69,223,20932,1,8,0:0:0:0:
61,215,21044,2,0,L|51:103,1,106.194994976738,0|2,1:0|1:0,0:0:0:0:
132,67,21379,1,0,0:0:0:0:
136,76,21491,2,0,P|96:112|36:85,1,106.194994976738,10|2,0:0|0:0,0:0:0:0:
20,33,21827,5,2,1:0:0:0:
22,22,21939,1,2,1:0:0:0:
136,76,22163,1,2,0:0:0:0:
262,15,22387,1,10,0:0:0:0:
222,81,22611,5,2,0:0:0:0:
221,91,22723,1,8,0:0:0:0:
220,101,22835,1,2,1:0:0:0:
268,165,23058,1,2,1:0:0:0:
332,62,23282,5,10,0:0:0:0:
332,62,23506,1,2,0:0:0:0:
63,135,23730,6,0,P|74:186|85:238,1,106.194994976738,2|0,1:0|0:0,0:0:0:0:
61,321,24066,1,2,0:0:0:0:
56,311,24178,2,0,P|95:276|158:294,1,106.194994976738,10|0,0:0|0:0,0:0:0:0:
202,332,24514,1,10,0:0:0:0:
202,342,24626,1,2,1:0:0:0:
327,283,24849,1,2,1:0:0:0:
271,153,25073,1,10,0:0:0:0:
211,199,25297,5,2,0:0:0:0:
200,196,25409,1,0,0:0:0:0:
189,193,25521,1,2,1:0:0:0:
154,120,25745,1,2,0:0:0:0:
251,60,25969,5,10,0:0:0:0:
107,183,26193,2,0,L|0:152,1,106.194994976738,2|0,0:0|1:0,0:0:0:0:
4,153,26641,1,2,1:0:0:0:
109,277,26864,1,10,0:0:0:0:
17,292,27088,5,2,0:0:0:0:
7,295,27200,1,0,0:0:0:0:
0,303,27312,2,0,P|56:292|104:284,1,106.194994976738,0|2,1:0|0:0,0:0:0:0:
268,384,27760,2,0,P|248:334|226:286,1,106.194994976738,10|2,0:0|0:0,0:0:0:0:
284,221,28096,1,8,0:0:0:0:
278,230,28208,1,2,1:0:0:0:
367,313,28432,1,2,1:0:0:0:
454,135,28655,2,0,B|477:122|506:141|506:141|478:135|455:147,1,106.194994976738,10|2,0:0|0:0,0:0:0:0:
487,215,28991,5,0,1:0:0:0:
485,225,29103,1,0,1:0:0:0:
381,281,29327,1,2,0:0:0:0:
294,154,29551,5,10,0:0:0:0:
55,242,29887,5,8,0:0:0:0:
56,231,29999,1,0,1:0:0:0:
194,84,30223,5,2,1:0:0:0:
209,200,30447,1,10,0:0:0:0:
224,316,30670,1,2,0:0:0:0:
295,138,30894,6,0,B|330:244|188:209|223:315,1,212.389989953476,2|10,1:0|0:0,0:0:0:0:
17,138,31678,5,8,0:0:0:0:
18,128,31790,1,2,1:0:0:0:
131,33,32014,1,2,1:0:0:0:
217,155,32238,1,10,0:0:0:0:
274,94,32461,5,2,0:0:0:0:
284,91,32573,1,0,0:0:0:0:
294,88,32685,1,0,1:0:0:0:
379,147,32909,1,2,0:0:0:0:
365,29,33133,5,10,0:0:0:0:
306,178,33357,2,0,P|321:234|336:288,1,106.194994976738,2|0,0:0|1:0,0:0:0:0:
333,280,33805,1,2,1:0:0:0:
158,349,34029,1,10,0:0:0:0:
157,276,34252,6,0,P|209:279|240:331,1,106.194994976738,2|0,0:0|1:0,0:0:0:0:
147,160,34700,2,0,P|116:201|64:204,1,106.194994976738,2|8,0:0|0:0,0:0:0:0:
36,73,35148,1,2,0:0:0:0:
38,83,35260,1,8,0:0:0:0:
40,93,35372,1,2,1:0:0:0:
168,21,35596,1,2,1:0:0:0:
265,117,35820,2,0,P|317:102|371:92,1,106.194994976738,10|2,0:0|0:0,0:0:0:0:
426,146,36155,5,0,1:0:0:0:
418,153,36267,2,0,P|365:138|312:128,1,106.194994976738,0|2,1:0|0:0,0:0:0:0:
314,128,36715,1,10,0:0:0:0:
444,359,37051,5,8,0:0:0:0:
449,352,37163,2,0,P|422:323|367:309,1,84.7974974121857,8|0,0:0|0:0,0:0:0:0:
346,214,37387,6,0,P|312:233|285:283,1,74.4949988632965,8|0,0:0|0:0,0:0:0:0:
292,262,37835,1,2,0:0:0:0:
44,47,38058,6,0,B|16:85|44:136|44:136|35:89|64:52,1,183.067496368595,2|0,1:0|0:0,0:0:0:0:
121,109,38506,2,0,P|183:98|254:79,1,122.044997579063,10|0,0:0|0:0,0:0:0:0:
306,47,38842,1,8,0:0:0:0:
308,34,38954,1,2,1:0:0:0:
423,97,39178,1,2,1:0:0:0:
306,194,39402,1,10,0:0:0:0:
336,119,39626,5,2,0:0:0:0:
336,119,39738,1,0,0:0:0:0:
336,119,39849,2,0,L|322:268,1,122.044997579063,2|2,1:0|0:0,0:0:0:0:
324,240,40297,1,10,0:0:0:0:
124,288,40521,1,2,0:0:0:0:
126,276,40633,1,8,0:0:0:0:
128,263,40745,2,0,P|185:236|232:292,1,122.044997579063,0|2,1:0|1:0,0:0:0:0:
169,136,41193,1,10,0:0:0:0:
296,31,41417,5,2,0:0:0:0:
294,42,41529,1,0,0:0:0:0:
293,54,41641,1,2,1:0:0:0:
192,22,41864,1,2,0:0:0:0:
152,92,42088,1,10,0:0:0:0:
51,124,42311,1,2,0:0:0:0:
49,111,42424,1,8,0:0:0:0:
47,99,42536,1,2,1:0:0:0:
128,198,42760,1,2,1:0:0:0:
8,306,42984,5,10,0:0:0:0:
8,306,43208,1,2,0:0:0:0:
259,351,43432,5,2,1:0:0:0:
201,258,43655,1,2,0:0:0:0:
273,355,43879,1,10,0:0:0:0:
414,243,44215,5,8,0:0:0:0:
428,241,44327,1,0,1:0:0:0:
343,292,44551,1,2,1:0:0:0:
459,153,44775,1,10,0:0:0:0:
416,87,44999,5,2,0:0:0:0:
404,89,45111,1,0,0:0:0:0:
392,93,45223,2,0,P|384:153|374:213,1,122.044997579063,2|0,1:0|0:0,0:0:0:0:
302,235,45558,1,2,0:0:0:0:
290,229,45670,2,0,P|280:168|272:108,1,122.044997579063,10|0,0:0|0:0,0:0:0:0:
203,64,46006,1,8,0:0:0:0:
191,66,46118,1,2,1:0:0:0:
25,142,46342,1,2,1:0:0:0:
73,204,46566,1,10,0:0:0:0:
18,277,46790,5,2,0:0:0:0:
30,277,46902,1,0,0:0:0:0:
40,275,47014,2,0,P|33:210|29:147,1,122.044997579063,2|2,1:0|0:0,0:0:0:0:
29,153,47461,1,10,0:0:0:0:
189,338,47685,1,2,0:0:0:0:
200,335,47797,1,8,0:0:0:0:
211,332,47909,1,0,1:0:0:0:
123,222,48133,1,2,1:0:0:0:
239,143,48357,1,10,0:0:0:0:
203,214,48581,1,2,0:0:0:0:
152,24,48805,5,2,1:0:0:0:
276,65,49029,1,2,0:0:0:0:
431,6,49252,1,10,0:0:0:0:
352,2,49476,1,2,0:0:0:0:
352,14,49588,1,8,0:0:0:0:
351,26,49700,1,0,1:0:0:0:
432,97,49924,1,2,1:0:0:0:
345,221,50148,1,10,0:0:0:0:
285,148,50372,5,2,0:0:0:0:
297,147,50484,1,0,0:0:0:0:
309,147,50596,2,0,B|371:162|347:255|246:263|208:154,1,244.089995158127,0|8,1:0|0:0,0:0:0:0:
73,52,51267,5,0,0:0:0:0:
71,64,51379,1,8,0:0:0:0:
70,76,51491,1,0,1:0:0:0:
131,177,51715,1,0,1:0:0:0:
7,271,51939,2,0,P|51:240|102:276,1,111.742498294945,8|0,0:0|0:0,0:0:0:0:
129,331,52387,6,0,P|229:349|353:374,1,206.842501735891,0|0,1:0|0:0,0:0:0:0:
413,330,52835,2,0,P|376:280|419:215,1,137.895001157261,10|2,0:0|0:0,0:0:0:0:
480,162,53170,1,8,0:0:0:0:
475,175,53282,2,0,P|409:184|322:199,1,137.895001157261,2|2,1:0|1:0,0:0:0:0:
204,59,53730,5,10,0:0:0:0:
274,90,53954,1,2,0:0:0:0:
110,163,54178,6,0,P|160:187|212:123,1,137.895001157261,2|2,1:0|0:0,0:0:0:0:
106,150,54626,1,10,0:0:0:0:
221,256,54849,1,2,0:0:0:0:
223,269,54961,1,8,0:0:0:0:
224,282,55073,1,0,1:0:0:0:
13,349,55297,2,0,P|88:324|149:309,1,137.895001157261,0|10,1:0|0:0,0:0:0:0:
354,367,55745,5,2,1:0:0:0:
343,357,55857,1,0,0:0:0:0:
337,344,55969,2,0,P|355:282|368:206,1,137.895001157261,2|2,1:0|0:0,0:0:0:0:
260,41,56417,2,0,P|317:79|370:123,1,137.895001157261,10|2,0:0|0:0,0:0:0:0:
436,168,56752,1,8,0:0:0:0:
449,165,56864,1,2,1:0:0:0:
377,264,57088,1,2,1:0:0:0:
180,178,57312,1,10,0:0:0:0:
235,234,57536,5,2,0:0:0:0:
248,231,57648,1,0,0:0:0:0:
261,228,57760,2,0,P|285:179|224:121,1,137.895001157261,0|2,1:0|0:0,0:0:0:0:
10,35,58208,2,0,P|26:100|51:172,1,137.895001157261,10|2,0:0|0:0,0:0:0:0:
111,215,58544,1,8,0:0:0:0:
120,224,58655,2,0,P|111:290|106:366,1,137.895001157261,0|0,1:0|1:0,0:0:0:0:
351,342,59103,5,10,0:0:0:0:
308,277,59327,1,2,1:0:0:0:
512,323,59551,6,0,P|449:296|375:270,1,137.895001157261,0|2,1:0|0:0,0:0:0:0:
302,94,59999,2,0,P|326:153|401:148,1,137.895001157261,8|2,0:0|0:0,0:0:0:0:
439,95,60335,1,8,0:0:0:0:
440,81,60447,1,0,1:0:0:0:
317,176,60670,1,2,1:0:0:0:
180,92,60894,5,8,0:0:0:0:
138,157,61118,1,2,0:0:0:0:
94,59,61342,6,0,P|134:72|132:161,1,137.895001157261,0|2,1:0|0:0,0:0:0:0:
29,317,61790,2,0,P|64:262|127:277,1,137.895001157261,8|2,0:0|0:0,0:0:0:0:
196,318,62126,1,8,0:0:0:0:
198,304,62238,1,2,1:0:0:0:
306,206,62461,5,2,1:0:0:0:
217,43,62685,1,10,0:0:0:0:
308,191,62909,1,2,1:0:0:0:
433,74,63133,6,0,B|291:37|350:219|208:182,1,275.790002314522,2|8,1:0|0:0,0:0:0:0:
469,314,63917,5,8,0:0:0:0:
456,307,64029,1,0,1:0:0:0:
312,330,64252,1,0,1:0:0:0:
170,354,64476,1,8,0:0:0:0:
109,300,64700,5,0,0:0:0:0:
284,259,64924,6,0,P|238:289|182:261,1,111.742498294945,2|0,1:0|0:0,0:0:0:0:
152,204,65372,2,0,B|90:183|53:236|53:236|75:145|14:119|14:119|55:106|77:64|77:64|73:112|43:129,1,409.722493748131,6|0,1:0|0:0,0:0:0:0:
5,42,66715,6,0,B|132:-2|90:169|219:127,1,254.392492236557,6|0,1:0|0:0,0:0:0:0:
261,65,67163,1,10,0:0:0:0:
417,268,67387,6,0,L|424:218,1,45.1724994485779,2|8,0:0|0:0,0:0:0:0:
478,150,67611,2,0,P|421:204|347:150,1,169.594994824371,2|0,1:0|1:0,0:0:0:0:
351,164,68058,1,10,0:0:0:0:
32,105,68282,5,2,0:0:0:0:
68,37,68506,2,0,B|127:76|127:76|89:154|69:256,1,254.392492236557,0|0,1:0|0:0,0:0:0:0:
129,330,68954,2,0,B|95:358|47:329|47:329|90:339|124:310,1,169.594994824371,8|0,0:0|0:0,0:0:0:0:
184,261,69290,1,8,0:0:0:0:
189,245,69402,1,0,1:0:0:0:
324,277,69626,1,0,1:0:0:0:
430,120,69849,1,10,0:0:0:0:
492,163,70073,5,2,0:0:0:0:
490,179,70185,1,0,0:0:0:0:
489,195,70297,2,0,P|416:159|323:140,1,169.594994824371,4|2,1:0|0:0,0:0:0:0:
330,140,70745,1,8,0:0:0:0:
142,33,70969,6,0,L|193:24,1,45.1724994485779,2|8,0:0|0:0,0:0:0:0:
202,22,71193,1,2,1:0:0:0:
139,128,71417,1,2,1:0:0:0:
210,241,71641,1,10,0:0:0:0:
72,327,71864,5,2,0:0:0:0:
21,275,72088,2,0,P|104:300|187:329,1,169.594994824371,0|2,1:0|0:0,0:0:0:0:
182,327,72536,1,10,0:0:0:0:
411,235,72760,1,2,0:0:0:0:
402,249,72872,1,8,0:0:0:0:
385,251,72984,1,0,1:0:0:0:
308,189,73208,1,0,1:0:0:0:
437,38,73432,5,10,0:0:0:0:
422,137,73655,1,2,0:0:0:0:
190,19,73879,6,0,P|108:39|14:60,1,169.594994824371,2|2,1:0|0:0,0:0:0:0:
24,57,74327,1,10,0:0:0:0:
220,250,74551,6,0,L|230:193,1,45.1724994485779,2|8,0:0|0:0,0:0:0:0:
233,193,74775,1,2,1:0:0:0:
357,26,74999,5,2,1:0:0:0:
491,132,75223,1,10,0:0:0:0:
395,275,75447,5,2,0:0:0:0:
336,223,75670,2,0,B|270:206|294:108|401:99|442:214,1,254.392492236557,0|0,1:0|0:0,0:0:0:0:
396,276,76118,1,8,0:0:0:0:
76,333,76454,5,8,0:0:0:0:
87,321,76566,2,0,L|98:231,1,76.872501818121,0|8,1:0|0:3,0:0:0:0:
31,134,76790,5,8,0:3:0:0:
38,149,76902,1,8,0:3:0:0:
46,163,77014,2,0,P|86:139|136:138,1,76.872501818121,8|8,0:0|0:3,0:0:0:0:
230,195,77238,5,12,0:3:0:0:
327,95,77461,1,12,0:3:0:0:
248,114,77685,5,2,0:0:0:0:
362,254,77909,2,0,P|443:234|518:219,1,153.745003636242,8|2,0:0|0:0,0:0:0:0:
511,295,78245,1,8,0:0:0:0:
499,305,78357,2,0,P|417:285|343:270,1,153.745003636242,0|2,1:0|1:0,0:0:0:0:
142,202,78805,5,8,0:0:0:0:
170,282,79029,1,10,0:3:0:0:
142,202,79252,1,0,1:0:0:0:
30,327,79476,5,2,0:0:0:0:
238,207,79700,2,0,B|343:186|343:186|312:183|297:165,1,153.745003636242,10|2,0:0|0:0,0:0:0:0:
351,108,80036,1,8,0:0:0:0:
365,112,80148,2,0,P|356:177|436:205,1,153.745003636242,0|0,1:0|1:0,0:0:0:0:
239,127,80596,5,10,0:0:0:0:
109,309,80820,1,10,0:3:0:0:
44,268,81044,6,0,B|75:241|86:203|86:203|154:270|254:258,1,254.392492236557,4|0,1:0|0:0,0:0:0:0:
308,218,81491,1,10,0:0:0:0:
69,84,81715,6,0,L|74:129,1,45.1724994485779,2|8,0:0|0:0,0:0:0:0:
162,51,81939,2,0,P|85:70|45:2,1,169.594994824371,2|0,1:0|1:0,0:0:0:0:
44,2,82386,1,10,0:0:0:0:
228,139,82610,5,2,0:0:0:0:
256,64,82835,2,0,B|347:33|316:155|407:124|407:124|367:127|347:94,1,254.392492236557,0|0,1:0|0:0,0:0:0:0:
407,48,83282,2,0,P|420:124|445:247,1,169.594994824371,10|0,0:0|0:0,0:0:0:0:
375,258,83618,1,8,0:0:0:0:
358,253,83730,1,0,1:0:0:0:
236,345,83954,1,0,1:0:0:0:
103,245,84177,1,10,0:0:0:0:
177,192,84402,5,2,0:0:0:0:
175,208,84514,1,0,0:0:0:0:
173,224,84626,2,0,P|111:228|70:136,1,169.594994824371,4|2,1:0|0:0,0:0:0:0:
68,141,85073,1,10,0:0:0:0:
266,220,85297,6,0,L|310:212,1,45.1724994485779,2|8,0:0|0:0,0:0:0:0:
325,208,85521,1,2,1:0:0:0:
427,120,85745,1,2,1:0:0:0:
504,288,85969,1,10,0:0:0:0:
317,377,86192,5,2,0:0:0:0:
247,348,86417,2,0,P|233:261|219:176,1,169.594994824371,0|2,1:0|0:0,0:0:0:0:
219,180,86864,1,10,0:0:0:0:
86,306,87088,1,2,0:0:0:0:
69,301,87200,1,8,0:0:0:0:
53,296,87312,1,0,1:0:0:0:
148,251,87536,1,0,1:0:0:0:
57,81,87760,5,10,0:0:0:0:
103,172,87983,1,2,0:0:0:0:
287,40,88208,6,0,B|270:-26|171:-1|163:105|278:147,1,254.392492236557,0|0,1:0|0:0,0:0:0:0:
333,99,88655,1,10,0:0:0:0:
493,51,88879,6,0,L|435:47,1,45.1724994485779,2|8,0:0|0:0,0:0:0:0:
433,48,89103,1,2,1:0:0:0:
512,237,89327,5,2,1:0:0:0:
340,192,89551,1,10,0:0:0:0:
191,277,89775,5,2,0:0:0:0:
216,353,89999,2,0,B|173:225|343:267|301:140,1,254.392492236557,0|0,1:0|0:0,0:0:0:0:
245,92,90446,1,8,0:0:0:0:
25,41,90782,5,8,0:0:0:0:
32,54,90894,2,0,P|67:67|115:50,1,76.872501818121,2|8,1:0|0:3,0:0:0:0:
164,128,91118,1,10,0:0:0:0:
174,138,91230,1,8,0:0:0:0:
185,148,91342,2,0,P|219:133|241:87,1,76.872501818121,10|8,0:0|0:3,0:0:0:0:
398,90,91566,5,14,0:3:0:0:
301,50,91789,1,14,0:3:0:0:
368,7,92013,5,2,0:0:0:0:
474,153,92238,2,0,P|406:128|359:196,1,153.745003636242,10|2,0:0|0:0,0:0:0:0:
318,248,92573,1,8,0:0:0:0:
323,262,92685,1,2,1:0:0:0:
240,325,92909,1,2,1:0:0:0:
92,158,93133,5,10,0:0:0:0:
83,266,93357,1,10,0:3:0:0:
182,217,93580,1,0,1:0:0:0:
257,47,93804,5,2,0:0:0:0:
92,158,94029,2,0,P|79:71|67:-1,1,153.745003636242,10|2,0:0|0:0,0:0:0:0:
142,10,94364,1,8,0:0:0:0:
155,17,94476,2,0,P|166:86|178:168,1,153.745003636242,2|2,1:0|1:0,0:0:0:0:
420,306,94924,5,10,0:0:0:0:
318,223,95148,1,10,0:3:0:0:
393,235,95372,6,2,B|443:201|420:147|420:147|423:144|423:144|435:205|505:207,1,215.560001315674
355,344,97835,5,2,0:0:0:0:
355,344,98282,1,2,0:0:0:0:
355,344,98730,1,2,0:0:0:0:
264,282,98954,5,2,0:0:0:0:
197,313,99178,1,2,0:0:0:0:
126,289,99402,1,2,0:0:0:0:
46,146,99626,1,2,0:0:0:0:
46,146,100073,6,2,L|52:94,2,42.7950010447998
115,175,100745,5,2,0:0:0:0:
185,153,100969,1,2,0:0:0:0:
259,129,101193,1,2,0:0:0:0:
366,40,101417,1,2,0:0:0:0:
366,40,101864,6,2,L|309:29,2,42.7950010447998
446,19,102536,5,2,1:0:0:0:
470,103,102760,1,2,0:0:0:0:
398,180,102984,2,2,P|420:228|441:276,1,106.194994976738,10|2,0:0|0:0,0:0:0:0:
396,338,103320,1,8,0:0:0:0:
390,328,103432,2,0,P|341:307|293:284,1,106.194994976738,0|2,1:0|1:0,0:0:0:0:
293,284,103879,1,8,0:0:0:0:
165,350,104103,5,0,0:0:0:0:
163,339,104215,1,0,0:0:0:0:
160,328,104327,1,2,1:0:0:0:
90,264,104551,1,2,0:0:0:0:
163,212,104775,2,0,P|118:215|89:266,1,106.194994976738,10|2,0:0|0:0,0:0:0:0:
25,308,105111,5,8,0:0:0:0:
22,299,105222,1,0,1:0:0:0:
97,187,105446,1,2,1:0:0:0:
17,94,105670,1,8,0:0:0:0:
55,24,105894,1,0,0:0:0:0:
162,140,106118,5,2,1:0:0:0:
225,100,106342,1,2,0:0:0:0:
330,211,106566,2,2,P|281:193|200:169,1,106.194994976738,10|2,0:0|0:0,0:0:0:0:
225,100,106902,1,8,0:0:0:0:
231,91,107014,2,0,P|279:73|361:49,1,106.194994976738,0|2,1:0|1:0,0:0:0:0:
487,139,107461,2,0,P|443:114|411:166,1,106.194994976738,8|0,0:0|0:0,0:0:0:0:
458,209,107797,5,0,1:0:0:0:
460,220,107909,1,2,1:0:0:0:
343,324,108133,1,2,0:0:0:0:
308,177,108357,1,10,0:0:0:0:
369,245,108581,5,2,0:0:0:0:
370,235,108693,1,8,0:0:0:0:
371,225,108805,1,0,1:0:0:0:
280,251,109028,1,2,1:0:0:0:
169,277,109252,5,8,0:0:0:0:
169,277,109476,1,2,0:0:0:0:
45,354,109700,6,0,B|15:265|104:294|74:206,1,159.292492465107,2|0,1:0|0:0,0:0:0:0:
16,159,110148,2,0,P|59:185|112:151,1,106.194994976738,10|0,0:0|0:0,0:0:0:0:
122,89,110484,1,8,0:0:0:0:
123,79,110596,1,2,1:0:0:0:
249,131,110819,1,2,1:0:0:0:
372,55,111043,1,10,0:0:0:0:
427,110,111267,5,2,0:0:0:0:
425,121,111379,1,0,0:0:0:0:
423,132,111491,1,2,1:0:0:0:
375,204,111715,1,2,0:0:0:0:
473,293,111939,5,10,0:0:0:0:
334,130,112163,2,0,P|281:142|230:152,1,106.194994976738,2|0,0:0|1:0,0:0:0:0:
96,112,112611,5,2,1:0:0:0:
131,46,112834,1,10,0:0:0:0:
153,189,113058,5,2,0:0:0:0:
81,206,113282,2,0,P|120:217|223:296,1,159.292492465107,2|0,1:0|0:0,0:0:0:0:
186,359,113730,2,0,P|136:363|110:314,1,106.194994976738,10|0,0:0|0:0,0:0:0:0:
136,250,114066,1,8,0:0:0:0:
139,239,114178,1,2,1:0:0:0:
255,335,114402,1,2,1:0:0:0:
412,254,114626,2,0,B|392:204|392:204|399:257,1,106.194994976738,10|2,0:0|0:0,0:0:0:0:
421,334,114961,5,0,1:0:0:0:
419,344,115073,1,0,1:0:0:0:
327,274,115297,1,2,0:0:0:0:
461,151,115521,5,10,0:0:0:0:
237,21,115857,5,8,0:0:0:0:
226,22,115969,1,0,1:0:0:0:
117,118,116193,5,2,1:0:0:0:
233,103,116416,1,10,0:0:0:0:
349,88,116640,1,2,0:0:0:0:
493,200,116864,6,0,B|442:211|411:144|411:144|353:188|313:155,1,212.389989953476,2|10,1:0|0:0,0:0:0:0:
430,349,117648,5,8,0:0:0:0:
429,339,117760,1,2,1:0:0:0:
293,272,117984,1,2,1:0:0:0:
160,345,118208,1,10,0:0:0:0:
195,275,118431,5,2,0:0:0:0:
192,264,118543,1,0,0:0:0:0:
190,254,118655,1,2,1:0:0:0:
142,178,118879,1,0,0:0:0:0:
253,77,119103,5,8,0:0:0:0:
103,245,119327,2,0,P|54:229|0:217,1,106.194994976738,2|0,0:0|1:0,0:0:0:0:
0,217,119775,1,2,1:0:0:0:
112,79,119999,1,10,0:0:0:0:
57,30,120223,6,0,P|29:63|51:137,1,106.194994976738,2|0,0:0|1:0,0:0:0:0:
227,153,120670,2,0,P|255:120|233:46,1,106.194994976738,2|10,0:0|0:0,0:0:0:0:
136,141,121118,1,2,0:0:0:0:
134,151,121230,1,8,0:0:0:0:
132,161,121342,1,2,1:0:0:0:
249,245,121566,1,2,1:0:0:0:
411,158,121790,2,0,P|372:181|366:242,1,106.194994976738,10|2,0:0|0:0,0:0:0:0:
414,297,122125,5,0,1:0:0:0:
423,291,122238,1,0,1:0:0:0:
474,233,122461,1,2,0:0:0:0:
338,57,122685,2,0,P|281:57|222:54,1,106.194994976738,10|2,0:0|0:0,0:0:0:0:
160,27,123021,5,8,0:0:0:0:
158,16,123133,1,0,1:0:0:0:
201,185,123357,1,2,1:0:0:0:
54,131,123581,1,10,0:0:0:0:
143,111,123805,5,2,0:0:0:0:
143,111,123917,1,0,0:0:0:0:
143,111,124029,2,0,P|149:178|159:263,1,137.895001157261,2|2,1:0|0:0,0:0:0:0:
378,360,124476,2,0,P|370:291|363:222,1,137.895001157261,10|2,0:0|0:0,0:0:0:0:
429,174,124812,1,8,0:0:0:0:
441,168,124924,1,0,1:0:0:0:
314,112,125148,1,0,1:0:0:0:
185,58,125372,1,10,0:0:0:0:
265,48,125596,1,2,0:0:0:0:
230,267,125820,6,0,P|189:184|71:218,1,206.842501735891,0|0,1:0|0:0,0:0:0:0:
88,284,126267,2,0,P|133:252|89:203,1,137.895001157261,10|0,0:0|0:0,0:0:0:0:
26,242,126603,1,8,0:0:0:0:
12,244,126715,1,0,1:0:0:0:
130,354,126939,1,0,1:0:0:0:
293,308,127163,1,10,0:0:0:0:
225,277,127387,1,2,0:0:0:0:
427,371,127611,6,0,P|413:266|399:134,1,206.842501735891,0|0,1:0|0:0,0:0:0:0:
494,134,128058,2,2,P|467:186|403:155,1,137.895001157261,10|2,0:0|0:0,0:0:0:0:
435,89,128394,1,8,0:0:0:0:
437,75,128506,1,2,1:0:0:0:
290,107,128730,1,2,1:0:0:0:
229,235,128954,1,10,0:0:0:0:
300,198,129178,1,2,0:0:0:0:
196,45,129402,6,0,B|87:8|123:153|14:117,1,206.842501735891,0|0,1:0|0:0,0:0:0:0:
1,47,129849,1,10,0:0:0:0:
173,124,130073,1,2,0:0:0:0:
171,137,130185,1,8,0:0:0:0:
170,150,130297,1,0,1:0:0:0:
196,45,130521,1,0,1:0:0:0:
200,227,130745,5,10,0:0:0:0:
200,226,130969,1,2,0:0:0:0:
28,367,131193,5,0,1:0:0:0:
83,316,131417,2,0,P|154:337|218:354,1,137.895001157261,2|8,0:0|0:0,0:0:0:0:
407,268,131864,1,2,0:0:0:0:
409,254,131976,1,8,0:0:0:0:
411,240,132088,2,0,P|338:248|323:317,1,137.895001157261,0|2,1:0|1:0,0:0:0:0:
318,301,132536,1,8,0:0:0:0:
494,208,132760,5,2,0:0:0:0:
433,166,132984,2,0,P|423:90|413:10,1,137.895001157261,0|0,1:0|0:0,0:0:0:0:
162,117,133432,2,0,P|233:90|309:62,1,137.895001157261,10|2,0:0|0:0,0:0:0:0:
350,117,133767,1,8,0:0:0:0:
349,130,133879,1,0,1:0:0:0:
221,189,134103,1,2,1:0:0:0:
110,49,134327,1,8,0:0:0:0:
42,71,134551,5,2,0:0:0:0:
28,73,134663,1,0,0:0:0:0:
14,75,134775,2,0,B|-21:180|119:145|84:250,1,206.842501735891,2|0,1:0|0:0,0:0:0:0:
30,300,135223,1,8,0:0:0:0:
146,91,135447,5,0,0:0:0:0:
133,93,135559,1,8,0:0:0:0:
120,94,135671,1,0,1:0:0:0:
225,68,135895,1,0,1:0:0:0:
326,208,136118,2,0,P|291:157|400:107,1,206.842501735891,8|0,0:0|0:0,0:0:0:0:
436,156,136566,5,0,1:0:0:0:
326,208,136790,1,0,0:0:0:0:
288,278,137014,5,8,0:0:0:0:
168,254,137238,1,0,0:0:0:0:
165,240,137349,1,8,0:0:0:0:
162,226,137461,1,8,0:0:0:0:
408,311,137685,5,8,0:0:0:0:
112,316,138357,6,0,B|95:381|-1:356|-10:250|103:210,1,254.392492236557,6|0,1:0|0:0,0:0:0:0:
167,254,138805,1,10,0:0:0:0:
85,78,139029,6,0,L|39:72,1,45.1724994485779,2|0,0:0|0:0,0:0:0:0:
168,27,139252,2,0,P|111:74|146:155,1,169.594994824371,2|0,1:0|1:0,0:0:0:0:
141,152,139700,1,10,0:0:0:0:
347,29,139924,5,2,0:0:0:0:
330,32,140036,1,0,0:0:0:0:
313,35,140148,2,0,P|304:115|290:229,1,169.594994824371,0|0,1:0|0:0,0:0:0:0:
434,347,140596,2,0,P|380:293|422:218,1,169.594994824371,8|0,0:0|0:0,0:0:0:0:
495,219,140932,1,8,0:0:0:0:
492,235,141044,1,0,1:0:0:0:
355,305,141267,1,0,1:0:0:0:
236,235,141491,1,8,0:0:0:0:
59,291,141715,5,2,0:0:0:0:
84,365,141939,2,0,B|143:325|143:325|88:138,1,254.392492236557,4|0,1:0|0:0,0:0:0:0:
28,111,142387,1,10,0:0:0:0:
286,25,142611,6,0,L|271:85,1,45.1724994485779,2|8,0:0|0:0,0:0:0:0:
272,78,142835,1,2,1:0:0:0:
334,216,143058,1,2,1:0:0:0:
473,250,143282,1,10,0:0:0:0:
220,327,143506,5,2,0:0:0:0:
266,384,143730,2,0,P|252:301|240:210,1,169.594994824371,0|2,1:0|0:0,0:0:0:0:
26,115,144178,2,0,P|97:145|161:81,1,169.594994824371,10|0,0:0|0:0,0:0:0:0:
104,31,144514,1,8,0:0:0:0:
98,46,144626,1,0,1:0:0:0:
147,164,144849,1,0,1:0:0:0:
29,317,145073,5,10,0:0:0:0:
92,233,145297,1,0,0:0:0:0:
236,346,145521,6,0,B|360:368|433:292|357:219|309:270|359:319,1,254.392492236557,2|0,1:0|0:0,0:0:0:0:
430,344,145969,1,10,0:0:0:0:
507,156,146193,6,0,P|483:170|451:171,1,45.1724994485779,2|8,0:0|0:0,0:0:0:0:
463,189,146417,2,0,P|411:165|279:125,1,169.594994824371,2|2,1:0|1:0,0:0:0:0:
304,130,146864,1,10,0:0:0:0:
74,82,147088,5,2,0:0:0:0:
117,18,147312,2,0,B|74:145|244:103|202:230,1,254.392492236557,0|0,1:0|0:0,0:0:0:0:
83,250,147760,2,0,P|134:190|196:242,1,169.594994824371,8|0,0:0|0:0,0:0:0:0:
231,307,148096,5,8,0:0:0:0:
216,311,148208,2,0,P|193:277|198:229,1,76.872501818121,0|8,1:0|0:3,0:0:0:0:
365,258,148432,1,8,0:3:0:0:
362,273,148544,1,8,0:3:0:0:
356,287,148655,2,0,P|315:278|286:240,1,76.872501818121,10|8,0:0|0:3,0:0:0:0:
469,137,148879,5,14,0:3:0:0:
355,176,149103,1,12,0:3:0:0:
197,78,149327,5,2,0:0:0:0:
235,14,149551,2,0,P|288:47|271:142,1,153.745003636242,8|2,0:0|0:0,0:0:0:0:
212,161,149887,1,8,0:0:0:0:
197,157,149999,1,0,1:0:0:0:
12,261,150223,2,0,P|74:226|154:260,1,153.745003636242,2|8,1:0|0:0,0:0:0:0:
147,252,150670,1,10,0:3:0:0:
314,368,150894,5,2,1:0:0:0:
281,272,151118,1,2,0:0:0:0:
427,129,151342,5,10,0:0:0:0:
407,244,151566,1,2,0:0:0:0:
391,242,151678,1,8,0:0:0:0:
375,239,151790,2,0,P|355:161|421:124,1,153.745003636242,0|0,1:0|1:0,0:0:0:0:
251,249,152238,5,10,0:0:0:0:
118,64,152461,1,10,0:3:0:0:
43,119,152685,6,0,B|170:161|128:-8|256:33,1,254.392492236557,4|0,1:0|0:0,0:0:0:0:
293,91,153132,1,10,0:0:0:0:
53,224,153357,6,0,P|75:231|103:242,1,45.1724994485779,2|8,0:0|0:0,0:0:0:0:
104,254,153581,2,0,P|153:236|277:206,1,169.594994824371,2|0,1:0|1:0,0:0:0:0:
266,207,154029,1,10,0:0:0:0:
433,155,154252,5,2,0:0:0:0:
459,67,154476,2,0,B|474:4|567:28|571:162|425:154,1,254.392492236557,0|0,1:0|0:0,0:0:0:0:
386,90,154924,2,0,P|301:77|203:58,1,169.594994824371,10|0,0:0|0:0,0:0:0:0:
160,17,155259,1,8,0:0:0:0:
143,22,155371,1,0,1:0:0:0:
170,177,155595,1,0,1:0:0:0:
34,273,155820,1,10,0:0:0:0:
85,175,156044,5,2,0:0:0:0:
85,175,156155,1,0,0:0:0:0:
85,175,156267,2,0,L|59:354,1,169.594994824371,4|2,1:0|0:0,0:0:0:0:
60,342,156714,1,10,0:0:0:0:
328,276,156939,6,0,L|283:271,1,45.1724994485779,2|8,0:0|0:0,0:0:0:0:
275,269,157162,1,2,1:0:0:0:
414,344,157386,1,2,1:0:0:0:
472,192,157610,1,10,0:0:0:0:
307,82,157835,5,2,0:0:0:0:
235,195,158058,2,0,P|301:171|295:69,1,169.594994824371,0|2,1:0|0:0,0:0:0:0:
306,81,158505,1,10,0:0:0:0:
120,39,158729,1,2,0:0:0:0:
137,36,158841,1,8,0:0:0:0:
153,33,158953,1,0,1:0:0:0:
31,154,159177,1,0,1:0:0:0:
172,297,159401,5,10,0:0:0:0:
150,198,159626,1,2,0:0:0:0:
63,327,159849,6,0,P|184:331|334:339,1,254.392492236557,0|0,1:0|0:0,0:0:0:0:
377,287,160296,1,10,0:0:0:0:
429,169,160521,6,0,L|439:226,1,45.1724994485779,2|8,0:0|0:0,0:0:0:0:
439,229,160744,1,2,1:0:0:0:
324,115,160968,5,2,1:0:0:0:
477,79,161192,1,10,0:0:0:0:
277,179,161416,5,2,0:0:0:0:
240,107,161641,2,0,B|112:64|154:234|27:192,1,254.392492236557,0|0,1:0|0:0,0:0:0:0:
12,119,162087,1,8,0:0:0:0:
239,270,162424,5,8,0:0:0:0:
224,264,162536,2,0,P|214:224|208:180,1,76.872501818121,0|8,1:0|0:3,0:0:0:0:
110,309,162760,1,8,0:3:0:0:
95,304,162872,1,8,0:3:0:0:
81,296,162984,2,0,P|91:256|97:212,1,76.872501818121,10|8,0:0|0:3,0:0:0:0:
254,53,163207,5,10,0:3:0:0:
208,188,163432,1,12,0:3:0:0:
111,22,163654,5,2,0:0:0:0:
334,160,163879,2,0,L|504:138,1,153.745003636242,10|2,0:0|0:0,0:0:0:0:
512,207,164214,1,8,0:0:0:0:
507,221,164326,1,2,1:0:0:0:
412,112,164550,1,10,0:3:0:0:
341,292,164774,5,10,0:0:0:0:
213,307,164998,1,10,0:3:0:0:
86,323,165223,1,2,1:0:0:0:
204,198,165447,5,2,0:0:0:0:
53,169,165670,2,0,P|130:186|214:199,1,153.745003636242,10|2,0:0|0:0,0:0:0:0:
252,135,166006,1,8,0:0:0:0:
262,123,166118,2,2,P|186:110|111:94,1,153.745003636242,2|2,1:0|1:0,0:0:0:0:
324,41,166565,5,10,0:0:0:0:
350,165,166789,1,10,0:3:0:0:
464,174,167014,6,0,B|534:155|506:50|392:41|349:164,1,275.790002314522,0|8,1:0|0:0,0:0:0:0:
390,290,167685,1,2,0:0:0:0:
392,276,167797,1,8,0:0:0:0:
394,262,167909,1,2,1:0:0:0:
300,342,168133,2,2,P|230:353|161:368,1,137.895001157261,2|10,1:0|0:0,0:0:0:0:
39,248,168581,6,0,P|85:291|147:263,1,137.895001157261,2|0,0:0|1:0,0:0:0:0:
146,263,169029,1,0,0:0:0:0:
17,166,169252,2,0,P|28:93|35:28,1,137.895001157261,8|2,0:0|0:0,0:0:0:0:
104,12,169588,1,8,0:0:0:0:
116,18,169700,1,2,1:0:0:0:
179,138,169924,1,2,1:0:0:0:
317,93,170148,1,8,0:0:0:0:
266,186,170372,5,2,0:0:0:0:
266,186,170484,1,0,0:0:0:0:
266,186,170596,2,0,P|254:133|336:99,1,137.895001157261,0|0,1:0|0:0,0:0:0:0:
316,92,171044,1,8,0:0:0:0:
449,244,171267,1,2,0:0:0:0:
435,242,171379,1,8,0:0:0:0:
421,240,171491,1,2,1:0:0:0:
374,161,171715,1,2,1:0:0:0:
312,280,171939,1,10,0:0:0:0:
469,156,172163,5,2,0:0:0:0:
469,156,172275,1,0,0:0:0:0:
469,156,172387,2,0,B|447:10|447:10|447:56|406:85,1,206.842501735891,2|0,1:0|0:0,0:0:0:0:
374,14,172835,1,8,0:0:0:0:
317,117,173058,1,2,0:0:0:0:
311,129,173170,1,8,0:0:0:0:
304,141,173282,2,0,P|238:131|163:122,1,137.895001157261,2|0,1:0|1:0,0:0:0:0:
167,122,173730,1,8,0:0:0:0:
32,167,173954,5,2,0:0:0:0:
32,167,174066,1,0,0:0:0:0:
32,167,174178,2,0,P|83:170|78:258,1,137.895001157261,2|0,1:0|0:0,0:0:0:0:
94,244,174626,1,10,0:0:0:0:
223,352,174849,1,2,0:0:0:0:
236,349,174961,1,8,0:0:0:0:
249,345,175073,1,0,1:0:0:0:
332,213,175297,1,2,1:0:0:0:
452,288,175521,1,8,0:0:0:0:
345,328,175745,5,2,0:0:0:0:
345,328,175857,1,0,0:0:0:0:
345,328,175969,2,0,L|355:177,1,137.895001157261,0|0,1:0|0:0,0:0:0:0:
206,61,176417,2,0,P|256:104|327:76,1,137.895001157261,8|2,0:0|0:0,0:0:0:0:
378,36,176752,1,8,0:0:0:0:
381,22,176864,1,2,1:0:0:0:
356,161,177088,1,2,1:0:0:0:
206,61,177312,2,0,P|137:50|56:37,1,137.895001157261,8|2,0:0|0:0,0:0:0:0:
18,93,177648,5,0,0:0:0:0:
16,106,177760,1,4,1:0:0:0:
62,170,177984,1,0,0:0:0:0:
30,248,178208,1,8,0:0:0:0:
107,315,178432,1,8,0:0:0:0:
270,300,178655,5,8,0:0:0:0:
133,239,178879,1,8,0:0:0:0:
201,270,179103,5,8,0:0:0:0:
367,190,179327,1,10,0:0:0:0:
303,222,179551,5,10,0:0:0:0:
137,142,179775,1,8,0:0:0:0:
331,22,179999,5,10,0:0:0:0:
315,136,180223,1,10,0:0:0:0:
496,237,180447,5,8,0:0:0:0:
383,174,180671,1,10,0:0:0:0:
242,312,180894,5,8,0:0:0:0:
373,250,181118,1,10,0:0:0:0:
211,117,181342,6,0,B|157:104|123:176|123:176|61:128|19:164,1,230.617505454363,6|0,1:0|0:0,0:0:0:0:
39,241,181790,6,0,P|18:203|24:161,1,76.872501818121,10|0,0:0|0:0,0:0:0:0:
69,332,182014,2,0,P|25:327|-5:298,1,76.872501818121,2|8,0:0|0:0,0:0:0:0:
206,224,182238,2,0,P|156:244|208:326,1,153.745003636242,2|0,1:0|1:0,0:0:0:0:
283,352,182573,1,2,0:0:0:0:
296,344,182685,2,0,P|300:306|303:260,1,76.872501818121,10|0,0:0|0:0,0:0:0:0:
423,177,182909,5,2,0:0:0:0:
408,172,183021,1,2,0:0:0:0:
392,169,183133,2,0,P|397:235|410:331,1,153.745003636242,2|0,1:0|0:0,0:0:0:0:
318,192,183469,5,2,0:0:0:0:
307,180,183581,2,0,P|267:182|228:218,2,76.872501818121,10|0|0,0:0|0:0|0:0,0:0:0:0:
192,145,183917,1,10,0:0:0:0:
175,147,184029,2,0,P|153:180|161:232,2,76.872501818121,2|0|0,1:0|0:0|1:0,0:0:0:0:
348,113,184476,6,0,B|430:110|458:27|458:27|463:25|463:25|450:64|475:96,1,230.617505454363,10|0,0:0|0:0,0:0:0:0:
436,179,184924,6,0,B|319:217|358:62|241:101,1,230.617505454363,6|0,1:0|0:0,0:0:0:0:
191,160,185372,6,0,P|225:142|246:96,1,76.872501818121,10|0,0:0|0:0,0:0:0:0:
147,227,185596,2,0,P|181:244|230:235,1,76.872501818121,2|8,0:0|0:0,0:0:0:0:
62,223,185820,2,0,P|67:261|103:296,1,76.872501818121,2|0,1:0|0:0,0:0:0:0:
107,151,186044,5,2,1:0:0:0:
218,241,186267,1,10,0:0:0:0:
361,170,186491,5,2,0:0:0:0:
361,170,186603,1,2,0:0:0:0:
361,170,186715,2,0,P|440:184|523:199,1,153.745003636242,2|0,1:0|0:0,0:0:0:0:
470,268,187051,5,2,0:0:0:0:
456,261,187163,2,0,P|429:230|430:178,2,76.872501818121,10|0|0,0:0|0:0|0:0,0:0:0:0:
294,326,187499,2,0,P|330:308|350:261,2,76.872501818121,10|0|0,0:0|1:0|0:0,0:0:0:0:
220,286,187835,1,2,1:0:0:0:
215,271,187947,1,2,0:0:0:0:
210,256,188058,2,0,B|133:256|52:225|52:225|91:240|97:288,1,230.617505454363,10|0,0:0|0:0,0:0:0:0:
19,299,188506,6,0,P|41:223|58:136,2,153.745003636242,2|2|10,1:0|0:0|0:0,0:0:0:0:
9,54,189290,5,8,0:0:0:0:
18,65,189402,2,0,P|56:70|96:88,1,76.872501818121,2|0,1:0|0:0,0:0:0:0:
185,59,189626,2,0,P|208:88|225:129,1,76.872501818121,2|0,1:0|0:0,0:0:0:0:
307,209,189849,2,0,P|258:158|312:100,1,153.745003636242,10|0,0:0|0:0,0:0:0:0:
349,24,190185,5,2,0:0:0:0:
334,30,190297,2,0,B|294:147|451:108|412:226,1,230.617505454363,2|0,1:0|0:0,0:0:0:0:
416,309,190745,2,0,B|356:307|331:243|331:243|339:311|286:342,1,230.617505454363,10|0,0:0|0:0,0:0:0:0:
221,296,191193,1,8,0:3:0:0:
205,293,191304,1,8,0:3:0:0:
190,291,191416,1,8,0:3:0:0:
175,289,191528,1,8,0:3:0:0:
160,286,191641,2,0,L|153:216,2,53.0974974883691,8|8|8,0:0|0:3|0:3,0:0:0:0:
87,176,191976,5,8,0:3:0:0:
76,187,192088,2,0,B|12:179|24:83|123:63|175:166,1,230.617505454363,14|0,0:3|0:0,0:0:0:0:
154,233,192536,1,10,0:0:0:0:
286,154,192760,5,2,0:0:0:0:
288,138,192872,1,8,0:0:0:0:
273,143,192984,1,0,1:0:0:0:
357,218,193208,1,2,1:0:0:0:
440,121,193432,5,10,0:0:0:0:
357,218,193655,1,10,0:3:0:0:
452,309,193879,6,0,P|406:262|329:286,1,153.745003636242,2|2,1:0|0:0,0:0:0:0:
143,368,194327,2,0,P|210:338|214:265,1,153.745003636242,10|2,0:0|0:0,0:0:0:0:
143,215,194663,1,8,0:0:0:0:
145,231,194775,1,2,1:0:0:0:
32,274,194999,1,2,1:0:0:0:
144,99,195223,5,10,0:0:0:0:
40,42,195447,1,10,0:3:0:0:
144,99,195670,6,0,P|220:69|389:29,1,206.842501735891,2|0,1:0|0:0,0:0:0:0:
418,69,196118,2,0,P|371:50|342:120,1,137.895001157261,10|2,0:0|0:0,0:0:0:0:
399,169,196453,1,8,0:0:0:0:
410,176,196566,2,2,P|422:242|434:329,1,137.895001157261,2|2,1:0|1:0,0:0:0:0:
309,335,197013,5,10,0:0:0:0:
235,357,197237,1,2,0:0:0:0:
156,287,197461,6,2,P|225:298|232:362,1,137.895001157261,2|2,1:0|0:0,0:0:0:0:
149,302,197909,1,10,0:0:0:0:
241,183,198132,1,2,0:0:0:0:
241,170,198244,1,8,0:0:0:0:
231,180,198356,1,0,1:0:0:0:
78,223,198581,2,0,P|75:152|72:75,1,137.895001157261,0|10,1:0|0:0,0:0:0:0:
241,24,199028,5,2,0:0:0:0:
242,37,199140,1,0,0:0:0:0:
230,44,199252,2,0,P|177:5|94:38,1,137.895001157261,0|2,1:0|0:0,0:0:0:0:
78,223,199700,2,2,P|131:262|214:229,1,137.895001157261,10|2,0:0|0:0,0:0:0:0:
217,171,200035,1,8,0:0:0:0:
219,157,200147,1,2,1:0:0:0:
94,122,200371,1,2,1:0:0:0:
136,286,200595,1,10,0:0:0:0:
203,328,200820,5,2,0:0:0:0:
216,332,200932,1,0,0:0:0:0:
228,327,201044,2,0,P|271:301|376:260,1,137.895001157261,0|2,1:0|0:0,0:0:0:0:
232,106,201491,2,0,P|295:131|355:165,1,137.895001157261,10|2,0:0|0:0,0:0:0:0:
422,217,201827,1,8,0:0:0:0:
409,216,201939,1,0,1:0:0:0:
304,318,202163,1,0,1:0:0:0:
167,140,202386,5,10,0:0:0:0:
106,199,202610,1,2,1:0:0:0:
63,113,202835,6,0,P|111:163|169:137,1,137.895001157261,0|2,1:0|0:0,0:0:0:0:
344,54,203282,2,0,P|284:80|287:145,1,137.895001157261,8|2,0:0|0:0,0:0:0:0:
363,170,203618,1,8,0:0:0:0:
377,169,203730,1,0,1:0:0:0:
466,203,203953,1,2,1:0:0:0:
321,371,204177,5,8,0:0:0:0:
295,296,204401,1,2,0:0:0:0:
102,377,204626,6,0,P|176:356|257:339,1,137.895001157261,0|2,1:0|0:0,0:0:0:0:
54,184,205073,2,0,P|116:238|170:227,1,137.895001157261,8|2,0:0|0:0,0:0:0:0:
198,159,205409,1,8,0:0:0:0:
196,145,205521,1,2,1:0:0:0:
416,194,205744,5,2,1:0:0:0:
261,100,205968,1,10,0:0:0:0:
422,188,206192,1,2,1:0:0:0:
215,24,206416,6,0,B|178:164|360:105|323:247,1,275.790002314522,4|8,1:0|0:0,0:0:0:0:
323,246,207088,1,8,0:0:0:0:
163,349,207312,5,8,0:0:0:0:
187,273,207536,1,8,0:0:0:0:
45,191,207760,5,8,0:0:0:0:
74,284,207984,1,8,0:0:0:0:
201,69,208208,5,8,0:0:0:0:
86,96,208432,1,8,0:0:0:0:
218,197,208655,5,8,0:0:0:0:
360,228,208879,1,8,0:0:0:0:
463,41,209103,5,8,0:0:0:0:
360,228,209327,1,8,0:0:0:0:
334,150,209551,5,2,0:0:0:0:
334,150,209999,6,2,L|340:106,2,42.7950010447998
275,209,210670,1,2,0:0:0:0:
275,209,211118,1,2,0:0:0:0:
66,92,211790,6,2,L|22:98,2,42.7950010447998
124,146,212461,1,2,0:0:0:0:
124,146,212909,1,2,0:0:0:0:
124,146,213357,1,2,0:0:0:0:
47,251,213581,6,2,L|41:208,2,42.7950010447998
108,293,214252,1,2,0:0:0:0:
108,293,214700,1,2,0:0:0:0:
108,293,215148,1,2,0:0:0:0:
222,325,215372,6,2,L|179:332,2,42.7950010447998
261,259,216044,1,2,0:0:0:0:
261,259,216491,1,2,0:0:0:0:
261,259,216939,1,2,0:0:0:0:
348,328,217163,6,2,L|341:285,2,42.7950010447998
413,371,217835,1,2,0:0:0:0:
413,371,218282,1,2,0:0:0:0:
449,169,218954,6,2,L|492:162,2,42.7950010447998
382,128,219626,1,2,0:0:0:0:
382,128,220073,1,2,0:0:0:0:
382,128,220521,1,2,0:0:0:0:
253,54,220745,6,2,L|260:11,2,42.7950010447998
194,95,221417,1,2,0:0:0:0:
194,95,221864,1,2,0:0:0:0:
194,95,222312,1,2,0:0:0:0:
64,27,222536,6,2,L|21:20,2,42.7950010447998
100,95,223208,1,2,0:0:0:0:
28,261,223432,5,2,0:0:0:0:
28,261,223655,1,2,0:0:0:0:
400,96,224327,6,0,B|466:87|454:-13|350:-34|295:74,1,254.392492236557,4|0,1:0|0:0,0:0:0:0:
311,147,224775,1,10,0:0:0:0:
484,273,224999,6,0,L|425:265,1,45.1724994485779,2|8,0:0|0:0,0:0:0:0:
389,185,225223,2,0,P|426:242|356:287,1,169.594994824371,0|0,1:0|1:0,0:0:0:0:
355,286,225670,1,10,0:0:0:0:
161,297,225894,5,2,0:0:0:0:
186,373,226118,2,0,B|143:245|313:288|270:161,1,254.392492236557,0|0,1:0|0:0,0:0:0:0:
227,100,226566,2,0,B|188:114|143:97|143:97|187:114|197:166,1,169.594994824371,10|0,0:0|0:0,0:0:0:0:
118,188,226902,1,8,0:0:0:0:
117,171,227014,1,0,1:0:0:0:
190,26,227238,1,0,1:0:0:0:
331,115,227461,1,10,0:0:0:0:
489,67,227685,5,2,0:0:0:0:
446,9,227909,2,0,B|381:51|381:51|453:104|446:215,1,254.392492236557,4|0,1:0|0:0,0:0:0:0:
485,274,228357,1,10,0:0:0:0:
226,297,228581,6,0,L|288:309,1,45.1724994485779,2|8,0:0|0:0,0:0:0:0:
287,309,228805,1,2,1:0:0:0:
200,199,229029,1,2,1:0:0:0:
72,274,229252,1,10,0:0:0:0:
27,75,229476,6,0,P|43:144|146:154,1,169.594994824371,2|0,0:0|1:0,0:0:0:0:
130,163,229924,1,2,0:0:0:0:
257,69,230148,1,10,0:0:0:0:
416,144,230372,5,2,0:0:0:0:
399,137,230484,1,8,0:0:0:0:
414,131,230596,1,0,1:0:0:0:
450,276,230820,1,0,1:0:0:0:
312,351,231044,1,10,0:0:0:0:
168,211,231267,5,2,0:0:0:0:
168,211,231379,1,0,0:0:0:0:
168,211,231491,2,0,B|185:320|185:320|181:271|222:243,1,169.594994824371,0|2,1:0|0:0,0:0:0:0:
199,263,231939,1,10,0:0:0:0:
31,207,232163,6,0,L|43:135,1,45.1724994485779,2|8,0:0|0:0,0:0:0:0:
56,89,232387,2,2,L|75:282,1,169.594994824371,2|2,1:0|1:0,0:0:0:0:
72,257,232835,1,10,0:0:0:0:
197,54,233058,5,2,0:0:0:0:
249,105,233282,2,0,B|378:61|335:234|464:191,1,254.392492236557,0|0,1:0|0:0,0:0:0:0:
482,84,233730,2,0,B|460:63|451:26|451:26|460:86|425:132,1,169.594994824371,8|2,0:0|0:0,0:0:0:0:
331,177,234066,5,8,0:0:0:0:
340,188,234178,2,0,P|349:224|352:273,1,76.872501818121,0|8,1:0|0:3,0:0:0:0:
218,333,234402,1,10,0:3:0:0:
231,329,234514,1,8,0:3:0:0:
246,325,234626,2,0,P|254:287|256:249,1,76.872501818121,10|8,0:0|0:3,0:0:0:0:
136,91,234849,5,10,0:3:0:0:
22,127,235073,1,12,0:3:0:0:
55,22,235297,5,2,0:0:0:0:
95,191,235521,2,0,B|72:296|72:296|84:261|134:245,1,153.745003636242,10|2,0:0|0:0,0:0:0:0:
140,323,235857,1,8,0:0:0:0:
155,321,235969,1,2,1:0:0:0:
200,205,236193,1,2,1:0:0:0:
410,159,236417,5,10,0:0:0:0:
335,95,236641,1,10,0:3:0:0:
302,188,236864,1,0,1:0:0:0:
448,56,237088,5,2,0:0:0:0:
410,159,237312,2,0,L|429:313,1,153.745003636242,10|2,0:0|0:0,0:0:0:0:
366,353,237648,1,8,0:0:0:0:
352,360,237760,2,0,P|294:312|226:345,1,153.745003636242,2|2,1:0|1:0,0:0:0:0:
229,340,238208,5,10,0:0:0:0:
85,369,238432,1,10,0:3:0:0:
219,204,238655,6,0,B|171:163|101:217|101:217|65:137|5:150,1,254.392492236557,4|0,1:0|0:0,0:0:0:0:
14,227,239103,1,10,0:0:0:0:
141,71,239327,6,0,L|125:120,1,45.1724994485779,2|8,0:0|0:0,0:0:0:0:
90,3,239551,2,0,P|144:54|235:6,1,169.594994824371,2|0,1:0|1:0,0:0:0:0:
225,24,239999,1,10,0:0:0:0:
449,351,240447,5,2,1:0:0:0:
380,301,240670,1,2,0:0:0:0:
377,284,240782,1,0,0:0:0:0:
391,293,240894,1,10,0:0:0:0:
487,143,241118,6,0,L|428:150,1,45.1724994485779,2|8,0:0|0:0,0:0:0:0:
368,73,241342,2,0,P|420:124|350:195,1,169.594994824371,2|2,1:0|1:0,0:0:0:0:
374,193,241790,1,8,0:0:0:0:
283,93,242014,1,2,0:0:0:0:
158,213,242238,5,6,1:0:0:0:
92,169,242461,2,2,B|40:109|71:49|71:49|100:60|83:88,1,169.594994824371,2|10,0:0|0:0,0:0:0:0:
26,258,242909,1,2,0:0:0:0:
40,248,243021,1,8,0:0:0:0:
43,264,243133,1,0,1:0:0:0:
142,333,243357,1,2,1:0:0:0:
304,286,243581,5,8,0:0:0:0:
281,208,243805,1,2,0:0:0:0:
473,314,244029,6,0,B|421:341|421:341|473:242|444:151,1,254.392492236557,2|0,1:0|0:0,0:0:0:0:
399,80,244476,2,0,P|431:146|355:134,1,169.594994824371,10|0,0:0|0:0,0:0:0:0:
323,84,244812,1,8,0:0:0:0:
306,83,244924,1,2,1:0:0:0:
240,162,245148,1,2,1:0:0:0:
93,30,245372,5,10,0:0:0:0:
177,56,245596,1,2,0:0:0:0:
32,240,245820,6,0,B|4:212|4:158|59:131|59:131|113:104|113:50|86:22,1,254.392492236557,2|0,1:0|0:0,0:0:0:0:
19,15,246267,1,8,0:0:0:0:
119,201,246491,1,2,0:0:0:0:
134,197,246603,1,8,0:0:0:0:
119,188,246715,1,2,1:0:0:0:
204,271,246939,1,0,1:0:0:0:
319,116,247163,2,0,P|242:129|261:212,1,169.594994824371,8|0,0:0|0:0,0:0:0:0:
439,312,247611,5,2,1:0:0:0:
407,217,247835,1,2,0:0:0:0:
271,330,248058,1,10,0:0:0:0:
100,236,248282,6,0,L|145:231,1,45.1724994485779,2|8,0:0|0:0,0:0:0:0:
42,186,248506,2,0,L|220:218,1,169.594994824371,2|8,1:0|0:3,0:0:0:0:
251,145,248842,1,8,0:3:0:0:
235,137,248954,2,0,P|214:171|217:216,1,84.7974974121857,8|8,0:0|0:3,0:0:0:0:
358,101,249178,5,8,0:3:0:0:
456,72,249402,1,12,0:3:0:0:
374,0,249626,5,2,0:0:0:0:
452,185,249849,2,0,P|439:266|430:358,1,169.594994824371,10|2,0:0|0:0,0:0:0:0:
339,352,250185,1,8,0:0:0:0:
354,344,250297,2,0,P|362:259|375:175,1,169.594994824371,2|2,1:0|1:0,0:0:0:0:
375,175,250745,1,10,0:0:0:0:
211,304,250969,5,2,0:0:0:0:
194,300,251081,1,2,0:0:0:0:
177,296,251193,2,0,P|199:252|284:298,1,169.594994824371,2|2,1:0|0:0,0:0:0:0:
78,228,251641,2,2,P|71:143|62:59,1,169.594994824371,10|2,0:0|0:0,0:0:0:0:
141,11,251976,5,8,0:0:0:0:
137,27,252088,1,0,1:0:0:0:
187,110,252312,1,2,1:0:0:0:
370,54,252536,5,8,0:0:0:0:
309,143,252760,1,10,0:3:0:0:
353,207,252984,5,2,0:0:0:0:
353,207,253655,5,2,0:0:0:0:
353,207,254103,2,2,L|409:197,1,42.7950010447998
210,332,254775,6,2,L|252:339,2,42.7950010447998
172,263,255447,1,2,0:0:0:0:
172,263,255894,2,2,L|129:255,1,42.7950010447998
353,112,256566,6,2,L|310:119,2,42.7950010447998
391,43,257238,1,2,0:0:0:0:
391,43,257685,2,2,L|433:35,1,42.7950010447998
48,76,258357,6,2,L|40:33,2,42.7950010447998
117,114,259029,1,2,0:0:0:0:
13,278,259476,5,2,0:0:0:0:
13,278,259700,1,2,0:0:0:0:
