osu file format v14

[General]
AudioFilename: audio.mp3
AudioLeadIn: 0
PreviewTime: 51126
Countdown: 0
SampleSet: None
StackLeniency: 0.7
Mode: 1
LetterboxInBreaks: 0
WidescreenStoryboard: 1

[Editor]
Bookmarks: 129393
DistanceSpacing: 1.3
BeatDivisor: 4
GridSize: 32
TimelineZoom: 0.9999992

[Metadata]
Title:God-ish
TitleUnicode:神っぽいな
Artist:EMA
ArtistUnicode:EMA
Creator:[Zeth]
Version:Fapu's Futsuu
Source:
Tags:Godish kami ppoi na kamippoina rei sirose 白瀬玲 DUSTCELL EM A Kamitsubaki Studio 神椿スタジオ Kudou Chitose 久遠千歳 Kudo Vtuber Youtube Virtual Youtuber Cover PinocchioP ピノキオピー Japanese Pop JPop J-Pop Faputa Hivie
BeatmapID:3584041
BeatmapSetID:1730764

[Difficulty]
HPDrainRate:7
CircleSize:2
OverallDifficulty:4
ApproachRate:10
SliderMultiplier:1.4
SliderTickRate:1

[Events]
//Background and Video events
0,0,"BG.jpg",0,0
//Break Periods
//Storyboard Layer 0 (Background)
//Storyboard Layer 1 (Fail)
//Storyboard Layer 2 (Pass)
//Storyboard Layer 3 (Foreground)
//Storyboard Layer 4 (Overlay)
//Storyboard Sound Samples

[TimingPoints]
845,422.535211267606,17,1,0,5,1,8
7499,-100,17,1,0,50,0,0
7605,422.535211267606,4,1,0,50,1,0
20386,-100,4,1,0,70,0,0
51548,-100,4,1,0,70,0,1
63379,-100,4,1,0,70,0,0
65069,-100,4,1,0,70,0,1
78590,-100,4,1,0,70,0,0
92112,582.52427184466,4,1,0,70,1,0
92112,-72.5352521325364,4,1,0,70,0,0
129393,422.535211267606,4,1,0,70,1,0
129393,-100,4,1,0,70,0,0
147984,-100,4,1,0,70,0,1
159815,-100,4,1,0,70,0,0
161505,-100,4,1,0,70,0,1
174604,-100,4,1,0,70,0,0
175026,-100,4,1,0,70,0,1
186857,-100,4,1,0,70,0,0
200590,-100,4,1,0,5,0,0

[HitObjects]
256,192,7605,5,0,0:0:0:0:
256,192,8238,1,0,0:0:0:0:
256,192,8872,1,0,0:0:0:0:
256,192,9295,1,8,0:0:0:0:
256,192,9928,1,8,0:0:0:0:
256,192,10985,1,0,0:0:0:0:
256,192,11619,1,0,0:0:0:0:
256,192,12252,1,8,0:0:0:0:
256,192,12675,1,0,0:0:0:0:
256,192,13309,1,8,0:0:0:0:
256,192,13943,1,0,0:0:0:0:
256,192,14365,1,8,0:0:0:0:
256,192,14788,1,8,0:0:0:0:
256,192,15633,1,0,0:0:0:0:
256,192,16055,1,8,0:0:0:0:
256,192,16478,1,0,0:0:0:0:
256,192,17323,1,0,0:0:0:0:
256,192,17745,1,8,0:0:0:0:
256,192,18168,1,8,0:0:0:0:
256,192,19013,1,8,0:0:0:0:
256,192,19435,1,0,0:0:0:0:
256,192,20703,1,8,0:0:0:0:
256,192,21126,1,0,0:0:0:0:
256,192,21548,1,8,0:0:0:0:
256,192,21971,1,0,0:0:0:0:
256,192,22393,1,8,0:0:0:0:
256,192,22605,1,8,0:0:0:0:
256,192,22816,1,0,0:0:0:0:
256,192,23238,1,8,0:0:0:0:
256,192,23661,1,0,0:0:0:0:
256,192,24083,1,8,0:0:0:0:
256,192,24295,1,0,0:0:0:0:
256,192,24506,1,8,0:0:0:0:
256,192,24928,1,8,0:0:0:0:
256,192,25351,1,0,0:0:0:0:
256,192,25774,1,8,0:0:0:0:
256,192,25985,1,8,0:0:0:0:
256,192,26196,1,0,0:0:0:0:
256,192,26619,1,0,0:0:0:0:
256,192,27041,1,8,0:0:0:0:
256,192,27886,1,0,0:0:0:0:
256,192,28309,1,8,0:0:0:0:
256,192,28731,1,0,0:0:0:0:
256,192,29154,1,0,0:0:0:0:
256,192,29365,1,8,0:0:0:0:
256,192,29576,1,0,0:0:0:0:
256,192,29999,1,8,0:0:0:0:
256,192,30421,1,8,0:0:0:0:
256,192,30844,1,0,0:0:0:0:
256,192,31055,1,0,0:0:0:0:
256,192,31266,1,8,0:0:0:0:
256,192,31689,1,0,0:0:0:0:
256,192,32112,1,8,0:0:0:0:
256,192,32534,1,0,0:0:0:0:
256,192,32745,1,8,0:0:0:0:
256,192,32957,1,0,0:0:0:0:
256,192,34224,1,8,0:0:0:0:
256,192,34647,1,0,0:0:0:0:
256,192,35281,1,0,0:0:0:0:
256,192,35914,1,8,0:0:0:0:
256,192,36337,1,0,0:0:0:0:
256,192,36971,1,8,0:0:0:0:
256,192,37605,1,8,0:0:0:0:
256,192,38027,1,0,0:0:0:0:
256,192,38450,1,8,0:0:0:0:
256,192,39295,1,8,0:0:0:0:
256,192,39717,1,0,0:0:0:0:
256,192,40140,1,8,0:0:0:0:
256,192,40562,1,0,0:0:0:0:
256,192,40774,1,8,0:0:0:0:
256,192,40985,1,8,0:0:0:0:
256,192,41407,1,0,0:0:0:0:
256,192,42041,1,0,0:0:0:0:
256,192,42675,1,8,0:0:0:0:
256,192,43097,1,8,0:0:0:0:
256,192,43731,1,0,0:0:0:0:
256,192,44365,1,8,0:0:0:0:
256,192,44788,1,0,0:0:0:0:
256,192,45210,1,8,0:0:0:0:
256,192,45421,1,8,0:0:0:0:
256,192,46055,1,8,0:0:0:0:
256,192,46478,1,0,0:0:0:0:
256,192,46689,1,8,0:0:0:0:
256,192,47112,1,8,0:0:0:0:
256,192,47534,1,8,0:0:0:0:
256,192,47957,1,8,0:0:0:0:
256,192,48168,1,0,0:0:0:0:
256,192,49858,1,0,0:0:0:0:
256,192,50281,1,0,0:0:0:0:
256,192,50703,1,0,0:0:0:0:
256,192,51126,1,8,0:0:0:0:
256,192,51337,1,0,0:0:0:0:
256,192,51548,1,12,0:0:0:0:
256,192,51971,1,0,0:0:0:0:
256,192,52182,1,8,0:0:0:0:
256,192,52393,1,0,0:0:0:0:
256,192,52816,1,8,0:0:0:0:
256,192,53238,1,0,0:0:0:0:
256,192,53661,1,8,0:0:0:0:
256,192,53872,1,8,0:0:0:0:
256,192,54083,1,0,0:0:0:0:
256,192,54506,1,8,0:0:0:0:
256,192,54717,1,0,0:0:0:0:
256,192,54928,1,8,0:0:0:0:
256,192,55351,1,0,0:0:0:0:
256,192,55774,1,8,0:0:0:0:
256,192,55985,1,8,0:0:0:0:
256,192,56196,1,0,0:0:0:0:
256,192,56407,1,0,0:0:0:0:
256,192,56619,1,8,0:0:0:0:
256,192,57041,1,0,0:0:0:0:
256,192,57464,1,8,0:0:0:0:
256,192,58309,1,0,0:0:0:0:
256,192,58731,1,8,0:0:0:0:
256,192,58943,1,8,0:0:0:0:
256,192,59154,1,0,0:0:0:0:
256,192,59576,1,8,0:0:0:0:
256,192,59788,1,0,0:0:0:0:
256,192,59999,1,8,0:0:0:0:
256,192,60421,1,0,0:0:0:0:
256,192,60844,1,8,0:0:0:0:
256,192,61266,1,0,0:0:0:0:
256,192,61478,1,0,0:0:0:0:
256,192,61689,1,8,0:0:0:0:
256,192,62112,1,0,0:0:0:0:
256,192,62534,1,8,0:0:0:0:
256,192,62745,1,0,0:0:0:0:
256,192,62957,1,8,0:0:0:0:
256,192,63168,1,0,0:0:0:0:
256,192,63379,1,8,0:0:0:0:
256,192,63802,1,8,0:0:0:0:
256,192,64224,1,8,0:0:0:0:
256,192,65069,1,12,0:0:0:0:
256,192,65492,1,0,0:0:0:0:
256,192,65914,1,8,0:0:0:0:
256,192,66126,1,0,0:0:0:0:
256,192,66548,1,0,0:0:0:0:
256,192,66759,1,8,0:0:0:0:
256,192,67182,1,0,0:0:0:0:
256,192,67605,1,8,0:0:0:0:
256,192,67816,1,8,0:0:0:0:
256,192,68238,1,0,0:0:0:0:
256,192,68450,1,8,0:0:0:0:
256,192,68872,1,0,0:0:0:0:
256,192,69295,1,8,0:0:0:0:
256,192,69506,1,8,0:0:0:0:
256,192,69717,1,0,0:0:0:0:
256,192,70140,1,8,0:0:0:0:
256,192,70562,1,0,0:0:0:0:
256,192,70774,1,0,0:0:0:0:
256,192,70985,1,8,0:0:0:0:
256,192,71830,1,0,0:0:0:0:
256,192,72252,1,8,0:0:0:0:
256,192,72464,1,0,0:0:0:0:
256,192,72886,1,8,0:0:0:0:
256,192,73097,1,8,0:0:0:0:
256,192,73520,1,0,0:0:0:0:
256,192,73943,1,8,0:0:0:0:
256,192,74154,1,8,0:0:0:0:
256,192,74576,1,0,0:0:0:0:
256,192,74788,1,0,0:0:0:0:
256,192,75210,1,8,0:0:0:0:
256,192,75633,1,0,0:0:0:0:
256,192,75844,1,8,0:0:0:0:
256,192,76055,1,0,0:0:0:0:
256,192,76478,1,8,0:0:0:0:
256,192,76900,1,0,0:0:0:0:
256,192,77323,1,8,0:0:0:0:
256,192,77745,1,0,0:0:0:0:
256,192,77957,1,0,0:0:0:0:
256,192,78168,1,0,0:0:0:0:
256,192,78379,1,0,0:0:0:0:
256,192,78590,1,8,0:0:0:0:
256,192,79647,1,0,0:0:0:0:
256,192,80069,1,8,0:0:0:0:
256,192,80281,1,0,0:0:0:0:
256,192,81337,1,8,0:0:0:0:
256,192,81759,1,0,0:0:0:0:
256,192,81971,1,8,0:0:0:0:
256,192,83027,1,0,0:0:0:0:
256,192,83450,1,0,0:0:0:0:
256,192,83661,1,8,0:0:0:0:
256,192,85351,1,0,0:0:0:0:
256,192,85985,1,0,0:0:0:0:
256,192,86619,1,8,0:0:0:0:
256,192,86830,1,0,0:0:0:0:
256,192,87041,1,8,0:0:0:0:
256,192,87675,1,8,0:0:0:0:
256,192,88309,1,8,0:0:0:0:
256,192,88520,1,8,0:0:0:0:
256,192,88731,1,0,0:0:0:0:
256,192,89365,1,0,0:0:0:0:
256,192,89999,1,8,0:0:0:0:
256,192,90210,1,0,0:0:0:0:
256,192,90421,1,8,0:0:0:0:
256,192,92112,1,4,0:0:0:0:
256,192,94442,1,0,0:0:0:0:
256,192,95315,1,8,0:0:0:0:
256,192,95607,1,8,0:0:0:0:
256,192,95898,1,0,0:0:0:0:
256,192,96189,1,0,0:0:0:0:
256,192,96772,1,8,0:0:0:0:
256,192,99102,1,8,0:0:0:0:
256,192,100267,1,0,0:0:0:0:
256,192,100558,1,0,0:0:0:0:
256,192,100849,1,8,0:0:0:0:
256,192,101141,1,8,0:0:0:0:
256,192,101432,1,0,0:0:0:0:
256,192,102597,1,8,0:0:0:0:
256,192,103762,1,0,0:0:0:0:
256,192,104636,1,0,0:0:0:0:
256,192,104927,1,8,0:0:0:0:
256,192,106092,1,0,0:0:0:0:
256,192,107257,1,8,0:0:0:0:
256,192,108422,1,0,0:0:0:0:
256,192,110170,1,0,0:0:0:0:
256,192,110461,1,0,0:0:0:0:
256,192,110752,1,12,0:0:0:0:
256,192,111335,1,0,0:0:0:0:
256,192,111626,1,8,0:0:0:0:
256,192,111917,1,0,0:0:0:0:
256,192,112209,1,0,0:0:0:0:
256,192,112500,1,8,0:0:0:0:
256,192,112791,1,8,0:0:0:0:
256,192,113082,1,0,0:0:0:0:
256,192,113665,1,8,0:0:0:0:
256,192,113956,1,8,0:0:0:0:
256,192,114247,1,0,0:0:0:0:
256,192,115121,1,0,0:0:0:0:
256,192,115412,1,8,0:0:0:0:
256,192,115995,1,0,0:0:0:0:
256,192,116286,1,0,0:0:0:0:
256,192,116578,1,8,0:0:0:0:
256,192,116869,1,8,0:0:0:0:
256,192,117160,1,8,0:0:0:0:
256,192,117451,1,0,0:0:0:0:
256,192,117743,1,8,0:0:0:0:
256,192,118325,1,0,0:0:0:0:
256,192,118616,1,0,0:0:0:0:
256,192,118908,1,8,0:0:0:0:
256,192,120073,1,12,0:0:0:0:
256,192,120655,1,0,0:0:0:0:
256,192,120946,1,8,0:0:0:0:
256,192,121238,1,0,0:0:0:0:
256,192,121529,1,0,0:0:0:0:
256,192,121820,1,8,0:0:0:0:
256,192,122111,1,8,0:0:0:0:
256,192,122403,1,8,0:0:0:0:
256,192,122985,1,0,0:0:0:0:
256,192,123277,1,8,0:0:0:0:
256,192,123568,1,0,0:0:0:0:
256,192,124442,1,8,0:0:0:0:
256,192,124733,1,8,0:0:0:0:
256,192,125315,1,0,0:0:0:0:
256,192,125607,1,8,0:0:0:0:
256,192,125898,1,0,0:0:0:0:
256,192,126189,1,8,0:0:0:0:
256,192,126480,1,0,0:0:0:0:
256,192,126772,1,0,0:0:0:0:
256,192,127063,1,8,0:0:0:0:
256,192,128228,1,8,0:0:0:0:
256,192,129393,1,0,0:0:0:0:
256,192,130660,1,8,0:0:0:0:
256,192,131083,1,0,0:0:0:0:
256,192,132350,1,8,0:0:0:0:
256,192,132773,1,0,0:0:0:0:
256,192,133195,1,8,0:0:0:0:
256,192,133407,1,0,0:0:0:0:
256,192,133618,1,0,0:0:0:0:
256,192,134040,1,8,0:0:0:0:
256,192,134463,1,0,0:0:0:0:
256,192,134885,1,8,0:0:0:0:
256,192,135097,1,8,0:0:0:0:
256,192,135519,1,0,0:0:0:0:
256,192,135731,1,8,0:0:0:0:
256,192,135942,1,8,0:0:0:0:
256,192,136153,1,0,0:0:0:0:
256,192,137421,1,8,0:0:0:0:
256,192,137843,1,0,0:0:0:0:
256,192,139111,1,8,0:0:0:0:
256,192,139533,1,0,0:0:0:0:
256,192,139956,1,8,0:0:0:0:
256,192,140167,1,0,0:0:0:0:
256,192,140378,1,0,0:0:0:0:
256,192,140801,1,8,0:0:0:0:
256,192,141012,1,8,0:0:0:0:
256,192,141223,1,0,0:0:0:0:
256,192,141646,1,8,0:0:0:0:
256,192,142069,1,0,0:0:0:0:
256,192,142280,1,0,0:0:0:0:
256,192,142491,1,8,0:0:0:0:
256,192,142702,1,0,0:0:0:0:
256,192,142914,1,8,0:0:0:0:
256,192,143125,8,0,146294,0:0:0:0:
256,192,147562,5,8,0:0:0:0:
224,192,147773,1,0,0:0:0:0:
256,192,147984,1,12,0:0:0:0:
256,192,148407,1,0,0:0:0:0:
256,192,148618,1,8,0:0:0:0:
256,192,148829,1,0,0:0:0:0:
256,192,149252,1,8,0:0:0:0:
256,192,149674,1,0,0:0:0:0:
256,192,150097,1,8,0:0:0:0:
256,192,150308,1,8,0:0:0:0:
256,192,150519,1,0,0:0:0:0:
256,192,150942,1,8,0:0:0:0:
256,192,151153,1,0,0:0:0:0:
256,192,151364,1,8,0:0:0:0:
256,192,151787,1,0,0:0:0:0:
256,192,152210,1,8,0:0:0:0:
256,192,152421,1,8,0:0:0:0:
256,192,152632,1,0,0:0:0:0:
256,192,152843,1,0,0:0:0:0:
256,192,153055,1,8,0:0:0:0:
256,192,153477,1,0,0:0:0:0:
256,192,153900,1,8,0:0:0:0:
256,192,154745,1,0,0:0:0:0:
256,192,155167,1,8,0:0:0:0:
256,192,155379,1,8,0:0:0:0:
256,192,155590,1,0,0:0:0:0:
256,192,156012,1,8,0:0:0:0:
256,192,156224,1,0,0:0:0:0:
256,192,156435,1,8,0:0:0:0:
256,192,156857,1,0,0:0:0:0:
256,192,157280,1,8,0:0:0:0:
256,192,157702,1,0,0:0:0:0:
256,192,157914,1,0,0:0:0:0:
256,192,158125,1,8,0:0:0:0:
256,192,158548,1,0,0:0:0:0:
256,192,158970,1,8,0:0:0:0:
256,192,159181,1,0,0:0:0:0:
256,192,159393,1,8,0:0:0:0:
256,192,159604,1,0,0:0:0:0:
256,192,159815,1,8,0:0:0:0:
256,192,160238,1,8,0:0:0:0:
256,192,160660,1,8,0:0:0:0:
256,192,161505,1,12,0:0:0:0:
256,192,161928,1,0,0:0:0:0:
256,192,162350,1,8,0:0:0:0:
256,192,162562,1,0,0:0:0:0:
256,192,162984,1,0,0:0:0:0:
256,192,163195,1,8,0:0:0:0:
256,192,163618,1,0,0:0:0:0:
256,192,164041,1,8,0:0:0:0:
256,192,164252,1,8,0:0:0:0:
256,192,164674,1,0,0:0:0:0:
256,192,164886,1,8,0:0:0:0:
256,192,165308,1,0,0:0:0:0:
256,192,165731,1,8,0:0:0:0:
256,192,165942,1,8,0:0:0:0:
256,192,166153,1,0,0:0:0:0:
256,192,166576,1,8,0:0:0:0:
256,192,166998,1,0,0:0:0:0:
256,192,167210,1,0,0:0:0:0:
256,192,167421,1,8,0:0:0:0:
256,192,168266,1,0,0:0:0:0:
256,192,168688,1,8,0:0:0:0:
256,192,168900,1,0,0:0:0:0:
256,192,169322,1,8,0:0:0:0:
256,192,169533,1,8,0:0:0:0:
256,192,169956,1,0,0:0:0:0:
256,192,170379,1,8,0:0:0:0:
256,192,170590,1,8,0:0:0:0:
256,192,171012,1,0,0:0:0:0:
256,192,171224,1,0,0:0:0:0:
256,192,171646,1,8,0:0:0:0:
256,192,172069,1,0,0:0:0:0:
256,192,172280,1,8,0:0:0:0:
256,192,172491,1,0,0:0:0:0:
256,192,172914,1,8,0:0:0:0:
256,192,173336,1,0,0:0:0:0:
256,192,173759,1,8,0:0:0:0:
256,192,174181,1,0,0:0:0:0:
256,192,174393,1,0,0:0:0:0:
256,192,174604,1,0,0:0:0:0:
256,192,174815,1,0,0:0:0:0:
256,192,175026,1,8,0:0:0:0:
256,192,175449,1,8,0:0:0:0:
256,192,175660,1,8,0:0:0:0:
256,192,175871,1,0,0:0:0:0:
256,192,176294,1,8,0:0:0:0:
256,192,177139,1,8,0:0:0:0:
256,192,177350,1,0,0:0:0:0:
256,192,177562,1,8,0:0:0:0:
256,192,177984,1,8,0:0:0:0:
256,192,178407,1,0,0:0:0:0:
256,192,178829,1,8,0:0:0:0:
256,192,179040,1,8,0:0:0:0:
256,192,179252,1,0,0:0:0:0:
256,192,179674,1,8,0:0:0:0:
256,192,180097,1,0,0:0:0:0:
256,192,180308,1,8,0:0:0:0:
256,192,180731,1,8,0:0:0:0:
256,192,181153,1,8,0:0:0:0:
256,192,181576,1,8,0:0:0:0:
256,192,181787,1,0,0:0:0:0:
256,192,182209,1,8,0:0:0:0:
256,192,182421,1,0,0:0:0:0:
256,192,182632,1,8,0:0:0:0:
256,192,183054,1,8,0:0:0:0:
256,192,183900,1,8,0:0:0:0:
256,192,184111,1,8,0:0:0:0:
256,192,184322,1,0,0:0:0:0:
256,192,184745,1,8,0:0:0:0:
256,192,185167,1,0,0:0:0:0:
256,192,185590,1,8,0:0:0:0:
256,192,185801,1,0,0:0:0:0:
256,192,186012,1,8,0:0:0:0:
256,192,186435,1,8,0:0:0:0:
256,192,186857,1,0,0:0:0:0:
256,192,188125,1,8,0:0:0:0:
256,192,188547,1,0,0:0:0:0:
256,192,189180,1,0,0:0:0:0:
256,192,189814,1,0,0:0:0:0:
256,192,190237,1,8,0:0:0:0:
256,192,190870,1,8,0:0:0:0:
256,192,191927,1,0,0:0:0:0:
256,192,192561,1,0,0:0:0:0:
256,192,193194,1,8,0:0:0:0:
256,192,193617,1,0,0:0:0:0:
256,192,194251,1,8,0:0:0:0:
256,192,194885,1,0,0:0:0:0:
256,192,195307,1,8,0:0:0:0:
256,192,195730,1,8,0:0:0:0:
256,192,196575,1,0,0:0:0:0:
256,192,196997,1,8,0:0:0:0:
256,192,197420,1,0,0:0:0:0:
256,192,198265,1,0,0:0:0:0:
256,192,198687,1,8,0:0:0:0:
256,192,199110,1,8,0:0:0:0:
256,192,199955,1,8,0:0:0:0:
256,192,200377,1,0,0:0:0:0:
