osu file format v14

[General]
AudioFilename: audio.mp3
AudioLeadIn: 0
PreviewTime: 89028
Countdown: 0
SampleSet: Normal
StackLeniency: 0.7
Mode: 1
LetterboxInBreaks: 0
StoryFireInFront: 0
EpilepsyWarning: 1
WidescreenStoryboard: 1

[Editor]
DistanceSpacing: 0.8
BeatDivisor: 4
GridSize: 32
TimelineZoom: 1.9

[Metadata]
Title:EONIAN -Ionian-
TitleUnicode:EONIAN -イオニアン-
Artist:ELISA connect EFP
ArtistUnicode:ELISA connect EFP
Creator:Servatory
Version:Lost Paradise
Source:楽園追放 -Expelled from Paradise-
Tags:[R] ron Rakuen Tsuihou Tsuihō Tsuiho ost theme ed ending original soundtrack sound track anime pop Jpop J-pop electronic japanese genetica
BeatmapID:2921761
BeatmapSetID:1418089

[Difficulty]
HPDrainRate:6
CircleSize:5
OverallDifficulty:5
ApproachRate:5
SliderMultiplier:1.4
SliderTickRate:1

[Events]
//Background and Video events
0,0,"bgs.jpg",0,120
//Break Periods
//Storyboard Layer 0 (Background)
//Storyboard Layer 1 (Fail)
//Storyboard Layer 2 (Pass)
//Storyboard Layer 3 (Foreground)
//Storyboard Layer 4 (Overlay)
//Storyboard Sound Samples

[TimingPoints]
625,400,4,1,0,25,1,0
625,-142.857142857143,4,1,0,25,0,0
13218,-125,4,1,0,30,0,0
38185,-99.9999999999999,4,1,0,45,0,0
38825,-125,4,1,0,30,0,0
42590,393.44262295082,4,1,0,30,1,8
42590,-127.09710218607,4,1,0,30,0,8
43769,393.44262295082,4,1,0,30,1,0
43769,-127.09710218607,4,1,0,30,0,0
45342,393.44262295082,4,1,0,30,1,8
45342,-127.09710218607,4,1,0,30,0,8
45428,397.350993377483,4,1,0,30,1,0
45428,-125.833647917453,4,1,0,30,0,0
46592,397.350993377483,4,1,0,30,1,8
46592,-125.833647917453,4,1,0,30,0,0
46989,397.350993377483,4,1,0,30,1,8
46989,-125.833647917453,4,1,0,30,0,0
47017,397.350993377483,4,1,0,30,1,0
47017,-125.833647917453,4,1,0,30,0,0
48606,397.350993377483,4,1,0,30,1,0
48606,-125.833647917453,4,1,0,30,0,0
50195,397.350993377483,4,1,0,40,1,8
50195,-125.833647917453,4,1,0,40,0,0
50228,384.615384615385,4,1,0,40,1,0
50228,-111.433028749721,4,1,0,40,0,0
50987,-97.5609756097561,4,1,0,30,0,0
51766,384.615384615385,4,1,0,35,1,8
51766,-130.005200208008,4,1,0,35,0,8
51828,400,4,1,0,35,1,0
51828,-125,4,1,0,35,0,0
61818,-125,4,1,0,35,0,0
62018,-127.272727272727,4,1,0,35,0,0
62218,-129.62962962963,4,1,0,35,0,0
62418,-132.075471698113,4,1,0,35,0,0
62618,-134.615384615385,4,1,0,35,0,0
63018,-137.254901960784,4,1,0,35,0,0
63418,-140,4,1,0,35,0,0
63818,-142.857142857143,4,1,0,35,0,0
64418,-117.647058823529,4,1,0,45,0,0
83418,-117.647058823529,4,1,0,45,0,0
83818,-114.035087719298,4,1,0,45,0,0
84218,-110.63829787234,4,1,0,45,0,0
84418,-107.438016528926,4,1,0,45,0,0
84618,-104.417670682731,4,1,0,45,0,0
85018,-101.5625,4,1,0,45,0,0
85418,-98.8593155893536,4,1,0,45,0,0
85818,-96.2962962962963,4,1,0,45,0,0
86018,-93.8628158844765,4,1,0,45,0,0
86218,-91.5492957746479,4,1,0,45,0,0
86618,-89.3470790378007,4,1,0,45,0,0
86818,-87.248322147651,4,1,0,45,0,0
87018,-85.2459016393443,4,1,0,45,0,0
87218,-83.3333333333333,4,1,0,45,0,0
88418,-76.9230769230769,4,1,0,65,0,0
88818,-83.3333333333333,4,1,0,65,0,0
89218,-100,4,1,0,65,0,0
89318,-99.0180381160036,4,1,0,65,0,0
89418,-98.0550775370526,4,1,0,65,0,0
89612,400,4,1,0,65,1,8
89612,-96.184458707531,4,1,0,65,0,0
89798,-94.3837871305819,4,1,0,65,0,0
89998,-92.6492973940532,4,1,0,65,0,0
90098,-90.9090909090909,4,1,0,70,0,0
90228,400,4,1,0,70,1,1
90228,-90.9090909090909,4,1,0,70,0,1
97802,400,4,1,0,70,1,9
97802,-90.9090909090909,4,1,0,70,0,9
98202,400,4,1,0,70,1,1
98202,-90.9090909090909,4,1,0,70,0,1
99402,400,4,1,0,70,1,9
99402,-90.9090909090909,4,1,0,70,0,1
99422,400,4,1,0,70,1,9
99422,-90.9090909090909,4,1,0,70,0,9
99822,400,4,1,0,70,1,9
99822,-90.9090909090909,4,1,0,70,0,9
99828,400,4,1,0,70,1,1
99828,-90.9090909090909,4,1,0,70,0,1
101028,389.61038961039,4,1,0,70,1,9
101028,-93.3358222885944,4,1,0,70,0,9
101417,389.61038961039,4,1,0,70,1,1
101417,-93.3358222885944,4,1,0,70,0,1
102195,394.736842105263,4,1,0,70,1,9
102195,-101.337657073368,4,1,0,70,0,9
102363,-99.3541977148534,4,1,0,70,0,1
102467,-97.4468914441629,4,1,0,70,0,1
102571,-95.6022944550669,4,1,0,70,0,1
102780,-93.8262338149747,4,1,0,70,0,1
103027,400,4,1,0,70,1,1
103027,-90.9090909090909,4,1,0,70,0,1
113407,400,4,1,0,70,1,9
113407,-90.9090909090909,4,1,0,70,0,9
114207,400,4,1,0,70,1,1
114207,-90.9090909090909,4,1,0,70,0,1
115807,400,4,1,0,70,1,9
115807,-90.9090909090909,4,1,0,70,0,9
115827,400,4,1,0,70,1,1
115827,-90.9090909090909,4,1,0,70,0,1
119027,-90.9090909090909,4,1,0,70,0,0
122017,-125,4,1,0,40,0,0
122227,-125,4,1,0,40,0,0
131617,-100,4,1,0,50,0,0
135617,-142.857142857143,4,1,0,40,0,0
146017,-100,4,1,0,55,0,0
147387,-125,4,1,0,47,0,0
147487,-121.212121212121,4,1,0,49,0,0
147587,-117.647058823529,4,1,0,51,0,0
147687,-114.285714285714,4,1,0,53,0,0
147787,-111.111111111111,4,1,0,55,0,0
170217,-111.111111111111,4,1,0,55,0,0
170417,-109.375,4,1,0,55,0,0
170617,-107.692307692308,4,1,0,55,0,0
170817,-106.060606060606,4,1,0,55,0,0
171017,-104.477611940299,4,1,0,55,0,0
171217,-102.941176470588,4,1,0,55,0,0
171417,-101.449275362319,4,1,0,55,0,0
171617,-100,4,1,0,55,0,0
171817,-98.5915492957747,4,1,0,55,0,0
171917,-97.2222222222222,4,1,0,55,0,0
172117,-95.8904109589041,4,1,0,55,0,0
172217,-94.5945945945946,4,1,0,55,0,0
172417,-93.3333333333333,4,1,0,55,0,0
172517,-92.1052631578947,4,1,0,55,0,0
172617,-90.9090909090909,4,1,0,55,0,0
172717,-89.7435897435897,4,1,0,55,0,0
172817,-88.6075949367089,4,1,0,55,0,0
173017,-87.5,4,1,0,55,0,0
173117,-86.4197530864198,4,1,0,55,0,0
173217,-85.3658536585366,4,1,0,55,0,0
173317,-84.3373493975904,4,1,0,55,0,0
173417,-83.3333333333333,4,1,0,55,0,0
173817,-100,4,1,0,70,0,0
173997,-100,4,1,0,70,0,0
174197,-97.5609756097561,4,1,0,71,0,0
174297,-95.2380952380952,4,1,0,71,0,0
174397,-93.0232558139535,4,1,0,72,0,0
174597,-90.9090909090909,4,1,0,72,0,0
174697,-88.8888888888889,4,1,0,73,0,0
174797,-86.9565217391304,4,1,0,74,0,0
174897,-85.1063829787234,4,1,0,74,0,0
174985,-83.3333333333333,4,1,0,75,0,0
175027,-83.3333333333333,4,1,0,75,0,1
203827,-83.3333333333333,4,1,0,75,0,0
204817,-104.166666666667,4,1,0,65,0,0
205217,-106.382978723404,4,1,0,65,0,0
205415,397.350993377483,4,1,0,65,1,0
205415,-109.421162052741,4,1,0,65,0,0
205603,-111.856823266219,4,1,0,65,0,0
205802,-114.403386340236,4,1,0,65,0,0
206001,-117.054898747513,4,1,0,65,0,0
206199,-119.846596356663,4,1,0,65,0,0
206398,-122.774708410068,4,1,0,65,0,0
206591,397.350993377483,4,1,0,65,1,8
206591,-125.833647917453,4,1,0,65,0,0
206985,397.350993377483,4,1,0,65,1,8
206985,-95.4198473282443,4,1,0,65,0,0
207027,400,4,1,0,65,1,0
207027,-111.111111111111,4,1,0,65,0,0
210117,-90.9090909090909,4,1,0,65,0,0
210917,-86.9565217391304,4,1,0,65,0,0
211317,-111.111111111111,4,1,0,65,0,0
211617,-114.285714285715,4,1,0,65,0,0
212017,-117.64705882353,4,1,0,65,0,0
212217,-121.212121212121,4,1,0,65,0,0
212617,-125,4,1,0,65,0,0
213417,-111.111111111111,4,1,0,65,0,0
216517,-90.9090909090909,4,1,0,65,0,0
217317,-86.9565217391304,4,1,0,65,0,0
217717,-111.111111111111,4,1,0,65,0,0
218017,-114.285714285715,4,1,0,65,0,0
218417,-117.64705882353,4,1,0,65,0,0
218617,-121.212121212121,4,1,0,65,0,0
219017,-125,4,1,0,65,0,0
219817,-111.111111111111,4,1,0,65,0,0
222227,-111.111111111111,4,1,0,65,0,0
222527,-113.636363636364,4,1,0,65,0,0
222627,-116.279069767442,4,1,0,65,0,0
222827,-119.047619047619,4,1,0,65,0,0
223027,-121.951219512195,4,1,0,65,0,0
223317,-125,4,1,0,65,0,0
230607,-125,4,1,0,65,0,0
230807,-122.340425531915,4,1,0,65,0,0
231007,-119.791666666667,4,1,0,65,0,0
231207,-117.34693877551,4,1,0,65,0,0
231407,-115,4,1,0,65,0,0
231607,-112.745098039216,4,1,0,65,0,0
231807,-110.576923076923,4,1,0,65,0,0
232007,-108.490566037736,4,1,0,65,0,0
232207,-106.481481481481,4,1,0,65,0,0
232407,-104.545454545455,4,1,0,65,0,0
232607,-102.678571428571,4,1,0,65,0,0
233007,-100.877192982456,4,1,0,65,0,0
233207,-99.1379310344828,4,1,0,65,0,0
233407,-97.4576271186441,4,1,0,65,0,0
233807,-95.8333333333333,4,1,0,65,0,0
234007,-94.2622950819672,4,1,0,65,0,0
234207,-92.741935483871,4,1,0,65,0,0
234607,-91.2698412698413,4,1,0,65,0,0
234807,-89.84375,4,1,0,65,0,0
235007,-88.4615384615385,4,1,0,65,0,0
235207,-87.1212121212121,4,1,0,65,0,0
235407,-85.8208955223881,4,1,0,65,0,0
235607,-84.5588235294118,4,1,0,65,0,0
235807,-83.3333333333333,4,1,0,65,0,0
236207,-85.9375268554771,4,1,0,65,0,0
236407,-87.301552658114,4,1,0,65,0,0
236607,-88.7096559573413,4,1,0,65,0,0
236807,-90.1639270357437,4,1,0,65,0,0
237007,-91.6666743055562,4,1,0,65,0,0
237207,-93.2203626831431,4,1,0,65,0,0
237407,-94.8276270808737,4,1,0,65,0,0
237607,-96.4911942136161,4,1,0,65,0,0
237807,-98.2142681760236,4,1,0,65,0,0
238007,-100,4,1,0,65,0,0
238217,-98.7654320987654,4,1,0,65,0,0
238317,-97.5609756097561,4,1,0,66,0,0
238417,-96.3855421686747,4,1,0,68,0,0
238617,-95.2380952380952,4,1,0,69,0,0
238717,-94.1176470588235,4,1,0,71,0,0
238817,-93.0232558139535,4,1,0,72,0,0
238917,-91.9540229885057,4,1,0,74,0,0
239027,-90.9090909090909,4,1,0,75,0,1
254217,-90.9090909090909,4,1,0,75,0,1
254350,-90.2255910452905,4,1,0,75,0,1
254483,-89.5522120739665,4,1,0,75,0,1
254617,-88.8888888888889,4,1,0,75,0,1
254750,-88.2353200692118,4,1,0,75,0,1
254883,-87.591215301835,4,1,0,75,0,1
255017,-86.9565217391304,4,1,0,75,0,1
255317,-90.9090909090909,4,1,0,75,0,1
256627,-90.9090909090909,4,1,0,75,0,1
257027,-94.3396226415094,4,1,0,75,0,1
257427,-98.0392156862745,4,1,0,75,0,1
257827,-102.040816326531,4,1,0,75,0,1
258027,-106.382978723404,4,1,0,75,0,1
258217,-111.111111111111,4,1,0,75,0,1
258417,-109.777015437393,4,1,0,75,0,1
258617,-108.474576271186,4,1,0,75,0,1
258817,-107.202680067002,4,1,0,75,0,1
259017,-105.960264900662,4,1,0,75,0,1
259217,-104.746317512275,4,1,0,75,0,1
259417,-103.559870550162,4,1,0,75,0,1
259617,-102.4,4,1,0,75,0,1
259817,-101.26582278481,4,1,0,75,0,1
260017,-100.156494522692,4,1,0,75,0,1
260217,-99.0712074303406,4,1,0,75,0,1
260417,-98.0091883614089,4,1,0,75,0,1
260617,-96.969696969697,4,1,0,75,0,1
260817,-95.952023988006,4,1,0,75,0,1
261017,-94.9554896142433,4,1,0,75,0,1
261217,-93.9794419970631,4,1,0,75,0,1
261417,-93.0232558139535,4,1,0,75,0,1
261617,-92.0863309352518,4,1,0,75,0,1
261817,-91.1680911680912,4,1,0,75,0,1
262017,-90.2679830747532,4,1,0,75,0,1
262217,-89.3854748603352,4,1,0,75,0,1
262417,-88.5200553250346,4,1,0,75,0,1
262617,-87.6712328767123,4,1,0,75,0,1
262817,-86.8385345997286,4,1,0,75,0,1
263017,-86.0215053763441,4,1,0,75,0,1
263217,-85.219707057257,4,1,0,75,0,1
263417,-84.4327176781003,4,1,0,75,0,1
263617,-83.6601307189543,4,1,0,75,0,1
263817,-82.9015544041451,4,1,0,75,0,1
264017,-82.1566110397946,4,1,0,75,0,1
264217,-81.4249363867685,4,1,0,75,0,1
264417,-80.7061790668348,4,1,0,75,0,1
264617,-80,4,1,0,75,0,1
270227,-81.3008130081301,4,1,0,75,0,1
270427,-82.6446280991736,4,1,0,75,0,1
270627,-84.0336134453781,4,1,0,75,0,1
270827,-85.4700854700855,4,1,0,75,0,1
271027,-86.9565217391304,4,1,0,75,0,0
271617,-80,4,1,0,80,0,0
271717,-78.4313725490196,4,1,0,80,0,0
271827,-76.9230769230769,4,1,0,80,0,1
274417,-83.3333333333333,4,1,0,80,0,1
282617,-95.2380952380952,4,1,0,80,0,1
282817,-93.5672514619883,4,1,0,80,0,1
283017,-91.9540229885058,4,1,0,80,0,1
283217,-90.3954802259887,4,1,0,80,0,1
283417,-88.8888888888889,4,1,0,80,0,1
283517,-87.431693989071,4,1,0,80,0,1
283617,-86.0215053763441,4,1,0,80,0,1
283717,-84.6560846560847,4,1,0,80,0,1
283817,-83.3333333333333,4,1,0,80,0,1
303317,-100,4,1,0,70,0,1
306627,-100,4,1,0,70,0,1
306827,-98.5957014246093,4,1,0,70,0,1
307027,-97.2302032014017,4,1,0,70,0,1
307227,-95.9021031331217,4,1,0,70,0,1
307427,-94.6097960875065,4,1,0,70,0,1
307627,-93.3517671956289,4,1,0,70,0,1
307827,-92.1268402336337,4,1,0,70,0,1
307927,-91.5263110686429,4,1,0,70,0,1
308027,-90.9336429926989,4,1,0,70,0,1
308127,-90.3485194136381,4,1,0,70,0,1
308227,-89.7708777886201,4,1,0,70,0,1
308427,-88.6375521853588,4,1,0,70,0,1
308527,-88.0815141564609,4,1,0,70,0,1
308627,-87.5324854936788,4,1,0,70,0,1
308827,-86.4545590514897,4,1,0,70,0,1
309027,-85.4029310285929,4,1,0,70,0,1
309227,-84.3765794240961,4,1,0,70,0,1
309427,-83.3745342490081,4,1,0,70,0,1
312627,-83.3333333333333,4,1,0,80,0,0
314227,-100,4,1,0,80,0,0
315717,-125,4,1,0,40,0,0
315927,-125,4,1,0,38,0,0
316127,-125,4,1,0,37,0,0
316327,-125,4,1,0,35,0,0
316727,-125,4,1,0,33,0,0
316927,-125,4,1,0,32,0,0
317327,-125,4,1,0,30,0,0
328517,-142.857142857143,4,1,0,25,0,0

[HitObjects]
256,192,625,5,8,0:0:0:0:
256,192,1424,1,8,0:0:0:0:
256,192,2225,1,0,0:0:0:0:
256,192,3024,1,8,0:0:0:0:
256,192,3824,1,8,0:0:0:0:
256,192,4224,1,0,0:0:0:0:
256,192,4624,1,0,0:0:0:0:
256,192,5024,1,8,0:0:0:0:
256,192,5824,1,8,0:0:0:0:
256,192,6224,1,8,0:0:0:0:
256,192,6624,1,0,0:0:0:0:
256,192,7024,1,8,0:0:0:0:
256,192,7824,1,0,0:0:0:0:
256,192,8624,1,8,0:0:0:0:
256,192,9424,1,8,0:0:0:0:
256,192,10224,1,8,0:0:0:0:
256,192,10624,1,0,0:0:0:0:
256,192,11024,1,0,0:0:0:0:
256,192,11424,1,8,0:0:0:0:
256,192,12224,1,0,0:0:0:0:
256,192,12624,1,8,0:0:0:0:
256,192,13024,1,0,0:0:0:0:
256,192,13425,1,8,0:0:0:0:
256,192,13625,1,0,0:0:0:0:
256,192,13825,1,0,0:0:0:0:
256,192,14025,1,8,0:0:0:0:
256,192,14425,1,8,0:0:0:0:
256,192,14625,1,0,0:0:0:0:
256,192,15025,1,8,0:0:0:0:
256,192,15225,1,8,0:0:0:0:
256,192,15425,1,0,0:0:0:0:
256,192,15625,1,0,0:0:0:0:
256,192,15825,1,8,0:0:0:0:
256,192,16225,1,0,0:0:0:0:
256,192,16625,1,8,0:0:0:0:
256,192,17025,1,0,0:0:0:0:
256,192,17225,1,8,0:0:0:0:
256,192,17425,1,0,0:0:0:0:
256,192,17825,1,8,0:0:0:0:
256,192,18225,1,0,0:0:0:0:
256,192,18625,1,0,0:0:0:0:
256,192,18825,1,0,0:0:0:0:
256,192,19025,1,8,0:0:0:0:
256,192,19425,1,0,0:0:0:0:
256,192,19825,1,8,0:0:0:0:
256,192,20025,1,0,0:0:0:0:
256,192,20225,1,0,0:0:0:0:
256,192,20425,1,8,0:0:0:0:
256,192,20825,1,8,0:0:0:0:
256,192,21025,1,0,0:0:0:0:
256,192,21425,1,8,0:0:0:0:
256,192,21625,1,8,0:0:0:0:
256,192,21825,1,0,0:0:0:0:
256,192,22025,1,0,0:0:0:0:
256,192,22225,1,8,0:0:0:0:
256,192,22625,1,0,0:0:0:0:
256,192,23025,1,8,0:0:0:0:
256,192,23425,1,0,0:0:0:0:
256,192,23625,1,0,0:0:0:0:
256,192,23825,1,8,0:0:0:0:
256,192,24225,1,8,0:0:0:0:
256,192,24625,1,0,0:0:0:0:
256,192,25025,1,0,0:0:0:0:
256,192,25225,1,0,0:0:0:0:
256,192,25425,1,8,0:0:0:0:
256,192,25825,1,0,0:0:0:0:
256,192,26225,1,8,0:0:0:0:
256,192,26425,1,8,0:0:0:0:
256,192,26625,1,0,0:0:0:0:
256,192,26825,1,8,0:0:0:0:
256,192,27225,1,8,0:0:0:0:
256,192,27425,1,0,0:0:0:0:
256,192,27825,1,8,0:0:0:0:
256,192,28025,1,8,0:0:0:0:
256,192,28225,1,0,0:0:0:0:
256,192,28425,1,0,0:0:0:0:
256,192,28625,1,8,0:0:0:0:
256,192,29025,1,0,0:0:0:0:
256,192,29425,1,8,0:0:0:0:
256,192,29825,1,0,0:0:0:0:
256,192,30025,1,8,0:0:0:0:
256,192,30225,1,0,0:0:0:0:
256,192,30625,1,8,0:0:0:0:
256,192,31025,1,0,0:0:0:0:
256,192,31425,1,0,0:0:0:0:
256,192,31625,1,0,0:0:0:0:
256,192,31825,1,8,0:0:0:0:
256,192,32225,1,0,0:0:0:0:
256,192,32625,1,8,0:0:0:0:
256,192,32825,1,0,0:0:0:0:
256,192,33025,1,0,0:0:0:0:
256,192,33225,1,8,0:0:0:0:
256,192,33625,1,8,0:0:0:0:
256,192,33825,1,0,0:0:0:0:
256,192,34225,1,8,0:0:0:0:
256,192,34425,1,8,0:0:0:0:
256,192,34625,1,0,0:0:0:0:
256,192,34825,1,0,0:0:0:0:
256,192,35025,1,8,0:0:0:0:
256,192,35425,1,0,0:0:0:0:
256,192,35825,1,8,0:0:0:0:
256,192,36225,1,0,0:0:0:0:
256,192,36425,1,8,0:0:0:0:
256,192,36625,1,0,0:0:0:0:
256,192,37025,1,8,0:0:0:0:
256,192,37425,1,0,0:0:0:0:
256,192,37825,1,0,0:0:0:0:
256,192,38025,1,0,0:0:0:0:
256,192,38225,1,8,0:0:0:0:
256,192,39025,1,0,0:0:0:0:
256,192,39425,1,8,0:0:0:0:
256,192,39825,1,0,0:0:0:0:
256,192,40225,1,8,0:0:0:0:
256,192,42225,5,8,0:0:0:0:
256,192,42590,1,0,0:0:0:0:
256,192,42983,1,0,0:0:0:0:
256,192,43376,1,8,0:0:0:0:
256,192,45428,5,8,0:0:0:0:
256,192,45825,1,0,0:0:0:0:
256,192,46222,1,8,0:0:0:0:
256,192,46592,1,8,0:0:0:0:
256,192,48606,5,0,0:0:0:0:
256,192,49004,1,8,0:0:0:0:
256,192,49401,1,0,0:0:0:0:
256,192,49798,1,0,0:0:0:0:
256,192,50228,5,8,0:0:0:0:
256,192,50997,1,0,0:0:0:0:
256,192,51828,1,8,0:0:0:0:
256,192,52228,1,0,0:0:0:0:
256,192,52428,1,0,0:0:0:0:
256,192,52828,1,0,0:0:0:0:
256,192,53028,1,8,0:0:0:0:
256,192,53228,1,0,0:0:0:0:
256,192,53428,1,8,0:0:0:0:
256,192,53828,1,8,0:0:0:0:
256,192,54028,1,0,0:0:0:0:
256,192,54228,1,8,0:0:0:0:
256,192,54628,1,8,0:0:0:0:
256,192,55028,1,0,0:0:0:0:
256,192,55428,1,0,0:0:0:0:
256,192,55628,1,8,0:0:0:0:
256,192,56028,1,8,0:0:0:0:
256,192,56228,1,0,0:0:0:0:
256,192,56428,1,0,0:0:0:0:
256,192,56628,1,8,0:0:0:0:
256,192,57028,1,0,0:0:0:0:
256,192,57428,1,8,0:0:0:0:
256,192,57828,1,0,0:0:0:0:
256,192,58228,1,8,0:0:0:0:
256,192,58628,1,0,0:0:0:0:
256,192,58828,1,8,0:0:0:0:
256,192,59228,1,8,0:0:0:0:
256,192,59428,1,0,0:0:0:0:
256,192,59628,1,0,0:0:0:0:
256,192,59828,1,8,0:0:0:0:
256,192,60228,1,0,0:0:0:0:
256,192,60628,1,8,0:0:0:0:
256,192,61028,1,8,0:0:0:0:
256,192,61428,1,0,0:0:0:0:
256,192,61828,1,8,0:0:0:0:
256,192,62028,1,8,0:0:0:0:
256,192,62228,1,0,0:0:0:0:
256,192,62428,1,8,0:0:0:0:
256,192,62628,1,0,0:0:0:0:
256,192,63028,1,8,0:0:0:0:
256,192,63428,1,8,0:0:0:0:
256,192,63828,1,0,0:0:0:0:
256,192,64628,1,8,0:0:0:0:
256,192,64828,1,0,0:0:0:0:
256,192,65028,1,0,0:0:0:0:
256,192,65228,1,8,0:0:0:0:
256,192,65428,1,8,0:0:0:0:
256,192,65828,1,0,0:0:0:0:
256,192,66028,1,8,0:0:0:0:
256,192,66228,1,0,0:0:0:0:
256,192,66428,1,8,0:0:0:0:
256,192,66628,1,0,0:0:0:0:
256,192,67028,1,8,0:0:0:0:
256,192,67428,1,0,0:0:0:0:
256,192,67628,1,0,0:0:0:0:
256,192,67828,1,8,0:0:0:0:
256,192,68228,1,0,0:0:0:0:
256,192,68428,1,8,0:0:0:0:
256,192,68628,1,8,0:0:0:0:
256,192,68828,1,0,0:0:0:0:
256,192,69028,1,8,0:0:0:0:
256,192,69228,1,0,0:0:0:0:
256,192,69428,1,8,0:0:0:0:
256,192,69628,1,8,0:0:0:0:
256,192,69828,1,0,0:0:0:0:
256,192,70228,1,8,0:0:0:0:
256,192,70828,1,0,0:0:0:0:
256,192,71028,1,8,0:0:0:0:
256,192,71228,1,0,0:0:0:0:
256,192,71428,1,8,0:0:0:0:
256,192,71628,1,8,0:0:0:0:
256,192,71828,1,0,0:0:0:0:
256,192,72228,1,8,0:0:0:0:
256,192,72428,1,8,0:0:0:0:
256,192,72628,1,0,0:0:0:0:
256,192,72828,1,8,0:0:0:0:
256,192,73028,1,8,0:0:0:0:
256,192,73428,1,8,0:0:0:0:
256,192,73628,1,8,0:0:0:0:
256,192,73828,1,0,0:0:0:0:
256,192,74028,1,8,0:0:0:0:
256,192,74228,1,0,0:0:0:0:
256,192,74628,1,8,0:0:0:0:
256,192,74828,1,8,0:0:0:0:
256,192,75228,1,0,0:0:0:0:
256,192,75428,1,8,0:0:0:0:
256,192,75628,1,8,0:0:0:0:
256,192,75828,1,0,0:0:0:0:
256,192,76028,1,8,0:0:0:0:
256,192,76228,1,0,0:0:0:0:
256,192,76628,1,8,0:0:0:0:
256,192,77228,1,0,0:0:0:0:
256,192,77428,1,8,0:0:0:0:
256,192,77628,1,8,0:0:0:0:
256,192,77828,1,8,0:0:0:0:
256,192,78028,1,0,0:0:0:0:
256,192,78228,1,8,0:0:0:0:
256,192,78628,1,8,0:0:0:0:
256,192,78828,1,8,0:0:0:0:
256,192,79028,1,0,0:0:0:0:
256,192,79228,1,8,0:0:0:0:
256,192,79428,1,0,0:0:0:0:
256,192,80028,1,0,0:0:0:0:
256,192,80228,1,8,0:0:0:0:
256,192,80428,1,8,0:0:0:0:
256,192,80628,1,8,0:0:0:0:
256,192,81028,1,8,0:0:0:0:
256,192,81228,1,0,0:0:0:0:
256,192,81628,1,8,0:0:0:0:
256,192,81828,1,0,0:0:0:0:
256,192,82028,1,8,0:0:0:0:
256,192,82428,1,8,0:0:0:0:
256,192,82628,1,0,0:0:0:0:
256,192,82828,1,0,0:0:0:0:
256,192,83028,1,8,0:0:0:0:
256,192,83428,1,8,0:0:0:0:
256,192,83828,1,0,0:0:0:0:
256,192,84228,1,8,0:0:0:0:
256,192,84428,1,0,0:0:0:0:
256,192,84628,1,8,0:0:0:0:
256,192,85028,1,0,0:0:0:0:
256,192,85428,1,8,0:0:0:0:
256,192,85828,1,8,0:0:0:0:
256,192,86028,1,8,0:0:0:0:
256,192,86228,1,0,0:0:0:0:
256,192,86628,1,8,0:0:0:0:
256,192,86828,1,0,0:0:0:0:
256,192,87028,1,8,0:0:0:0:
256,192,87228,12,0,88228,0:0:0:0:
256,192,88628,5,8,0:0:0:0:
256,192,88828,1,0,0:0:0:0:
256,192,89228,1,8,0:0:0:0:
256,192,89328,1,8,0:0:0:0:
256,192,89428,1,8,0:0:0:0:
256,192,89612,1,8,0:0:0:0:
256,192,89812,1,0,0:0:0:0:
256,192,90012,1,0,0:0:0:0:
256,256,90228,1,12,0:0:0:0:
256,192,90628,1,8,0:0:0:0:
256,192,90828,1,0,0:0:0:0:
256,192,91028,1,8,0:0:0:0:
256,192,91428,1,8,0:0:0:0:
256,192,91628,1,8,0:0:0:0:
256,192,91728,1,8,0:0:0:0:
256,192,91828,1,0,0:0:0:0:
256,192,92028,1,8,0:0:0:0:
256,192,92228,1,0,0:0:0:0:
256,192,92428,1,0,0:0:0:0:
256,192,92628,1,8,0:0:0:0:
256,192,93028,1,0,0:0:0:0:
256,192,93228,1,8,0:0:0:0:
256,192,93328,1,8,0:0:0:0:
256,192,93428,1,0,0:0:0:0:
256,192,93828,1,8,0:0:0:0:
256,192,94028,1,0,0:0:0:0:
256,192,94228,1,8,0:0:0:0:
256,192,94628,1,8,0:0:0:0:
256,192,94828,1,0,0:0:0:0:
256,192,94928,1,0,0:0:0:0:
256,192,95028,1,0,0:0:0:0:
256,192,95228,1,8,0:0:0:0:
256,192,95428,1,0,0:0:0:0:
256,192,95628,1,0,0:0:0:0:
256,192,95828,1,8,0:0:0:0:
256,192,96228,1,8,0:0:0:0:
256,192,96428,1,8,0:0:0:0:
256,192,96628,1,0,0:0:0:0:
256,192,97028,1,8,0:0:0:0:
256,192,97228,1,0,0:0:0:0:
256,192,97428,1,8,0:0:0:0:
256,192,97802,1,8,0:0:0:0:
256,192,98002,1,0,0:0:0:0:
256,192,98102,1,0,0:0:0:0:
256,192,98202,1,0,0:0:0:0:
256,192,98402,1,8,0:0:0:0:
256,192,98602,1,8,0:0:0:0:
256,192,98802,1,0,0:0:0:0:
256,192,99002,1,8,0:0:0:0:
256,192,99422,1,8,0:0:0:0:
256,192,99828,1,0,0:0:0:0:
256,192,100228,1,0,0:0:0:0:
256,192,100428,1,0,0:0:0:0:
256,192,100628,1,8,0:0:0:0:
256,192,101028,1,0,0:0:0:0:
256,192,101222,1,0,0:0:0:0:
256,192,101417,1,8,0:0:0:0:
256,192,101612,1,8,0:0:0:0:
256,192,101807,1,0,0:0:0:0:
256,192,102196,1,8,0:0:0:0:
256,192,102392,1,0,0:0:0:0:
256,192,102491,1,0,0:0:0:0:
256,192,102589,1,8,0:0:0:0:
256,192,102787,1,0,0:0:0:0:
256,256,103027,1,12,0:0:0:0:
256,192,103427,1,0,0:0:0:0:
256,192,103627,1,0,0:0:0:0:
256,192,103827,1,8,0:0:0:0:
256,192,104227,1,8,0:0:0:0:
256,192,104427,1,8,0:0:0:0:
256,192,104527,1,8,0:0:0:0:
256,192,104627,1,0,0:0:0:0:
256,192,104827,1,8,0:0:0:0:
256,192,105027,1,0,0:0:0:0:
256,192,105227,1,0,0:0:0:0:
256,192,105427,1,8,0:0:0:0:
256,192,105827,1,8,0:0:0:0:
256,192,106027,1,8,0:0:0:0:
256,192,106127,1,8,0:0:0:0:
256,192,106227,1,0,0:0:0:0:
256,192,106627,1,8,0:0:0:0:
256,192,106827,1,0,0:0:0:0:
256,192,107027,1,8,0:0:0:0:
256,192,107427,1,8,0:0:0:0:
256,192,107627,1,0,0:0:0:0:
256,192,107727,1,0,0:0:0:0:
256,192,107827,1,0,0:0:0:0:
256,192,108027,1,8,0:0:0:0:
256,192,108227,1,0,0:0:0:0:
256,192,108427,1,0,0:0:0:0:
256,192,108627,1,8,0:0:0:0:
256,192,109027,1,8,0:0:0:0:
256,192,109227,1,0,0:0:0:0:
256,192,109427,1,8,0:0:0:0:
256,192,109827,1,0,0:0:0:0:
256,192,110027,1,0,0:0:0:0:
256,192,110227,1,8,0:0:0:0:
256,192,110627,1,8,0:0:0:0:
256,192,110827,1,8,0:0:0:0:
256,192,110927,1,8,0:0:0:0:
256,192,111027,1,0,0:0:0:0:
256,192,111227,1,8,0:0:0:0:
256,192,111427,1,8,0:0:0:0:
256,192,111627,1,0,0:0:0:0:
256,192,111827,1,8,0:0:0:0:
256,192,112227,1,8,0:0:0:0:
256,192,112427,1,8,0:0:0:0:
256,192,112527,1,0,0:0:0:0:
256,192,112627,1,0,0:0:0:0:
256,192,112827,1,8,0:0:0:0:
256,192,113027,1,8,0:0:0:0:
256,192,113227,1,0,0:0:0:0:
256,192,113407,1,8,0:0:0:0:
256,192,113807,1,8,0:0:0:0:
256,192,114007,1,8,0:0:0:0:
256,192,114207,1,0,0:0:0:0:
256,192,114407,1,8,0:0:0:0:
256,192,114607,1,0,0:0:0:0:
256,192,114807,1,8,0:0:0:0:
256,192,114907,1,0,0:0:0:0:
256,192,115007,1,8,0:0:0:0:
256,192,115207,1,8,0:0:0:0:
256,192,115407,1,0,0:0:0:0:
256,256,115827,1,4,0:0:0:0:
256,192,116227,1,0,0:0:0:0:
256,192,116427,1,8,0:0:0:0:
256,192,116627,1,0,0:0:0:0:
256,192,117027,1,8,0:0:0:0:
256,192,117427,1,0,0:0:0:0:
256,192,117627,1,8,0:0:0:0:
256,192,117827,1,0,0:0:0:0:
256,192,118027,1,0,0:0:0:0:
256,256,118227,1,12,0:0:0:0:
256,192,118627,1,0,0:0:0:0:
256,192,118827,1,0,0:0:0:0:
256,256,119027,1,12,0:0:0:0:
256,192,119227,12,0,121827,0:0:0:0:
256,192,122227,5,8,0:0:0:0:
256,192,122627,1,0,0:0:0:0:
256,192,122827,1,0,0:0:0:0:
256,192,123027,1,8,0:0:0:0:
256,192,123427,1,0,0:0:0:0:
256,192,123627,1,0,0:0:0:0:
256,192,124027,1,8,0:0:0:0:
256,192,124227,1,0,0:0:0:0:
256,192,124427,1,0,0:0:0:0:
256,192,124627,1,8,0:0:0:0:
256,192,124827,1,0,0:0:0:0:
256,192,125027,1,8,0:0:0:0:
256,192,125227,1,8,0:0:0:0:
256,192,125427,1,0,0:0:0:0:
256,192,125827,1,8,0:0:0:0:
256,192,126027,1,0,0:0:0:0:
256,192,126227,1,8,0:0:0:0:
256,192,126627,1,0,0:0:0:0:
256,192,126827,1,0,0:0:0:0:
256,192,127227,1,8,0:0:0:0:
256,192,127427,1,0,0:0:0:0:
256,192,127627,1,0,0:0:0:0:
256,192,127827,1,8,0:0:0:0:
256,192,128027,1,0,0:0:0:0:
256,192,128227,1,8,0:0:0:0:
256,192,128427,1,8,0:0:0:0:
256,192,128627,1,8,0:0:0:0:
256,192,129027,1,0,0:0:0:0:
256,192,129227,1,8,0:0:0:0:
256,192,129427,1,8,0:0:0:0:
256,192,129827,1,8,0:0:0:0:
256,192,130027,1,8,0:0:0:0:
256,192,130227,1,0,0:0:0:0:
256,192,130427,1,8,0:0:0:0:
256,192,130627,1,0,0:0:0:0:
256,192,130827,1,0,0:0:0:0:
256,192,131027,1,8,0:0:0:0:
256,192,131427,1,8,0:0:0:0:
256,256,131827,1,4,0:0:0:0:
256,192,134027,5,8,0:0:0:0:
256,192,134127,1,8,0:0:0:0:
256,192,134227,1,8,0:0:0:0:
256,192,134527,1,8,0:0:0:0:
256,192,134827,1,8,0:0:0:0:
256,256,135027,1,4,0:0:0:0:
256,192,135827,1,8,0:0:0:0:
256,192,136627,1,8,0:0:0:0:
256,192,137427,1,8,0:0:0:0:
256,192,137827,1,0,0:0:0:0:
256,192,138227,1,0,0:0:0:0:
256,192,139027,1,8,0:0:0:0:
256,192,139827,1,8,0:0:0:0:
256,192,140627,1,8,0:0:0:0:
256,192,141427,1,0,0:0:0:0:
256,192,142227,1,8,0:0:0:0:
256,192,143027,1,8,0:0:0:0:
256,192,143827,1,8,0:0:0:0:
256,192,144227,1,0,0:0:0:0:
256,192,144627,1,0,0:0:0:0:
256,192,145427,1,8,0:0:0:0:
256,256,146227,1,4,0:0:0:0:
256,192,147427,1,0,0:0:0:0:
256,192,147527,1,0,0:0:0:0:
256,192,147627,1,0,0:0:0:0:
256,192,147727,1,0,0:0:0:0:
256,256,147827,1,12,0:0:0:0:
256,192,148027,1,8,0:0:0:0:
256,192,148127,1,0,0:0:0:0:
256,192,148227,1,8,0:0:0:0:
256,192,148427,1,8,0:0:0:0:
256,192,148627,1,0,0:0:0:0:
256,192,148827,1,0,0:0:0:0:
256,192,148927,1,0,0:0:0:0:
256,192,149027,1,8,0:0:0:0:
256,192,149227,1,8,0:0:0:0:
256,192,149427,1,0,0:0:0:0:
256,192,149627,1,8,0:0:0:0:
256,192,149727,1,0,0:0:0:0:
256,192,149827,1,8,0:0:0:0:
256,192,150227,1,8,0:0:0:0:
256,192,150327,1,8,0:0:0:0:
256,192,150427,1,0,0:0:0:0:
256,192,150527,1,0,0:0:0:0:
256,192,150627,1,8,0:0:0:0:
256,192,150827,1,8,0:0:0:0:
256,192,150927,1,0,0:0:0:0:
256,192,151027,1,0,0:0:0:0:
256,192,151227,1,0,0:0:0:0:
256,192,151427,1,8,0:0:0:0:
256,192,151627,1,0,0:0:0:0:
256,192,151827,1,8,0:0:0:0:
256,192,152027,1,8,0:0:0:0:
256,192,152127,1,0,0:0:0:0:
256,192,152227,1,8,0:0:0:0:
256,192,152427,1,8,0:0:0:0:
256,192,152627,1,0,0:0:0:0:
256,192,152827,1,8,0:0:0:0:
256,192,153027,1,8,0:0:0:0:
256,192,153427,1,8,0:0:0:0:
256,192,153527,1,8,0:0:0:0:
256,192,153627,1,0,0:0:0:0:
256,192,153727,1,8,0:0:0:0:
256,192,153827,1,0,0:0:0:0:
256,192,154027,1,8,0:0:0:0:
256,192,154127,1,0,0:0:0:0:
256,192,154227,1,8,0:0:0:0:
256,192,154427,1,0,0:0:0:0:
256,192,154627,1,8,0:0:0:0:
256,192,154827,1,8,0:0:0:0:
256,192,155027,1,0,0:0:0:0:
256,192,155227,1,0,0:0:0:0:
256,192,155327,1,0,0:0:0:0:
256,192,155427,1,8,0:0:0:0:
256,192,155627,1,8,0:0:0:0:
256,192,155827,1,8,0:0:0:0:
256,192,156027,1,0,0:0:0:0:
256,192,156127,1,0,0:0:0:0:
256,192,156227,1,8,0:0:0:0:
256,192,156627,1,8,0:0:0:0:
256,192,156727,1,8,0:0:0:0:
256,192,156827,1,0,0:0:0:0:
256,192,156927,1,0,0:0:0:0:
256,192,157027,1,8,0:0:0:0:
256,192,157227,1,8,0:0:0:0:
256,192,157327,1,8,0:0:0:0:
256,192,157427,1,0,0:0:0:0:
256,192,157627,1,0,0:0:0:0:
256,192,157827,1,8,0:0:0:0:
256,192,158027,1,8,0:0:0:0:
256,192,158227,1,0,0:0:0:0:
256,192,158427,1,8,0:0:0:0:
256,192,158527,1,0,0:0:0:0:
256,192,158627,1,8,0:0:0:0:
256,192,158827,1,8,0:0:0:0:
256,192,159027,1,0,0:0:0:0:
256,192,159427,1,8,0:0:0:0:
256,192,159627,1,0,0:0:0:0:
256,192,159827,1,8,0:0:0:0:
256,192,159927,1,0,0:0:0:0:
256,192,160027,1,0,0:0:0:0:
256,192,160127,1,0,0:0:0:0:
256,192,160227,1,8,0:0:0:0:
256,192,160427,1,8,0:0:0:0:
256,192,160527,1,0,0:0:0:0:
256,192,160627,1,8,0:0:0:0:
256,192,160827,1,0,0:0:0:0:
256,192,161027,1,8,0:0:0:0:
256,192,161227,1,8,0:0:0:0:
256,192,161427,1,0,0:0:0:0:
256,192,161627,1,0,0:0:0:0:
256,192,161727,1,0,0:0:0:0:
256,192,161827,1,8,0:0:0:0:
256,192,162027,1,8,0:0:0:0:
256,192,162227,1,0,0:0:0:0:
256,192,162427,1,0,0:0:0:0:
256,192,162627,1,8,0:0:0:0:
256,192,163027,1,8,0:0:0:0:
256,192,163127,1,8,0:0:0:0:
256,192,163227,1,0,0:0:0:0:
256,192,163327,1,8,0:0:0:0:
256,192,163427,1,0,0:0:0:0:
256,192,163627,1,8,0:0:0:0:
256,192,163727,1,8,0:0:0:0:
256,192,163827,1,0,0:0:0:0:
256,192,164027,1,0,0:0:0:0:
256,192,164227,1,8,0:0:0:0:
256,192,164427,1,0,0:0:0:0:
256,192,164627,1,8,0:0:0:0:
256,192,164827,1,8,0:0:0:0:
256,192,164927,1,0,0:0:0:0:
256,192,165027,1,8,0:0:0:0:
256,192,165227,1,8,0:0:0:0:
256,192,165427,1,0,0:0:0:0:
256,192,165827,1,8,0:0:0:0:
256,192,166027,1,0,0:0:0:0:
256,192,166227,1,8,0:0:0:0:
256,192,166327,1,8,0:0:0:0:
256,192,166427,1,0,0:0:0:0:
256,192,166527,1,0,0:0:0:0:
256,192,166627,1,8,0:0:0:0:
256,192,166827,1,8,0:0:0:0:
256,192,166927,1,0,0:0:0:0:
256,192,167027,1,0,0:0:0:0:
256,192,167227,1,0,0:0:0:0:
256,192,167427,1,8,0:0:0:0:
256,192,167627,1,0,0:0:0:0:
256,192,167827,1,8,0:0:0:0:
256,192,168027,1,8,0:0:0:0:
256,192,168127,1,8,0:0:0:0:
256,192,168227,1,0,0:0:0:0:
256,192,168427,1,8,0:0:0:0:
256,192,168627,1,0,0:0:0:0:
256,192,168827,1,8,0:0:0:0:
256,192,168927,1,0,0:0:0:0:
256,192,169027,1,8,0:0:0:0:
256,192,169227,1,8,0:0:0:0:
256,192,169427,1,0,0:0:0:0:
256,192,169827,1,8,0:0:0:0:
256,192,170027,1,8,0:0:0:0:
256,192,170127,1,0,0:0:0:0:
256,192,170227,1,8,0:0:0:0:
256,192,170427,1,8,0:0:0:0:
256,192,170627,1,8,0:0:0:0:
256,192,170827,1,0,0:0:0:0:
256,192,171027,1,8,0:0:0:0:
256,192,171227,1,0,0:0:0:0:
256,192,171427,1,8,0:0:0:0:
256,192,171627,1,8,0:0:0:0:
256,192,171827,1,0,0:0:0:0:
256,192,171927,1,0,0:0:0:0:
256,192,172127,1,8,0:0:0:0:
256,192,172227,1,0,0:0:0:0:
256,192,172427,1,8,0:0:0:0:
256,192,172527,1,8,0:0:0:0:
256,192,172627,1,0,0:0:0:0:
256,192,172727,1,8,0:0:0:0:
256,192,172827,1,0,0:0:0:0:
256,192,173027,1,8,0:0:0:0:
256,192,173127,1,0,0:0:0:0:
256,192,173227,1,8,0:0:0:0:
256,192,173327,1,8,0:0:0:0:
256,192,173427,1,0,0:0:0:0:
256,192,174027,1,0,0:0:0:0:
256,192,174227,1,8,0:0:0:0:
256,192,174327,1,8,0:0:0:0:
256,192,174427,1,0,0:0:0:0:
256,192,174627,1,8,0:0:0:0:
256,192,174727,1,8,0:0:0:0:
256,192,174827,1,0,0:0:0:0:
256,192,174927,1,0,0:0:0:0:
256,256,175027,1,12,0:0:0:0:
256,192,175427,1,8,0:0:0:0:
256,192,175627,1,8,0:0:0:0:
256,192,175827,1,0,0:0:0:0:
256,192,176027,1,0,0:0:0:0:
256,192,176127,1,0,0:0:0:0:
256,192,176227,1,8,0:0:0:0:
256,192,176427,1,8,0:0:0:0:
256,192,176627,1,0,0:0:0:0:
256,192,176827,1,8,0:0:0:0:
256,192,176927,1,0,0:0:0:0:
256,192,177027,1,8,0:0:0:0:
256,192,177227,1,0,0:0:0:0:
256,192,177427,1,8,0:0:0:0:
256,192,177527,1,8,0:0:0:0:
256,192,177627,1,0,0:0:0:0:
256,192,177727,1,0,0:0:0:0:
256,192,177827,1,8,0:0:0:0:
256,192,178027,1,8,0:0:0:0:
256,192,178227,1,8,0:0:0:0:
256,192,178427,1,0,0:0:0:0:
256,192,178627,1,8,0:0:0:0:
256,192,178827,1,0,0:0:0:0:
256,192,178927,1,0,0:0:0:0:
256,192,179027,1,8,0:0:0:0:
256,192,179227,1,0,0:0:0:0:
256,192,179427,1,8,0:0:0:0:
256,192,179627,1,8,0:0:0:0:
256,192,179727,1,8,0:0:0:0:
256,192,179827,1,0,0:0:0:0:
256,192,180227,1,8,0:0:0:0:
256,192,180427,1,8,0:0:0:0:
256,192,180627,1,8,0:0:0:0:
256,192,180727,1,8,0:0:0:0:
256,192,180827,1,0,0:0:0:0:
256,192,180927,1,0,0:0:0:0:
256,192,181027,1,8,0:0:0:0:
256,192,181227,1,0,0:0:0:0:
256,192,181327,1,0,0:0:0:0:
256,192,181427,1,8,0:0:0:0:
256,192,181727,1,0,0:0:0:0:
256,192,181827,1,8,0:0:0:0:
256,192,182027,1,8,0:0:0:0:
256,192,182227,1,0,0:0:0:0:
256,192,182427,1,8,0:0:0:0:
256,192,182527,1,8,0:0:0:0:
256,192,182627,1,0,0:0:0:0:
256,192,182827,1,8,0:0:0:0:
256,192,183027,1,0,0:0:0:0:
256,192,183227,1,0,0:0:0:0:
256,192,183327,1,8,0:0:0:0:
256,192,183427,1,8,0:0:0:0:
256,192,183627,1,0,0:0:0:0:
256,192,183827,1,8,0:0:0:0:
256,192,183927,1,8,0:0:0:0:
256,192,184027,1,0,0:0:0:0:
256,192,184127,1,0,0:0:0:0:
256,192,184227,1,8,0:0:0:0:
256,192,184427,1,0,0:0:0:0:
256,192,184527,1,0,0:0:0:0:
256,192,184627,1,0,0:0:0:0:
256,192,185027,1,8,0:0:0:0:
256,192,185227,1,0,0:0:0:0:
256,192,185327,1,8,0:0:0:0:
256,192,185427,1,0,0:0:0:0:
256,192,185627,1,0,0:0:0:0:
256,192,185827,1,8,0:0:0:0:
256,192,186027,1,8,0:0:0:0:
256,192,186227,1,8,0:0:0:0:
256,192,186327,1,0,0:0:0:0:
256,192,186527,1,0,0:0:0:0:
256,192,186627,1,8,0:0:0:0:
256,192,186827,1,8,0:0:0:0:
256,192,186927,1,8,0:0:0:0:
256,192,187027,1,0,0:0:0:0:
256,192,187127,1,8,0:0:0:0:
256,192,187227,1,0,0:0:0:0:
256,192,187427,1,8,0:0:0:0:
256,192,187527,1,8,0:0:0:0:
256,192,187627,1,0,0:0:0:0:
256,192,187727,1,0,0:0:0:0:
256,256,187827,1,12,0:0:0:0:
256,192,188227,1,8,0:0:0:0:
256,192,188427,1,0,0:0:0:0:
256,192,188527,1,0,0:0:0:0:
256,192,188627,1,0,0:0:0:0:
256,192,188827,1,0,0:0:0:0:
256,192,189027,1,8,0:0:0:0:
256,192,189227,1,0,0:0:0:0:
256,192,189327,1,8,0:0:0:0:
256,192,189427,1,0,0:0:0:0:
256,192,189627,1,8,0:0:0:0:
256,192,189727,1,8,0:0:0:0:
256,192,189827,1,0,0:0:0:0:
256,192,190027,1,8,0:0:0:0:
256,192,190227,1,8,0:0:0:0:
256,192,190327,1,8,0:0:0:0:
256,192,190427,1,0,0:0:0:0:
256,192,190527,1,8,0:0:0:0:
256,192,190627,1,0,0:0:0:0:
256,192,190827,1,8,0:0:0:0:
256,192,190927,1,0,0:0:0:0:
256,192,191027,1,0,0:0:0:0:
256,192,191227,1,0,0:0:0:0:
256,192,191427,1,8,0:0:0:0:
256,192,191627,1,0,0:0:0:0:
256,192,191727,1,8,0:0:0:0:
256,192,191827,1,0,0:0:0:0:
256,192,192027,1,0,0:0:0:0:
256,192,192227,1,8,0:0:0:0:
256,192,192427,1,8,0:0:0:0:
256,192,192527,1,8,0:0:0:0:
256,192,192627,1,0,0:0:0:0:
256,192,193027,1,8,0:0:0:0:
256,192,193227,1,0,0:0:0:0:
256,192,193427,1,8,0:0:0:0:
256,192,193527,1,8,0:0:0:0:
256,192,193627,1,0,0:0:0:0:
256,192,193727,1,0,0:0:0:0:
256,192,193827,1,8,0:0:0:0:
256,192,194027,1,8,0:0:0:0:
256,192,194127,1,8,0:0:0:0:
256,192,194227,1,0,0:0:0:0:
256,192,194527,1,0,0:0:0:0:
256,192,194627,1,8,0:0:0:0:
256,192,194827,1,8,0:0:0:0:
256,192,194927,1,8,0:0:0:0:
256,192,195027,1,8,0:0:0:0:
256,192,195227,1,0,0:0:0:0:
256,192,195427,1,8,0:0:0:0:
256,192,195627,1,0,0:0:0:0:
256,192,195727,1,8,0:0:0:0:
256,192,195827,1,8,0:0:0:0:
256,192,196027,1,0,0:0:0:0:
256,192,196227,1,8,0:0:0:0:
256,192,196427,1,8,0:0:0:0:
256,192,196527,1,0,0:0:0:0:
256,192,196627,1,0,0:0:0:0:
256,192,197027,1,8,0:0:0:0:
256,192,197127,1,8,0:0:0:0:
256,192,197227,1,0,0:0:0:0:
256,192,197327,1,0,0:0:0:0:
256,192,197427,1,8,0:0:0:0:
256,192,197627,1,0,0:0:0:0:
256,192,197727,1,0,0:0:0:0:
256,192,197827,1,8,0:0:0:0:
256,192,198027,1,0,0:0:0:0:
256,192,198227,1,8,0:0:0:0:
256,192,198427,1,8,0:0:0:0:
256,192,198527,1,0,0:0:0:0:
256,192,198627,1,8,0:0:0:0:
256,192,198827,1,0,0:0:0:0:
256,192,199027,1,8,0:0:0:0:
256,192,199127,1,0,0:0:0:0:
256,192,199327,1,0,0:0:0:0:
256,192,199427,1,8,0:0:0:0:
256,192,199627,1,8,0:0:0:0:
256,192,199727,1,8,0:0:0:0:
256,192,199827,1,0,0:0:0:0:
256,192,199927,1,8,0:0:0:0:
256,192,200027,1,0,0:0:0:0:
256,192,200227,1,8,0:0:0:0:
256,192,200327,1,8,0:0:0:0:
256,192,200427,1,0,0:0:0:0:
256,192,200527,1,0,0:0:0:0:
256,256,200627,1,12,0:0:0:0:
256,192,200927,1,0,0:0:0:0:
256,192,201027,1,8,0:0:0:0:
256,256,201227,1,4,0:0:0:0:
256,192,201627,1,0,0:0:0:0:
256,256,201827,1,12,0:0:0:0:
256,192,202427,1,0,0:0:0:0:
256,192,202627,1,0,0:0:0:0:
256,192,203027,1,8,0:0:0:0:
256,192,203227,1,0,0:0:0:0:
256,192,203427,1,8,0:0:0:0:
256,192,203527,1,0,0:0:0:0:
256,256,203827,1,12,0:0:0:0:
256,192,205027,1,0,0:0:0:0:
256,192,205227,1,0,0:0:0:0:
256,192,205415,1,8,0:0:0:0:
256,192,205613,1,0,0:0:0:0:
256,192,205812,1,0,0:0:0:0:
256,192,206011,1,8,0:0:0:0:
256,192,206209,1,8,0:0:0:0:
256,192,206408,1,0,0:0:0:0:
256,192,206591,1,8,0:0:0:0:
256,256,207027,1,12,0:0:0:0:
256,192,207227,1,8,0:0:0:0:
256,192,207427,1,0,0:0:0:0:
256,192,207627,1,8,0:0:0:0:
256,192,207827,1,0,0:0:0:0:
256,192,208027,1,8,0:0:0:0:
256,192,208227,1,8,0:0:0:0:
256,192,208427,1,8,0:0:0:0:
256,192,208627,1,0,0:0:0:0:
256,192,208827,1,8,0:0:0:0:
256,192,209027,1,8,0:0:0:0:
256,192,209227,1,0,0:0:0:0:
256,192,209427,1,0,0:0:0:0:
256,192,209627,1,8,0:0:0:0:
256,192,209827,1,8,0:0:0:0:
256,192,210027,1,8,0:0:0:0:
256,256,210227,1,4,0:0:0:0:
256,256,210427,1,4,0:0:0:0:
256,256,210627,1,4,0:0:0:0:
256,256,211027,1,12,0:0:0:0:
256,192,211427,1,0,0:0:0:0:
256,192,211627,1,8,0:0:0:0:
256,192,212027,1,8,0:0:0:0:
256,192,212227,1,0,0:0:0:0:
256,192,212627,12,0,213227,0:0:0:0:
256,256,213427,5,4,0:0:0:0:
256,192,213827,1,0,0:0:0:0:
256,192,214027,1,0,0:0:0:0:
256,192,214227,1,8,0:0:0:0:
256,192,214627,1,0,0:0:0:0:
256,192,214827,1,0,0:0:0:0:
256,192,215027,1,8,0:0:0:0:
256,192,215227,1,0,0:0:0:0:
256,192,215427,1,0,0:0:0:0:
256,192,215627,1,8,0:0:0:0:
256,192,215827,1,8,0:0:0:0:
256,192,216027,1,0,0:0:0:0:
256,192,216227,1,8,0:0:0:0:
256,192,216427,1,8,0:0:0:0:
256,256,216627,1,4,0:0:0:0:
256,256,216827,1,4,0:0:0:0:
256,256,217027,1,4,0:0:0:0:
256,256,217427,1,12,0:0:0:0:
256,192,217827,1,0,0:0:0:0:
256,192,218027,1,8,0:0:0:0:
256,192,218427,1,8,0:0:0:0:
256,192,218627,1,8,0:0:0:0:
256,192,219027,12,0,219627,0:0:0:0:
256,256,219827,5,4,0:0:0:0:
256,192,220227,1,8,0:0:0:0:
256,192,220427,1,0,0:0:0:0:
256,192,220627,1,8,0:0:0:0:
256,192,221027,1,8,0:0:0:0:
256,192,221227,1,8,0:0:0:0:
256,256,221427,1,4,0:0:0:0:
256,192,221827,1,8,0:0:0:0:
256,192,222027,1,0,0:0:0:0:
256,192,222227,1,8,0:0:0:0:
256,192,222527,1,0,0:0:0:0:
256,192,222627,1,8,0:0:0:0:
256,192,222827,1,8,0:0:0:0:
256,256,223027,1,4,0:0:0:0:
256,192,223427,1,8,0:0:0:0:
256,192,223627,1,0,0:0:0:0:
256,192,223827,1,8,0:0:0:0:
256,192,224227,1,8,0:0:0:0:
256,192,224427,1,8,0:0:0:0:
256,192,224627,1,0,0:0:0:0:
256,192,224827,1,8,0:0:0:0:
256,192,225027,1,0,0:0:0:0:
256,192,225227,1,0,0:0:0:0:
256,192,225427,1,8,0:0:0:0:
256,192,225827,1,8,0:0:0:0:
256,192,226027,1,8,0:0:0:0:
256,192,226227,1,0,0:0:0:0:
256,192,226627,1,0,0:0:0:0:
256,192,226827,1,0,0:0:0:0:
256,192,227027,1,8,0:0:0:0:
256,192,227427,1,0,0:0:0:0:
256,192,227627,1,8,0:0:0:0:
256,192,227827,1,8,0:0:0:0:
256,192,228027,1,8,0:0:0:0:
256,192,228227,1,0,0:0:0:0:
256,192,228427,1,0,0:0:0:0:
256,192,228627,1,8,0:0:0:0:
256,192,229027,1,8,0:0:0:0:
256,192,229227,1,8,0:0:0:0:
256,192,229427,1,0,0:0:0:0:
256,192,229827,1,8,0:0:0:0:
256,192,230027,1,0,0:0:0:0:
256,192,230227,1,8,0:0:0:0:
256,192,230627,1,8,0:0:0:0:
256,192,230827,1,8,0:0:0:0:
256,192,231027,1,0,0:0:0:0:
256,192,231227,1,8,0:0:0:0:
256,192,231427,1,0,0:0:0:0:
256,192,231627,1,8,0:0:0:0:
256,192,231827,1,8,0:0:0:0:
256,192,232027,1,0,0:0:0:0:
256,192,232227,1,0,0:0:0:0:
256,192,232427,1,0,0:0:0:0:
256,192,232627,1,8,0:0:0:0:
256,192,233027,1,0,0:0:0:0:
256,192,233227,1,0,0:0:0:0:
256,192,233427,1,8,0:0:0:0:
256,192,233827,1,8,0:0:0:0:
256,192,234027,1,0,0:0:0:0:
256,192,234227,1,0,0:0:0:0:
256,192,234627,1,8,0:0:0:0:
256,192,234827,1,0,0:0:0:0:
256,192,235027,1,8,0:0:0:0:
256,192,235227,1,8,0:0:0:0:
256,192,235427,1,0,0:0:0:0:
256,192,235627,1,0,0:0:0:0:
256,256,235827,1,12,0:0:0:0:
256,192,236227,1,8,0:0:0:0:
256,192,236427,1,0,0:0:0:0:
256,192,236627,1,8,0:0:0:0:
256,192,236827,1,8,0:0:0:0:
256,192,237027,1,0,0:0:0:0:
256,192,237227,1,0,0:0:0:0:
256,192,237427,1,8,0:0:0:0:
256,192,237627,1,0,0:0:0:0:
256,192,237827,1,0,0:0:0:0:
256,192,238027,1,8,0:0:0:0:
256,192,238227,1,8,0:0:0:0:
256,192,238327,1,8,0:0:0:0:
256,192,238427,1,0,0:0:0:0:
256,192,238627,1,8,0:0:0:0:
256,192,238727,1,8,0:0:0:0:
256,192,238827,1,0,0:0:0:0:
256,192,238927,1,0,0:0:0:0:
256,256,239027,1,12,0:0:0:0:
256,192,239427,1,0,0:0:0:0:
256,192,239627,1,0,0:0:0:0:
256,192,239827,1,8,0:0:0:0:
256,192,240027,1,0,0:0:0:0:
256,192,240227,1,0,0:0:0:0:
256,192,240427,1,8,0:0:0:0:
256,192,240627,1,0,0:0:0:0:
256,192,241027,1,8,0:0:0:0:
256,192,241227,1,0,0:0:0:0:
256,192,241427,1,8,0:0:0:0:
256,192,241827,1,8,0:0:0:0:
256,192,242027,1,8,0:0:0:0:
256,192,242227,1,0,0:0:0:0:
256,192,242627,1,0,0:0:0:0:
256,192,242827,1,0,0:0:0:0:
256,192,243027,1,8,0:0:0:0:
256,192,243227,1,0,0:0:0:0:
256,192,243427,1,8,0:0:0:0:
256,192,243627,1,8,0:0:0:0:
256,192,243827,1,0,0:0:0:0:
256,192,244227,1,8,0:0:0:0:
256,192,244427,1,0,0:0:0:0:
256,192,244627,1,8,0:0:0:0:
256,192,245027,1,8,0:0:0:0:
256,192,245227,1,0,0:0:0:0:
256,192,245427,1,0,0:0:0:0:
256,192,245827,1,0,0:0:0:0:
256,192,246227,1,8,0:0:0:0:
256,192,246427,1,0,0:0:0:0:
256,192,246627,1,8,0:0:0:0:
256,192,246827,1,8,0:0:0:0:
256,192,247027,1,8,0:0:0:0:
256,192,247427,1,8,0:0:0:0:
256,192,247627,1,0,0:0:0:0:
256,192,247827,1,8,0:0:0:0:
256,192,248027,1,8,0:0:0:0:
256,192,248227,1,0,0:0:0:0:
256,192,248427,1,0,0:0:0:0:
256,256,248627,1,12,0:0:0:0:
256,192,249227,1,8,0:0:0:0:
256,192,249427,1,0,0:0:0:0:
256,192,249627,1,0,0:0:0:0:
256,256,249827,1,12,0:0:0:0:
256,192,250427,1,8,0:0:0:0:
256,192,250627,1,0,0:0:0:0:
256,192,251027,1,8,0:0:0:0:
256,192,251227,1,8,0:0:0:0:
256,192,251427,1,0,0:0:0:0:
256,192,251627,1,0,0:0:0:0:
256,256,251827,1,12,0:0:0:0:
256,192,252227,1,8,0:0:0:0:
256,192,252427,1,0,0:0:0:0:
256,192,252627,1,8,0:0:0:0:
256,192,253027,1,0,0:0:0:0:
256,192,253227,1,8,0:0:0:0:
256,192,253327,1,8,0:0:0:0:
256,192,253427,1,0,0:0:0:0:
256,192,253827,1,8,0:0:0:0:
256,192,254027,1,0,0:0:0:0:
256,192,254227,1,8,0:0:0:0:
256,192,254360,1,0,0:0:0:0:
256,192,254493,1,0,0:0:0:0:
256,192,254627,1,8,0:0:0:0:
256,192,254760,1,0,0:0:0:0:
256,192,254893,1,0,0:0:0:0:
256,192,255027,1,8,0:0:0:0:
256,192,255427,1,0,0:0:0:0:
256,192,255827,1,8,0:0:0:0:
256,192,256027,1,0,0:0:0:0:
256,192,256227,1,8,0:0:0:0:
256,192,256427,1,8,0:0:0:0:
256,192,256627,1,8,0:0:0:0:
256,192,257027,1,0,0:0:0:0:
256,192,257427,1,8,0:0:0:0:
256,192,257827,1,0,0:0:0:0:
256,192,258027,1,0,0:0:0:0:
256,192,258227,1,8,0:0:0:0:
256,192,258427,1,8,0:0:0:0:
256,192,258627,1,0,0:0:0:0:
256,192,258827,1,8,0:0:0:0:
256,192,259027,1,0,0:0:0:0:
256,192,259227,1,8,0:0:0:0:
256,192,259427,1,8,0:0:0:0:
256,192,259627,1,8,0:0:0:0:
256,192,259827,1,0,0:0:0:0:
256,192,260027,1,8,0:0:0:0:
256,192,260227,1,0,0:0:0:0:
256,192,260427,1,8,0:0:0:0:
256,192,260627,1,0,0:0:0:0:
256,192,260827,1,8,0:0:0:0:
256,192,261027,1,8,0:0:0:0:
256,192,261227,1,8,0:0:0:0:
256,192,261427,1,0,0:0:0:0:
256,192,261627,1,8,0:0:0:0:
256,192,261827,1,8,0:0:0:0:
256,192,262027,1,0,0:0:0:0:
256,192,262227,1,8,0:0:0:0:
256,192,262427,1,0,0:0:0:0:
256,192,262627,1,8,0:0:0:0:
256,192,262827,1,8,0:0:0:0:
256,192,263027,1,0,0:0:0:0:
256,192,263227,1,8,0:0:0:0:
256,192,263427,1,0,0:0:0:0:
256,192,263627,1,8,0:0:0:0:
256,192,263827,1,8,0:0:0:0:
256,192,264027,1,8,0:0:0:0:
256,192,264227,1,0,0:0:0:0:
256,192,264427,1,0,0:0:0:0:
256,256,264627,1,12,0:0:0:0:
256,192,265027,1,0,0:0:0:0:
256,192,265227,1,0,0:0:0:0:
256,192,265427,1,8,0:0:0:0:
256,192,265627,1,0,0:0:0:0:
256,256,265827,1,12,0:0:0:0:
256,192,266227,1,0,0:0:0:0:
256,192,266627,1,8,0:0:0:0:
256,192,267027,1,8,0:0:0:0:
256,192,267227,1,8,0:0:0:0:
256,192,267427,1,0,0:0:0:0:
256,192,267627,1,0,0:0:0:0:
256,256,267827,1,12,0:0:0:0:
256,192,268227,1,8,0:0:0:0:
256,192,268427,1,0,0:0:0:0:
256,192,268627,1,8,0:0:0:0:
256,192,268827,1,0,0:0:0:0:
256,256,269027,1,12,0:0:0:0:
256,192,269427,1,0,0:0:0:0:
256,192,269627,1,0,0:0:0:0:
256,192,269827,1,8,0:0:0:0:
256,192,270027,1,0,0:0:0:0:
256,192,270227,1,8,0:0:0:0:
256,192,270427,1,8,0:0:0:0:
256,192,270627,1,0,0:0:0:0:
256,192,270827,1,8,0:0:0:0:
256,192,271027,1,0,0:0:0:0:
256,192,271627,1,0,0:0:0:0:
256,192,271727,1,0,0:0:0:0:
256,256,271827,1,12,0:0:0:0:
256,192,272227,1,0,0:0:0:0:
256,192,272427,1,8,0:0:0:0:
256,192,272527,1,8,0:0:0:0:
256,192,272627,1,0,0:0:0:0:
256,192,272827,1,8,0:0:0:0:
256,192,273027,1,0,0:0:0:0:
256,192,273227,1,0,0:0:0:0:
256,256,273427,1,12,0:0:0:0:
256,192,273827,1,8,0:0:0:0:
256,192,274027,1,8,0:0:0:0:
256,256,274227,1,4,0:0:0:0:
256,192,274627,1,8,0:0:0:0:
256,192,274827,1,0,0:0:0:0:
256,192,275027,1,8,0:0:0:0:
256,192,275427,1,8,0:0:0:0:
256,192,275627,1,8,0:0:0:0:
256,192,275727,1,8,0:0:0:0:
256,192,275827,1,0,0:0:0:0:
256,192,276027,1,8,0:0:0:0:
256,192,276227,1,0,0:0:0:0:
256,192,276427,1,0,0:0:0:0:
256,192,276627,1,8,0:0:0:0:
256,192,277027,1,8,0:0:0:0:
256,192,277227,1,8,0:0:0:0:
256,192,277427,1,0,0:0:0:0:
256,192,277827,1,8,0:0:0:0:
256,192,278027,1,0,0:0:0:0:
256,192,278227,1,8,0:0:0:0:
256,192,278627,1,0,0:0:0:0:
256,192,278827,1,8,0:0:0:0:
256,192,278927,1,0,0:0:0:0:
256,192,279027,1,0,0:0:0:0:
256,192,279227,1,8,0:0:0:0:
256,192,279427,1,8,0:0:0:0:
256,192,279627,1,0,0:0:0:0:
256,192,279727,1,0,0:0:0:0:
256,192,279827,1,8,0:0:0:0:
256,192,280027,1,0,0:0:0:0:
256,192,280227,1,8,0:0:0:0:
256,192,280427,1,8,0:0:0:0:
256,192,280627,1,0,0:0:0:0:
256,192,281027,1,8,0:0:0:0:
256,192,281227,1,8,0:0:0:0:
256,192,281427,1,0,0:0:0:0:
256,192,281627,1,0,0:0:0:0:
256,192,281827,1,8,0:0:0:0:
256,192,282027,1,0,0:0:0:0:
256,192,282127,1,0,0:0:0:0:
256,256,282227,1,12,0:0:0:0:
256,192,282627,1,0,0:0:0:0:
256,192,282827,1,0,0:0:0:0:
256,192,283027,1,8,0:0:0:0:
256,192,283227,1,0,0:0:0:0:
256,192,283427,1,8,0:0:0:0:
256,192,283527,1,0,0:0:0:0:
256,192,283627,1,0,0:0:0:0:
256,192,283727,1,0,0:0:0:0:
256,256,283827,1,12,0:0:0:0:
256,192,284227,1,0,0:0:0:0:
256,192,284427,1,0,0:0:0:0:
256,192,284627,1,8,0:0:0:0:
256,192,285027,1,0,0:0:0:0:
256,192,285227,1,8,0:0:0:0:
256,192,285327,1,8,0:0:0:0:
256,192,285427,1,0,0:0:0:0:
256,192,285627,1,8,0:0:0:0:
256,192,285827,1,8,0:0:0:0:
256,192,286027,1,0,0:0:0:0:
256,192,286227,1,8,0:0:0:0:
256,192,286627,1,8,0:0:0:0:
256,192,286827,1,8,0:0:0:0:
256,192,287027,1,0,0:0:0:0:
256,192,287427,1,0,0:0:0:0:
256,192,287627,1,8,0:0:0:0:
256,192,287827,1,8,0:0:0:0:
256,192,288227,1,8,0:0:0:0:
256,192,288427,1,0,0:0:0:0:
256,192,288527,1,0,0:0:0:0:
256,192,288627,1,0,0:0:0:0:
256,192,288827,1,8,0:0:0:0:
256,192,289027,1,8,0:0:0:0:
256,192,289227,1,0,0:0:0:0:
256,192,289327,1,0,0:0:0:0:
256,192,289427,1,8,0:0:0:0:
256,192,289627,1,0,0:0:0:0:
256,192,289827,1,8,0:0:0:0:
256,192,290027,1,8,0:0:0:0:
256,192,290227,1,0,0:0:0:0:
256,192,290627,1,8,0:0:0:0:
256,192,290827,1,8,0:0:0:0:
256,192,291027,1,0,0:0:0:0:
256,192,291427,1,8,0:0:0:0:
256,192,291627,1,0,0:0:0:0:
256,192,291727,1,0,0:0:0:0:
256,192,291827,1,0,0:0:0:0:
256,192,292027,1,8,0:0:0:0:
256,192,292227,1,8,0:0:0:0:
256,192,292427,1,0,0:0:0:0:
256,192,292627,1,8,0:0:0:0:
256,192,293027,1,8,0:0:0:0:
256,192,293227,1,8,0:0:0:0:
256,192,293427,1,0,0:0:0:0:
256,192,293627,1,8,0:0:0:0:
256,192,293827,1,8,0:0:0:0:
256,192,294027,1,0,0:0:0:0:
256,192,294127,1,0,0:0:0:0:
256,192,294227,1,8,0:0:0:0:
256,192,294427,1,0,0:0:0:0:
256,192,294627,1,8,0:0:0:0:
256,192,294827,1,8,0:0:0:0:
256,192,295027,1,0,0:0:0:0:
256,192,295227,1,8,0:0:0:0:
256,192,295427,1,0,0:0:0:0:
256,192,295627,1,8,0:0:0:0:
256,192,295727,1,0,0:0:0:0:
256,192,295827,1,8,0:0:0:0:
256,192,296027,1,0,0:0:0:0:
256,192,296227,1,8,0:0:0:0:
256,192,296327,1,8,0:0:0:0:
256,192,296427,1,0,0:0:0:0:
256,192,296527,1,0,0:0:0:0:
256,256,296627,1,12,0:0:0:0:
256,192,296827,1,8,0:0:0:0:
256,192,297027,1,0,0:0:0:0:
256,192,297227,1,0,0:0:0:0:
256,192,297427,1,8,0:0:0:0:
256,192,297627,1,0,0:0:0:0:
256,192,297827,1,8,0:0:0:0:
256,192,298227,1,0,0:0:0:0:
256,192,298427,1,8,0:0:0:0:
256,192,298627,1,0,0:0:0:0:
256,192,299027,1,8,0:0:0:0:
256,192,299227,1,8,0:0:0:0:
256,192,299427,1,0,0:0:0:0:
256,192,299827,1,8,0:0:0:0:
256,192,300027,1,0,0:0:0:0:
256,192,300227,1,0,0:0:0:0:
256,192,300427,1,0,0:0:0:0:
256,192,300627,1,8,0:0:0:0:
256,192,300827,1,0,0:0:0:0:
256,192,301027,1,8,0:0:0:0:
256,192,301227,1,8,0:0:0:0:
256,192,301627,1,0,0:0:0:0:
256,192,301827,1,0,0:0:0:0:
256,192,302027,1,0,0:0:0:0:
256,192,302227,1,8,0:0:0:0:
256,192,302427,1,0,0:0:0:0:
256,192,302627,1,8,0:0:0:0:
256,192,302827,1,8,0:0:0:0:
256,192,303027,1,8,0:0:0:0:
256,192,303427,1,0,0:0:0:0:
256,192,303627,1,0,0:0:0:0:
256,192,303827,1,8,0:0:0:0:
256,192,304227,1,0,0:0:0:0:
256,192,304627,1,8,0:0:0:0:
256,192,304827,1,8,0:0:0:0:
256,192,305027,1,0,0:0:0:0:
256,192,305427,1,8,0:0:0:0:
256,192,305627,1,8,0:0:0:0:
256,192,305827,1,0,0:0:0:0:
256,192,306027,1,0,0:0:0:0:
256,256,306227,1,12,0:0:0:0:
256,192,306627,1,8,0:0:0:0:
256,192,306827,1,0,0:0:0:0:
256,192,307027,1,8,0:0:0:0:
256,192,307227,1,8,0:0:0:0:
256,192,307427,1,0,0:0:0:0:
256,192,307627,1,8,0:0:0:0:
256,192,307827,1,0,0:0:0:0:
256,192,307927,1,0,0:0:0:0:
256,192,308027,1,8,0:0:0:0:
256,192,308127,1,8,0:0:0:0:
256,192,308227,1,0,0:0:0:0:
256,192,308427,1,0,0:0:0:0:
256,192,308527,1,0,0:0:0:0:
256,192,308627,1,8,0:0:0:0:
256,192,308827,1,0,0:0:0:0:
256,192,309027,1,8,0:0:0:0:
256,192,309227,1,8,0:0:0:0:
256,256,309427,1,4,0:0:0:0:
256,192,309827,1,0,0:0:0:0:
256,192,310027,1,8,0:0:0:0:
256,192,310227,1,8,0:0:0:0:
256,192,310427,1,0,0:0:0:0:
256,192,310627,1,8,0:0:0:0:
256,192,311027,1,8,0:0:0:0:
256,192,311227,1,8,0:0:0:0:
256,192,311427,1,0,0:0:0:0:
256,192,311827,1,8,0:0:0:0:
256,192,312027,1,8,0:0:0:0:
256,192,312227,1,0,0:0:0:0:
256,192,312427,1,0,0:0:0:0:
256,256,312627,1,12,0:0:0:0:
256,192,312827,12,8,315427,0:0:0:0:
256,192,315827,5,8,0:0:0:0:
256,192,316027,1,0,0:0:0:0:
256,192,316227,1,0,0:0:0:0:
256,192,316427,1,8,0:0:0:0:
256,192,316827,1,8,0:0:0:0:
256,192,317027,1,8,0:0:0:0:
256,192,317427,1,8,0:0:0:0:
256,192,317827,1,0,0:0:0:0:
256,192,318027,1,0,0:0:0:0:
256,192,318227,1,8,0:0:0:0:
256,192,318427,1,0,0:0:0:0:
256,192,318627,1,0,0:0:0:0:
256,192,319027,1,8,0:0:0:0:
256,192,319227,1,8,0:0:0:0:
256,192,319427,1,0,0:0:0:0:
256,192,319627,1,8,0:0:0:0:
256,192,320027,1,0,0:0:0:0:
256,192,320227,1,8,0:0:0:0:
256,192,320627,1,8,0:0:0:0:
256,192,320827,1,0,0:0:0:0:
256,192,321027,1,8,0:0:0:0:
256,192,321427,1,8,0:0:0:0:
256,192,321827,1,0,0:0:0:0:
256,192,322227,1,8,0:0:0:0:
256,192,322427,1,8,0:0:0:0:
256,192,322627,1,0,0:0:0:0:
256,192,322827,1,8,0:0:0:0:
256,192,323227,1,8,0:0:0:0:
256,192,323427,1,8,0:0:0:0:
256,192,323827,1,8,0:0:0:0:
256,192,324027,1,8,0:0:0:0:
256,192,324227,1,0,0:0:0:0:
256,192,324427,1,0,0:0:0:0:
256,192,324627,1,8,0:0:0:0:
256,192,325027,1,0,0:0:0:0:
256,192,325427,1,8,0:0:0:0:
256,192,325627,1,0,0:0:0:0:
256,192,325827,1,0,0:0:0:0:
256,192,326027,1,8,0:0:0:0:
256,192,326427,1,8,0:0:0:0:
256,192,326627,1,8,0:0:0:0:
256,192,327027,1,8,0:0:0:0:
256,192,327427,1,0,0:0:0:0:
256,192,327627,1,0,0:0:0:0:
256,192,327827,1,8,0:0:0:0:
256,192,328227,1,0,0:0:0:0:
256,192,328627,1,8,0:0:0:0:
256,192,329027,1,0,0:0:0:0:
256,192,329427,1,8,0:0:0:0:
256,192,330227,1,8,0:0:0:0:
256,192,331027,1,8,0:0:0:0:
256,192,331827,1,8,0:0:0:0:
256,192,332227,1,0,0:0:0:0:
256,192,332627,1,0,0:0:0:0:
256,192,333027,1,8,0:0:0:0:
256,192,333827,1,8,0:0:0:0:
256,192,334227,1,8,0:0:0:0:
256,192,334627,1,0,0:0:0:0:
256,192,335027,1,8,0:0:0:0:
256,192,335427,1,0,0:0:0:0:
256,192,335827,1,8,0:0:0:0:
256,192,336627,1,8,0:0:0:0:
256,192,337427,1,8,0:0:0:0:
256,192,338227,1,8,0:0:0:0:
256,192,338627,1,0,0:0:0:0:
256,192,339027,1,0,0:0:0:0:
256,192,339427,1,8,0:0:0:0:
256,192,340227,1,8,0:0:0:0:
256,192,340627,1,8,0:0:0:0:
256,192,341027,1,0,0:0:0:0:
