osu file format v14

[General]
AudioFilename: audio.mp3
AudioLeadIn: 0
PreviewTime: 89386
Countdown: 0
SampleSet: Soft
StackLeniency: 0.7
Mode: 0
LetterboxInBreaks: 0
WidescreenStoryboard: 0

[Editor]
Bookmarks: 581,13381,26181,38181,122181,173381,238981
DistanceSpacing: 0.6
BeatDivisor: 4
GridSize: 4
TimelineZoom: 0.9128001

[Metadata]
Title:EONIAN
TitleUnicode:EONIAN -イオニアン-
Artist:ELISA connect EFP
ArtistUnicode:ELISA connect EFP
Creator:Ianos
Version:Resonance
Source:楽園追放-Expelled from Paradise-
Tags:japanese pop rakuen tsuiho urobuchi gen marathon
BeatmapID:2161310
BeatmapSetID:1033701

[Difficulty]
HPDrainRate:7
CircleSize:4
OverallDifficulty:8
ApproachRate:8.7
SliderMultiplier:1.6
SliderTickRate:1

[Events]
//Background and Video events
0,0,"bg.jpg",0,0
//Break Periods
//Storyboard Layer 0 (Background)
//Storyboard Layer 1 (Fail)
//Storyboard Layer 2 (Pass)
//Storyboard Layer 3 (Foreground)
//Storyboard Layer 4 (Overlay)
//Storyboard Sound Samples

[TimingPoints]
581,400,4,2,1,20,1,0
581,-133.333333333333,4,2,1,20,0,0
13381,428.571428571429,4,2,1,40,1,0
13381,-117.647058823529,4,2,1,40,0,0
13981,400,4,2,1,40,1,0
13981,-117.647058823529,4,2,1,40,0,0
14981,375,4,2,1,40,1,0
15356,410.958904109589,4,2,1,40,1,0
15356,-117.647058823529,4,2,1,40,0,0
15781,400,4,2,1,40,1,0
15781,-117.647058823529,4,2,1,40,0,0
16572,400,4,2,1,40,1,0
16572,-117.647058823529,4,2,1,40,0,0
16981,384.615384615385,4,2,1,40,1,0
17381,400,4,2,1,40,1,0
17381,-117.647058823529,4,2,1,40,0,0
18181,400,4,2,1,40,1,0
18181,-117.647058823529,4,2,1,40,0,0
19781,428.571428571429,4,2,1,45,1,0
19781,-117.647058823529,4,2,1,45,0,0
20381,400,4,2,1,45,1,0
20381,-117.647058823529,4,2,1,45,0,0
21364,400,4,2,1,45,1,0
21364,-117.647058823529,4,2,1,45,0,0
21773,400,4,2,1,45,1,0
21773,-117.647058823529,4,2,1,45,0,0
22181,400,4,2,1,45,1,0
22181,-117.647058823529,4,2,1,45,0,0
22970,400,4,2,1,45,1,0
22970,-117.647058823529,4,2,1,45,0,0
23781,400,4,2,1,45,1,0
23781,-117.647058823529,4,2,1,45,0,0
24581,400,4,2,1,45,1,0
24581,-117.647058823529,4,2,1,45,0,0
26412,400,4,2,1,45,1,0
26412,-117.647058823529,4,2,1,45,0,0
26612,355.029585798817,4,2,1,45,1,0
26612,-117.647058823529,4,2,1,45,0,0
26981,400,4,2,1,45,1,0
26981,-117.647058823529,4,2,1,45,0,0
27768,400,4,2,1,45,1,0
27768,-117.647058823529,4,2,1,45,0,0
28168,394.736842105263,4,2,1,45,1,0
28581,400,4,2,1,45,1,0
28581,-117.647058823529,4,2,1,45,0,0
29381,389.61038961039,4,2,1,45,1,0
29770,400,4,2,1,45,1,0
29770,-117.647058823529,4,2,1,45,0,0
30181,400,4,2,1,45,1,0
30181,-117.647058823529,4,2,1,45,0,0
30981,400,4,2,1,45,1,0
30981,-117.647058823529,4,2,1,45,0,0
34381,384.615384615385,4,2,1,45,1,0
34981,400,4,2,1,45,1,0
34981,-117.647058823529,4,2,1,45,0,0
35781,400,4,2,1,45,1,0
35781,-117.647058823529,4,2,1,45,0,0
37363,394.736842105263,4,2,1,45,1,0
37757,400,4,2,1,45,1,0
37757,-117.647058823529,4,2,1,45,0,0
38181,408.163265306122,4,2,1,50,1,0
38997,-163.345311989546,4,2,0,45,0,0
39813,379.746835443038,4,2,0,45,1,0
40192,389.61038961039,4,2,0,45,1,0
40581,400,4,2,0,45,1,0
41381,-166.666666666667,4,2,0,45,0,0
42181,365.853658536585,4,2,0,45,1,0
42181,-182.481751824818,4,2,0,45,0,0
42546,422.535211267606,4,2,0,45,1,0
42968,365.853658536585,4,2,0,45,1,0
43333,408.163265306122,4,2,0,45,1,0
43741,410.958904109589,4,2,0,45,1,0
45381,408.163265306122,4,2,0,45,1,0
45381,-166.666666666667,4,2,0,45,0,0
46197,363.636363636364,4,2,0,45,1,0
46560,419.58041958042,4,2,0,45,1,0
46979,400,4,2,0,45,1,0
48581,397.350993377483,4,2,0,45,1,0
50181,384.615384615385,4,2,1,40,1,0
50181,-166.666666666667,4,2,1,40,0,0
51786,400,4,2,1,40,1,0
51786,-142.857142857143,4,2,1,40,0,0
64586,-111.111111111111,4,2,1,50,0,0
89386,384.615384615385,4,2,2,70,1,0
89386,-111.111111111111,4,2,2,70,0,0
89775,416.666666666667,4,2,2,70,1,0
90185,400,4,2,2,80,1,1
90186,-90.9090909090908,4,2,2,80,0,1
97786,337.078651685393,4,2,2,80,1,1
98181,400,4,2,2,80,1,1
98181,-90.9090909090909,4,2,2,80,0,1
101161,400,4,2,2,80,1,1
101372,379.746835443038,4,2,2,80,1,1
101561,392.156862745098,4,2,2,80,1,1
102158,400,4,2,2,80,1,1
102158,-90.9090909090909,4,2,2,80,0,1
102358,416.666666666667,4,2,2,80,1,1
102753,451.127819548872,4,2,2,80,1,1
102981,400,4,2,2,80,1,1
102981,-90.9090909090909,4,2,2,80,0,1
113364,400,4,2,2,80,1,1
113364,-90.9090909090909,4,2,2,80,0,1
113764,461.538461538462,4,2,2,80,1,1
113764,-90.9090909090909,4,2,2,80,0,1
114169,400,4,2,2,80,1,1
114581,387.096774193548,4,2,2,80,1,1
114581,-90.9090909090909,4,2,2,80,0,1
114981,387.096774193548,4,2,2,80,1,1
114981,-90.9090909090909,4,2,2,80,0,1
115381,428.571428571429,4,2,2,80,1,1
115381,-90.9090909090909,4,2,2,80,0,1
115781,400,4,2,2,80,1,1
115781,-90.9090909090909,4,2,2,80,0,1
118981,-90.9090909090908,4,2,2,80,0,0
119781,-90.9090909090908,4,2,2,70,0,0
120581,-90.9090909090908,4,2,2,60,0,0
121381,-90.9090909090908,4,2,2,50,0,0
121981,-90.9090909090908,4,2,2,45,0,0
122181,-125,4,2,1,45,0,0
128581,-117.647058823529,4,2,1,45,0,0
131781,-117.647058823529,4,2,1,80,0,0
134981,-166.666666666667,4,2,0,40,0,0
146181,422.535211267606,4,2,1,45,1,0
146181,-166.666666666667,4,2,1,45,0,0
147381,400,4,2,1,50,1,0
147781,400,4,2,1,50,1,0
147781,-111.111111111111,4,2,1,50,0,0
170181,-111.111111111111,4,2,1,60,0,0
174181,-111.111111111111,4,2,3,50,0,0
174581,-111.111111111111,4,2,3,55,0,0
174981,-76.9230769230769,4,2,3,80,0,1
200581,-71.4285714285714,4,2,3,85,0,1
203781,-71.4285714285714,4,2,3,90,0,0
204581,-71.4285714285714,4,2,3,80,0,0
205181,-71.4285714285714,4,2,3,70,0,0
205381,-100,4,2,2,60,0,0
206981,-100,4,2,1,70,0,0
207781,-100,4,2,1,75,0,0
208581,-100,4,2,1,80,0,0
209381,-100,4,2,1,85,0,0
210181,-100,4,2,1,90,0,0
210981,-100,4,2,1,60,0,0
213381,-90.9090909090909,4,2,1,65,0,0
216581,-90.9090909090909,4,2,1,80,0,0
217381,-100,4,2,1,60,0,0
219781,-90.9090909090909,4,2,1,65,0,0
222981,-100,4,2,1,60,0,0
235781,-100,4,2,1,55,0,0
237381,-100,4,2,1,50,0,0
238181,-100,4,2,1,55,0,0
238981,-90.9090909090909,4,2,1,60,0,0
264581,-90.9090909090909,4,2,1,70,0,0
270606,375,4,2,1,70,1,0
270981,400,4,2,1,50,1,0
270981,-250,4,2,1,50,0,0
271622,338.983050847458,4,2,1,50,1,0
271781,400,4,2,2,100,1,1
271781,-71.4285714285714,4,2,2,100,0,1
295381,447.761194029851,4,2,2,100,1,1
295604,410.958904109589,4,2,2,100,1,1
295800,428.571428571429,4,2,2,100,1,1
295800,-69.4444444444444,4,2,2,100,0,1
296014,389.61038961039,4,2,2,100,1,1
296209,400,4,2,2,100,1,1
296209,-71.4285714285714,4,2,2,100,0,1
296609,387.096774193548,4,2,2,100,1,1
297198,365.853658536585,4,2,2,100,1,1
297381,400,4,2,2,100,1,1
297801,400,4,2,2,100,1,1
297801,-71.4285714285714,4,2,2,100,0,1
298581,400,4,2,2,100,1,1
298581,-71.4285714285714,4,2,2,100,0,1
299781,400,4,2,2,100,1,1
299781,-71.4285714285714,4,2,2,100,0,1
302992,400,4,2,2,100,1,1
302992,-71.4285714285714,4,2,2,100,0,1
303381,400,4,2,2,100,1,1
303381,-71.4285714285714,4,2,2,100,0,1
304581,400,4,2,2,100,1,1
304581,-71.4285714285714,4,2,2,100,0,1
309995,372.670807453416,4,2,2,100,1,1
310181,400,4,2,2,100,1,1
310581,-71.4285714285714,4,2,2,100,0,1
310981,400,4,2,2,100,1,1
310981,-71.4285714285714,4,2,2,100,0,1
312581,-71.4285714285714,4,2,2,100,0,0
313381,-71.4285714285714,4,2,2,80,0,0
314181,-71.4285714285714,4,2,2,60,0,0
314981,-71.4285714285714,4,2,2,40,0,0
315581,-71.4285714285714,4,2,2,20,0,0
315781,-142.857142857143,4,2,1,20,0,0
322211,400,4,2,1,20,1,0
322581,400,4,2,1,20,1,0
322581,-142.857142857143,4,2,1,20,0,0
323796,400,4,2,1,20,1,0
324181,400,4,2,1,20,1,0
324181,-142.857142857143,4,2,1,20,0,0
325381,400,4,2,1,20,1,0
325381,-142.857142857143,4,2,1,20,0,0
341381,-142.857142857143,4,2,1,15,0,0
342181,-142.857142857143,4,2,1,10,0,0
342981,-142.857142857143,4,2,1,5,0,0

[Colours]
Combo1 : 78,98,146
Combo2 : 97,142,199
Combo3 : 189,210,221
Combo4 : 46,56,148

[HitObjects]
256,191,581,6,0,P|292:197|325:205,1,60.0000022888184
410,264,981,2,0,P|374:270|341:278,1,60.0000022888184
237,344,1381,1,0,0:0:0:0:
263,273,1581,1,0,0:0:0:0:
174,171,1781,2,0,P|174:128|172:105,1,60.0000022888184
107,65,2181,5,2,0:0:0:0:
256,153,2381,2,0,P|265:218|261:284,1,120.000004577637,2|0,0:0|0:0,0:0:0:0:
116,270,2981,2,0,P|157:259|186:261,1,60.0000022888184
29,264,3381,2,0,P|39:222|56:198,1,60.0000022888184
107,371,3781,6,0,P|171:343|233:359,1,120.000004577637,2|0,0:0|0:0,0:0:0:0:
293,377,4381,1,0,0:0:0:0:
363,346,4581,1,0,0:0:0:0:
264,212,4981,2,0,P|263:242|262:272,1,60.0000022888184
316,122,5381,5,2,0:0:0:0:
344,197,5581,1,2,0:0:0:0:
202,157,5781,2,0,P|157:155|128:157,1,60.0000022888184
238,81,6181,2,0,P|217:41|201:16,1,60.0000022888184
316,122,6581,2,0,P|340:84|352:57,1,60.0000022888184
134,70,6981,5,0,0:0:0:0:
399,160,7381,2,0,P|401:190|402:220,1,60.0000022888184
476,257,7781,2,0,P|474:293|473:329,1,60.0000022888184
370,383,8181,1,0,0:0:0:0:
386,307,8381,1,0,0:0:0:0:
230,356,8581,5,2,0:0:0:0:
310,207,8781,2,0,P|302:274|304:331,1,120.000004577637,2|0,0:0|0:0,0:0:0:0:
159,278,9381,2,0,P|203:269|225:269,1,60.0000022888184
144,363,9781,2,0,P|100:372|78:372,1,60.0000022888184
87,228,10181,6,0,P|91:150|95:101,2,120.000004577637,2|0|0,0:0|0:0|0:0,0:0:0:0:
10,85,11381,2,0,P|8:39|6:16,1,60.0000022888184
151,36,11781,5,2,0:0:0:0:
227,51,11981,1,2,0:0:0:0:
326,0,12181,2,0,P|370:1|398:7,1,60.0000022888184
372,136,12581,2,0,P|394:98|414:77,1,60.0000022888184
512,164,12981,2,0,P|490:125|482:98,1,60.0000022888184
372,136,13381,6,0,L|365:210,2,68.0000012969971,2|0|0,0:0|0:0|0:0,0:0:0:0:
450,226,13981,2,0,L|455:300,1,68.0000012969971
373,377,14381,2,0,L|368:309,1,68.0000012969971
148,185,14981,5,2,0:0:0:0:
218,216,15168,1,2,0:0:0:0:
304,142,15356,2,0,L|381:135,1,68.0000012969971
297,56,15781,2,0,L|155:38,1,136.000002593994
76,156,16572,6,0,L|71:81,2,68.0000012969971,2|0|0,0:0|0:0|0:0,0:0:0:0:
4,197,17173,1,0,0:0:0:0:
142,253,17381,2,0,L|69:242,1,68.0000012969971
65,325,17781,2,0,L|18:382,1,68.0000012969971
225,361,18181,5,2,0:0:0:0:
150,341,18381,1,2,0:0:0:0:
236,205,18581,2,0,L|230:276,1,68.0000012969971
317,291,18981,2,0,L|323:362,1,68.0000012969971
378,190,19381,2,0,L|395:261,1,68.0000012969971
240,137,19781,6,0,L|235:208,2,68.0000012969971,2|0|0,0:0|0:0|0:0,0:0:0:0:
312,93,20381,2,0,L|379:83,1,68.0000012969971
252,32,20781,2,0,L|173:21,1,68.0000012969971
60,180,21364,6,0,L|67:101,1,68.0000012969971,2|2,0:0|0:0,0:0:0:0:
144,203,21773,2,0,L|137:270,1,68.0000012969971
50,365,22181,2,0,L|198:351,1,136.000002593994
353,292,22970,6,0,L|347:365,2,68.0000012969971,2|0|0,0:0|0:0|0:0,0:0:0:0:
291,234,23570,1,0,0:0:0:0:
427,187,23781,2,0,L|433:258,1,68.0000012969971
388,107,24181,2,0,L|329:147,1,68.0000012969971
221,30,24581,5,2,0:0:0:0:
296,50,24781,1,2,0:0:0:0:
216,179,24981,2,0,L|208:258,1,68.0000012969971
147,138,25381,2,0,L|74:170,1,68.0000012969971
148,57,25781,2,0,L|83:10,1,68.0000012969971
147,138,26181,5,2,0:0:0:0:
222,158,26412,1,2,0:0:0:0:
295,96,26612,2,0,P|343:90|368:91,1,68.0000012969971
444,182,26981,2,0,P|439:108|455:44,1,136.000002593994,2|0,0:0|0:0,0:0:0:0:
353,227,27768,6,0,L|349:300,1,68.0000012969971,2|2,0:0|0:0,0:0:0:0:
315,384,28168,1,0,0:0:0:0:
389,362,28365,1,0,0:0:0:0:
266,291,28581,2,0,L|187:283,1,68.0000012969971,2|0,0:0|0:0,0:0:0:0:
174,365,28981,2,0,L|95:373,1,68.0000012969971
32,212,29381,5,2,0:0:0:0:
44,289,29575,1,2,0:0:0:0:
110,156,29770,2,0,P|113:202|113:233,1,68.0000012969971
21,96,30181,2,0,P|101:111|165:102,1,136.000002593994
327,14,30981,5,2,0:0:0:0:
319,91,31181,1,2,0:0:0:0:
406,172,31381,2,0,L|397:94,1,68.0000012969971
403,264,31781,2,0,L|330:232,1,68.0000012969971
481,312,32181,2,0,L|417:358,1,68.0000012969971
232,337,32581,5,2,0:0:0:0:
307,317,32781,1,2,0:0:0:0:
155,269,32981,2,0,P|150:317|150:343,1,68.0000012969971
111,198,33381,2,0,P|188:191|234:242,1,136.000002593994,2|0,0:0|0:0,0:0:0:0:
25,264,34181,6,0,L|31:188,1,68.0000012969971,2|2,0:0|0:0,0:0:0:0:
77,118,34573,1,0,0:0:0:0:
56,42,34765,1,0,0:0:0:0:
189,96,34981,2,0,P|244:100|271:97,1,68.0000012969971,2|0,0:0|0:0,0:0:0:0:
313,11,35381,2,0,P|258:7|231:10,1,68.0000012969971
408,96,35781,5,2,0:0:0:0:
394,20,35981,1,2,0:0:0:0:
489,141,36181,2,0,L|494:66,1,68.0000012969971
512,210,36581,2,0,P|451:188|374:203,1,136.000002593994
412,372,37363,5,2,0:0:0:0:
426,278,37560,1,2,0:0:0:0:
288,168,37757,2,0,L|294:243,1,68.0000012969971
281,74,38181,5,2,0:0:0:0:
36,301,38997,6,0,P|87:304|144:311,1,97.9520033539474,2|0,0:0|0:0,0:0:0:0:
254,374,39813,1,0,0:0:0:0:
383,343,40192,1,2,0:0:0:0:
391,108,41381,6,0,L|386:175,1,47.9999985351563
464,50,41781,2,0,L|471:110,1,47.9999985351563
312,30,42181,6,0,L|303:135,1,87.6800006421875,2|0,0:0|0:0,0:0:0:0:
359,253,42968,1,0,0:0:0:0:
315,380,43333,1,2,0:0:0:0:
128,51,45381,6,0,P|189:54|243:64,2,95.9999970703126,2|0|0,0:0|0:0|0:0,0:0:0:0:
2,126,46560,1,2,0:0:0:0:
319,356,48581,5,2,0:0:0:0:
456,341,48978,1,0,0:0:0:0:
441,204,49375,1,2,0:0:0:0:
304,219,49773,1,0,0:0:0:0:
380,280,50181,5,2,0:0:0:0:
380,280,50950,1,2,0:0:0:0:
72,224,51786,6,0,L|61:340,1,111.999996582031,0|0,3:0|0:0,0:0:0:0:
151,316,52386,2,0,L|156:383,1,55.9999982910157,0|0,3:0|0:0,0:0:0:0:
240,254,52786,2,0,L|236:314,2,55.9999982910157,0|0|0,3:3|0:0|0:0,0:0:0:0:
163,170,53386,6,0,L|160:206,1,27.9999991455078,2|0,0:0|0:0,0:0:0:0:
80,86,53786,2,0,P|158:89|206:73,2,111.999996582031,0|2|0,0:0|0:0|0:0,0:0:0:0:
264,4,54986,6,0,P|335:2|387:7,1,111.999996582031,0|0,3:0|0:0,0:0:0:0:
461,64,55586,2,0,P|461:22|463:0,1,55.9999982910157,0|0,3:0|0:0,0:0:0:0:
445,155,55986,2,0,P|408:133|390:121,1,55.9999982910157,0|0,3:0|0:0,0:0:0:0:
199,164,56586,5,2,0:0:0:0:
289,97,56986,2,0,L|283:209,2,111.999996582031,0|2|0,0:0|0:0|0:0,0:0:0:0:
480,255,58186,6,0,P|421:236|351:242,1,111.999996582031,0|0,3:0|0:0,0:0:0:0:
347,325,58786,2,0,P|312:352|298:376,1,55.9999982910157,0|0,3:0|0:0,0:0:0:0:
199,313,59186,2,0,P|204:356|218:380,1,55.9999982910157,0|0,3:0|0:0,0:0:0:0:
283,209,59586,1,0,0:0:0:0:
255,205,59686,1,0,0:0:0:0:
227,200,59786,6,0,L|185:195,1,27.9999991455078,2|0,0:0|0:0,0:0:0:0:
51,345,60186,1,0,0:0:0:0:
199,313,60586,1,2,0:0:0:0:
98,201,60986,1,0,0:0:0:0:
51,345,61386,6,0,L|55:279,1,55.9999982910157,0|0,3:0|0:0,0:0:0:0:
0,217,61786,1,0,0:0:0:0:
94,145,61986,2,0,L|98:211,1,55.9999982910157,0|0,3:0|0:0,0:0:0:0:
17,58,62386,2,0,L|13:124,1,55.9999982910157,0|0,3:0|0:0,0:0:0:0:
93,18,62786,1,0,0:0:0:0:
291,21,62986,6,0,P|254:10|224:8,1,55.9999982910157,2|0,0:0|0:0,0:0:0:0:
178,105,63386,2,0,P|204:96|232:92,1,55.9999982910157
296,149,63786,1,2,0:0:0:0:
454,372,64586,6,0,L|461:293,1,71.9999978027344,2|0,3:2|0:0,0:0:0:0:
309,261,64986,1,0,0:0:0:0:
395,224,65186,1,2,0:0:0:0:
224,201,65386,2,0,P|210:242|207:282,1,71.9999978027344,10|0,0:0|0:0,0:0:0:0:
324,149,65786,1,0,0:0:0:0:
236,112,65986,1,0,0:0:0:0:
395,50,66186,6,0,L|308:63,1,71.9999978027344,2|0,3:2|0:0,0:0:0:0:
484,149,66586,2,0,L|397:136,1,71.9999978027344,0|2,0:0|0:0,0:0:0:0:
240,0,66986,2,0,P|155:16|116:34,1,107.999996704102,10|0,0:0|0:0,0:0:0:0:
127,33,67386,2,0,L|117:110,1,71.9999978027344,2|2,0:0|0:0,0:0:0:0:
31,195,67786,6,0,P|28:135|25:99,1,71.9999978027344,2|0,3:2|0:0,0:0:0:0:
7,286,68186,1,0,0:0:0:0:
75,343,68386,2,0,P|125:310|155:289,2,71.9999978027344,2|10|0,0:0|0:0|0:0,0:0:0:0:
206,191,68986,2,0,P|209:251|212:287,1,71.9999978027344
272,380,69386,6,0,P|218:352|185:337,1,71.9999978027344,2|0,3:2|0:0,0:0:0:0:
388,239,69786,1,0,0:0:0:0:
368,333,69986,1,2,0:0:0:0:
271,172,70186,1,10,0:0:0:0:
291,266,70386,1,0,0:0:0:0:
458,253,70586,2,0,P|417:241|382:239,1,71.9999978027344,2|2,0:0|0:0,0:0:0:0:
484,99,70986,6,0,L|491:20,1,71.9999978027344,2|0,3:2|0:0,0:0:0:0:
372,51,71386,1,0,0:0:0:0:
393,147,71586,1,2,0:0:0:0:
286,6,71786,2,0,P|275:47|275:92,1,71.9999978027344,10|0,0:0|0:0,0:0:0:0:
88,45,72186,1,0,0:0:0:0:
183,18,72386,1,0,0:0:0:0:
217,147,72586,6,0,L|210:234,1,71.9999978027344,2|0,3:2|0:0,0:0:0:0:
315,292,72986,2,0,L|309:220,1,71.9999978027344,0|2,0:0|0:0,0:0:0:0:
106,338,73386,1,10,0:0:0:0:
210,316,73586,1,0,0:0:0:0:
31,230,73786,1,2,0:0:0:0:
135,252,73986,1,2,0:0:0:0:
16,373,74186,6,0,P|21:301|30:229,1,143.999995605469,2|0,3:2|0:0,0:0:0:0:
132,180,74786,2,0,P|134:216|135:270,1,71.9999978027344,2|10,0:0|0:0,0:0:0:0:
53,97,75186,1,0,0:0:0:0:
139,64,75386,2,0,P|171:80|218:106,1,71.9999978027344
298,189,75786,6,0,L|304:104,1,71.9999978027344,2|0,3:2|0:0,0:0:0:0:
404,51,76186,2,0,L|398:122,1,71.9999978027344,0|2,0:0|0:0,0:0:0:0:
504,260,76586,2,0,L|498:175,1,71.9999978027344,10|0,0:0|0:0,0:0:0:0:
398,122,76986,2,0,L|403:193,1,71.9999978027344,2|2,0:0|0:0,0:0:0:0:
269,286,77386,5,2,3:2:0:0:
298,189,77586,1,0,0:0:0:0:
367,350,77786,2,0,P|365:290|363:266,1,71.9999978027344,0|2,0:0|0:0,0:0:0:0:
197,280,78186,2,0,L|285:287,1,71.9999978027344,10|0,0:0|0:0,0:0:0:0:
66,344,78586,1,0,0:0:0:0:
106,246,78786,1,0,0:0:0:0:
10,179,78986,6,0,L|-1:253,1,71.9999978027344,2|0,3:2|0:0,0:0:0:0:
99,139,79386,2,0,L|109:67,1,71.9999978027344,0|2,0:0|0:0,0:0:0:0:
46,0,79786,1,10,0:0:0:0:
205,121,79986,2,0,P|240:117|276:115,2,71.9999978027344,0|2|2,0:0|0:0|0:0,0:0:0:0:
339,193,80586,6,0,P|375:122|359:60,1,143.999995605469,2|0,3:2|0:0,0:0:0:0:
476,9,81186,2,0,L|486:85,1,71.9999978027344,2|10,0:0|0:0,0:0:0:0:
457,169,81586,2,0,L|447:245,1,71.9999978027344
509,312,81986,1,0,0:0:0:0:
343,362,82186,6,0,P|395:352|434:352,1,71.9999978027344,2|0,3:2|0:0,0:0:0:0:
243,342,82586,2,0,P|260:291|279:258,1,71.9999978027344,0|2,0:0|0:0,0:0:0:0:
394,190,82986,2,0,P|376:240|357:273,1,71.9999978027344,10|0,0:0|0:0,0:0:0:0:
183,161,83386,2,0,P|260:168|297:135,1,107.999996704102,2|0,0:0|0:0,0:0:0:0:
292,166,83786,6,0,L|297:84,1,71.9999978027344,2|0,3:2|0:0,0:0:0:0:
233,11,84186,1,0,0:0:0:0:
386,154,84386,2,0,P|391:191|391:252,2,71.9999978027344,2|10|0,0:0|0:0|0:0,0:0:0:0:
298,266,84986,2,0,P|296:302|299:338,1,71.9999978027344
463,233,85386,6,0,L|368:222,1,71.9999978027344,2|0,3:2|0:0,0:0:0:0:
298,266,85786,1,0,0:0:0:0:
194,161,85986,2,0,L|99:150,2,71.9999978027344,2|10|0,0:0|0:0|0:0,0:0:0:0:
38,46,86586,2,0,L|169:32,1,107.999996704102,2|0,0:0|0:0,0:0:0:0:
231,80,86986,5,2,3:2:0:0:
191,227,88586,5,0,0:0:0:0:
231,80,88786,1,8,3:0:0:0:
394,266,89186,1,0,3:0:0:0:
387,230,89286,1,0,3:0:0:0:
381,194,89386,5,0,3:0:0:0:
341,341,89578,1,0,3:0:0:0:
198,112,89775,1,8,3:0:0:0:
238,259,89983,1,8,3:0:0:0:
292,71,90186,6,0,P|375:123|378:203,1,176.000005371094,6|2,3:2|0:0,0:0:0:0:
280,172,90786,1,2,3:2:0:0:
405,19,90986,2,0,P|476:23|502:27,1,88.000002685547,10|0,0:0|0:0,0:0:0:0:
381,194,91386,2,0,P|419:134|436:113,1,88.000002685547,2|0,0:0|0:0,0:0:0:0:
506,356,91786,5,2,3:2:0:0:
478,221,91986,1,2,3:2:0:0:
273,273,92186,1,2,0:0:0:0:
396,306,92386,1,2,3:2:0:0:
261,284,92586,2,0,B|261:240|264:190,1,88.000002685547,8|0,0:0|0:0,0:0:0:0:
347,76,92986,1,2,0:0:0:0:
370,194,93186,1,0,0:0:0:0:
184,34,93386,6,0,P|180:77|179:124,1,88.000002685547,2|0,3:2|0:0,0:0:0:0:
62,189,93786,2,0,P|61:145|56:101,1,88.000002685547,2|2,0:0|3:2,0:0:0:0:
0,284,94186,2,0,P|96:300|160:246,1,176.000005371094,8|2,0:0|0:0,0:0:0:0:
178,121,94786,1,0,0:0:0:0:
252,275,94986,5,2,3:2:0:0:
287,148,95186,1,2,3:2:0:0:
379,356,95386,2,0,P|374:293|370:258,1,88.000002685547,2|2,0:0|3:2,0:0:0:0:
294,60,95786,2,0,P|289:123|285:158,1,88.000002685547,8|0,0:0|0:0,0:0:0:0:
162,343,96186,2,0,P|157:280|143:202,1,132.00000402832,2|0,0:0|0:0,0:0:0:0:
12,226,96586,6,0,B|117:221|67:167|181:157,1,176.000005371094,6|2,3:2|0:0,0:0:0:0:
251,228,97186,1,2,3:2:0:0:
41,90,97386,2,0,P|46:46|56:1,1,88.000002685547,8|0,0:0|0:0,0:0:0:0:
267,24,97786,1,2,0:0:0:0:
151,64,97954,1,0,0:0:0:0:
360,172,98180,5,2,3:2:0:0:
244,139,98381,1,2,3:2:0:0:
422,0,98581,2,0,P|426:53|425:100,1,88.000002685547,2|2,0:0|3:2,0:0:0:0:
363,259,98981,2,0,P|359:205|360:157,1,88.000002685547,8|0,0:0|0:0,0:0:0:0:
502,247,99381,2,0,P|506:299|505:347,1,88.000002685547,2|0,0:0|0:0,0:0:0:0:
330,384,99781,5,2,3:2:0:0:
363,259,99981,1,0,0:0:0:0:
507,335,100181,2,0,P|463:331|419:330,1,88.000002685547,2|2,0:0|3:2,0:0:0:0:
222,384,100581,2,0,P|230:292|165:234,1,176.000005371094,8|2,0:0|0:0,0:0:0:0:
138,330,101161,1,0,0:0:0:0:
190,134,101372,5,2,3:2:0:0:
52,97,101561,1,2,3:2:0:0:
192,148,101757,1,2,0:0:0:0:
49,82,101953,1,2,3:2:0:0:
292,20,102158,2,0,P|300:69|304:123,1,88.000002685547,8|0,0:0|0:0,0:0:0:0:
371,229,102566,1,2,0:0:0:0:
403,97,102753,1,0,0:0:0:0:
192,148,102981,6,0,P|165:229|161:325,1,176.000005371094,6|2,3:2|0:0,0:0:0:0:
259,280,103581,1,2,3:2:0:0:
87,147,103781,2,0,L|-3:135,1,88.000002685547,8|0,0:0|0:0,0:0:0:0:
177,32,104181,2,0,L|87:44,1,88.000002685547,2|0,0:0|0:0,0:0:0:0:
320,92,104581,5,2,3:2:0:0:
188,134,104781,1,2,3:2:0:0:
308,324,104981,1,2,0:0:0:0:
277,183,105181,1,2,3:2:0:0:
309,338,105381,2,0,P|253:341|211:338,1,88.000002685547,8|0,0:0|0:0,0:0:0:0:
50,288,105781,1,2,0:0:0:0:
169,253,105981,1,0,0:0:0:0:
19,105,106181,6,0,L|32:192,1,88.000002685547,2|0,3:2|0:0,0:0:0:0:
141,38,106581,2,0,L|127:125,1,88.000002685547,2|2,0:2|3:2,0:0:0:0:
264,276,106981,2,0,L|238:101,1,176.000005371094,8|2,0:0|0:0,0:0:0:0:
311,0,107581,1,0,0:0:0:0:
505,68,107781,5,2,3:2:0:0:
361,104,107981,1,2,3:2:0:0:
512,201,108181,2,0,P|460:202|409:200,1,88.000002685547,2|2,0:0|3:2,0:0:0:0:
273,103,108581,2,0,P|325:102|376:104,1,88.000002685547,8|0,0:0|0:0,0:0:0:0:
417,308,108981,2,0,P|314:300|260:302,1,132.00000402832,2|0,0:0|0:0,0:0:0:0:
227,384,109381,6,0,B|239:315|239:315|232:276|232:276|248:189,1,176.000005371094,6|2,3:2|0:0,0:0:0:0:
199,106,109981,1,2,3:2:0:0:
51,201,110181,2,0,P|114:192|160:198,1,88.000002685547,8|0,0:0|0:0,0:0:0:0:
93,33,110581,1,2,0:0:0:0:
199,106,110781,1,0,0:0:0:0:
362,12,110981,6,0,P|351:74|348:113,1,88.000002685547,2|2,3:2|3:2,3:2:0:0:
493,183,111381,1,2,0:0:0:0:
465,69,111581,1,2,3:2:0:0:
288,223,111781,2,0,L|377:215,1,88.000002685547,8|0,0:0|0:0,0:0:0:0:
462,284,112181,1,2,0:0:0:0:
462,284,112381,1,0,0:0:0:0:
185,182,112581,5,2,3:2:0:0:
274,119,112781,2,0,P|282:54|284:14,1,88.000002685547,0|2,0:0|0:0,0:0:0:0:
149,276,113181,1,2,3:2:0:0:
60,213,113364,2,0,P|52:148|50:108,1,88.000002685547,8|0,0:0|0:0,0:0:0:0:
145,2,113764,2,0,P|153:67|155:107,1,88.000002685547,2|0,0:0|0:0,0:0:0:0:
41,28,114169,5,2,3:2:0:0:
258,75,114369,1,2,3:2:0:0:
60,213,114581,1,2,0:0:0:0:
277,260,114774,1,2,3:2:0:0:
173,3,114981,2,0,P|159:51|153:98,1,88.000002685547,8|0,0:0|0:0,0:0:0:0:
257,174,115381,2,0,P|271:222|277:269,1,88.000002685547,2|0,0:0|0:0,0:0:0:0:
51,324,115781,5,2,3:2:0:0:
145,284,115981,1,2,3:2:0:0:
226,345,116181,1,0,3:0:0:0:
320,263,116381,5,2,3:2:0:0:
226,223,116581,1,2,3:2:0:0:
145,284,116781,1,0,3:0:0:0:
313,163,116981,6,0,L|450:146,1,132.00000402832,6|0,0:0|0:0,0:0:0:0:
453,163,117381,2,0,P|455:104|459:70,1,88.000002685547,2|2,0:0|0:0,0:0:0:0:
412,265,117781,6,0,L|425:363,1,88.000002685547,2|0,3:2|0:0,0:0:0:0:
218,113,118181,2,0,L|287:59,1,88.000002685547,2|0,3:2|3:0,0:0:0:0:
184,358,118581,2,0,L|92:320,1,88.000002685547,2|0,3:2|3:0,0:0:0:0:
313,182,118981,5,6,0:2:0:0:
256,192,119081,12,0,121981,0:0:0:0:
49,281,122181,6,0,P|45:322|44:355,2,64,10|0|0,0:0|0:0|0:0,0:0:0:0:
174,259,122781,2,0,P|140:235|112:217,2,64,2|8|0,0:0|0:0|0:0,0:0:0:0:
130,378,123381,2,0,P|167:360|196:345,1,64,2|0,0:0|0:0,0:0:0:0:
300,265,123781,6,0,L|292:331,1,64,8|0,0:0|0:0,0:0:0:0:
386,321,124181,2,0,L|394:387,1,64
477,278,124581,1,8,0:0:0:0:
371,201,124781,2,0,P|372:170|379:120,2,64,2|0|0,0:0|0:0|0:0,0:0:0:0:
428,34,125381,6,0,P|387:37|354:42,1,64,10|0,0:0|0:0,0:0:0:0:
288,105,125781,2,0,P|247:102|214:97,1,64,0|2,0:0|0:0,0:0:0:0:
142,3,126181,1,8,0:0:0:0:
100,100,126381,1,0,0:0:0:0:
19,7,126581,2,0,P|9:53|7:86,1,64,2|0,0:0|0:0,0:0:0:0:
90,163,126981,6,8,L|102:83,1,64,8|0,0:0|0:0,0:0:0:0:
9,243,127381,2,0,L|-3:163,1,64
85,296,127781,1,8,0:0:0:0:
180,199,127981,2,0,P|219:193|259:191,2,64,2|0|0,0:0|0:0|0:0,0:0:0:0:
240,352,128581,6,0,P|241:306|245:267,1,68.0000012969971,10|0,0:0|0:0,0:0:0:0:
327,246,128981,1,0,0:0:0:0:
467,274,129181,2,0,P|466:228|462:189,1,68.0000012969971,2|8,0:0|0:0,0:0:0:0:
380,168,129581,1,0,0:0:0:0:
334,352,129781,2,0,P|373:328|405:305,1,68.0000012969971,2|0,0:0|0:0,0:0:0:0:
255,200,130181,5,8,0:0:0:0:
242,284,130381,1,0,0:0:0:0:
108,232,130581,1,0,0:0:0:0:
121,148,130781,1,0,0:0:0:0:
155,313,130981,2,0,L|161:390,1,68.0000012969971,8|2,0:0|0:0,0:0:0:0:
24,312,131381,2,0,L|18:244,1,68.0000012969971,8|0,0:0|0:0,0:0:0:0:
208,110,131781,5,0,3:0:0:0:
208,110,133981,1,0,3:0:0:0:
213,76,134081,1,0,3:0:0:0:
219,42,134181,5,0,3:0:0:0:
272,207,134481,5,0,3:0:0:0:
102,170,134781,5,0,3:0:0:0:
381,125,134981,6,0,L|372:240,1,95.9999970703126,2|0,3:2|0:0,0:0:0:0:
466,351,135781,2,0,L|473:255,1,95.9999970703126,2|0,0:0|0:0,0:0:0:0:
355,327,136581,2,0,P|290:312|241:309,1,95.9999970703126,2|0,0:0|0:0,0:0:0:0:
162,369,137381,2,0,P|103:383|71:385,1,71.9999978027344,2|0,0:0|0:0,0:0:0:0:
34,335,137781,1,0,3:0:0:0:
140,251,138181,6,0,P|98:238|84:186,1,95.9999970703126,2|0,3:2|0:0,0:0:0:0:
230,127,138981,2,0,P|272:140|286:192,1,95.9999970703126,2|0,0:0|0:0,0:0:0:0:
127,95,139781,2,0,L|134:-4,1,95.9999970703126,2|0,0:0|0:0,0:0:0:0:
294,90,140581,2,0,L|287:185,1,95.9999970703126,2|0,0:0|0:0,0:0:0:0:
506,51,141381,6,0,B|448:43|448:43|402:65,1,95.9999970703126,2|0,3:2|0:0,0:0:0:0:
379,193,142181,2,0,B|321:201|321:201|275:179,1,95.9999970703126,2|0,0:0|0:0,0:0:0:0:
483,159,142981,2,0,P|488:206|491:254,1,95.9999970703126,2|0,0:0|0:0,0:0:0:0:
376,294,143781,2,0,P|370:341|368:381,1,71.9999978027344,2|0,0:0|0:0,0:0:0:0:
443,378,144181,1,0,3:0:0:0:
255,292,144581,5,2,3:2:0:0:
320,77,145381,1,2,0:0:0:0:
102,128,146181,1,0,3:0:0:0:
102,128,147026,1,0,3:0:0:0:
255,292,147381,5,0,3:0:0:0:
247,269,147481,1,0,3:0:0:0:
240,246,147581,1,0,3:0:0:0:
233,223,147681,1,0,3:0:0:0:
226,200,147781,6,0,L|235:115,1,71.9999978027344,4|0,3:2|0:0,0:0:0:0:
117,57,148181,1,2,3:2:0:0:
226,23,148381,1,2,0:0:0:0:
70,152,148581,2,0,L|62:223,1,71.9999978027344,0|2,3:0|0:0,0:0:0:0:
183,318,148981,1,2,3:2:0:0:
158,208,149181,1,0,0:0:0:0:
270,290,149381,5,0,3:0:0:0:
61,223,149581,1,0,0:0:0:0:
238,120,149781,2,0,P|249:161|248:201,1,71.9999978027344,2|2,3:2|0:0,0:0:0:0:
194,18,150181,5,8,3:2:0:0:
229,24,150281,1,0,3:0:0:0:
264,30,150381,1,2,3:2:0:0:
299,36,150481,1,0,3:0:0:0:
334,42,150581,2,0,L|339:86,1,35.9999989013672,10|0,3:2|0:0,0:0:0:0:
437,155,150781,2,0,L|432:119,1,35.9999989013672,2|0,3:2|0:0,0:0:0:0:
249,190,150981,6,0,L|257:261,1,71.9999978027344,8|0,3:2|0:0,0:0:0:0:
379,342,151381,1,2,3:2:0:0:
268,371,151581,1,2,0:0:0:0:
146,232,151781,1,0,3:0:0:0:
257,261,151981,1,2,0:0:0:0:
114,315,152181,1,2,3:2:0:0:
294,177,152381,1,0,0:0:0:0:
57,155,152581,6,0,P|51:200|50:237,1,71.9999978027344,8|0,3:2|0:0,0:0:0:0:
193,139,152981,2,0,P|199:94|200:57,1,71.9999978027344,2|2,3:2|0:0,0:0:0:0:
76,49,153381,6,0,L|108:52,4,17.9999994506836,2|0|0|0|0,3:2|0:0|0:0|0:0|0:0,0:0:0:0:
193,139,153681,6,0,L|268:130,1,71.9999978027344,0|0,3:0|0:0,0:0:0:0:
338,33,153981,1,0,3:0:0:0:
373,39,154081,1,0,3:0:0:0:
408,46,154181,6,0,P|413:95|413:134,1,71.9999978027344,8|0,3:2|0:0,0:0:0:0:
485,241,154581,1,2,3:2:0:0:
512,130,154781,1,2,0:0:0:0:
350,200,154981,2,0,P|345:249|345:288,1,71.9999978027344,0|2,3:0|0:0,0:0:0:0:
413,117,155381,1,2,3:2:0:0:
264,143,155581,1,0,0:0:0:0:
195,297,155781,5,0,3:0:0:0:
344,271,155981,1,0,0:0:0:0:
162,190,156181,2,0,L|169:100,1,71.9999978027344,2|2,3:2|0:0,0:0:0:0:
58,187,156581,5,8,3:2:0:0:
54,222,156681,1,0,3:0:0:0:
50,257,156781,1,2,3:2:0:0:
47,292,156881,1,0,3:0:0:0:
44,327,156981,2,0,P|75:319|84:318,1,35.9999989013672,10|0,3:2|0:0,0:0:0:0:
196,198,157181,2,0,P|165:190|156:189,1,35.9999989013672,10|0,3:2|0:0,0:0:0:0:
6,101,157381,6,0,P|71:91|104:99,1,71.9999978027344,8|0,3:2|0:0,0:0:0:0:
136,12,157781,1,2,3:2:0:0:
283,83,157981,2,0,P|265:51|239:26,1,71.9999978027344,2|0,0:0|3:0,0:0:0:0:
365,170,158381,2,0,P|383:139|392:104,2,71.9999978027344,2|2|0,0:0|3:2|0:0,0:0:0:0:
247,259,158981,6,0,L|255:183,1,71.9999978027344,10|0,3:2|0:0,0:0:0:0:
354,279,159381,2,0,L|361:350,1,71.9999978027344,2|2,3:2|0:0,0:0:0:0:
237,371,159781,6,0,L|239:340,2,17.9999994506836,8|0|0,3:2|0:0|0:0,0:0:0:0:
138,304,159981,2,0,L|165:290,2,17.9999994506836,2|0|0,3:2|0:0|0:0,0:0:0:0:
253,130,160181,1,10,3:2:0:0:
146,184,160381,1,2,3:2:0:0:
351,55,160581,6,0,P|359:99|361:131,1,71.9999978027344,8|0,3:2|0:0,0:0:0:0:
228,244,160981,1,2,3:2:0:0:
253,130,161181,1,2,0:0:0:0:
369,232,161381,2,0,L|455:245,1,71.9999978027344,0|2,3:0|0:0,0:0:0:0:
482,31,161781,1,2,3:2:0:0:
461,142,161981,1,0,0:0:0:0:
390,65,162181,5,8,3:2:0:0:
440,242,162381,1,0,0:0:0:0:
253,130,162581,2,0,P|202:121|157:121,1,71.9999978027344,2|2,3:2|0:0,0:0:0:0:
132,240,162981,5,0,3:0:0:0:
164,225,163081,1,0,0:0:0:0:
199,220,163181,1,2,0:0:0:0:
232,232,163281,1,0,0:0:0:0:
257,257,163381,1,2,3:2:0:0:
186,327,163581,1,2,0:0:0:0:
371,348,163781,6,0,L|364:270,1,71.9999978027344,8|0,3:2|0:0,0:0:0:0:
428,184,164181,1,2,3:2:0:0:
263,185,164381,2,0,L|256:263,1,71.9999978027344,2|0,0:0|3:0,0:0:0:0:
344,116,164781,2,0,L|337:44,2,71.9999978027344,2|2|0,0:0|3:2|0:0,0:0:0:0:
162,85,165381,6,0,P|213:79|250:85,1,71.9999978027344,8|0,3:2|0:0,0:0:0:0:
130,250,165781,2,0,P|150:202|174:173,1,71.9999978027344,2|2,3:2|0:0,0:0:0:0:
226,312,166181,6,0,L|223:294,2,17.9999994506836,0|0|0,3:0|0:0|0:0,0:0:0:0:
111,384,166381,2,0,L|118:336,1,35.9999989013672,2|0,0:0|0:0,0:0:0:0:
28,241,166581,2,0,L|15:314,1,71.9999978027344,2|2,3:2|0:0,0:0:0:0:
262,203,166981,6,0,P|299:204|334:209,1,71.9999978027344,8|0,3:2|0:0,0:0:0:0:
377,299,167381,1,2,3:2:0:0:
445,157,167581,2,0,P|462:189|475:222,2,71.9999978027344,2|0|2,0:0|3:0|0:0,0:0:0:0:
353,108,168181,2,0,L|360:28,1,71.9999978027344,2|0,3:2|0:0,0:0:0:0:
262,203,168581,6,0,L|255:274,1,71.9999978027344,0|0,3:0|0:0,0:0:0:0:
173,332,168981,1,2,3:2:0:0:
154,144,169181,2,0,L|147:215,2,71.9999978027344,2|0|2,0:0|3:0|0:0,0:0:0:0:
232,27,169781,1,2,3:2:0:0:
74,69,169981,1,2,3:2:0:0:
315,192,170181,5,0,3:0:0:0:
154,144,170381,1,0,3:0:0:0:
224,276,170581,1,0,3:0:0:0:
270,102,170781,1,0,3:0:0:0:
322,320,170981,1,0,3:0:0:0:
107,256,171181,1,0,3:0:0:0:
213,384,171381,1,0,3:0:0:0:
154,143,171581,1,0,3:0:0:0:
415,206,171781,5,0,3:0:0:0:
401,190,171881,2,0,L|354:185,1,35.9999989013672,0|0,3:0|0:0,0:0:0:0:
224,276,172081,1,0,3:0:0:0:
238,260,172181,2,0,L|285:255,1,35.9999989013672,0|0,3:0|0:0,0:0:0:0:
454,95,172381,5,0,3:0:0:0:
418,88,172481,1,0,3:0:0:0:
382,82,172581,2,0,L|350:76,2,17.9999994506836,0|0|0,3:0|0:0|0:0,0:0:0:0:
261,6,172781,2,0,L|297:0,1,35.9999989013672,0|0,3:0|3:0,0:0:0:0:
143,62,172981,5,0,3:0:0:0:
177,70,173081,1,0,3:0:0:0:
205,93,173181,1,0,3:0:0:0:
221,124,173281,1,0,3:0:0:0:
222,160,173381,5,4,3:2:0:0:
89,288,174181,5,8,0:1:0:0:
92,266,174281,1,8,0:1:0:0:
95,244,174381,1,8,0:1:0:0:
98,222,174481,1,8,0:1:0:0:
101,200,174581,5,8,0:1:0:0:
133,215,174681,1,8,0:1:0:0:
168,219,174781,1,8,0:1:0:0:
203,209,174881,1,8,0:1:0:0:
232,188,174981,6,0,P|290:172|340:180,1,103.999995239258,2|2,3:2|0:0,0:0:0:0:
406,306,175381,1,10,0:0:0:0:
393,69,175581,1,0,0:0:0:0:
393,69,175681,1,0,0:0:0:0:
393,69,175781,2,0,P|430:104|452:151,1,103.999995239258,2|2,3:2|0:0,0:0:0:0:
452,151,176081,1,0,0:0:0:0:
452,151,176181,1,10,0:0:0:0:
280,173,176381,2,0,L|332:177,1,51.999997619629
297,351,176581,5,8,3:1:0:0:
276,314,176681,1,8,0:1:0:0:
239,294,176781,1,8,0:1:0:0:
197,297,176881,1,8,0:1:0:0:
167,325,176981,2,0,P|123:339|108:341,1,51.999997619629,8|0,0:0|0:0,0:0:0:0:
62,226,177181,2,0,P|27:194|18:182,1,51.999997619629
95,47,177381,5,8,3:1:0:0:
131,26,177481,1,8,0:1:0:0:
171,33,177581,1,8,0:1:0:0:
193,67,177681,1,8,0:1:0:0:
187,108,177781,2,0,P|178:144|178:173,1,51.999997619629,8|0,0:0|0:0,0:0:0:0:
316,110,177981,2,0,P|325:74|325:45,1,51.999997619629
270,209,178181,6,0,P|326:220|384:197,1,103.999995239258,2|2,3:2|0:0,0:0:0:0:
369,206,178481,1,0,0:0:0:0:
369,206,178581,1,10,0:0:0:0:
488,101,178781,2,0,L|481:165,1,51.999997619629
450,334,178981,5,2,3:2:0:0:
408,328,179081,1,0,0:0:0:0:
366,323,179181,1,2,0:0:0:0:
324,318,179281,1,0,0:0:0:0:
282,313,179381,1,10,0:0:0:0:
112,371,179581,2,0,L|60:364,1,51.999997619629
82,112,179781,5,8,3:1:0:0:
76,154,179881,1,8,0:1:0:0:
92,194,179981,1,8,0:1:0:0:
126,222,180081,1,8,0:1:0:0:
170,229,180181,2,0,P|224:209|287:212,1,103.999995239258,8|0,0:0|0:0,0:0:0:0:
206,94,180581,6,8,L|208:68,4,25.9999988098145,8|8|8|8|8,3:1|0:1|0:1|0:1|0:1,0:1:0:0:
329,31,180881,1,8,0:1:0:0:
329,31,180981,2,0,L|335:82,1,51.999997619629,8|0,0:0|0:0,0:0:0:0:
461,123,181181,2,0,L|455:72,1,51.999997619629,0|0,3:0|0:0,0:0:0:0:
269,208,181381,6,0,B|260:252|260:252|270:312,1,103.999995239258,2|2,3:2|0:0,0:0:0:0:
371,352,181781,1,10,0:0:0:0:
156,211,181981,1,0,0:0:0:0:
156,211,182081,1,0,0:0:0:0:
156,211,182181,2,0,L|49:224,1,103.999995239258,2|2,3:2|0:0,0:0:0:0:
53,223,182481,1,0,0:0:0:0:
53,223,182581,1,10,0:0:0:0:
147,378,182781,2,0,L|209:386,1,51.999997619629
274,219,182981,5,8,3:1:0:0:
270,177,183081,1,8,0:1:0:0:
249,140,183181,1,8,0:1:0:0:
218,111,183281,1,8,0:1:0:0:
179,94,183381,2,0,P|143:105|115:104,1,51.999997619629,8|0,0:0|0:0,0:0:0:0:
68,11,183581,2,0,P|104:0|132:1,1,51.999997619629
288,41,183781,5,8,3:1:0:0:
323,62,183881,1,8,0:1:0:0:
364,62,183981,1,8,0:1:0:0:
401,44,184081,1,8,0:1:0:0:
423,9,184181,2,0,L|418:65,1,51.999997619629,8|0,0:0|0:0,0:0:0:0:
512,177,184381,2,0,L|507:121,1,51.999997619629
344,177,184581,6,0,L|334:293,1,103.999995239258,2|2,3:2|0:0,0:0:0:0:
335,280,184881,1,0,0:0:0:0:
335,280,184981,1,10,0:0:0:0:
469,364,185181,2,0,P|468:338|465:312,1,51.999997619629
223,305,185381,5,2,3:2:0:0:
181,312,185481,1,0,0:0:0:0:
139,319,185581,1,2,0:0:0:0:
97,326,185681,1,0,0:0:0:0:
55,332,185781,1,10,0:0:0:0:
0,194,185981,2,0,L|52:201,1,51.999997619629
223,305,186181,5,0,3:0:0:0:
244,270,186281,2,0,P|242:245|236:219,1,51.999997619629,0|0,3:0|0:0,0:0:0:0:
151,136,186481,1,0,3:0:0:0:
131,101,186581,2,0,P|107:90|83:82,1,51.999997619629,0|0,3:0|0:0,0:0:0:0:
260,15,186781,1,0,3:0:0:0:
279,52,186881,1,0,3:0:0:0:
260,90,186981,6,8,L|256:128,4,25.9999988098145,8|8|8|8|8,3:1|0:1|0:1|0:1|3:1,0:1:0:0:
376,116,187281,1,0,0:0:0:0:
406,86,187381,2,0,P|405:55|396:18,1,51.999997619629,0|0,3:0|0:0,0:0:0:0:
468,190,187581,2,0,P|494:173|521:147,1,51.999997619629,0|0,3:0|0:0,0:0:0:0:
304,320,187781,5,2,3:2:0:0:
186,280,187981,1,2,0:0:0:0:
370,229,188181,1,10,0:0:0:0:
212,383,188381,1,0,0:0:0:0:
212,383,188481,1,0,0:0:0:0:
212,383,188581,1,2,3:2:0:0:
293,147,188781,1,2,0:0:0:0:
293,147,188881,1,0,0:0:0:0:
293,147,188981,1,10,0:0:0:0:
134,275,189181,2,0,L|197:280,1,51.999997619629
66,360,189381,5,8,3:1:0:0:
38,329,189481,1,8,0:1:0:0:
26,289,189581,1,8,0:1:0:0:
30,248,189681,1,8,0:1:0:0:
47,211,189781,2,0,P|57:173|59:145,1,51.999997619629,8|0,0:0|0:0,0:0:0:0:
119,40,189981,2,0,P|91:13|67:-3,1,51.999997619629
167,144,190181,5,8,3:1:0:0:
206,157,190281,1,8,0:1:0:0:
246,150,190381,1,8,0:1:0:0:
276,123,190481,1,8,0:1:0:0:
293,85,190581,2,0,P|289:45|292:17,1,51.999997619629,8|0,0:0|0:0,0:0:0:0:
421,32,190781,2,0,P|453:9|478:-2,1,51.999997619629,0|0,3:0|0:0,0:0:0:0:
483,182,190981,6,0,B|436:170|436:170|373:184,1,103.999995239258,2|2,3:2|0:0,0:0:0:0:
381,182,191281,1,0,0:0:0:0:
381,182,191381,1,10,0:0:0:0:
428,349,191581,1,0,0:0:0:0:
428,349,191681,1,0,0:0:0:0:
428,349,191781,1,2,3:2:0:0:
283,276,191981,1,2,0:0:0:0:
283,276,192081,1,0,0:0:0:0:
283,276,192181,2,0,L|179:265,1,103.999995239258,10|0,0:0|0:0,0:0:0:0:
114,372,192581,6,8,L|171:365,1,51.999997619629,8|8,3:1|0:1,0:1:0:0:
0,169,192781,1,8,0:1:0:0:
0,169,192881,1,8,0:1:0:0:
0,169,192981,2,0,P|50:161|104:158,1,103.999995239258,8|0,0:0|0:0,0:0:0:0:
43,266,193381,6,0,L|39:305,2,25.9999988098145,8|8|8,3:1|0:1|0:1,0:0:0:0:
103,158,193581,2,8,L|107:119,2,25.9999988098145,8|8|8,3:1|0:1|0:1,0:1:0:0:
114,372,193781,1,0,3:0:0:0:
207,147,193981,2,0,L|214:85,1,51.999997619629,0|0,3:0|0:0,0:0:0:0:
167,264,194181,6,0,B|225:254|225:254|280:268,1,103.999995239258,2|2,3:2|0:0,0:0:0:0:
230,373,194581,1,10,0:0:0:0:
323,162,194781,1,0,0:0:0:0:
323,162,194881,1,0,0:0:0:0:
323,162,194981,2,0,L|333:50,1,103.999995239258,2|2,3:2|0:0,0:0:0:0:
332,58,195281,1,0,0:0:0:0:
332,58,195381,1,10,0:0:0:0:
503,176,195581,2,0,P|477:171|444:168,1,51.999997619629
313,277,195781,5,8,3:1:0:0:
268,265,195881,1,8,0:1:0:0:
234,239,195981,1,8,0:1:0:0:
212,203,196081,1,8,0:1:0:0:
206,161,196181,2,0,L|215:103,1,51.999997619629,8|0,0:0|0:0,0:0:0:0:
100,6,196381,1,0,0:0:0:0:
93,47,196481,1,0,0:0:0:0:
85,87,196581,6,0,L|77:138,1,51.999997619629,8|8,3:1|0:1,0:0:0:0:
127,290,196781,2,0,L|119:238,1,51.999997619629,8|8,0:1|0:1,0:0:0:0:
226,62,196981,2,0,L|218:113,1,51.999997619629,8|0,0:0|0:0,0:0:0:0:
268,265,197181,2,0,L|260:213,1,51.999997619629
387,12,197381,6,0,L|370:122,1,103.999995239258,2|2,3:2|0:0,0:0:0:0:
371,114,197681,1,0,0:0:0:0:
371,114,197781,1,10,0:0:0:0:
490,241,197981,2,0,P|490:200|488:176,1,51.999997619629
389,307,198181,5,2,3:2:0:0:
354,330,198281,1,0,0:0:0:0:
313,338,198381,1,2,0:0:0:0:
273,323,198481,1,0,0:0:0:0:
240,296,198581,2,0,L|170:288,1,51.999997619629,10|0,0:0|0:0,0:0:0:0:
46,382,198781,2,0,L|116:374,1,51.999997619629
214,179,198981,5,0,3:0:0:0:
197,140,199081,2,0,P|157:128|133:126,1,51.999997619629,0|0,3:0|0:0,0:0:0:0:
31,273,199281,1,0,3:0:0:0:
48,234,199381,2,0,P|88:222|112:220,1,51.999997619629,0|0,3:0|0:0,0:0:0:0:
216,38,199581,1,0,3:0:0:0:
256,46,199681,1,0,3:0:0:0:
296,54,199781,6,8,L|339:61,6,25.9999988098145,8|8|8|8|8|8|8,3:1|0:1|0:1|0:1|0:1|0:1|0:1,0:1:0:0:
214,179,200181,1,0,3:0:0:0:
265,169,200281,1,0,3:0:0:0:
340,199,200381,1,0,3:0:0:0:
391,189,200481,1,0,3:0:0:0:
468,226,200581,6,0,L|474:170,1,55.9999982910157,0|0,3:0|0:0,0:0:0:0:
285,3,200781,1,0,3:0:0:0:
279,58,200881,1,0,3:0:0:0:
272,113,200981,2,0,L|265:168,1,55.9999982910157,0|0,3:0|0:0,0:0:0:0:
94,240,201181,6,0,B|222:202|188:292|331:249,1,223.999993164063,4|0,3:2|0:0,0:0:0:0:
300,370,201681,1,0,0:0:0:0:
246,356,201781,6,0,L|182:344,1,55.9999982910157,4|0,3:2|0:0,0:0:0:0:
311,254,201981,2,0,L|289:192,1,55.9999982910157
431,259,202181,2,0,L|473:209,1,55.9999982910157
356,384,202381,5,0,3:0:0:0:
292,201,202581,2,0,L|253:94,1,111.999996582031,10|0,0:0|0:0,0:0:0:0:
136,296,202981,1,2,0:0:0:0:
152,158,203181,6,0,L|132:104,2,55.9999982910157,0|0|2,3:0|0:0|0:0,0:0:0:0:
342,45,203481,6,0,L|378:1,1,55.9999982910157,0|0,3:0|0:0,0:0:0:0:
431,259,203781,5,6,3:2:0:0:
256,192,203881,12,0,205181,0:0:0:0:
440,63,205381,6,0,L|432:153,2,80,0|0|0,3:0|3:0|3:0,3:0:0:0:
354,4,205981,1,0,3:0:0:0:
103,94,206181,6,0,P|158:108|193:104,1,80,4|0,3:0|3:0,0:0:0:0:
257,38,206581,1,4,3:0:0:0:
212,253,206981,5,0,3:0:0:0:
282,215,207181,1,0,3:0:0:0:
358,238,207381,1,0,3:0:0:0:
395,308,207581,1,0,3:0:0:0:
192,252,207781,5,0,3:0:0:0:
276,207,207981,1,0,3:0:0:0:
367,234,208181,1,0,3:0:0:0:
411,318,208381,1,0,3:0:0:0:
168,252,208581,5,0,3:0:0:0:
268,198,208781,1,0,3:0:0:0:
378,231,208981,1,0,3:0:0:0:
431,331,209181,1,0,3:0:0:0:
139,252,209381,5,0,3:0:0:0:
260,186,209581,1,0,3:0:0:0:
391,226,209781,1,0,3:0:0:0:
455,347,209981,1,0,3:0:0:0:
341,112,210181,5,4,3:0:0:0:
273,367,210381,1,4,3:0:0:0:
86,180,210581,1,4,3:0:0:0:
341,112,210981,6,0,P|281:102|216:97,1,120,12|0,0:0|0:0,0:0:0:0:
222,97,211381,1,0,3:0:0:0:
423,47,211581,6,0,P|376:16|342:10,1,80,8|0,0:0|0:0,0:0:0:0:
432,221,211981,2,0,P|435:164|423:132,1,80,8|0,0:0|0:0,0:0:0:0:
261,275,212381,1,0,0:0:0:0:
337,183,212581,2,0,L|356:315,1,120,0|0,3:0|0:0,0:0:0:0:
367,289,212981,2,0,L|355:374,1,80
178,332,213381,6,0,P|91:306|36:364,2,176.000005371094,6|0|2,3:2|0:0|3:2,0:0:0:0:
34,218,214581,2,0,P|27:169|33:127,1,88.000002685547
140,176,214981,6,0,L|236:187,1,88.000002685547,2|0,3:2|0:0,0:0:0:0:
311,70,215381,1,0,3:0:0:0:
225,93,215581,1,0,0:0:0:0:
373,132,215781,1,2,3:2:0:0:
163,31,215981,1,0,0:0:0:0:
227,186,216181,2,0,P|237:245|237:286,1,88.000002685547,0|0,3:0|0:0,0:0:0:0:
373,132,216581,5,4,3:0:0:0:
301,369,216781,1,4,3:0:0:0:
128,188,216981,1,4,3:0:0:0:
441,243,217381,6,0,L|319:228,1,120,12|0,0:0|0:0,0:0:0:0:
321,228,217781,1,0,3:0:0:0:
216,296,217981,6,0,L|134:285,1,80,8|0,0:0|0:0,0:0:0:0:
128,188,218381,2,0,L|96:111,1,80,8|0,0:0|0:0,0:0:0:0:
279,32,218781,1,0,0:0:0:0:
168,6,218981,2,0,P|198:67|210:145,1,120,0|0,3:0|0:0,0:0:0:0:
204,137,219381,2,0,P|250:127|306:123,1,80
398,219,219781,6,0,P|381:130|438:66,1,176.000005371094,6|0,0:0|0:0,0:0:0:0:
478,157,220381,1,0,0:0:0:0:
398,219,220581,2,0,P|382:265|379:307,1,88.000002685547,2|0,3:2|0:0,0:0:0:0:
503,377,220981,2,0,P|498:333|483:292,1,88.000002685547
288,352,221381,6,0,L|197:338,1,88.000002685547,2|0,3:2|0:0,0:0:0:0:
86,223,221781,2,0,L|177:209,1,88.000002685547,0|0,3:0|0:0,0:0:0:0:
273,252,222181,1,2,3:2:0:0:
258,135,222381,1,0,3:0:0:0:
258,135,222481,1,0,3:0:0:0:
258,135,222581,1,0,3:0:0:0:
243,18,222781,1,0,0:0:0:0:
15,92,222981,6,0,P|65:119|160:80,1,160,4|2,3:2|0:0,0:0:0:0:
258,135,223581,1,0,3:0:0:0:
258,135,223781,2,0,P|299:120|350:124,1,80,10|0,0:0|0:0,0:0:0:0:
389,38,224181,2,0,P|430:53|481:49,1,80,2|0,0:0|0:0,0:0:0:0:
434,148,224581,6,0,P|430:208|430:243,1,80,0|0,3:0|0:0,0:0:0:0:
327,301,224981,2,0,P|331:241|331:206,1,80,2|0,0:0|3:0,0:0:0:0:
171,201,225381,1,10,0:0:0:0:
248,167,225581,1,0,0:0:0:0:
238,250,225781,1,2,0:0:0:0:
238,250,225981,1,0,0:0:0:0:
86,213,226181,5,0,3:0:0:0:
127,58,226381,1,0,3:0:0:0:
127,58,226481,1,0,3:0:0:0:
127,58,226581,2,0,L|120:155,1,80,2|0,3:2|3:0,0:0:0:0:
4,245,226981,1,10,0:0:0:0:
86,213,227181,1,0,0:0:0:0:
194,320,227381,2,0,P|243:328|280:320,1,80,2|0,0:0|0:0,0:0:0:0:
234,227,227781,5,0,3:0:0:0:
101,295,227981,2,0,L|90:379,1,80,0|2,0:0|0:0,0:0:0:0:
194,320,228381,1,0,3:0:0:0:
140,201,228581,2,0,L|129:117,1,80,10|0,0:0|0:0,0:0:0:0:
207,29,228981,2,0,L|217:108,1,80,2|0,0:0|0:0,0:0:0:0:
325,56,229381,6,0,P|368:42|406:44,1,80,0|0,3:0|0:0,0:0:0:0:
380,142,229781,2,0,P|463:157|502:226,2,160,2|10|2,0:0|0:0|3:2,0:0:0:0:
403,237,230781,1,0,0:0:0:0:
244,207,230981,5,0,3:0:0:0:
313,270,231181,2,0,P|324:320|331:361,1,80,0|2,0:0|0:0,0:0:0:0:
220,294,231581,1,0,3:0:0:0:
180,137,231781,2,0,P|224:115|275:120,1,80,10|0,0:0|0:0,0:0:0:0:
149,225,232181,2,0,P|105:247|54:242,1,80,2|0,0:0|0:0,0:0:0:0:
91,68,232581,6,0,L|85:148,1,80,0|0,3:0|0:0,0:0:0:0:
149,225,232981,2,0,L|155:304,1,80,2|0,3:2|0:0,0:0:0:0:
93,384,233381,1,10,0:0:0:0:
253,252,233781,1,2,0:0:0:0:
253,252,233981,1,0,0:0:0:0:
379,174,234181,5,0,3:0:0:0:
344,269,234381,1,0,0:0:0:0:
508,329,234581,1,2,3:2:0:0:
443,251,234781,1,0,0:0:0:0:
309,363,234981,1,10,0:0:0:0:
409,345,235181,1,0,0:0:0:0:
355,190,235381,2,0,P|345:240|344:278,1,80,2|0,0:0|0:0,0:0:0:0:
496,109,235781,5,0,3:0:0:0:
334,70,235981,1,0,0:0:0:0:
278,142,236181,1,2,0:0:0:0:
407,110,236381,1,0,3:0:0:0:
397,128,236581,5,2,3:2:0:0:
293,153,236781,1,8,0:0:0:0:
210,85,236981,1,2,0:0:0:0:
126,105,237181,1,0,0:0:0:0:
186,168,237381,5,0,3:0:0:0:
150,22,237581,1,0,0:0:0:0:
42,127,237781,1,2,0:0:0:0:
42,127,237981,1,0,3:0:0:0:
251,74,238181,6,0,L|318:64,2,53.3333333333333,2|0|0,3:2|0:0|0:0,0:0:0:0:
368,130,238581,2,0,L|435:140,2,53.3333333333333,2|0|0,3:2|0:0|0:0,3:2:0:0:
488,229,238981,6,0,P|399:195|334:247,1,176.000005371094,0|2,3:0|0:0,0:0:0:0:
388,326,239581,1,2,3:2:0:0:
242,261,239781,2,0,L|140:253,1,88.000002685547,8|0,0:0|0:0,0:0:0:0:
63,384,240181,1,2,0:0:0:0:
164,350,240381,1,0,0:0:0:0:
45,267,240581,6,0,P|47:215|54:179,1,88.000002685547,0|0,3:0|0:0,0:0:0:0:
22,84,240981,2,0,P|68:59|102:47,1,88.000002685547,2|2,0:0|3:2,0:0:0:0:
212,6,241381,2,0,P|210:58|203:94,1,88.000002685547,8|0,0:0|0:0,0:0:0:0:
235,189,241781,2,0,P|188:213|154:225,1,88.000002685547,2|0,0:0|0:0,0:0:0:0:
203,93,242181,6,0,P|296:107|336:197,1,176.000005371094,0|2,3:0|0:0,0:0:0:0:
235,189,242781,1,2,3:2:0:0:
301,268,242981,2,0,L|395:257,1,88.000002685547,8|0,0:0|0:0,0:0:0:0:
456,362,243381,2,0,L|362:351,1,88.000002685547,2|0,0:0|0:0,0:0:0:0:
207,306,243781,6,0,B|123:289|123:289|25:312,1,176.000005371094,0|2,3:0|0:0,0:0:0:0:
61,199,244381,1,2,3:2:0:0:
133,127,244581,2,0,P|158:170|162:213,1,88.000002685547,8|0,0:0|0:0,0:0:0:0:
61,199,244981,2,0,P|36:156|32:113,1,88.000002685547,2|0,0:0|0:0,0:0:0:0:
184,45,245381,6,0,L|384:69,1,176.000005371094,0|2,3:0|0:0,0:0:0:0:
448,15,245981,1,2,3:2:0:0:
407,149,246181,2,0,P|364:160|321:154,1,88.000002685547,8|0,0:0|0:0,0:0:0:0:
498,104,246581,1,2,0:0:0:0:
491,205,246780,1,0,0:0:0:0:
413,383,246981,6,0,L|420:296,1,88.000002685547,0|0,3:0|0:0,0:0:0:0:
236,260,247381,2,0,L|324:267,1,88.000002685547,2|2,0:0|3:2,0:0:0:0:
242,361,247781,2,0,L|154:354,1,88.000002685547,8|0,0:0|0:0,0:0:0:0:
66,238,248181,2,0,L|59:325,1,88.000002685547,2|0,0:0|0:0,0:0:0:0:
163,206,248581,6,0,P|117:150|-5:165,1,176.000005371094,4|2,3:2|0:0,0:0:0:0:
19,147,249181,1,2,3:2:0:0:
159,291,249381,2,0,P|169:236|157:194,1,88.000002685547,2|0,3:2|0:0,0:0:0:0:
306,4,249781,6,0,P|220:1|161:63,1,176.000005371094,6|2,3:2|0:0,0:0:0:0:
161,63,250381,1,2,3:2:0:0:
364,64,250581,2,0,P|341:26|305:1,1,88.000002685547,2|0,3:2|0:0,0:0:0:0:
331,166,250981,5,0,3:0:0:0:
264,90,251181,1,0,0:0:0:0:
396,242,251381,1,2,0:0:0:0:
428,146,251581,1,2,0:0:0:0:
296,261,251781,6,0,L|288:355,1,88.000002685547,0|0,3:0|0:0,0:0:0:0:
202,229,252181,2,0,L|194:323,1,88.000002685547,2|2,0:0|3:2,0:0:0:0:
298,161,252581,2,0,L|305:73,1,88.000002685547,8|0,0:0|0:0,0:0:0:0:
185,23,252981,1,2,0:0:0:0:
206,122,253181,1,0,0:0:0:0:
24,98,253381,6,0,P|67:87|111:91,1,88.000002685547,0|0,3:0|0:0,0:0:0:0:
122,191,253781,2,0,P|152:222|171:262,1,88.000002685547,2|2,0:0|3:2,0:0:0:0:
147,372,254181,6,0,L|204:382,2,58.6666684570313,2|0|0,3:2|0:0|0:0,0:0:0:0:
278,326,254581,2,0,L|335:315,2,58.6666684570313,2|0|0,3:2|0:0|0:0,0:0:0:0:
395,384,254981,6,0,P|393:288|406:203,2,176.000005371094,0|2|8,3:0|0:0|0:0,0:0:0:0:
502,235,256181,2,0,P|500:172|494:139,1,88.000002685547,2|0,0:0|0:0,0:0:0:0:
384,89,256581,6,0,L|286:80,1,88.000002685547,0|0,3:0|0:0,0:0:0:0:
206,176,256981,2,0,L|304:185,1,88.000002685547,2|2,0:0|3:2,0:0:0:0:
296,80,257381,2,0,L|198:71,1,88.000002685547,8|0,0:0|0:0,0:0:0:0:
206,176,257781,2,0,L|108:167,1,88.000002685547,2|0,0:0|0:0,0:0:0:0:
11,96,258181,5,2,3:2:0:0:
27,195,258381,1,0,0:0:0:0:
120,288,258581,5,2,3:2:0:0:
136,189,258781,1,2,0:0:0:0:
237,252,258981,2,0,P|246:301|248:346,1,88.000002685547,8|0,0:0|0:0,0:0:0:0:
136,189,259381,5,2,3:2:0:0:
248,145,259581,1,0,0:0:0:0:
247,126,259781,5,2,3:2:0:0:
123,174,259981,1,0,0:0:0:0:
237,252,260181,5,2,3:2:0:0:
361,300,260381,1,2,0:0:0:0:
487,200,260581,2,0,L|496:103,1,88.000002685547,8|0,0:0|0:0,0:0:0:0:
345,14,260981,5,2,3:2:0:0:
394,139,261181,1,0,0:0:0:0:
382,158,261381,5,2,3:2:0:0:
324,9,261581,1,0,0:0:0:0:
229,99,261781,5,2,3:2:0:0:
287,248,261981,1,2,0:0:0:0:
116,346,262181,2,0,P|65:343|10:328,1,88.000002685547,8|0,0:0|0:0,0:0:0:0:
184,169,262581,5,2,3:2:0:0:
220,326,262781,1,0,0:0:0:0:
201,69,262981,5,2,3:2:0:0:
153,266,263181,1,0,0:0:0:0:
326,201,263381,1,2,3:2:0:0:
129,153,263581,1,2,0:0:0:0:
264,297,263781,5,0,3:0:0:0:
332,68,263981,1,0,0:0:0:0:
35,229,264181,1,2,3:2:0:0:
103,0,264381,1,0,0:0:0:0:
264,297,264581,5,4,3:2:0:0:
220,8,264781,2,0,P|192:110|194:205,1,176.000005371094,4|0,0:0|0:0,0:0:0:0:
372,47,265381,2,0,P|423:31|463:30,1,88.000002685547,4|0,0:0|0:0,0:0:0:0:
190,179,265781,2,0,P|124:79|220:8,1,264.000008056641,4|0,0:0|0:0,0:0:0:0:
276,277,266581,5,0,3:0:0:0:
321,116,266781,1,0,0:0:0:0:
364,216,266981,5,0,3:0:0:0:
409,377,267181,1,0,0:0:0:0:
499,242,267381,2,0,P|508:182|499:134,1,88.000002685547,0|0,3:0|0:0,0:0:0:0:
239,61,267781,5,4,3:2:0:0:
219,256,267981,1,4,0:0:0:0:
310,216,268181,1,0,0:0:0:0:
230,158,268381,1,0,0:0:0:0:
299,314,268581,5,6,0:0:0:0:
150,101,268781,1,0,0:0:0:0:
399,278,268981,2,0,P|403:183|395:140,1,132.00000402832,4|0,0:0|0:0,0:0:0:0:
321,116,269381,5,0,3:0:0:0:
96,191,269581,1,0,0:0:0:0:
315,216,269781,5,0,3:0:0:0:
80,107,269981,1,0,0:0:0:0:
279,372,270181,5,0,3:0:0:0:
396,148,270381,1,0,0:0:0:0:
190,305,270606,5,0,3:0:0:0:
467,214,270793,1,0,3:0:0:0:
268,98,270981,6,0,B|277:182,1,80,2|0,0:0|0:0,0:0:0:0:
392,261,271622,1,0,3:0:0:0:
430,283,271706,1,0,3:0:0:0:
467,214,271781,6,0,B|338:205|390:290|250:282,1,223.999993164063,4|0,3:2|0:0,0:0:0:0:
413,376,272381,1,0,0:0:0:0:
277,178,272581,6,0,L|165:164,1,111.999996582031,2|0,3:2|0:0,0:0:0:0:
381,126,272981,2,0,L|326:6,1,111.999996582031,2|2,3:2|0:0,0:0:0:0:
51,142,273381,2,0,P|129:53|238:71,1,223.999993164063,10|0,0:0|0:0,0:0:0:0:
165,164,273981,1,0,0:0:0:0:
279,288,274181,6,0,P|281:225|274:164,1,111.999996582031,2|0,3:2|0:0,0:0:0:0:
58,340,274581,2,0,P|113:310|162:273,1,111.999996582031,2|2,3:2|0:0,0:0:0:0:
225,62,274981,2,0,B|352:22|325:102|463:63,1,223.999993164063,10|0,0:0|0:0,0:0:0:0:
509,166,275581,1,0,0:0:0:0:
355,332,275781,5,2,3:2:0:0:
392,185,275981,1,0,0:0:0:0:
161,239,276181,2,0,P|101:244|38:250,1,111.999996582031,2|2,3:2|0:0,0:0:0:0:
243,322,276581,2,0,P|303:327|366:333,1,111.999996582031,2|0,3:2|0:0,0:0:0:0:
260,121,276981,2,0,P|165:125|81:132,1,167.999994873047,0|0,3:0|0:0,0:0:0:0:
155,40,277381,6,0,B|285:0|285:0|310:40|370:34,1,223.999993164063,6|2,3:2|3:2,0:0:0:0:
260,121,277981,1,2,0:0:0:0:
467,116,278181,2,0,P|497:51|491:-6,1,111.999996582031,10|0,0:0|0:0,0:0:0:0:
364,180,278581,1,0,0:0:0:0:
512,234,278781,1,0,0:0:0:0:
337,304,278981,5,2,3:2:0:0:
369,73,279181,1,0,0:0:0:0:
138,150,279381,2,0,L|156:26,1,111.999996582031,2|2,3:2|0:0,0:0:0:0:
249,235,279781,2,0,L|347:312,1,111.999996582031,10|0,0:0|0:0,0:0:0:0:
119,288,280181,2,0,L|2:334,1,111.999996582031
253,108,280581,6,0,B|379:71|336:167|477:127,1,223.999993164063,2|2,3:2|3:2,0:0:0:0:
497,16,281181,1,2,0:0:0:0:
299,214,281381,2,0,P|282:273|278:328,1,111.999996582031,10|0,0:0|0:0,0:0:0:0:
137,125,281781,2,0,P|154:66|158:11,1,111.999996582031
0,270,282181,5,2,3:2:0:0:
190,238,282381,1,0,0:0:0:0:
307,382,282581,1,2,3:2:0:0:
86,347,282781,1,2,0:0:0:0:
263,129,282981,5,2,3:2:0:0:
296,272,283181,1,8,0:0:0:0:
120,50,283381,1,2,3:2:0:0:
162,235,283581,1,10,0:0:0:0:
357,61,283781,6,0,P|376:113|369:171,1,111.999996582031,2|0,3:2|0:0,0:0:0:0:
491,256,284181,2,0,P|455:298|401:321,1,111.999996582031,2|2,3:2|0:0,0:0:0:0:
105,261,284581,2,0,P|200:216|299:277,1,223.999993164063,10|0,0:0|0:0,0:0:0:0:
197,329,285181,1,0,0:0:0:0:
60,172,285381,5,2,3:2:0:0:
252,132,285581,1,0,0:0:0:0:
7,72,285781,1,2,3:2:0:0:
170,219,285981,1,2,0:0:0:0:
163,0,286181,2,0,P|143:68|140:133,1,111.999996582031,10|0,0:0|0:0,0:0:0:0:
288,299,286581,1,0,0:0:0:0:
252,132,286781,1,0,0:0:0:0:
403,344,286981,6,0,P|410:285|419:230,1,111.999996582031,2|0,3:2|0:0,0:0:0:0:
512,31,287381,2,0,P|503:86|496:141,1,111.999996582031,2|2,3:2|0:0,0:0:0:0:
288,299,287781,2,0,P|307:172|335:63,1,223.999993164063,10|0,0:0|0:0,0:0:0:0:
418,233,288381,1,0,0:0:0:0:
168,116,288581,5,2,3:2:0:0:
330,79,288781,1,0,0:0:0:0:
71,55,288981,2,0,P|54:123|73:177,1,111.999996582031,2|2,3:2|0:0,0:0:0:0:
275,191,289381,2,0,P|207:210|170:253,1,111.999996582031,2|0,3:2|0:0,0:0:0:0:
24,314,289781,2,0,B|124:300|171:386,1,167.999994873047,0|0,3:0|0:0,0:0:0:0:
264,310,290181,6,0,B|367:275|367:275|481:294,1,223.999993164063,6|2,3:2|3:2,0:0:0:0:
363,384,290781,1,2,0:0:0:0:
275,191,290981,2,0,P|287:104|295:62,1,111.999996582031,10|0,0:0|0:0,0:0:0:0:
423,285,291381,1,0,0:0:0:0:
392,136,291581,1,0,0:0:0:0:
158,234,291781,6,0,L|134:358,1,111.999996582031,2|0,3:2|0:0,0:0:0:0:
146,115,292181,1,2,3:2:0:0:
6,162,292381,1,2,0:0:0:0:
248,299,292581,2,0,L|291:80,1,223.999993164063,10|0,0:0|0:0,0:0:0:0:
388,176,293181,1,0,0:0:0:0:
165,58,293381,6,0,P|93:66|-1:18,1,167.999994873047,2|0,3:2|0:0,0:0:0:0:
37,136,293781,2,0,P|52:191|54:262,1,111.999996582031,2|2,3:2|0:0,0:0:0:0:
144,384,294181,1,10,0:0:0:0:
191,227,294381,1,0,0:0:0:0:
369,353,294581,2,0,L|254:333,1,111.999996582031
321,213,294981,5,2,3:2:0:0:
494,173,295181,1,0,0:0:0:0:
204,96,295381,1,2,3:2:0:0:
377,56,295604,1,2,0:0:0:0:
108,157,295800,6,0,P|92:75|108:27,1,115.039997226514,2|8,3:2|0:0,0:0:0:0:
195,350,296209,2,0,P|115:322|85:283,1,111.999996582031,2|10,3:2|0:0,0:0:0:0:
204,96,296609,5,4,3:2:0:0:
272,289,296802,1,2,3:2:0:0:
316,178,296996,1,0,3:0:0:0:
139,278,297198,5,4,3:2:0:0:
310,63,297381,1,2,3:2:0:0:
410,318,297581,1,0,3:0:0:0:
99,49,297801,6,0,B|63:42|63:42|98:181,1,167.999994873047,4|0,3:2|0:0,0:0:0:0:
151,259,298201,2,0,L|136:373,1,111.999996582031,2|0,3:2|0:0,0:0:0:0:
317,178,298581,6,0,P|373:183|431:193,1,111.999996582031,2|2,3:2|0:0,0:0:0:0:
265,335,298981,2,0,P|321:330|379:320,1,111.999996582031,2|0,3:2|0:0,0:0:0:0:
232,75,299381,2,0,P|287:65|345:59,1,111.999996582031,0|0,3:0|0:0,0:0:0:0:
110,26,299781,5,2,3:2:0:0:
200,190,299981,2,0,L|222:306,1,111.999996582031,0|2,3:0|0:0,0:0:0:0:
110,282,300381,1,2,3:2:0:0:
321,169,300581,2,0,L|343:53,1,111.999996582031,2|0,3:2|0:0,0:0:0:0:
396,356,300981,2,0,L|429:182,1,167.999994873047,0|0,3:0|0:0,0:0:0:0:
496,134,301381,5,2,3:2:0:0:
321,169,301581,1,0,3:0:0:0:
392,15,301781,1,2,3:2:0:0:
427,190,301981,1,2,0:0:0:0:
234,94,302181,5,2,3:2:0:0:
353,277,302381,1,0,0:0:0:0:
51,213,302581,1,2,3:2:0:0:
157,377,302781,1,2,3:2:0:0:
218,204,302992,6,0,P|231:140|233:83,1,111.999996582031,2|0,3:2|0:0,0:0:0:0:
66,102,303381,2,0,P|53:166|51:223,1,111.999996582031,2|2,3:2|0:2,0:0:0:0:
233,93,303781,2,0,L|463:53,1,223.999993164063,10|0,0:2|0:0,0:0:0:0:
512,168,304381,1,0,0:0:0:0:
368,289,304581,6,0,P|371:224|385:178,1,111.999996582031,2|0,3:2|0:0,0:0:0:0:
232,333,304981,2,0,L|114:313,1,111.999996582031,2|2,3:2|0:2,0:0:0:0:
328,184,305381,2,0,L|369:296,1,111.999996582031,10|0,0:0|0:0,0:0:0:0:
151,176,305781,2,0,L|227:83,1,111.999996582031
512,136,306181,6,0,P|415:109|326:188,1,223.999993164063,2|2,3:2|3:2,0:0:0:0:
436,221,306781,1,2,0:0:0:0:
277,46,306981,2,0,P|209:31|156:43,1,111.999996582031,10|0,0:0|0:0,0:0:0:0:
210,159,307381,2,0,P|163:210|146:262,1,111.999996582031
411,301,307781,5,2,3:2:0:0:
361,289,307881,1,0,0:0:0:0:
311,277,307981,1,0,0:0:0:0:
261,265,308081,1,0,0:0:0:0:
203,329,308181,5,2,3:2:0:0:
169,335,308281,1,0,0:0:0:0:
135,341,308381,1,2,0:0:0:0:
102,347,308481,1,0,0:0:0:0:
69,354,308581,6,0,L|83:238,1,111.999996582031,2|8,3:2|0:0,0:0:0:0:
0,37,308981,2,0,L|13:148,1,111.999996582031,2|10,3:2|0:0,0:0:0:0:
387,53,309381,5,4,3:2:0:0:
141,127,309581,1,2,3:2:0:0:
266,194,309781,1,0,3:0:0:0:
110,4,309995,5,4,3:2:0:0:
394,179,310181,1,2,3:2:0:0:
100,337,310381,1,0,3:0:0:0:
232,62,310581,6,4,B|267:76|267:76|345:38|345:38|395:55,1,167.999994873047,4|0,3:2|0:0,3:2:0:0:
501,23,310981,2,0,P|474:76|470:130,1,111.999996582031,2|2,3:2|0:0,0:0:0:0:
342,260,311381,6,0,B|400:243|400:243|449:257,1,111.999996582031,2|0,3:2|0:0,0:0:0:0:
155,337,311781,2,0,B|97:354|97:354|47:339,1,111.999996582031,2|0,3:2|3:0,0:0:0:0:
191,62,312181,2,0,B|249:45|249:45|298:59,1,111.999996582031,2|0,3:2|3:0,0:0:0:0:
155,337,312581,5,6,3:2:0:0:
256,192,312681,12,0,315581,0:0:0:0:
60,60,315781,5,2,0:0:0:0:
130,128,315981,2,0,L|114:247,1,111.999996582031
182,311,316581,1,0,0:0:0:0:
408,244,316981,1,0,0:0:0:0:
446,379,317381,5,2,0:0:0:0:
495,292,317581,1,2,0:0:0:0:
408,244,317781,2,0,P|408:211|415:166,1,55.9999982910157
512,103,318181,2,0,P|512:136|505:181,1,55.9999982910157
414,91,318581,2,0,L|337:81,1,55.9999982910157
283,146,318981,6,0,L|211:152,2,55.9999982910157,2|0|0,0:0|0:0|0:0,0:0:0:0:
154,85,319581,1,0,0:0:0:0:
152,213,319781,2,0,L|183:259,1,55.9999982910157
75,148,320181,2,0,L|51:198,1,55.9999982910157
0,30,320581,5,2,0:0:0:0:
97,1,320781,1,2,0:0:0:0:
225,100,320981,2,0,P|231:60|227:24,1,55.9999982910157
304,162,321381,2,0,P|341:147|370:125,1,55.9999982910157
289,261,321781,2,0,P|320:286|353:300,1,55.9999982910157
406,224,322211,5,2,0:0:0:0:
210,321,322581,2,0,L|200:383,1,55.9999982910157
106,245,322981,2,0,L|115:301,1,55.9999982910157
20,325,323381,2,0,L|11:269,1,55.9999982910157
36,175,323796,5,2,0:0:0:0:
132,151,323996,1,2,0:0:0:0:
205,217,324181,2,0,P|249:208|279:210,1,55.9999982910157
317,290,324581,2,0,P|272:298|243:297,1,55.9999982910157
358,201,324981,2,0,L|362:145,1,55.9999982910157
457,205,325381,6,0,L|461:260,2,55.9999982910157,2|0|0,0:0|0:0|0:0,0:0:0:0:
372,295,325981,1,0,0:0:0:0:
512,120,326181,2,0,P|465:107|435:107,1,55.9999982910157
393,31,326581,2,0,P|358:65|343:91,1,55.9999982910157
282,197,326981,5,2,0:0:0:0:
379,165,327181,1,2,0:0:0:0:
267,43,327381,2,0,L|260:99,1,55.9999982910157
163,127,327781,2,0,L|170:71,1,55.9999982910157
73,99,328181,2,0,L|66:155,1,55.9999982910157
137,224,328581,5,2,0:0:0:0:
137,224,329381,1,0,0:0:0:0:
228,267,330181,1,2,0:0:0:0:
228,267,330981,1,0,0:0:0:0:
124,335,331781,6,0,L|138:211,1,111.999996582031,2|0,0:0|0:0,0:0:0:0:
237,237,332581,2,0,L|224:348,1,111.999996582031
324,361,333381,1,2,0:0:0:0:
324,361,334181,1,0,0:0:0:0:
420,328,334981,5,2,0:0:0:0:
420,328,335781,1,0,0:0:0:0:
386,232,336581,1,2,0:0:0:0:
386,232,337381,1,0,0:0:0:0:
426,158,337781,2,0,L|422:130,3,27.9999991455078
485,73,338181,6,0,P|426:73|361:58,1,111.999996582031,2|0,0:0|0:0,0:0:0:0:
284,24,338981,2,0,P|225:24|160:39,1,111.999996582031
135,118,339781,1,2,0:0:0:0:
135,118,340581,1,0,0:0:0:0:
256,192,341381,12,0,342981,0:0:0:0:
