osu file format v14

[General]
AudioFilename: euphoric field.mp3
AudioLeadIn: 1000
PreviewTime: 177360
Countdown: 0
SampleSet: Soft
StackLeniency: 0.5
Mode: 0
LetterboxInBreaks: 0
WidescreenStoryboard: 0

[Editor]
Bookmarks: 105268,135668,161268,177268,190068,225268
DistanceSpacing: 1
BeatDivisor: 4
GridSize: 32
TimelineZoom: 1.4

[Metadata]
Title:euphoric field (Japanese)
TitleUnicode:euphoric field (Japanese)
Artist:ELISA
ArtistUnicode:ELISA
Creator:Sekai
Version:Hard
Source:ef - a tale of memories.
Tags:anime japanese pop j-pop jpop opening fairy tale of the two TENMON Sekaii Sekai-nyan Laurier Nichiyouki nich95 eroge vn Visual novel ef-memo ef memo
BeatmapID:4498653
BeatmapSetID:2137636

[Difficulty]
HPDrainRate:6
CircleSize:4
OverallDifficulty:6
ApproachRate:8
SliderMultiplier:1.6
SliderTickRate:2

[Events]
//Background and Video events
0,0,"5.jpg",0,0
Video,-150,"ef.avi"
//Break Periods
2,177460,189310
//Storyboard Layer 0 (Background)
//Storyboard Layer 1 (Fail)
//Storyboard Layer 2 (Pass)
//Storyboard Layer 3 (Foreground)
//Storyboard Layer 4 (Overlay)
//Storyboard Sound Samples

[TimingPoints]
-340,400,4,2,1,70,1,0
55660,-100,4,2,1,80,0,1
78060,-100,4,2,1,70,0,0
81260,-100,4,2,1,60,0,0
106060,-100,4,2,1,70,0,0
136060,-133.333333333333,4,2,1,60,0,0
161260,-100,4,2,1,70,0,0
166660,-100,4,2,1,75,0,0
190060,-100,4,2,1,60,0,0
202860,-100,4,2,1,80,0,1
225260,-100,4,2,1,70,0,0
228460,-100,4,2,3,60,0,0
229260,-100,4,2,3,50,0,0
230060,-100,4,2,3,40,0,0
230860,-100,4,2,3,30,0,0
231660,-100,4,2,3,20,0,0
232460,-100,4,2,3,10,0,0
233260,-100,4,2,3,5,0,0

[Colours]
Combo1 : 228,75,129
Combo2 : 232,99,103
Combo3 : 254,228,115
Combo4 : 68,193,187
Combo5 : 101,150,199

[HitObjects]
60,176,660,5,4,3:0:0:0:
64,272,860,1,8,0:0:0:0:
64,272,1260,6,0,P|132:232|144:140,1,160,4|8,0:0|0:0,0:0:0:0:
164,80,1860,1,0,0:0:0:0:
232,128,2060,2,0,P|284:84|376:88,1,160,2|8,0:0|0:0,0:0:0:0:
444,48,2660,1,0,0:0:0:0:
444,128,2860,2,0,P|464:180|452:232,1,80,2|0,0:0|0:0,0:0:0:0:
456,284,3260,2,0,P|412:264|392:232,1,80,8|0,0:0|0:0,0:0:0:0:
328,192,3660,2,0,B|288:208|256:192|256:192|212:168|156:192,1,160,2|8,0:0|0:0,0:0:0:0:
208,260,4260,1,0,0:0:0:0:
128,252,4460,6,0,P|92:220|112:112,1,160,4|8,0:0|0:0,0:0:0:0:
92,40,5060,1,0,0:0:0:0:
168,60,5260,2,0,L|344:60,1,160,2|8,0:0|0:0,0:0:0:0:
408,60,5860,1,0,0:0:0:0:
456,124,6060,6,0,P|460:172|428:216,1,80,4|0,0:0|0:0,0:0:0:0:
368,192,6460,1,4,0:0:0:0:
256,80,6860,1,4,0:0:0:0:
368,192,7260,1,4,0:0:0:0:
256,304,7660,6,0,P|176:304|124:240,1,160,4|8,0:0|0:0,0:0:0:0:
56,208,8260,1,0,0:0:0:0:
128,168,8460,2,0,P|180:110|257:111,1,160,2|8,0:0|0:0,0:0:0:0:
288,192,9060,1,0,0:0:0:0:
368,192,9260,6,0,P|388:152|336:56,1,160,2|8,0:0|0:0,0:0:0:0:
288,192,9860,2,0,P|268:232|320:328,1,160,2|0,0:0|0:0,0:0:0:0:
368,192,10460,2,0,L|188:192,1,160,8|4,0:0|0:0,0:0:0:0:
44,192,11460,5,0,0:0:0:0:
44,192,11660,2,0,P|36:240|56:284,1,80,8|0,0:0|0:0,0:0:0:0:
44,192,12460,2,0,P|108:192|152:104,1,160,2|8,0:0|0:0,0:0:0:0:
72,108,13060,2,0,L|236:108,1,160,2|0,0:0|0:0,0:0:0:0:
312,108,13660,1,8,0:0:0:0:
348,264,14060,5,10,0:0:0:0:
280,224,14260,2,0,P|280:300|360:340,1,160,2|0,0:0|0:0,0:0:0:0:
416,304,14860,2,0,P|416:228|336:188,1,160,2|0,0:0|0:0,0:0:0:0:
280,224,15460,1,0,0:0:0:0:
208,192,15660,6,0,P|196:136|264:64,1,160,2|0,0:0|0:0,0:0:0:0:
272,144,16260,2,0,P|284:219|227:269,1,160,2|0,0:0|0:0,0:0:0:0:
208,192,16860,1,2,0:0:0:0:
84,92,17260,5,10,0:0:0:0:
44,160,17460,1,8,0:0:0:0:
84,92,17660,2,0,P|36:80|4:88,1,80
44,160,18060,2,0,P|92:172|160:84,1,160,2|0,0:0|0:0,0:0:0:0:
84,92,18660,2,0,L|256:92,1,160,2|0,0:0|0:0,0:0:0:0:
320,116,19260,2,0,P|300:160|252:188,1,80,2|0,0:0|0:0,0:0:0:0:
196,188,19660,5,2,0:0:0:0:
128,276,19860,1,0,0:0:0:0:
196,188,20060,1,2,0:0:0:0:
196,188,20460,5,10,0:0:0:0:
144,124,20660,1,8,0:0:0:0:
196,188,20860,2,0,L|236:96,1,80,0|0,0:0|0:0,0:0:0:0:
144,124,21260,2,0,L|100:216,1,80,2|0,0:0|0:0,0:0:0:0:
32,180,21660,2,0,P|48:248|136:276,1,160,0|2,0:0|0:0,0:0:0:0:
192,324,22260,5,0,0:0:0:0:
236,256,22460,2,0,B|276:268|316:232|316:232|356:212|396:236,1,160,0|2,0:0|0:0,0:0:0:0:
356,304,23060,1,0,0:0:0:0:
436,296,23260,2,0,P|464:236|416:152,1,160,0|10,0:0|0:0,0:0:0:0:
440,80,23860,5,8,0:0:0:0:
364,108,24060,2,0,P|348:156|372:204,1,80
440,80,24460,2,0,P|384:32|288:72,1,160,2|0,0:0|0:0,0:0:0:0:
364,108,25060,2,0,L|212:36,1,160,2|0,0:0|0:0,0:0:0:0:
180,108,25660,2,0,L|256:144,2,80,0|4|0,0:0|3:0|0:0,0:0:0:0:
124,52,26260,1,8,3:0:0:0:
80,120,26460,2,0,P|56:164|60:208,1,80,4|0,3:0|0:0,0:0:0:0:
96,308,26860,5,4,0:0:0:0:
168,352,27060,1,8,0:0:0:0:
96,308,27260,2,0,P|132:276|180:276,1,80
168,352,27660,2,0,P|212:340|220:216,1,160,2|0,0:0|0:0,0:0:0:0:
208,164,28260,1,0,0:0:0:0:
288,156,28460,6,0,P|356:120|440:152,1,160,2|0,0:0|0:0,0:0:0:0:
440,224,29060,2,0,P|379:272|301:263,1,160,2|2,0:0|0:0,0:0:0:0:
252,324,29660,2,0,B|220:304|228:244|228:244|180:256|140:208,1,160,0|12,0:0|0:0,0:0:0:0:
208,164,30260,5,8,0:0:0:0:
188,88,30460,2,0,P|140:112|120:144,1,80,0|0,0:0|0:0,0:0:0:0:
208,164,30860,2,0,P|248:140|244:28,1,160,2|0,0:0|0:0,0:0:0:0:
188,88,31460,2,0,L|328:0,1,160,2|2,0:0|0:0,0:0:0:0:
408,48,32060,2,0,L|324:100,1,80
340,172,32460,1,2,0:0:0:0:
448,292,32860,1,2,0:0:0:0:
340,172,33260,5,10,0:0:0:0:
396,228,33460,1,8,0:0:0:0:
340,172,33660,2,0,P|320:208|328:256,1,80,0|0,0:0|0:0,0:0:0:0:
396,228,34060,2,0,L|232:228,1,160,2|0,0:0|0:0,0:0:0:0:
192,292,34660,1,0,0:0:0:0:
132,240,34860,6,0,P|100:160|140:100,1,160,2|0,0:0|0:0,0:0:0:0:
180,36,35460,1,0,0:0:0:0:
224,104,35660,2,0,P|256:184|216:244,1,160,2|0,0:0|0:0,0:0:0:0:
176,308,36260,1,0,0:0:0:0:
256,320,36460,6,0,L|344:332,1,80,10|0,0:0|0:0,0:0:0:0:
412,356,36860,1,0,0:0:0:0:
432,280,37060,2,0,P|436:244|408:192,1,80,0|2,0:0|0:0,0:0:0:0:
372,140,37460,1,0,0:0:0:0:
292,124,37660,2,0,P|232:128|192:112,1,80,2|0,0:0|0:0,0:0:0:0:
176,52,38060,5,2,0:0:0:0:
96,140,38260,1,2,0:0:0:0:
176,52,38460,2,0,P|120:40|84:52,1,80,0|0,3:0|0:0,0:0:0:0:
96,140,38860,2,0,L|28:208,1,80,2|0,0:0|0:0,0:0:0:0:
108,240,39260,2,0,L|172:176,1,80,0|0,3:0|0:0,0:0:0:0:
44,296,39660,6,0,P|88:324|184:280,1,160,4|0,0:0|0:0,0:0:0:0:
224,220,40260,2,0,L|312:216,1,80,2|0,0:0|0:0,0:0:0:0:
332,292,40660,2,0,L|244:296,1,80,0|8,0:0|0:0,0:0:0:0:
224,220,41060,1,0,0:0:0:0:
188,148,41260,2,0,P|168:72|224:8,1,160,10|0,0:0|0:0,0:0:0:0:
296,12,41860,2,0,P|342:73|312:156,1,160,8|0,0:0|0:0,0:0:0:0:
388,192,42460,2,0,P|344:220|292:208,1,80,8|0,0:0|0:0,0:0:0:0:
268,284,42860,6,0,B|220:304|180:284|180:284|136:292|120:344,1,160,10|0,0:0|0:0,0:0:0:0:
48,320,43460,2,0,P|24:248|56:172,1,160,8|0,0:0|0:0,0:0:0:0:
84,100,44060,1,8,0:0:0:0:
140,160,44260,1,8,0:0:0:0:
84,100,44460,6,0,P|168:88|220:168,1,160,8|8,0:0|0:0,0:0:0:0:
140,160,45060,2,0,P|160:200|208:220,1,80,8|0,0:0|0:0,0:0:0:0:
284,248,45460,1,2,0:0:0:0:
208,304,45660,1,8,0:0:0:0:
284,248,45860,1,2,0:0:0:0:
208,304,46060,6,0,L|268:368,1,80,4|0,0:0|0:0,0:0:0:0:
136,340,46460,2,0,L|76:276,1,80,8|0,0:0|0:0,0:0:0:0:
284,248,46860,2,0,P|272:200|284:168,1,80,2|0,0:0|0:0,0:0:0:0:
356,140,47260,2,0,P|296:96|208:140,1,160,8|4,0:0|0:0,0:0:0:0:
156,80,47860,5,0,0:0:0:0:
144,160,48060,2,0,P|84:204|-4:160,1,160,8|2,0:0|0:0,0:0:0:0:
72,128,48660,2,0,L|72:84,2,40,0|0|8,0:0|0:0|0:0,0:0:0:0:
156,80,49060,1,0,0:0:0:0:
216,132,49260,6,0,P|216:204|128:252,1,160,4|8,0:0|0:0,0:0:0:0:
184,324,49860,1,4,3:0:0:0:
184,324,49960,1,0,0:0:0:0:
184,324,50060,2,0,B|256:356|256:356|336:312,1,160,4|8,3:0|0:0,0:0:0:0:
404,332,50660,2,0,P|396:280|360:244,1,80,0|4,0:0|0:0,0:0:0:0:
428,192,51060,5,0,0:0:0:0:
452,116,51260,1,8,0:0:0:0:
400,56,51460,1,4,3:0:0:0:
400,56,51560,1,0,0:0:0:0:
400,56,51660,2,0,L|316:112,1,80,4|0,3:0|0:0,0:0:0:0:
304,24,52060,2,0,L|232:76,1,80,8|0,0:0|0:0,0:0:0:0:
172,32,52460,6,0,P|160:84|244:148,1,160,4|8,0:0|0:0,0:0:0:0:
308,172,53060,1,4,3:0:0:0:
308,172,53160,1,0,0:0:0:0:
308,172,53260,2,0,P|328:216|320:256,1,80,4|0,0:0|0:0,0:0:0:0:
316,324,53660,1,8,0:0:0:0:
256,272,53860,6,0,L|204:272,2,40,0|0|4,0:0|0:0|0:0,0:0:0:0:
316,324,54260,2,0,L|368:324,2,40,0|0|4,0:0|0:0|0:0,0:0:0:0:
232,348,54660,2,0,L|192:348,2,40,0|0|4,0:0|0:0|0:0,0:0:0:0:
328,248,55060,2,0,L|376:248,2,40,0|0|4,0:0|0:0|0:0,0:0:0:0:
52,192,55660,6,0,P|40:112|96:48,1,160,4|8,0:0|0:0,0:0:0:0:
160,24,56260,1,0,0:0:0:0:
216,80,56460,2,0,L|284:132,1,80,2|0,0:0|0:0,0:0:0:0:
236,196,56860,2,0,L|168:144,1,80,8|0,0:0|0:0,0:0:0:0:
184,360,57260,6,0,B|184:276|184:276|148:260|128:224,1,160,4|8,0:0|0:0,0:0:0:0:
256,360,57860,2,0,B|256:276|256:276|292:260|312:224,1,160,2|0,0:0|0:0,0:0:0:0:
236,196,58460,2,0,L|400:196,1,160,8|4,0:0|0:0,0:0:0:0:
436,264,59060,1,0,0:0:0:0:
476,192,59260,2,0,P|480:152|460:104,1,80,8|0,0:0|0:0,0:0:0:0:
456,36,59660,2,0,P|404:56|392:104,1,80,2|0,0:0|0:0,0:0:0:0:
352,144,60060,2,0,P|320:112|312:56,1,80,8|0,0:0|0:0,0:0:0:0:
256,20,60460,6,0,L|180:76,1,80,4|0,0:0|0:0,0:0:0:0:
128,116,60860,2,0,L|80:152,2,40,4|0|0,0:0|0:0|0:0,0:0:0:0:
152,192,61260,2,0,L|116:220,2,40,4|0|0,0:0|0:0|0:0,0:0:0:0:
180,268,61660,2,0,L|144:292,2,40,4|0|0,0:0|0:0|0:0,0:0:0:0:
256,176,62060,6,0,P|304:176|348:84,1,160,4|8,0:0|0:0,0:0:0:0:
348,4,62660,1,0,0:0:0:0:
420,36,62860,2,0,P|464:88|436:192,1,160,2|8,0:0|0:0,0:0:0:0:
496,240,63460,1,0,0:0:0:0:
428,284,63660,2,0,B|340:284|340:284|288:360,1,160,4|8,0:0|0:0,0:0:0:0:
212,343,64260,2,0,B|172:284|172:284|84:284,1,160,2|0,0:0|0:0,0:0:0:0:
36,348,64860,2,0,L|104:188,1,160,8|4,0:0|0:0,0:0:0:0:
120,124,65460,5,0,0:0:0:0:
144,48,65660,2,0,P|96:48|56:72,1,80,8|0,0:0|0:0,0:0:0:0:
200,104,66060,1,2,0:0:0:0:
236,32,66260,2,0,L|260:0,2,40,0|0|4,0:0|0:0|0:0,0:0:0:0:
280,100,66660,2,0,L|312:128,2,40,0|0|4,0:0|0:0|0:0,0:0:0:0:
200,104,67060,2,0,L|168:144,2,40,0|0|4,0:0|0:0|0:0,0:0:0:0:
304,224,67660,5,4,0:0:0:0:
260,292,67860,1,0,0:0:0:0:
216,224,68060,1,4,0:0:0:0:
216,224,68460,6,0,P|160:216|88:296,1,160,4|8,0:0|0:0,0:0:0:0:
52,356,69060,1,0,0:0:0:0:
132,352,69260,2,0,P|188:360|260:280,1,160,2|8,0:0|0:0,0:0:0:0:
216,224,69860,1,0,0:0:0:0:
256,156,70060,6,0,L|312:88,1,80,4|0,0:0|0:0,0:0:0:0:
348,28,70460,1,8,0:0:0:0:
392,96,70660,2,0,P|420:148|412:192,1,80,0|2,0:0|0:0,0:0:0:0:
368,228,71060,1,0,0:0:0:0:
256,156,71260,2,0,P|212:144|136:232,1,160,8|4,0:0|0:0,0:0:0:0:
216,224,71860,5,0,0:0:0:0:
256,156,72060,2,0,P|276:88|212:20,1,160,8|2,0:0|0:0,0:0:0:0:
144,12,72660,1,0,0:0:0:0:
128,92,72860,2,0,L|48:92,2,80,8|0|4,0:0|0:0|0:0,0:0:0:0:
132,172,73460,5,0,0:0:0:0:
132,172,73660,1,4,0:0:0:0:
56,312,74060,1,4,0:0:0:0:
132,172,74460,1,4,0:0:0:0:
132,172,74860,6,0,B|216:172|216:172|268:96,1,160,4|8,0:0|0:0,0:0:0:0:
304,44,75460,1,0,0:0:0:0:
348,112,75660,2,0,B|390:174|390:174|474:174,1,160,2|8,0:0|0:0,0:0:0:0:
488,252,76260,1,0,0:0:0:0:
440,316,76460,6,0,P|364:340|304:296,1,160,4|8,0:0|0:0,0:0:0:0:
256,232,77060,1,0,0:0:0:0:
200,172,77260,1,2,0:0:0:0:
152,236,77460,1,4,3:0:0:0:
152,236,77560,1,0,0:0:0:0:
152,236,77660,2,0,P|124:304|176:376,1,160,8|4,0:0|0:0,0:0:0:0:
200,172,78460,6,0,P|140:152|64:216,2,160,2|8|2,0:0|0:0|0:0,0:0:0:0:
256,116,79460,1,0,0:0:0:0:
316,168,79660,2,0,L|408:168,1,80,8|0,0:0|0:0,0:0:0:0:
456,116,80060,1,8,0:0:0:0:
480,192,80260,2,0,P|480:244|448:280,1,80,8|0,0:0|0:0,0:0:0:0:
456,116,80660,2,0,L|496:32,1,80,0|2,0:0|0:0,0:0:0:0:
256,240,81260,6,0,P|208:296|116:284,1,160,2|0,0:0|0:0,0:0:0:0:
52,324,81860,1,0,0:0:0:0:
36,244,82060,2,0,P|80:164|68:100,1,160,2|0,0:0|0:0,0:0:0:0:
120,40,82660,1,2,0:0:0:0:
120,40,82760,1,0,0:0:0:0:
120,40,82860,2,0,L|192:92,1,80,2|0,0:0|0:0,0:0:0:0:
292,72,83260,2,0,L|220:20,1,80,2|0,0:0|0:0,0:0:0:0:
324,148,83660,2,0,P|364:108|344:12,1,160,2|2,0:0|0:0,0:0:0:0:
240,140,84260,1,0,0:0:0:0:
272,212,84460,6,0,P|324:236|364:228,1,80,2|0,0:0|0:0,0:0:0:0:
188,200,85060,1,2,0:0:0:0:
240,140,85260,2,0,P|188:120|140:132,1,80,2|0,0:0|0:0,0:0:0:0:
124,52,85660,2,0,P|88:100|96:140,1,80,0|0,0:0|0:0,0:0:0:0:
24,164,86060,2,0,P|64:196|112:192,1,80,0|0,0:0|0:0,0:0:0:0:
188,200,86460,2,0,P|180:244|136:276,1,80
96,320,86860,2,0,P|144:344|236:288,1,160,2|0,0:0|0:0,0:0:0:0:
276,232,87460,1,0,0:0:0:0:
336,284,87660,1,2,0:0:0:0:
480,192,88060,6,0,P|456:148|408:132,1,80,2|0,0:0|0:0,0:0:0:0:
400,60,88460,1,2,0:0:0:0:
328,24,88660,1,0,0:0:0:0:
268,76,88860,2,0,P|200:112|120:60,1,160,2|2,0:0|0:0,0:0:0:0:
72,24,89460,1,0,0:0:0:0:
44,100,89660,2,0,P|24:176|80:244,1,160,2|2,0:0|0:0,0:0:0:0:
144,332,90360,5,0,0:0:0:0:
220,240,90660,1,2,0:0:0:0:
220,240,90860,1,2,0:0:0:0:
220,240,91260,6,0,L|332:240,1,80,2|0,0:0|0:0,0:0:0:0:
316,140,91660,2,0,L|224:140,1,80,2|0,0:0|0:0,0:0:0:0:
328,60,92060,2,0,L|408:60,1,80,2|0,0:0|0:0,0:0:0:0:
480,136,92460,2,0,L|396:136,1,80,2|0,0:0|0:0,0:0:0:0:
316,140,92860,2,0,P|336:188|440:208,1,160,2|2,0:0|0:0,0:0:0:0:
112,192,94060,6,0,P|128:244|56:320,1,160,2|2,0:0|0:0,0:0:0:0:
48,240,94660,1,0,0:0:0:0:
64,132,94860,2,0,P|116:116|192:188,1,160,2|2,0:0|0:0,0:0:0:0:
256,224,95460,1,0,0:0:0:0:
296,156,95660,2,0,L|368:104,1,80,2|0,0:0|0:0,0:0:0:0:
256,324,96460,5,2,0:0:0:0:
256,224,96660,1,0,0:0:0:0:
172,272,96860,2,0,P|124:288|72:268,1,80,0|0,0:0|0:0,0:0:0:0:
36,336,97260,2,0,P|16:296|88:204,1,160,2|0,0:0|0:0,0:0:0:0:
96,132,97860,2,0,P|140:160|152:208,1,80,2|2,0:0|0:0,0:0:0:0:
452,352,99660,6,0,L|484:268,1,80,2|0,0:0|0:0,0:0:0:0:
428,216,100060,2,0,L|392:308,1,80,2|0,0:0|0:0,0:0:0:0:
360,360,100460,1,2,0:0:0:0:
360,360,100860,2,0,P|324:328|328:216,1,160,0|2,0:0|0:0,0:0:0:0:
348,148,101460,1,0,0:0:0:0:
280,108,101660,2,0,L|184:108,1,80,0|0,0:0|0:0,0:0:0:0:
136,60,102060,6,0,P|124:108|208:184,1,160,2|2,0:0|0:0,0:0:0:0:
272,196,102660,1,0,0:0:0:0:
220,256,102860,2,0,P|184:276|144:272,1,80,2|0,0:0|0:0,0:0:0:0:
272,196,103260,2,0,P|304:240|300:288,1,80
316,344,103660,2,0,P|384:336|416:312,1,80,2|0,0:0|0:0,0:0:0:0:
256,192,103960,12,4,105260,0:0:0:0:
80,192,106060,6,0,L|100:236,3,40,2|0|2|2,0:0|0:0|0:0|0:0,0:0:0:0:
116,264,106460,2,0,L|152:284,3,40,2|0|2|2,0:0|0:0|0:0|0:0,0:0:0:0:
188,296,106860,2,0,P|236:292|276:192,1,160,4|8,0:0|0:0,0:0:0:0:
280,120,107460,1,0,0:0:0:0:
336,60,107660,2,0,P|380:44|428:60,1,80,2|0,0:0|0:0,0:0:0:0:
484,88,108060,1,8,0:0:0:0:
424,140,108260,5,2,0:0:0:0:
424,140,108360,1,0,0:0:0:0:
424,140,108460,2,8,P|404:200|464:280,1,160,10|8,0:0|0:0,0:0:0:0:
452,356,109060,1,0,0:0:0:0:
380,324,109260,2,0,L|296:324,1,80,2|0,0:0|0:0,0:0:0:0:
288,244,109660,2,0,L|204:244,1,80,8|0,0:0|0:0,0:0:0:0:
172,316,110060,6,0,P|132:236|192:168,1,160,4|8,0:0|0:0,0:0:0:0:
256,136,110660,1,0,0:0:0:0:
200,76,110860,2,0,L|168:-8,1,80,2|0,0:0|0:0,0:0:0:0:
312,76,111260,2,0,L|344:-8,1,80,8|0,0:0|0:0,0:0:0:0:
256,136,111660,6,0,P|300:160|344:144,1,80,2|0,0:0|0:0,0:0:0:0:
200,76,112060,2,0,P|156:72|116:96,1,80,8|0,0:0|0:0,0:0:0:0:
52,56,112460,1,2,0:0:0:0:
36,136,112660,1,4,3:0:0:0:
36,136,112760,1,0,0:0:0:0:
36,136,112860,2,0,P|64:208|12:280,1,160,8|4,0:0|0:0,0:0:0:0:
0,352,113460,5,0,0:0:0:0:
80,344,113660,2,0,P|152:316|224:368,1,160,8|2,0:0|0:0,0:0:0:0:
296,352,114260,2,0,P|288:312|248:272,1,80,0|8,0:0|0:0,0:0:0:0:
224,212,114660,1,2,0:0:0:0:
224,212,114760,1,0,0:0:0:0:
224,212,114860,2,0,P|176:152|192:76,1,160,2|8,0:0|0:0,0:0:0:0:
232,8,115460,1,0,0:0:0:0:
284,68,115660,2,0,L|368:108,1,80,4|0,0:0|0:0,0:0:0:0:
332,180,116060,2,0,L|256:140,1,80,8|0,0:0|0:0,0:0:0:0:
224,212,116460,6,0,L|380:296,1,160,4|8,0:0|0:0,0:0:0:0:
416,348,117060,1,0,0:0:0:0:
456,280,117260,2,0,P|484:208|436:136,1,160,2|8,0:0|0:0,0:0:0:0:
404,72,117860,1,0,0:0:0:0:
340,120,118060,2,0,L|256:120,1,80,4|0,0:0|0:0,0:0:0:0:
212,184,118460,2,0,P|188:144|200:88,1,80,8|0,0:0|0:0,0:0:0:0:
232,44,118860,2,0,P|172:36|112:120,2,160,2|8|4,0:0|0:0|0:0,0:0:0:0:
304,12,119860,5,0,0:0:0:0:
372,56,120060,2,0,L|448:112,1,80,8|0,0:0|0:0,0:0:0:0:
496,160,120460,2,0,B|464:184|412:176|412:176|404:220|460:260,1,160,2|8,0:0|0:0,0:0:0:0:
472,312,121060,1,0,0:0:0:0:
472,312,121260,2,0,P|404:316|348:240,1,160,4|8,0:0|0:0,0:0:0:0:
324,172,121860,1,0,0:0:0:0:
256,216,122060,2,0,P|216:280|280:364,1,160,2|8,0:0|0:0,0:0:0:0:
324,172,122860,6,0,P|286:143|179:178,1,160,4|8,0:0|0:0,0:0:0:0:
104,174,123460,1,2,0:0:0:0:
104,174,123560,1,0,0:0:0:0:
104,174,123660,2,0,P|72:103|119:27,2,160,2|8|4,0:0|0:0|0:0,0:0:0:0:
52,236,124660,5,0,0:0:0:0:
52,236,124860,1,8,0:0:0:0:
156,116,125260,1,4,0:0:0:0:
52,236,125660,1,8,0:0:0:0:
200,52,126060,5,4,0:0:0:0:
156,116,126260,1,0,0:0:0:0:
200,52,126460,2,0,P|276:56|312:136,1,160,8|2,0:0|0:0,0:0:0:0:
356,192,127060,1,0,0:0:0:0:
296,244,127260,2,0,P|296:308|404:340,1,160,8|4,0:0|0:0,0:0:0:0:
356,192,127860,5,0,0:0:0:0:
412,136,128060,2,0,L|472:80,1,80,8|0,0:0|0:0,0:0:0:0:
356,192,128460,2,0,P|400:224|448:220,1,80,2|0,0:0|0:0,0:0:0:0:
336,108,128860,2,0,P|292:132|276:176,1,80,8|0,0:0|0:0,0:0:0:0:
212,112,129260,6,0,P|188:160|88:176,1,160,4|8,0:0|0:0,0:0:0:0:
32,124,129860,1,0,0:0:0:0:
20,204,130060,2,0,P|12:252|36:292,1,80,2|0,0:0|0:0,0:0:0:0:
100,328,130460,2,0,P|108:280|84:240,1,80,8|0,0:0|0:0,0:0:0:0:
184,344,130860,2,0,P|260:348|296:268,1,160,4|8,0:0|0:0,0:0:0:0:
256,212,131460,1,0,0:0:0:0:
336,192,131660,2,0,B|416:192|416:192|480:120,1,160,2|8,0:0|0:0,0:0:0:0:
492,56,132260,1,0,0:0:0:0:
412,48,132460,6,0,P|372:56|328:48,1,80,4|0,0:0|0:0,0:0:0:0:
256,24,132860,2,0,L|212:20,2,40,8|0|0,0:0|0:0|0:0,0:0:0:0:
256,104,133260,2,0,L|208:112,2,40,2|0|0,3:0|0:0|0:0,0:0:0:0:
280,180,133660,2,0,L|240:204,2,40,8|0|0,0:0|0:0|0:0,0:0:0:0:
184,252,134060,6,0,P|232:280|304:260,2,120,4|2|0,0:0|0:0|0:0,0:0:0:0:
112,216,134860,2,0,P|64:188|-8:208,2,120,2|2|0,0:0|0:0|0:0,0:0:0:0:
176,168,135660,1,4,0:0:0:0:
256,28,136060,6,0,P|312:36|364:88,1,120.000004577637,2|0,0:0|0:0,0:0:0:0:
408,140,136660,1,0,0:0:0:0:
340,180,136860,2,0,P|336:236|384:288,1,120.000004577637,2|0,0:0|0:0,0:0:0:0:
428,340,137460,1,0,0:0:0:0:
352,356,137660,2,0,P|296:356|252:304,1,120.000004577637,2|0,0:0|0:0,0:0:0:0:
256,232,138260,1,0,0:0:0:0:
192,192,138460,2,0,L|128:152,1,60.0000022888184,2|0,0:0|0:0,0:0:0:0:
72,192,138860,6,0,P|68:136|120:88,2,120.000004577637,0|2|0,0:0|0:0|0:0,0:0:0:0:
32,260,139860,1,0,0:0:0:0:
100,300,140060,2,0,P|72:332|32:344,1,60.0000022888184,2|0,0:0|0:0,0:0:0:0:
32,260,140460,2,0,L|172:260,1,120.000004577637,0|2,0:0|0:0,0:0:0:0:
216,308,141060,1,0,0:0:0:0:
256,204,141260,1,2,0:0:0:0:
216,308,141460,1,0,0:0:0:0:
256,204,141660,1,0,0:0:0:0:
256,204,142060,6,0,P|232:152|264:84,1,120.000004577637,4|2,0:0|0:0,0:0:0:0:
276,20,142660,1,0,0:0:0:0:
336,72,142860,2,0,L|424:72,1,60.0000022888184
428,144,143260,2,0,L|356:144,1,60.0000022888184,2|0,0:0|0:0,0:0:0:0:
376,224,143660,2,0,B|436:224|436:224|484:268,1,120.000004577637,2|0,0:0|0:0,0:0:0:0:
456,340,144260,2,0,B|396:340|396:340|348:296,1,120.000004577637,2|0,0:0|0:0,0:0:0:0:
376,224,144860,2,0,P|316:224|276:288,1,120.000004577637,2|4,0:0|3:0,0:0:0:0:
228,324,145460,5,4,3:0:0:0:
168,276,145660,2,0,P|140:256|88:256,1,60.0000022888184,2|0,0:0|0:0,0:0:0:0:
44,284,146060,1,0,0:0:0:0:
44,208,146260,1,2,0:0:0:0:
44,92,146560,5,2,0:0:0:0:
44,208,146860,1,2,0:0:0:0:
44,20,147160,1,2,0:0:0:0:
44,208,147460,2,0,L|112:208,1,60.0000022888184,4|0,3:0|0:0,0:0:0:0:
160,136,147860,2,0,L|92:136,1,60.0000022888184,4|4,3:0|3:0,0:0:0:0:
256,48,148460,5,4,3:0:0:0:
320,96,148660,1,4,3:0:0:0:
256,48,148860,2,0,P|244:116|284:160,1,120.000004577637,2|0,0:0|0:0,0:0:0:0:
320,96,149460,1,0,0:0:0:0:
364,160,149660,2,0,L|428:160,1,60.0000022888184,2|0,0:0|0:0,0:0:0:0:
368,236,150060,6,0,P|384:292|344:352,1,120.000004577637,4|2,0:0|0:0,0:0:0:0:
276,340,150660,2,0,P|248:288|264:232,1,120.000004577637,2|0,0:0|0:0,0:0:0:0:
260,156,151260,2,0,P|224:144|184:156,1,60.0000022888184,2|0,0:0|0:0,0:0:0:0:
140,192,151660,1,4,3:0:0:0:
92,116,151860,1,4,3:0:0:0:
140,192,152060,1,2,0:0:0:0:
140,192,152460,6,0,P|132:244|180:304,1,120.000004577637,0|2,0:0|0:0,0:0:0:0:
220,356,153060,1,0,0:0:0:0:
272,300,153260,2,0,L|328:248,1,60.0000022888184,0|0,3:0|0:0,0:0:0:0:
372,208,153660,1,2,0:0:0:0:
420,144,153860,1,0,0:0:0:0:
372,208,154060,1,2,0:0:0:0:
460,80,154460,1,2,0:0:0:0:
372,208,154860,5,4,3:0:0:0:
420,144,155060,1,4,3:0:0:0:
372,208,155260,1,2,0:0:0:0:
328,144,155460,2,0,L|296:72,2,60.0000022888184,0|0|0,0:0|0:0|0:0,0:0:0:0:
372,208,156060,2,0,P|400:260|376:328,1,120.000004577637,2|2,0:0|3:0,0:0:0:0:
324,364,156660,5,0,0:0:0:0:
272,308,156860,2,0,L|188:328,2,60.0000022888184,2|0|2,0:0|0:0|0:0,0:0:0:0:
256,232,157460,1,0,0:0:0:0:
280,156,157660,2,0,P|224:156|200:168,1,60.0000022888184,2|0,0:0|0:0,0:0:0:0:
152,192,158060,5,4,3:0:0:0:
108,128,158260,1,4,3:0:0:0:
152,192,158460,1,2,0:0:0:0:
76,196,158660,2,0,P|20:196|-4:184,1,60.0000022888184
108,128,159060,1,0,0:0:0:0:
152,192,159260,2,0,P|144:228|108:256,1,60.0000022888184,2|0,0:0|0:0,0:0:0:0:
88,312,159660,5,2,3:0:0:0:
88,312,159760,1,0,0:0:0:0:
88,312,159860,1,2,3:0:0:0:
160,340,160060,2,0,L|228:352,1,60.0000022888184,2|0,0:0|0:0,0:0:0:0:
260,284,160460,2,0,L|196:272,1,60.0000022888184,2|0,0:0|0:0,0:0:0:0:
232,200,160860,2,0,L|296:212,1,60.0000022888184,2|0,0:0|0:0,0:0:0:0:
368,228,161260,6,0,P|380:152|320:84,1,160,4|4,0:0|3:0,0:0:0:0:
396,44,161860,2,0,L|240:104,1,160,2|0,0:0|0:0,0:0:0:0:
180,148,162460,2,0,P|164:224|228:272,1,160,8|4,0:0|3:0,0:0:0:0:
256,344,163060,2,0,P|288:316|296:272,1,80,0|8,0:0|0:0,0:0:0:0:
376,264,163460,2,0,P|368:184|416:116,1,160,8|2,0:0|0:0,0:0:0:0:
456,184,164060,2,0,P|488:136|476:88,1,80,8|0,0:0|0:0,0:0:0:0:
444,48,164460,6,0,P|360:28|296:72,1,160,4|8,0:0|0:0,0:0:0:0:
256,132,165060,2,0,P|188:170|113:148,1,160,8|2,0:0|0:0,0:0:0:0:
132,72,165660,2,0,P|84:76|48:108,1,80,8|0,0:0|0:0,0:0:0:0:
36,172,166060,2,0,P|16:248|80:312,1,160,4|8,0:0|0:0,0:0:0:0:
136,344,166660,2,0,L|220:360,1,80,4|2,3:0|0:0,0:0:0:0:
260,292,167060,2,0,L|168:276,1,80,4|2,3:0|0:0,0:0:0:0:
136,212,167460,1,0,0:0:0:0:
212,192,167660,6,8,P|224:116|164:60,1,160,4|8,0:0|0:0,0:0:0:0:
140,136,168260,1,0,0:0:0:0:
88,76,168460,2,0,P|92:40|116:0,1,80,2|0,0:0|0:0,0:0:0:0:
140,136,168860,2,0,P|64:148|12:64,1,160,8|4,0:0|0:0,0:0:0:0:
164,60,169460,1,0,0:0:0:0:
216,120,169660,2,0,P|216:160|172:200,1,80,8|0,0:0|0:0,0:0:0:0:
268,220,170060,2,0,P|228:289|256:366,1,160,2|8,0:0|0:0,0:0:0:0:
332,368,170660,1,0,0:0:0:0:
376,300,170860,6,0,B|404:272|392:216|392:216|356:180|372:132,1,160,4|8,0:0|0:0,0:0:0:0:
448,152,171460,1,0,0:0:0:0:
396,88,171660,2,0,P|340:84|308:192,1,160,2|8,0:0|0:0,0:0:0:0:
128,296,172460,6,0,B|140:248|122:210|122:210|90:230|34:230,1,160,4|8,0:0|0:0,0:0:0:0:
60,148,173060,1,0,0:0:0:0:
116,87,173260,2,0,P|191:94|216:166,1,160,2|8,0:0|0:0,0:0:0:0:
256,344,174060,6,0,P|328:344|372:264,1,160,4|8,0:0|0:0,0:0:0:0:
396,200,174660,2,0,L|412:156,2,40,0|0|4,0:0|0:0|0:0,0:0:0:0:
316,192,175060,2,0,P|284:168|272:112,1,80,0|8,0:0|0:0,0:0:0:0:
212,76,175460,2,0,L|164:88,2,40,0|0|4,0:0|0:0|0:0,0:0:0:0:
184,160,175860,2,0,L|128:180,2,40,0|0|4,0:0|0:0|0:0,0:0:0:0:
176,244,176260,2,0,L|132:264,2,40,0|0|4,0:0|0:0|0:0,0:0:0:0:
168,332,176660,2,0,L|124:348,2,40,0|0|4,0:0|0:0|0:0,0:0:0:0:
256,192,177260,5,4,0:0:0:0:
412,196,190060,6,0,P|432:272|372:336,1,160,2|0,0:0|0:0,0:0:0:0:
328,276,190660,1,0,0:0:0:0:
256,312,190860,2,0,L|172:336,1,80,2|0,0:0|0:0,0:0:0:0:
188,256,191260,2,0,L|268:232,1,80,0|0,0:0|0:0,0:0:0:0:
260,152,191660,6,0,B|240:120|256:72|256:72|276:28|256:-12,1,160,2|0,0:0|0:0,0:0:0:0:
188,32,192260,2,0,L|360:32,1,160,2|0,0:0|0:0,0:0:0:0:
392,100,192860,2,0,P|436:64|444:32,1,80,0|0,0:0|0:0,0:0:0:0:
344,168,193260,2,0,P|328:244|384:308,1,160,2|0,0:0|0:0,0:0:0:0:
456,316,193860,2,0,L|268:336,1,160,2|0,0:0|0:0,0:0:0:0:
224,364,194460,2,0,P|188:336|128:328,1,80
80,356,194860,6,0,P|80:308|104:272,1,80,2|0,0:0|0:0,0:0:0:0:
160,236,195260,2,0,P|120:208|16:268,2,160,0|2|0,0:0|0:0|0:0,0:0:0:0:
228,192,196260,1,0,0:0:0:0:
308,192,196460,2,0,P|356:192|400:84,1,160,2|0,0:0|0:0,0:0:0:0:
328,104,197060,2,0,L|496:104,1,160,2|0,0:0|0:0,0:0:0:0:
480,24,197660,2,0,L|392:24,1,80
328,104,198060,6,0,B|256:68|256:68|164:104,1,160,2|0,0:0|0:0,0:0:0:0:
152,172,198660,2,0,P|164:228|92:308,1,160,2|0,0:0|0:0,0:0:0:0:
44,252,199260,2,0,L|176:368,1,160,0|4,0:0|0:0,0:0:0:0:
256,192,199760,12,0,200760,0:0:0:0:
256,312,201060,5,2,0:0:0:0:
256,312,201160,1,0,0:0:0:0:
256,312,201260,2,0,L|255:192,2,120,4|2|0,0:0|0:0|0:0,0:0:0:0:
152,224,202060,2,0,L|152:346,2,120,2|2|0,0:0|0:0|0:0,0:0:0:0:
256,84,202860,6,0,P|296:104|347:95,1,80,4|0,0:0|0:0,0:0:0:0:
408,120,203260,2,0,P|440:192|412:268,1,160,8|2,0:0|0:0,0:0:0:0:
372,332,203860,1,0,0:0:0:0:
308,284,204060,2,0,P|256:264|216:264,1,80,8|0,0:0|0:0,0:0:0:0:
156,288,204460,2,0,P|88:332|8:328,1,160,2|8,0:0|0:0,0:0:0:0:
60,216,205060,2,0,P|128:172|208:176,1,160,2|0,0:0|0:0,0:0:0:0:
256,116,205660,2,0,L|344:84,1,80,8|0,0:0|0:0,0:0:0:0:
392,36,206060,6,0,P|408:80|388:136,1,80,4|0,0:0|0:0,0:0:0:0:
476,144,206460,2,0,P|448:216|488:296,1,160,8|2,0:0|0:0,0:0:0:0:
440,360,207060,1,0,0:0:0:0:
368,324,207260,2,0,L|292:284,1,80,8|0,0:0|0:0,0:0:0:0:
144,324,207660,2,0,L|220:284,1,80,4|0,0:0|0:0,0:0:0:0:
256,220,208060,2,8,B|268:172|256:144|256:144|236:104|256:56,2,160,4|4|4,0:0|0:0|0:0,0:0:0:0:
467,111,209260,6,0,P|394:83|317:102,1,160,4|8,0:0|0:0,0:0:0:0:
336,180,209860,2,0,P|356:256|316:332,1,160,2|0,0:0|0:0,0:0:0:0:
256,372,210460,2,0,P|224:336|176:320,1,80,8|0,0:0|0:0,0:0:0:0:
120,300,210860,2,0,P|64:248|64:160,1,160,4|8,0:0|0:0,0:0:0:0:
68,88,211460,2,0,P|112:104|140:152,1,80,0|2,0:0|0:0,0:0:0:0:
180,192,211860,1,0,0:0:0:0:
228,128,212060,2,0,P|248:88|244:48,1,80,8|0,0:0|0:0,0:0:0:0:
180,192,212460,6,0,P|224:208|308:144,1,160,4|8,0:0|0:0,0:0:0:0:
228,128,213060,2,0,L|392:128,1,160,2|0,0:0|0:0,0:0:0:0:
468,124,213660,1,4,0:0:0:0:
384,260,214060,1,4,0:0:0:0:
468,124,214460,5,4,0:0:0:0:
420,188,214660,1,0,0:0:0:0:
468,124,214860,2,0,P|476:80|456:36,1,80,4|0,0:0|0:0,0:0:0:0:
420,188,215260,2,0,P|368:180|328:204,1,80,8|0,0:0|0:0,0:0:0:0:
268,212,215660,6,0,P|192:236|96:204,1,160,4|8,0:0|0:0,0:0:0:0:
88,144,216260,1,0,0:0:0:0:
36,204,216460,2,0,P|12:276|68:348,1,160,2|8,0:0|0:0,0:0:0:0:
124,304,217060,1,0,0:0:0:0:
176,364,217260,2,0,P|256:340|332:364,1,160,4|8,0:0|0:0,0:0:0:0:
408,356,217860,2,0,P|432:276|408:200,1,160,2|0,0:0|0:0,0:0:0:0:
452,136,218460,2,0,P|404:128|360:148,1,80,8|0,0:0|0:0,0:0:0:0:
332,68,218860,6,0,B|284:68|256:96|256:96|232:64|168:64,1,160,4|8,0:0|0:0,0:0:0:0:
192,144,219460,2,0,P|264:180|332:132,1,160,2|0,0:0|0:0,0:0:0:0:
452,136,220060,2,0,P|464:184|448:240,1,80,8|0,0:0|0:0,0:0:0:0:
412,280,220460,2,0,P|332:304|292:380,1,160,4|4,0:0|0:0,0:0:0:0:
256,212,221260,1,4,0:0:0:0:
160,340,221660,1,4,0:0:0:0:
256,212,222060,6,0,P|224:144|256:52,1,160,4|8,0:0|0:0,0:0:0:0:
324,60,222660,2,0,L|148:60,1,160,2|0,0:0|0:0,0:0:0:0:
120,124,223260,2,2,P|100:200|12:228,1,160,8|4,0:0|0:0,0:0:0:0:
20,308,223860,5,0,0:0:0:0:
92,348,224060,2,0,L|176:356,1,80,8|0,0:0|0:0,0:0:0:0:
256,352,224460,2,0,L|280:312,3,40,4|0|0|0,0:0|0:0|0:0|0:0,0:0:0:0:
296,284,224860,2,0,L|316:244,3,40,8|0|0|0,0:0|0:0|0:0|0:0,0:0:0:0:
328,212,225260,1,4,0:0:0:0:
256,192,225360,12,0,233260,0:0:0:0:
