osu file format v14

[General]
AudioFilename: optc.ogg
AudioLeadIn: 0
PreviewTime: 767
Countdown: 0
SampleSet: Soft
StackLeniency: 0.9
Mode: 3
LetterboxInBreaks: 0
SpecialStyle: 0
WidescreenStoryboard: 1

[Editor]
Bookmarks: 871,15767,38944,48895,62116,78655
DistanceSpacing: 1.8
BeatDivisor: 9
GridSize: 32
TimelineZoom: 3.599998

[Metadata]
Title:ebullient future (Piano Ver.) (TV Size)
TitleUnicode:ebullient future (Piano Ver.) (TV Size)
Artist:ELISA
ArtistUnicode:ELISA
Creator:Shad0w1and
Version:HD
Source:ef - a tale of melodies.
Tags:yuukyuu no tsubasa english anime minori tenmon 天門 fairy the two latter
BeatmapID:1331129
BeatmapSetID:629994

[Difficulty]
HPDrainRate:8
CircleSize:4
OverallDifficulty:8
ApproachRate:7
SliderMultiplier:1.4
SliderTickRate:1

[Events]
//Background and Video events
0,0,"BG.jpg",0,0
Video,0,"optc.flv"
//Break Periods
//Storyboard Layer 0 (Background)
//Storyboard Layer 1 (Fail)
//Storyboard Layer 2 (Pass)
//Storyboard Layer 3 (Foreground)
//Storyboard Layer 4 (Overlay)
//Storyboard Sound Samples

[TimingPoints]
871,413.793103448276,4,2,1,40,1,0
7077,444.444444444444,4,2,1,40,1,8
7077,-93.4579439252336,4,2,1,40,0,0
7521,399.334442595674,4,2,1,40,1,0
7521,-103.092783505155,4,2,1,40,0,0
8319,413.793103448276,4,2,1,40,1,8
9146,413.793103448276,4,2,1,40,1,0
10801,393.44262295082,4,2,1,40,1,0
10801,-105.263157894737,4,2,1,40,0,0
11587,421.052631578947,4,2,1,40,1,8
11587,-98.0392156862745,4,2,1,40,0,0
12429,444.444444444444,4,2,1,40,1,0
12429,-93.4579439252336,4,2,1,40,0,0
13317,397.350993377483,4,2,1,40,1,8
13317,-104.166666666667,4,2,1,40,0,0
14111,414.07867494824,4,2,1,40,1,0
15767,413.793103448276,4,2,1,20,1,0
15767,-111.111111111111,4,2,1,20,0,0
21973,400,4,2,1,20,1,8
21973,-114.942528735632,4,2,1,20,0,0
22373,413.793103448276,4,2,1,20,1,0
22373,-111.111111111111,4,2,1,20,0,0
25683,421.052631578947,4,2,1,20,1,0
25683,-108.695652173913,4,2,1,20,0,0
26946,461.538461538462,4,2,1,20,1,8
26946,-100,4,2,1,20,0,0
27407,387.096774193548,4,2,1,20,1,0
27407,-119.047619047619,4,2,1,20,0,0
28568,461.538461538462,4,2,1,20,1,8
28568,-100,4,2,1,20,0,0
29029,413.793103448276,4,2,1,20,1,0
29029,-111.111111111111,4,2,1,20,0,0
31097,400,4,2,1,20,1,8
31097,-114.942528735632,4,2,1,20,0,0
31497,400,4,2,1,20,1,8
31497,-114.942528735632,4,2,1,20,0,0
32297,422.535211267606,4,2,1,20,1,0
32297,-108.695652173913,4,2,1,20,0,0
33142,352.941176470588,4,2,1,20,1,8
33142,-129.87012987013,4,2,1,20,0,0
33494,480,4,2,1,20,1,8
33494,-96.1538461538461,4,2,1,20,0,0
33974,415.22491349481,4,2,1,20,1,0
33974,-111.111111111111,4,2,1,20,0,0
35634,413.793103448276,4,2,1,20,1,0
35634,-111.111111111111,4,2,1,20,0,0
36461,402.684563758389,4,2,1,20,1,8
36461,-113.636363636364,4,2,1,20,0,0
37266,419.58041958042,4,2,1,20,1,0
37266,-109.89010989011,4,2,1,20,0,0
38944,413.793103448276,4,2,1,40,1,0
42254,387.096774193548,4,2,1,50,1,0
42254,-106.382978723404,4,2,1,50,0,0
43028,413.793103448276,4,2,1,50,1,8
43855,363.636363636364,4,2,1,50,1,0
43855,-113.636363636364,4,2,1,50,0,0
44582,413.793103448276,4,2,1,50,1,8
45409,576.923076923077,4,2,1,50,1,0
45409,-71.9424460431655,4,2,1,50,0,0
45985,472.44094488189,4,2,1,50,1,8
45985,-87.719298245614,4,2,1,50,0,0
46457,341.880341880342,4,2,1,50,1,8
46457,-120.481927710843,4,2,1,50,0,0
46798,454.545454545455,4,2,1,50,1,8
46798,-90.9090909090909,4,2,1,50,0,0
47252,380.952380952381,4,2,1,50,1,0
47252,-108.695652173913,4,2,1,50,0,0
47632,421.052631578947,4,2,1,50,1,8
47632,-98.0392156862745,4,2,1,50,0,0
48895,406.779661016949,4,2,1,50,1,1
48895,-102.040816326531,4,2,1,50,0,1
50522,413.793103448276,4,2,1,50,1,1
58797,387.096774193548,4,2,1,50,1,1
58797,-106.382978723404,4,2,1,50,0,1
59571,452.830188679245,4,2,1,50,1,9
59571,-91.743119266055,4,2,1,50,0,1
60476,406.779661016949,4,2,1,50,1,1
60476,-102.040816326531,4,2,1,50,0,1
61289,413.793103448276,4,2,1,50,1,9
62116,413.793103448276,4,2,1,50,1,1
65012,400,4,2,1,50,1,9
65012,-103.092783505155,4,2,1,50,0,1
65412,413.793103448276,4,2,1,50,1,0
66239,-100,4,2,1,50,0,1
67067,418.118466898955,4,2,1,50,1,1
67067,-99.009900990099,4,2,1,50,0,1
68739,413.793103448276,4,2,1,50,1,1
72049,375,4,2,1,50,1,1
72049,-109.89010989011,4,2,1,50,0,1
72424,453.172205438066,4,2,1,50,1,9
72424,-90.9090909090909,4,2,1,50,0,1
72877,413.793103448276,4,2,1,50,1,9
73704,369.230769230769,4,2,1,50,1,1
73704,-112.359550561798,4,2,1,50,0,1
74073,459.770114942529,4,2,1,50,1,9
74073,-90.0900900900901,4,2,1,50,0,1
74532,413.793103448276,4,2,1,50,1,9
75359,406.779661016949,4,2,1,50,1,1
75359,-102.040816326531,4,2,1,50,0,1
76986,413.793103448276,4,2,1,50,1,1
77813,421.052631578947,4,2,1,50,1,9
77813,-98.0392156862745,4,2,1,50,0,1
78655,413.793103448276,4,2,1,40,1,0
79068,380.952380952381,4,2,1,40,1,8
79068,-108.695652173913,4,2,1,40,0,0
79829,393.44262295082,4,2,1,40,1,8
79829,-105.263157894737,4,2,1,40,0,0
80222,444.444444444444,4,2,1,40,1,0
80222,-93.4579439252336,4,2,1,40,0,0
80666,387.096774193548,4,2,1,40,1,8
80666,-106.382978723404,4,2,1,40,0,0
81053,452.830188679245,4,2,1,40,1,8
81053,-91.743119266055,4,2,1,40,0,0
81505,500,4,2,1,40,1,8
81505,-82.6446280991736,4,2,1,40,0,0
82005,521.739130434783,4,2,1,20,1,0
82005,-79.3650793650794,4,2,1,20,0,0
82526,631.578947368421,4,2,1,20,1,8
82526,-65.359477124183,4,2,1,20,0,0
83157,563.380281690141,4,2,1,20,1,8
83157,-73.5294117647059,4,2,1,20,0,0
84283,600,4,2,1,20,1,0
84283,-68.9655172413793,4,2,1,5,0,0

[Colours]
Combo1 : 238,150,91
Combo2 : 152,199,156
Combo3 : 216,157,122
Combo4 : 154,176,207
Combo5 : 249,66,70
Combo6 : 191,191,191

[HitObjects]
448,192,871,5,0,0:0:0:0:
320,192,871,1,4,0:0:0:0:
192,192,871,1,2,0:0:0:0:
64,192,1284,1,0,0:0:0:0:
320,192,1698,1,2,0:0:0:0:
448,192,1698,1,0,0:0:0:0:
192,192,2008,1,2,0:0:0:0:
64,192,2319,1,2,0:0:0:0:
320,192,2526,1,2,0:0:0:0:
192,192,2526,1,0,0:0:0:0:
64,192,2733,1,0,0:0:0:0:
448,192,2939,1,0,0:0:0:0:
320,192,3146,1,0,0:0:0:0:
192,192,3353,1,2,0:0:0:0:
64,192,3353,1,0,0:0:0:0:
448,192,3974,1,0,0:0:0:0:
320,192,4077,1,0,0:0:0:0:
192,192,4181,1,2,0:0:0:0:
64,192,4181,1,4,0:0:0:0:
320,192,4388,1,0,0:0:0:0:
192,192,4595,1,0,0:0:0:0:
320,192,5008,1,2,0:0:0:0:
64,192,5008,1,0,0:0:0:0:
448,192,5319,1,2,0:0:0:0:
192,192,5629,1,2,0:0:0:0:
448,192,5836,1,0,0:0:0:0:
320,192,5836,1,2,0:0:0:0:
320,192,6146,1,0,0:0:0:0:
192,192,6146,1,2,0:0:0:0:
192,192,6457,1,0,0:0:0:0:
64,192,6457,128,2,7077:0:0:0:0:
448,192,7521,1,4,0:0:0:0:
320,192,7521,1,0,0:0:0:0:
192,192,7521,1,2,0:0:0:0:
64,192,7720,1,0,0:0:0:0:
192,192,7920,1,0,0:0:0:0:
448,192,8120,1,0,0:0:0:0:
320,192,8319,1,2,0:0:0:0:
192,192,8319,1,0,0:0:0:0:
64,192,8629,1,2,0:0:0:0:
448,192,8939,1,2,0:0:0:0:
192,192,9146,1,2,0:0:0:0:
64,192,9146,1,0,0:0:0:0:
320,192,9352,1,0,0:0:0:0:
64,192,9559,1,0,0:0:0:0:
448,192,9766,1,0,0:0:0:0:
192,192,9973,1,0,0:0:0:0:
64,192,9973,1,2,0:0:0:0:
448,192,10697,1,0,0:0:0:0:
320,192,10749,1,0,0:0:0:0:
192,192,10801,1,2,0:0:0:0:
64,192,10801,128,4,11587:0:0:0:0:
320,192,11587,1,2,0:0:0:0:
448,192,11587,128,4,12429:0:0:0:0:
64,192,11797,1,0,0:0:0:0:
192,192,12008,1,0,0:0:0:0:
320,192,12218,1,0,0:0:0:0:
192,192,12429,128,4,13317:0:0:0:0:
64,192,12429,1,2,0:0:0:0:
448,192,13095,1,0,0:0:0:0:
320,192,13317,1,0,0:0:0:0:
192,192,13979,1,0,0:0:0:0:
320,192,14045,1,0,0:0:0:0:
448,192,14111,1,2,0:0:0:0:
64,192,14111,128,4,15767:0:0:0:0:
448,192,15767,1,2,0:0:0:0:
320,192,15904,1,0,0:0:0:0:
192,192,16042,1,0,0:0:0:0:
448,192,17835,1,0,0:0:0:0:
192,192,18249,1,0,0:0:0:0:
448,192,18663,1,0,0:0:0:0:
320,192,18663,1,0,0:0:0:0:
192,192,19077,1,2,0:0:0:0:
64,192,19077,1,0,0:0:0:0:
448,192,19698,1,0,0:0:0:0:
320,192,19904,1,0,0:0:0:0:
448,192,21560,1,0,0:0:0:0:
64,192,21973,1,0,0:0:0:0:
192,192,22373,1,0,0:0:0:0:
320,192,22373,1,2,0:0:0:0:
448,192,23614,1,0,0:0:0:0:
320,192,24028,1,0,0:0:0:0:
64,192,24028,1,2,0:0:0:0:
192,192,24441,1,0,0:0:0:0:
448,192,24855,1,0,0:0:0:0:
320,192,25269,1,0,0:0:0:0:
64,192,25683,1,0,0:0:0:0:
192,192,25683,1,2,0:0:0:0:
320,192,26946,1,0,0:0:0:0:
192,192,27407,1,0,0:0:0:0:
448,192,27407,1,2,0:0:0:0:
192,192,28568,1,0,0:0:0:0:
320,192,29029,1,0,0:0:0:0:
192,192,29029,1,2,0:0:0:0:
448,192,30270,1,0,0:0:0:0:
320,192,30684,1,2,0:0:0:0:
64,192,31097,1,0,0:0:0:0:
192,192,31497,1,0,0:0:0:0:
320,192,31897,1,0,0:0:0:0:
448,192,32297,1,0,0:0:0:0:
64,192,32297,1,2,0:0:0:0:
192,192,32930,1,0,0:0:0:0:
320,192,33142,1,0,0:0:0:0:
448,192,33494,1,0,0:0:0:0:
192,192,33974,1,0,0:0:0:0:
320,192,33974,1,2,0:0:0:0:
192,192,34804,1,0,0:0:0:0:
64,192,35219,1,0,0:0:0:0:
320,192,35496,1,0,0:0:0:0:
448,192,35565,1,0,0:0:0:0:
64,192,35634,1,0,0:0:0:0:
192,192,35634,1,2,0:0:0:0:
192,192,36254,1,0,0:0:0:0:
64,192,36461,1,0,0:0:0:0:
448,192,37266,1,0,0:0:0:0:
320,192,37266,1,2,0:0:0:0:
192,192,38105,1,0,0:0:0:0:
64,192,38105,1,2,0:0:0:0:
320,192,38524,1,0,0:0:0:0:
192,192,38944,1,2,0:0:0:0:
64,192,38944,1,0,0:0:0:0:
320,192,39150,1,0,0:0:0:0:
64,192,39357,1,0,0:0:0:0:
448,192,39357,1,0,0:0:0:0:
192,192,39564,1,0,0:0:0:0:
320,192,39771,1,0,0:0:0:0:
448,192,39771,1,0,0:0:0:0:
192,192,39978,1,0,0:0:0:0:
64,192,40185,1,0,0:0:0:0:
448,192,40185,1,0,0:0:0:0:
320,192,40392,1,0,0:0:0:0:
64,192,40599,1,2,0:0:0:0:
192,192,40599,1,0,0:0:0:0:
448,192,40806,1,0,0:0:0:0:
320,192,41012,1,0,0:0:0:0:
64,192,41012,1,0,0:0:0:0:
192,192,41219,1,0,0:0:0:0:
64,192,41426,1,0,0:0:0:0:
320,192,41426,1,0,0:0:0:0:
192,192,41633,1,0,0:0:0:0:
320,192,41840,1,0,0:0:0:0:
448,192,41840,1,0,0:0:0:0:
448,192,42047,1,0,0:0:0:0:
64,192,42254,1,2,0:0:0:0:
320,192,42254,1,4,0:0:0:0:
192,192,42350,1,0,0:0:0:0:
320,192,42447,1,0,0:0:0:0:
448,192,42544,1,0,0:0:0:0:
64,192,42641,1,0,0:0:0:0:
192,192,42737,1,0,0:0:0:0:
448,192,42834,1,0,0:0:0:0:
320,192,42931,1,0,0:0:0:0:
192,192,43028,1,0,0:0:0:0:
64,192,43131,1,0,0:0:0:0:
320,192,43234,1,0,0:0:0:0:
448,192,43338,1,0,0:0:0:0:
192,192,43441,1,0,0:0:0:0:
64,192,43545,1,0,0:0:0:0:
448,192,43648,1,0,0:0:0:0:
320,192,43752,1,0,0:0:0:0:
64,192,43855,1,2,0:0:0:0:
192,192,43945,1,0,0:0:0:0:
320,192,44036,1,0,0:0:0:0:
448,192,44127,1,0,0:0:0:0:
192,192,44218,1,0,0:0:0:0:
64,192,44309,1,0,0:0:0:0:
320,192,44400,1,0,0:0:0:0:
448,192,44491,1,0,0:0:0:0:
64,192,44582,1,0,0:0:0:0:
192,192,44685,1,0,0:0:0:0:
448,192,44788,1,0,0:0:0:0:
320,192,44892,1,0,0:0:0:0:
192,192,44995,1,0,0:0:0:0:
64,192,45099,1,0,0:0:0:0:
320,192,45202,1,0,0:0:0:0:
448,192,45306,1,0,0:0:0:0:
192,192,45409,1,2,0:0:0:0:
64,192,45409,1,4,0:0:0:0:
448,192,45537,1,0,0:0:0:0:
192,192,45665,1,0,0:0:0:0:
448,192,45729,1,0,0:0:0:0:
320,192,45793,1,0,0:0:0:0:
192,192,45857,1,0,0:0:0:0:
64,192,45921,1,0,0:0:0:0:
448,192,45985,1,0,0:0:0:0:
320,192,46103,1,0,0:0:0:0:
192,192,46221,1,0,0:0:0:0:
64,192,46339,1,0,0:0:0:0:
320,192,46457,1,6,0:0:0:0:
448,192,46570,1,0,0:0:0:0:
320,192,46646,1,0,0:0:0:0:
192,192,46722,1,0,0:0:0:0:
448,192,46798,1,0,0:0:0:0:
320,192,46911,1,0,0:0:0:0:
192,192,47025,1,0,0:0:0:0:
64,192,47138,1,0,0:0:0:0:
448,192,47252,1,4,0:0:0:0:
320,192,47252,1,2,0:0:0:0:
64,192,47347,1,0,0:0:0:0:
192,192,47442,1,0,0:0:0:0:
320,192,47537,1,0,0:0:0:0:
64,192,47632,1,6,0:0:0:0:
448,192,47789,1,0,0:0:0:0:
320,192,47842,1,0,0:0:0:0:
192,192,47895,1,0,0:0:0:0:
448,192,47974,1,0,0:0:0:0:
192,192,48053,1,4,0:0:0:0:
64,192,48053,1,2,0:0:0:0:
320,192,48233,1,0,0:0:0:0:
192,192,48293,1,0,0:0:0:0:
64,192,48353,1,0,0:0:0:0:
448,192,48474,1,2,0:0:0:0:
320,192,48474,1,4,0:0:0:0:
64,192,48632,1,0,0:0:0:0:
192,192,48684,1,0,0:0:0:0:
320,192,48737,1,0,0:0:0:0:
448,192,48789,1,0,0:0:0:0:
64,192,48895,1,2,0:0:0:0:
192,192,48895,1,4,0:0:0:0:
320,192,48895,1,0,0:0:0:0:
64,192,49098,1,0,0:0:0:0:
448,192,49301,1,0,0:0:0:0:
192,192,49505,1,0,0:0:0:0:
320,192,49708,1,0,0:0:0:0:
448,192,49708,1,2,0:0:0:0:
192,192,50013,1,2,0:0:0:0:
64,192,50013,1,0,0:0:0:0:
448,192,50318,1,2,0:0:0:0:
320,192,50318,1,0,0:0:0:0:
192,192,50420,1,0,0:0:0:0:
320,192,50522,1,2,0:0:0:0:
448,192,50522,1,4,0:0:0:0:
64,192,50522,1,0,0:0:0:0:
192,192,50728,1,0,0:0:0:0:
320,192,50935,1,0,0:0:0:0:
64,192,51142,1,0,0:0:0:0:
320,192,51349,1,2,0:0:0:0:
448,192,51349,1,0,0:0:0:0:
192,192,51763,1,0,0:0:0:0:
320,192,51970,1,0,0:0:0:0:
64,192,52073,1,0,0:0:0:0:
192,192,52177,1,2,0:0:0:0:
320,192,52177,1,4,0:0:0:0:
448,192,52177,1,0,0:0:0:0:
64,192,52384,1,0,0:0:0:0:
320,192,52590,1,0,0:0:0:0:
192,192,52797,1,0,0:0:0:0:
448,192,53004,1,2,0:0:0:0:
320,192,53004,1,0,0:0:0:0:
64,192,53315,1,0,0:0:0:0:
192,192,53315,1,2,0:0:0:0:
320,192,53625,1,0,0:0:0:0:
448,192,53625,1,2,0:0:0:0:
320,192,53832,1,4,0:0:0:0:
192,192,53832,1,0,0:0:0:0:
64,192,53832,1,2,0:0:0:0:
448,192,54142,1,2,0:0:0:0:
64,192,54142,1,0,0:0:0:0:
320,192,54453,1,0,0:0:0:0:
192,192,54453,1,2,0:0:0:0:
64,192,54866,1,0,0:0:0:0:
320,192,55073,1,0,0:0:0:0:
192,192,55280,1,0,0:0:0:0:
64,192,55487,1,2,0:0:0:0:
320,192,55487,1,0,0:0:0:0:
448,192,55487,1,4,0:0:0:0:
192,192,55694,1,0,0:0:0:0:
64,192,55901,1,0,0:0:0:0:
448,192,56108,1,0,0:0:0:0:
192,192,56315,1,2,0:0:0:0:
448,192,56625,1,2,0:0:0:0:
192,192,56935,1,2,0:0:0:0:
320,192,57142,1,0,0:0:0:0:
448,192,57142,1,4,0:0:0:0:
64,192,57142,1,2,0:0:0:0:
192,192,57349,1,0,0:0:0:0:
64,192,57556,1,0,0:0:0:0:
320,192,57763,1,0,0:0:0:0:
448,192,57763,1,0,0:0:0:0:
192,192,57970,1,2,0:0:0:0:
64,192,57970,1,0,0:0:0:0:
192,192,58590,1,0,0:0:0:0:
320,192,58694,1,0,0:0:0:0:
192,192,58797,1,4,0:0:0:0:
64,192,58797,1,0,0:0:0:0:
448,192,58797,1,2,0:0:0:0:
320,192,59571,1,0,0:0:0:0:
448,192,59571,1,2,0:0:0:0:
192,192,59797,1,0,0:0:0:0:
64,192,60023,1,0,0:0:0:0:
448,192,60250,1,0,0:0:0:0:
64,192,60476,1,0,0:0:0:0:
192,192,60476,1,2,0:0:0:0:
320,192,60476,1,4,0:0:0:0:
448,192,60679,1,0,0:0:0:0:
192,192,60882,1,0,0:0:0:0:
448,192,61086,1,0,0:0:0:0:
320,192,61086,1,0,0:0:0:0:
64,192,61289,1,2,0:0:0:0:
192,192,61289,1,0,0:0:0:0:
448,192,61909,1,0,0:0:0:0:
64,192,62116,1,0,0:0:0:0:
192,192,62116,1,4,0:0:0:0:
320,192,62116,1,2,0:0:0:0:
448,192,62322,1,0,0:0:0:0:
192,192,62529,1,0,0:0:0:0:
320,192,62736,1,0,0:0:0:0:
64,192,62943,1,2,0:0:0:0:
192,192,62943,1,0,0:0:0:0:
192,192,63253,1,0,0:0:0:0:
320,192,63253,1,2,0:0:0:0:
448,192,63564,1,2,0:0:0:0:
320,192,63564,1,0,0:0:0:0:
64,192,63771,1,2,0:0:0:0:
192,192,63771,1,4,0:0:0:0:
320,192,63771,1,0,0:0:0:0:
448,192,63978,1,0,0:0:0:0:
64,192,64184,1,0,0:0:0:0:
192,192,64391,1,0,0:0:0:0:
448,192,64598,1,2,0:0:0:0:
320,192,64598,1,0,0:0:0:0:
192,192,64805,1,0,0:0:0:0:
64,192,65012,1,0,0:0:0:0:
320,192,65212,1,0,0:0:0:0:
192,192,65312,1,0,0:0:0:0:
64,192,65412,1,4,0:0:0:0:
320,192,65412,1,2,0:0:0:0:
448,192,65412,1,0,0:0:0:0:
448,192,66239,1,0,0:0:0:0:
320,192,66239,1,2,0:0:0:0:
192,192,66239,1,4,0:0:0:0:
64,192,66549,1,0,0:0:0:0:
192,192,66549,1,2,0:0:0:0:
320,192,66549,1,4,0:0:0:0:
448,192,66860,1,0,0:0:0:0:
320,192,66860,1,2,0:0:0:0:
192,192,66860,1,4,0:0:0:0:
64,192,67067,1,0,0:0:0:0:
192,192,67067,1,2,0:0:0:0:
448,192,67067,1,4,0:0:0:0:
64,192,67380,1,4,0:0:0:0:
320,192,67380,1,2,0:0:0:0:
448,192,67380,1,0,0:0:0:0:
64,192,67694,1,0,0:0:0:0:
192,192,67694,1,2,0:0:0:0:
448,192,67694,1,4,0:0:0:0:
320,192,68321,1,0,0:0:0:0:
448,192,68530,1,0,0:0:0:0:
192,192,68739,1,0,0:0:0:0:
64,192,68739,1,2,0:0:0:0:
320,192,68739,1,4,0:0:0:0:
448,192,68945,1,0,0:0:0:0:
320,192,69152,1,0,0:0:0:0:
448,192,69359,1,0,0:0:0:0:
64,192,69566,1,0,0:0:0:0:
192,192,69566,1,2,0:0:0:0:
320,192,69876,1,2,0:0:0:0:
192,192,69876,1,0,0:0:0:0:
320,192,70187,1,0,0:0:0:0:
448,192,70187,1,2,0:0:0:0:
192,192,70290,1,0,0:0:0:0:
448,192,70394,1,4,0:0:0:0:
320,192,70394,1,0,0:0:0:0:
64,192,70394,1,2,0:0:0:0:
192,192,70601,1,0,0:0:0:0:
320,192,70807,1,0,0:0:0:0:
448,192,71014,1,0,0:0:0:0:
64,192,71014,1,0,0:0:0:0:
192,192,71221,1,2,0:0:0:0:
320,192,71221,1,0,0:0:0:0:
448,192,71842,1,0,0:0:0:0:
320,192,71945,1,0,0:0:0:0:
64,192,72049,1,2,0:0:0:0:
192,192,72049,1,0,0:0:0:0:
448,192,72049,1,4,0:0:0:0:
320,192,72236,1,0,0:0:0:0:
192,192,72424,1,2,0:0:0:0:
64,192,72424,1,0,0:0:0:0:
320,192,72650,1,0,0:0:0:0:
448,192,72877,1,0,0:0:0:0:
192,192,73083,1,0,0:0:0:0:
448,192,73290,1,2,0:0:0:0:
64,192,73290,1,0,0:0:0:0:
320,192,73497,1,0,0:0:0:0:
64,192,73704,1,0,0:0:0:0:
192,192,73704,1,2,0:0:0:0:
448,192,73704,1,4,0:0:0:0:
320,192,73888,1,0,0:0:0:0:
192,192,74073,1,0,0:0:0:0:
448,192,74073,1,2,0:0:0:0:
64,192,74302,1,0,0:0:0:0:
448,192,74532,1,0,0:0:0:0:
320,192,74532,1,2,0:0:0:0:
192,192,74738,1,0,0:0:0:0:
320,192,74945,1,0,0:0:0:0:
64,192,74945,1,2,0:0:0:0:
448,192,75152,1,0,0:0:0:0:
320,192,75256,1,0,0:0:0:0:
64,192,75359,1,0,0:0:0:0:
192,192,75359,1,4,0:0:0:0:
448,192,75359,1,2,0:0:0:0:
320,192,75562,1,0,0:0:0:0:
448,192,75765,1,2,0:0:0:0:
192,192,75765,1,0,0:0:0:0:
64,192,75969,1,0,0:0:0:0:
320,192,76172,1,0,0:0:0:0:
448,192,76172,1,2,0:0:0:0:
192,192,76375,1,0,0:0:0:0:
64,192,76579,1,2,0:0:0:0:
320,192,76579,1,0,0:0:0:0:
448,192,76782,1,0,0:0:0:0:
320,192,76986,1,2,0:0:0:0:
192,192,76986,1,4,0:0:0:0:
64,192,76986,1,0,0:0:0:0:
448,192,77192,1,0,0:0:0:0:
320,192,77399,1,4,0:0:0:0:
64,192,77399,1,2,0:0:0:0:
192,192,77606,1,0,0:0:0:0:
320,192,77813,1,2,0:0:0:0:
448,192,77813,1,4,0:0:0:0:
64,192,78023,1,0,0:0:0:0:
448,192,78234,1,2,0:0:0:0:
192,192,78234,1,4,0:0:0:0:
64,192,78234,1,0,0:0:0:0:
448,192,78655,1,0,0:0:0:0:
192,192,78655,1,2,0:0:0:0:
320,192,78758,1,0,0:0:0:0:
64,192,78861,1,0,0:0:0:0:
192,192,78965,1,0,0:0:0:0:
448,192,79068,1,0,0:0:0:0:
320,192,79163,1,0,0:0:0:0:
192,192,79258,1,0,0:0:0:0:
64,192,79353,1,0,0:0:0:0:
448,192,79448,1,0,0:0:0:0:
320,192,79448,1,2,0:0:0:0:
64,192,79544,1,0,0:0:0:0:
192,192,79639,1,0,0:0:0:0:
320,192,79734,1,0,0:0:0:0:
64,192,79829,1,0,0:0:0:0:
192,192,79927,1,0,0:0:0:0:
320,192,80025,1,0,0:0:0:0:
448,192,80124,1,0,0:0:0:0:
192,192,80222,1,2,0:0:0:0:
320,192,80222,1,0,0:0:0:0:
64,192,80333,1,0,0:0:0:0:
448,192,80444,1,0,0:0:0:0:
320,192,80555,1,0,0:0:0:0:
64,192,80666,1,0,0:0:0:0:
192,192,80762,1,0,0:0:0:0:
320,192,80859,1,0,0:0:0:0:
64,192,81053,1,2,0:0:0:0:
192,192,81053,1,0,0:0:0:0:
320,192,81166,1,0,0:0:0:0:
192,192,81279,1,0,0:0:0:0:
64,192,81392,1,0,0:0:0:0:
448,192,81505,1,0,0:0:0:0:
320,192,81755,1,0,0:0:0:0:
64,192,82005,1,0,0:0:0:0:
192,192,82005,1,2,0:0:0:0:
448,192,82213,1,0,0:0:0:0:
320,192,82318,1,0,0:0:0:0:
192,192,82422,1,0,0:0:0:0:
64,192,82526,1,0,0:0:0:0:
192,192,83157,1,0,0:0:0:0:
320,192,83250,1,0,0:0:0:0:
64,192,84042,1,0,0:0:0:0:
192,192,84122,1,0,0:0:0:0:
320,192,84203,1,0,0:0:0:0:
448,192,84283,1,2,0:0:0:0:
