osu file format v14

[General]
AudioFilename: optc.ogg
AudioLeadIn: 0
PreviewTime: 767
Countdown: 0
SampleSet: Soft
StackLeniency: 0.6
Mode: 0
LetterboxInBreaks: 0
WidescreenStoryboard: 1

[Editor]
Bookmarks: 871,15767,38944,48895,62116,78655
DistanceSpacing: 1.1
BeatDivisor: 4
GridSize: 32
TimelineZoom: 1.7

[Metadata]
Title:ebullient future (Piano Ver.) (TV Size)
TitleUnicode:ebullient future (Piano Ver.) (TV Size)
Artist:ELISA
ArtistUnicode:ELISA
Creator:Shad0w1and
Version:Easy
Source:ef - a tale of melodies.
Tags:yuukyuu no tsubasa english anime minori tenmon 天門 fairy the two latter
BeatmapID:1331070
BeatmapSetID:629994

[Difficulty]
HPDrainRate:2
CircleSize:3
OverallDifficulty:3
ApproachRate:4
SliderMultiplier:1
SliderTickRate:1

[Events]
//Background and Video events
0,0,"BG.jpg",0,0
Video,0,"optc.flv"
//Break Periods
//Storyboard Layer 0 (Background)
//Storyboard Layer 1 (Fail)
//Storyboard Layer 2 (Pass)
//Storyboard Layer 3 (Foreground)
//Storyboard Layer 4 (Overlay)
//Storyboard Sound Samples

[TimingPoints]
871,413.793103448276,4,2,1,40,1,0
7077,444.444444444444,4,2,1,40,1,0
7077,-93.4579439252336,4,2,1,40,0,0
7521,399.334442595674,4,2,1,40,1,0
7521,-103.092783505155,4,2,1,40,0,0
8319,413.793103448276,4,2,1,40,1,0
9146,413.793103448276,4,2,1,40,1,0
10801,393.44262295082,4,2,1,40,1,0
10801,-105.263157894737,4,2,1,40,0,0
11587,421.052631578947,4,2,1,40,1,0
11587,-98.0392156862745,4,2,1,40,0,0
12429,444.444444444444,4,2,1,40,1,0
12429,-93.4579439252336,4,2,1,40,0,0
13317,397.350993377483,4,2,1,40,1,0
13317,-104.166666666667,4,2,1,40,0,0
14111,414.07867494824,4,2,1,40,1,0
15767,413.793103448276,4,2,1,20,1,0
15767,-133.333333333333,4,2,1,20,0,0
21973,400,4,2,1,20,1,0
21973,-136.986301369863,4,2,1,20,0,0
22373,413.793103448276,4,2,1,20,1,0
22373,-133.333333333333,4,2,1,20,0,0
25683,421.052631578947,4,2,1,20,1,0
25683,-131.578947368421,4,2,1,20,0,0
26946,461.538461538462,4,2,1,20,1,0
26946,-120.481927710843,4,2,1,20,0,0
27407,387.096774193548,4,2,1,20,1,0
27407,-142.857142857143,4,2,1,20,0,0
28568,461.538461538462,4,2,1,20,1,0
28568,-120.481927710843,4,2,1,20,0,0
29029,413.793103448276,4,2,1,20,1,0
29029,-133.333333333333,4,2,1,20,0,0
31097,400,4,2,1,20,1,0
31097,-136.986301369863,4,2,1,20,0,0
31497,400,4,2,1,20,1,0
31497,-136.986301369863,4,2,1,20,0,0
32297,422.535211267606,4,2,1,20,1,0
32297,-129.87012987013,4,2,1,20,0,0
33142,352.941176470588,4,2,1,20,1,0
33142,-156.25,4,2,1,20,0,0
33494,480,4,2,1,20,1,0
33494,-114.942528735632,4,2,1,20,0,0
33974,415.22491349481,4,2,1,20,1,0
33974,-133.333333333333,4,2,1,20,0,0
35634,413.793103448276,4,2,1,20,1,0
35634,-133.333333333333,4,2,1,20,0,0
36461,402.684563758389,4,2,1,20,1,0
36461,-136.986301369863,4,2,1,20,0,0
37266,419.58041958042,4,2,1,20,1,0
37266,-131.578947368421,4,2,1,20,0,0
38944,413.793103448276,4,2,1,40,1,0
42254,387.096774193548,4,2,1,50,1,0
42254,-106.382978723404,4,2,1,50,0,0
43028,413.793103448276,4,2,1,50,1,0
43855,363.636363636364,4,2,1,50,1,0
43855,-113.636363636364,4,2,1,50,0,0
44582,413.793103448276,4,2,1,50,1,0
45409,576.923076923077,4,2,1,50,1,0
45409,-71.9424460431655,4,2,1,50,0,0
45985,472.44094488189,4,2,1,50,1,0
45985,-87.719298245614,4,2,1,50,0,0
46457,341.880341880342,4,2,1,50,1,0
46457,-120.481927710843,4,2,1,50,0,0
46798,454.545454545455,4,2,1,50,1,0
46798,-90.9090909090909,4,2,1,50,0,0
47252,380.952380952381,4,2,1,50,1,0
47252,-108.695652173913,4,2,1,50,0,0
47632,421.052631578947,4,2,1,50,1,0
47632,-98.0392156862745,4,2,1,50,0,0
48895,406.779661016949,4,2,1,50,1,1
48895,-102.040816326531,4,2,1,50,0,1
50522,413.793103448276,4,2,1,50,1,1
58797,387.096774193548,4,2,1,50,1,1
58797,-106.382978723404,4,2,1,50,0,1
59571,452.830188679245,4,2,1,50,1,1
59571,-91.743119266055,4,2,1,50,0,1
60476,406.779661016949,4,2,1,50,1,1
60476,-102.040816326531,4,2,1,50,0,1
61289,413.793103448276,4,2,1,50,1,1
62116,413.793103448276,4,2,1,50,1,1
65012,400,4,2,1,50,1,1
65012,-103.092783505155,4,2,1,50,0,1
65412,413.793103448276,4,2,1,50,1,0
65412,-100,4,2,1,50,0,0
66239,-100,4,2,1,50,0,1
67067,418.118466898955,4,2,1,50,1,1
67067,-99.009900990099,4,2,1,50,0,1
68739,413.793103448276,4,2,1,50,1,1
72049,375,4,2,1,50,1,1
72049,-109.89010989011,4,2,1,50,0,1
72424,453.172205438066,4,2,1,50,1,1
72424,-90.9090909090909,4,2,1,50,0,1
72877,413.793103448276,4,2,1,50,1,1
73704,369.230769230769,4,2,1,50,1,1
73704,-112.359550561798,4,2,1,50,0,1
74073,459.770114942529,4,2,1,50,1,1
74073,-90.0900900900901,4,2,1,50,0,1
74532,413.793103448276,4,2,1,50,1,1
75359,406.779661016949,4,2,1,50,1,1
75359,-102.040816326531,4,2,1,50,0,1
76986,413.793103448276,4,2,1,50,1,1
77813,421.052631578947,4,2,1,50,1,1
77813,-98.0392156862745,4,2,1,50,0,1
78655,413.793103448276,4,2,1,40,1,0
79068,380.952380952381,4,2,1,40,1,0
79068,-108.695652173913,4,2,1,40,0,0
79829,393.44262295082,4,2,1,40,1,0
79829,-105.263157894737,4,2,1,40,0,0
80222,444.444444444444,4,2,1,40,1,0
80222,-93.4579439252336,4,2,1,40,0,0
80666,387.096774193548,4,2,1,40,1,0
80666,-106.382978723404,4,2,1,40,0,0
81053,452.830188679245,4,2,1,40,1,0
81053,-91.743119266055,4,2,1,40,0,0
81505,500,4,2,1,40,1,0
81505,-82.6446280991736,4,2,1,40,0,0
82005,521.739130434783,4,2,1,20,1,0
82005,-79.3650793650794,4,2,1,20,0,0
82526,631.578947368421,4,2,1,20,1,0
82526,-65.359477124183,4,2,1,20,0,0
83157,563.380281690141,4,2,1,20,1,0
83157,-73.5294117647059,4,2,1,20,0,0
84283,600,4,2,1,20,1,0
84283,-68.9655172413793,4,2,1,5,0,0

[Colours]
Combo1 : 238,150,91
Combo2 : 152,199,156
Combo3 : 216,157,122
Combo4 : 154,176,207
Combo5 : 249,66,70
Combo6 : 191,191,191

[HitObjects]
48,8,871,6,0,P|61:81|67:125,1,100,6|0,0:0|0:0,0:0:0:0:
164,152,1698,2,0,P|221:157|319:134,1,150,2|2,0:0|0:0,0:0:0:0:
366,140,2526,2,0,P|325:194|360:267,1,150,2|0,0:0|0:0,0:0:0:0:
402,290,3353,1,2,0:0:0:0:
195,367,4181,6,0,L|84:339,1,100,6|0,0:0|0:0,0:0:0:0:
48,246,5008,2,0,P|55:200|147:167,1,150,2|2,0:0|0:0,0:0:0:0:
197,174,5836,2,0,P|231:155|270:114,2,75,2|2|2,0:0|0:0|0:0,0:0:0:0:
465,269,7521,6,0,L|484:162,1,97.000002294159,6|0,0:0|0:0,0:0:0:0:
388,123,8319,2,0,L|358:284,1,150,2|0,0:0|0:0,0:0:0:0:
312,298,9146,2,0,P|231:278|206:206,1,150,2|0,0:0|0:0,0:0:0:0:
212,167,9973,1,2,0:0:0:0:
386,34,10801,6,0,P|435:27|483:13,1,94.9999974632264,6|0,0:0|0:0,0:0:0:0:
508,114,11587,2,0,P|488:189|473:263,1,153.000000933838,2|0,0:0|0:0,0:0:0:0:
423,288,12429,2,0,P|354:268|334:178,1,160.499995101929,2|0,0:0|0:0,0:0:0:0:
278,160,13317,2,0,P|187:184|117:187,1,144.000003515625,2|0,0:0|0:0,0:0:0:0:
96,153,14111,1,6,0:0:0:0:
96,153,15767,6,0,P|104:233|108:307,1,150.000005722046,2|0,0:0|0:0,0:0:0:0:
108,302,17835,2,0,L|9:268,2,75.0000028610231
177,347,19077,6,0,P|229:334|265:283,1,112.500004291535,2|0,0:0|0:0,0:0:0:0:
286,254,19904,2,0,B|336:245|336:245|371:251|371:251|439:235,1,150.000005722046
300,138,21560,2,0,P|293:97|291:54,1,75.0000028610231
216,35,22373,6,0,P|139:44|118:119,1,150.000005722046,2|0,0:0|0:0,0:0:0:0:
135,184,23614,1,0,0:0:0:0:
191,244,24028,2,0,P|227:245|288:249,1,75.0000028610231,2|0,0:0|0:0,0:0:0:0:
329,299,24855,2,0,P|363:295|412:289,1,75.0000028610231
461,231,25683,6,0,B|512:165|469:81|469:81|441:88|385:87,1,227.999997216797,2|0,0:0|0:0,0:0:0:0:
339,155,27407,2,0,B|266:164|215:108|215:108|162:171,1,209.999993591309,2|0,0:0|0:0,0:0:0:0:
144,251,29029,6,0,P|46:271|40:172,1,225.000008583069,6|0,0:0|0:0,0:0:0:0:
86,104,30684,1,0,0:0:0:0:
163,76,31097,2,0,P|193:102|211:148,1,73.0000020050049
214,211,31897,1,0,0:0:0:0:
144,251,32297,6,0,P|168:301|194:365,1,115.499997708893,2|0,0:0|0:0,0:0:0:0:
233,353,33142,2,0,P|274:354|321:359,1,64
388,330,33974,2,0,P|406:262|425:161,1,150.000005722046
405,103,35219,1,0,0:0:0:0:
344,158,35634,6,0,P|292:170|222:136,1,112.500004291535,6|0,0:0|0:0,0:0:0:0:
196,156,36461,2,0,P|157:228|217:283,1,146.00000401001,0|2,0:0|0:0,0:0:0:0:
346,328,38105,2,0,P|383:317|438:312,1,75.9999990722656,2|0,0:0|0:0,0:0:0:0:
477,216,38944,6,0,B|525:85|525:85|432:87,1,200,6|0,0:0|0:0,0:0:0:0:
376,152,40185,1,0,0:0:0:0:
307,68,40599,2,0,P|240:56|154:184,1,200,6|0,0:0|0:0,0:0:0:0:
201,240,41840,1,0,0:0:0:0:
256,192,42254,12,6,43855,0:0:0:0:
256,192,45409,5,6,0:0:0:0:
462,377,46457,1,6,0:0:0:0:
447,167,47252,6,0,B|431:116|431:116|438:70,1,91.9999969116212,6|6,0:0|0:0,0:0:0:0:
325,91,48053,2,0,B|287:99|287:99|226:82,1,102.000000622559,6|6,0:0|0:0,0:0:0:0:
136,150,48895,6,0,P|141:219|209:234,1,146.999998654175,6|0,0:0|0:0,0:0:0:0:
243,274,49708,2,0,P|326:270|392:276,1,146.999998654175,2|2,0:0|0:0,0:0:0:0:
441,259,50522,2,0,B|437:208|464:158|464:158|438:105,1,150,2|0,0:0|0:0,0:0:0:0:
412,72,51349,1,2,0:0:0:0:
195,85,52177,6,0,P|202:155|207:247,1,150,6|0,0:0|0:0,0:0:0:0:
175,279,53004,2,0,P|99:294|40:219,1,150,2|2,0:0|0:0,0:0:0:0:
26,198,53832,2,0,P|49:156|66:116,2,75,2|2|2,0:0|0:0|0:0,0:0:0:0:
275,313,55487,6,0,P|340:302|434:299,1,150,6|0,0:0|0:0,0:0:0:0:
462,258,56315,2,0,P|396:240|320:201,1,150,2|2,0:0|0:0,0:0:0:0:
317,148,57142,2,0,P|340:79|408:55,1,150,2|0,0:0|0:0,0:0:0:0:
453,86,57970,1,2,0:0:0:0:
240,147,58797,6,0,P|140:130|81:106,1,140.999997848511,6|0,0:0|0:0,0:0:0:0:
55,135,59571,2,0,P|78:222|101:296,1,163.500001746368,6|0,0:0|0:0,0:0:0:0:
158,303,60476,2,0,P|230:335|295:304,1,146.999998654175,6|0,0:0|0:0,0:0:0:0:
303,258,61289,1,6,0:0:0:0:
463,106,62116,6,0,P|491:178|515:261,1,150,6|0,0:0|0:0,0:0:0:0:
496,300,62943,2,0,P|451:326|364:267,1,150,2|2,0:0|0:0,0:0:0:0:
315,281,63771,2,0,P|255:257|177:317,1,150,2|0,0:0|0:0,0:0:0:0:
130,294,64598,1,2,0:0:0:0:
4,114,65412,6,0,P|28:71|139:77,1,150.000005722046,6|0,0:0|0:0,0:0:0:0:
154,105,66239,2,0,P|142:148|135:197,2,75,6|6|6,0:0|0:0|0:0,0:0:0:0:
206,88,67067,2,0,P|211:53|213:9,2,75.7499984973908,6|6|6,0:0|0:0|0:0,0:0:0:0:
481,74,68739,6,0,P|464:120|435:223,1,150,6|0,0:0|0:0,0:0:0:0:
462,265,69566,2,0,P|424:338|349:343,1,150,2|2,0:0|0:0,0:0:0:0:
334,299,70394,2,0,P|256:281|172:272,1,150,6|0,0:0|0:0,0:0:0:0:
132,280,71221,1,2,0:0:0:0:
97,61,72049,6,0,P|145:43|202:45,1,91.0000030548097,6|2,0:0|0:0,0:0:0:0:
281,112,72877,2,0,P|332:114|389:97,1,100,2|2,0:0|0:0,0:0:0:0:
484,136,73704,2,0,P|459:190|450:236,1,89.0000000679016,6|2,0:0|0:0,0:0:0:0:
333,246,74532,2,0,P|295:272|240:280,1,100,2|2,0:0|0:0,0:0:0:0:
134,301,75359,6,0,B|94:209|94:209|124:163,1,146.999998654175,6|2,0:0|0:0,0:0:0:0:
162,137,76172,2,0,P|205:145|265:112,1,97.9999991027832,2|2,0:0|0:0,0:0:0:0:
360,143,76986,2,0,L|380:258,1,100,6|6,0:0|0:0,0:0:0:0:
487,248,77813,2,0,L|473:143,1,102.000000622559,6|6,0:0|0:0,0:0:0:0:
256,192,78655,12,0,81755,0:0:0:0:
256,192,82005,12,0,84283,0:0:0:0:
