osu file format v14

[General]
AudioFilename: audio.mp3
AudioLeadIn: 0
PreviewTime: 49586
Countdown: 0
SampleSet: Soft
StackLeniency: 0.7
Mode: 0
LetterboxInBreaks: 0
WidescreenStoryboard: 0

[Editor]
Bookmarks: 38891,88177
DistanceSpacing: 1.1
BeatDivisor: 4
GridSize: 4
TimelineZoom: 1.8

[Metadata]
Title:Real Force (TV size)
TitleUnicode:Real Force (TV size)
Artist:ELISA
ArtistUnicode:ELISA
Creator:DavidEd
Version:Easy
Source:とある科学の超電磁砲
Tags:リアルフォース toaru kagaku no a certain scientific railgun ed ending rogue adolescence j-pop
BeatmapID:1028671
BeatmapSetID:479470

[Difficulty]
HPDrainRate:2
CircleSize:3
OverallDifficulty:3
ApproachRate:3
SliderMultiplier:0.8
SliderTickRate:1

[Events]
//Background and Video events
0,0,"realforce.jpg",0,0
Video,-264,"raelforce.avi"
//Break Periods
//Storyboard Layer 0 (Background)
//Storyboard Layer 1 (Fail)
//Storyboard Layer 2 (Pass)
//Storyboard Layer 3 (Foreground)
//Storyboard Sound Samples

[TimingPoints]
390,357.142857142857,4,2,1,50,1,0
2175,-100,4,2,3,50,0,0
5925,-100,4,2,1,50,0,0
6818,-100,4,2,2,50,0,0
7175,-100,4,2,1,50,0,0
14497,-100,4,2,2,50,0,0
15568,-100,4,2,1,50,0,0
16639,-100,4,2,3,50,0,0
26104,-100,4,2,1,50,0,0
34854,-100,4,2,2,50,0,0
35211,-100,4,2,1,50,0,0
36997,-100,4,2,2,50,0,0
37532,-100,4,2,1,50,0,0
38604,-100,4,3,1,50,0,0
38961,-100,4,2,1,50,0,0
42354,-100,4,2,2,50,0,0
42889,-100,4,2,1,50,0,0
47889,-100,4,2,2,50,0,0
48247,-100,4,2,1,50,0,0
48604,-100,4,2,2,50,0,0
48961,-100,4,2,1,50,0,0
49854,-100,4,2,2,50,0,0
50389,-100,4,2,1,60,0,1
57711,-100,4,2,2,60,0,1
57889,-100,4,2,1,60,0,1
60389,-100,4,2,1,60,0,0
60568,-100,4,2,2,60,0,0
60747,-100,4,2,1,60,0,0
61461,-100,4,3,1,60,0,0
61818,-100,4,2,1,60,0,1
69318,-100,4,2,1,60,0,0
70032,-100,4,2,2,60,0,0
70389,-100,4,2,1,60,0,1
72532,-100,4,3,1,60,0,1
73247,-100,4,2,1,60,0,1
75032,-100,4,2,1,60,0,0
75747,-100,4,2,2,60,0,0
76104,-100,4,2,1,60,0,0
83068,-100,4,2,2,60,0,0
84139,-100,4,2,1,60,0,0
88157,-100,4,2,1,20,0,0

[Colours]
Combo1 : 255,182,83
Combo2 : 17,100,255
Combo3 : 253,253,0
Combo4 : 201,201,201

[HitObjects]
292,164,1818,6,0,B|352:148|352:148|412:164,2,120,6|0|0,0:0|0:0|0:0,0:0:0:0:
224,220,3247,2,0,B|164:236|164:236|104:220,2,120,2|0|0,0:0|0:0|0:0,0:0:0:0:
208,132,4675,2,8,P|124:40|40:144,1,280,2|6,0:0|0:0,0:0:0:0:
60,260,6461,2,0,B|108:260|108:260|156:296|156:296|216:296,1,160,8|8,0:0|0:0,0:0:0:0:
284,252,7532,6,0,B|336:212|396:240|396:240|416:192,1,160,6|2,0:0|0:0,0:0:0:0:
340,44,8961,2,0,B|288:84|228:56|228:56|208:104,1,160,2|2,0:0|0:0,0:0:0:0:
68,192,10389,6,0,B|144:224|144:156|224:192,1,160,6|2,0:0|0:0,0:0:0:0:
332,328,11818,2,0,P|408:328|464:272,1,160,2|2,0:0|0:0,0:0:0:0:
424,192,12889,1,6,0:0:0:0:
376,116,13247,6,0,B|314:106|268:144|268:144|220:120,1,160,6|2,0:0|0:0,0:0:0:0:
116,52,14497,2,0,L|36:52,2,80,6|6|6,0:0|0:0|0:0,0:0:0:0:
136,140,15568,2,0,P|136:196|180:248,1,120,8|6,0:0|0:0,0:0:0:0:
304,260,16639,6,0,L|312:352,2,80,2|0|2,0:0|0:0|0:0,0:0:0:0:
376,148,17889,2,0,L|288:152,1,80,0|2,0:0|0:0,0:0:0:0:
232,212,18604,1,0,0:0:0:0:
168,152,18961,6,0,B|92:124|92:192|4:148,2,160,2|2|2,0:0|0:0|0:0,0:0:0:0:
316,248,21104,2,0,P|392:248|440:176,1,160,2|2,0:0|0:0,0:0:0:0:
316,60,22532,6,0,B|316:120|316:120|353:170,2,120,2|2|2,0:0|0:0|0:0,0:0:0:0:
228,56,23961,2,0,P|171:109|172:200,1,160,2|2,0:0|0:0,0:0:0:0:
316,284,25389,2,0,B|240:320|240:256|160:288,1,160,2|6,0:0|0:0,0:0:0:0:
68,192,26639,2,0,L|60:100,1,80,6|6,0:0|0:0,0:0:0:0:
180,56,27532,6,0,P|256:56|304:128,1,160,6|2,0:0|0:0,0:0:0:0:
272,200,28604,1,8,0:0:0:0:
236,280,28961,2,0,P|281:342|358:342,1,160,2|2,0:0|0:0,0:0:0:0:
436,184,30389,6,0,B|360:148|360:212|272:180,1,160,2|2,0:0|0:0,0:0:0:0:
140,76,31818,2,0,B|216:40|216:104|304:72,1,160,2|2,0:0|0:0,0:0:0:0:
428,192,33247,6,0,L|436:280,2,80,2|8|2,0:0|0:0|0:0,0:0:0:0:
296,192,34497,2,0,B|232:216|232:276|232:276|188:316,1,160,2|8,0:0|0:0,0:0:0:0:
112,332,35568,2,0,L|32:332,2,80,2|8|2,0:0|0:0|0:0,0:0:0:0:
132,248,36639,2,0,P|132:168|228:88,1,200,8|6,0:0|0:0,0:0:0:0:
388,116,38247,2,0,L|396:200,1,80,8|4,0:0|0:0,0:0:0:0:
468,244,38961,6,0,P|400:284|320:240,1,160,6|2,0:0|0:0,0:0:0:0:
200,136,40389,2,0,P|132:96|52:140,1,160,2|2,0:0|0:0,0:0:0:0:
64,300,41818,6,0,P|104:344|176:344,2,120,2|0|8,0:0|0:0|0:0,0:0:0:0:
144,264,43247,2,0,P|216:240|292:272,1,160,2|2,0:0|0:0,0:0:0:0:
455,332,44675,6,0,B|462:249|462:249|445:168,1,160,6|2,0:0|0:0,0:0:0:0:
413,92,45747,1,8,0:0:0:0:
327,112,46104,2,0,B|272:144|272:200|272:200|230:246,1,160,2|2,0:0|0:0,0:0:0:0:
91,329,47532,6,0,P|57:253|95:184,2,160,6|8|6,0:0|0:0|0:0,0:0:0:0:
220,301,49497,2,0,L|227:172,1,120,8|0,0:0|0:0,0:0:0:0:
156,127,50389,6,0,P|232:95|301:134,1,160,6|2,0:0|0:0,0:0:0:0:
353,195,51461,1,8,0:0:0:0:
309,271,51818,2,0,P|363:282|440:209,1,160,2|2,0:0|0:0,0:0:0:0:
418,132,52889,1,8,0:0:0:0:
334,104,53247,6,0,B|266:124|261:191|261:191|213:208,2,160,2|2|2,0:0|0:0|0:0,0:0:0:0:
423,255,55389,2,0,L|342:282,1,80,2|6,0:0|0:0,0:0:0:0:
281,339,56104,6,0,P|215:292|133:292,1,160,6|2,0:0|0:0,0:0:0:0:
56,186,57354,2,0,B|99:169|99:169|134:192|178:192,1,120,2|8,0:0|0:0,0:0:0:0:
255,177,58247,2,0,P|333:156|414:187,1,160,2|2,0:0|0:0,0:0:0:0:
372,308,59497,6,0,L|288:308,1,80,2|8,0:0|0:0,0:0:0:0:
207,333,60211,2,0,B|207:272|207:272|173:211,1,120,2|8,0:0|0:0,0:0:0:0:
90,219,61104,2,0,P|104:170|134:144,1,80,8|4,0:0|0:0,0:0:0:0:
210,137,61818,6,0,P|293:149|369:103,1,160,6|2,0:0|0:0,0:0:0:0:
443,92,62889,1,8,0:0:0:0:
426,178,63247,2,0,P|428:256|376:324,2,160,2|2|2,0:0|0:0|0:0,0:0:0:0:
281,77,65389,6,0,L|259:160,1,80,2|8,0:0|0:0,0:0:0:0:
306,229,66104,2,0,P|227:239|173:173,1,160,2|2,0:0|0:0,0:0:0:0:
115,121,67175,1,8,0:0:0:0:
56,186,67532,6,0,B|73:258|73:258|52:300|66:349,1,160,6|2,0:0|0:0,0:0:0:0:
193,316,68782,2,0,P|253:303|312:320,1,120,8|8,0:0|0:0,0:0:0:0:
395,332,69675,2,0,L|383:157,1,160,0|6,0:0|0:0,0:0:0:0:
418,91,70747,5,8,0:0:0:0:
338,53,71104,2,0,P|261:53|219:85,1,120,2|8,0:0|0:0,0:0:0:0:
145,179,72175,1,8,0:0:0:0:
216,229,72532,2,0,P|183:258|137:264,1,80,8|4,0:0|0:0,0:0:0:0:
70,225,73247,6,0,P|57:162|117:97,1,160,6|2,0:0|0:0,0:0:0:0:
248,75,74497,2,0,L|382:84,1,120,8|8,0:0|0:0,0:0:0:0:
383,169,75389,2,0,B|278:162|278:162|212:193,1,160,0|6,0:0|0:0,0:0:0:0:
68,259,76818,6,0,P|98:317|187:328,1,160,2|2,0:0|0:0,0:0:0:0:
344,250,78247,2,0,L|351:158,1,80,2|8,0:0|0:0,0:0:0:0:
426,127,78961,6,0,P|353:85|279:120,1,160,6|2,0:0|0:0,0:0:0:0:
223,273,80389,2,0,B|196:214|219:165|219:165|192:109,1,160,2|2,0:0|0:0,0:0:0:0:
130,65,81461,1,6,0:0:0:0:
63,122,81818,6,0,B|42:165|42:165|65:214|38:273,1,160,6|2,0:0|0:0,0:0:0:0:
154,336,83068,2,0,L|249:336,2,80,6|6|6,0:0|0:0|0:0,0:0:0:0:
176,252,84139,2,0,B|256:252|256:252|308:272,1,120,8|6,0:0|0:0,0:0:0:0:
256,192,84854,12,0,88157,0:0:0:0:
