osu file format v14

[General]
AudioFilename: audio.mp3
AudioLeadIn: 0
PreviewTime: 52267
Countdown: 0
SampleSet: Soft
StackLeniency: 0.7
Mode: 0
LetterboxInBreaks: 0
WidescreenStoryboard: 1

[Editor]
Bookmarks: 1395,8836,16278,31162,46046,53488,81394,88371
DistanceSpacing: 0.75
BeatDivisor: 4
GridSize: 16
TimelineZoom: 1

[Metadata]
Title:Dear My Friend -Mada Minu Mirai e- (TV Size)
TitleUnicode:Dear My Friend -まだ見ぬ未来へ- (TV Size)
Artist:ELISA
ArtistUnicode:ELISA
Creator:Sonnyc
Version:Normal
Source:とある科学の超電磁砲
Tags:Ending A Certain Scientific Railgun Toaru Kagaku no Japanese Anime Animation Toward a Future We Haven't Seen Yet
BeatmapID:2266415
BeatmapSetID:1083684

[Difficulty]
HPDrainRate:3
CircleSize:3.3
OverallDifficulty:4
ApproachRate:5
SliderMultiplier:1.4
SliderTickRate:2

[Events]
//Background and Video events
0,0,"bg.jpg",0,0
//Break Periods
//Storyboard Layer 0 (Background)
//Storyboard Layer 1 (Fail)
//Storyboard Layer 2 (Pass)
//Storyboard Layer 3 (Foreground)
//Storyboard Layer 4 (Overlay)
//Storyboard Sound Samples

[TimingPoints]
1425,465.116279069767,4,2,1,40,1,0
8401,-100,4,2,1,50,0,0
8866,-100,4,2,1,60,0,0
16308,-100,4,2,1,40,0,0
31192,-100,4,2,1,60,0,0
53518,-100,4,2,1,70,0,1
60494,-100,4,2,1,70,0,0
68401,-100,4,2,1,70,0,1
79797,-100,4,2,1,70,0,0
81424,-100,4,2,1,60,0,0
85145,-100,4,2,1,40,0,0
88169,-100,4,2,1,5,0,0

[Colours]
Combo1 : 255,128,64
Combo2 : 0,255,128
Combo3 : 128,128,255
Combo4 : 255,0,128

[HitObjects]
43,356,494,6,0,P|39:304|106:252,1,140,2|2,0:0|0:0,0:0:0:0:
191,360,1425,2,0,B|284:349|284:349|301:358|301:358|397:349,1,210,4|2,0:0|0:0,0:0:0:0:
339,221,2587,5,2,0:0:0:0:
473,181,3052,1,2,0:0:0:0:
407,57,3518,2,0,P|313:16|190:199,1,350,2|8,0:0|0:0,0:0:0:0:
169,322,5145,6,0,P|245:272|360:285,1,210,2|2,0:0|0:0,0:0:0:0:
460,187,6308,1,2,0:0:0:0:
366,82,6773,1,2,0:0:0:0:
366,82,7006,2,0,B|325:53|268:67|244:111|244:111|219:154|163:166|122:139,1,280,2|0,0:0|0:0,0:0:0:0:
41,253,8401,21,0,1:0:0:0:
168,316,8866,2,0,B|230:309|230:309|241:315|241:315|305:309,1,140,4|0,0:0|1:0,0:0:0:0:
375,303,9564,5,2,0:0:0:0:
419,170,10029,1,2,0:0:0:0:
286,126,10494,1,2,0:0:0:0:
242,259,10959,2,0,P|94:299|37:132,1,350,2|0,0:0|1:0,0:0:0:0:
136,51,12587,6,0,P|212:101|327:88,1,210,2|2,0:0|0:0,0:0:0:0:
427,186,13750,1,2,0:0:0:0:
332,289,14215,1,2,0:0:0:0:
332,289,14448,2,0,B|291:260|234:274|210:318|210:318|185:361|129:373|88:346,1,280,2|0,0:0|1:0,0:0:0:0:
81,66,16308,22,0,P|102:126|166:117,1,140,4|0,0:0|0:0,0:0:0:0:
197,70,17006,2,0,P|229:161|325:146,1,210,2|8,0:0|0:0,0:0:0:0:
393,56,18169,38,0,B|475:121|475:121|445:238,1,210,4|4,0:3|0:3,0:0:0:0:
263,244,20029,22,0,P|242:304|178:295,1,140,2|0,0:0|0:0,0:0:0:0:
142,339,20727,2,0,P|46:354|13:263,1,210,2|8,0:0|0:0,0:0:0:0:
108,202,21890,22,0,B|81:99|81:99|163:34,1,210,4|4,0:3|0:3,0:0:0:0:
344,79,23750,6,0,P|407:69|430:130,1,140,4|0,0:0|0:0,0:0:0:0:
462,175,24448,2,0,P|366:159|333:250,1,210,2|8,0:0|0:0,0:0:0:0:
395,344,25611,38,0,B|292:370|292:370|227:288,1,210,4|4,0:3|0:3,0:0:0:0:
180,104,27471,38,0,P|116:93|94:154,1,140,2|0,0:0|0:0,0:0:0:0:
51,190,28169,2,0,P|35:285|126:318,1,210,2|8,0:0|0:0,0:0:0:0:
230,366,29331,5,4,0:0:0:0:
341,351,29797,1,0,1:0:0:0:
452,336,30262,1,2,1:0:0:0:
450,73,31192,6,0,P|408:128|324:95,1,140,4|0,0:0|1:0,0:0:0:0:
309,58,31890,2,0,P|267:113|183:80,1,140,2|2,0:0|0:0,0:0:0:0:
92,17,32820,2,0,P|48:69|27:212,1,210,2|0,0:0|1:0,0:0:0:0:
186,341,34215,5,2,0:0:0:0:
186,341,34448,1,0,1:0:0:0:
294,252,34913,2,0,P|360:244|399:298,1,140,2|0,0:0|1:0,0:0:0:0:
461,266,35611,2,0,P|500:319|473:379,2,140,2|2|2,0:0|0:0|0:0,0:0:0:0:
501,132,37006,2,0,P|421:168|209:48,1,350,2|0,0:0|1:0,0:0:0:0:
111,150,38634,38,0,P|44:142|5:196,1,140,4|0,0:0|1:0,0:0:0:0:
40,256,39331,2,0,P|106:248|145:302,1,140,2|2,0:0|0:0,0:0:0:0:
280,261,40262,2,0,P|332:305|475:326,1,210,2|0,0:0|1:0,0:0:0:0:
432,120,41657,21,2,0:0:0:0:
432,120,41890,1,0,1:0:0:0:
316,199,42355,2,0,P|250:207|211:153,1,140,2|0,0:0|1:0,0:0:0:0:
154,111,43052,2,0,P|88:103|49:157,2,140,2|2|4,0:0|0:0|0:0,0:0:0:0:
265,26,44448,2,0,P|346:77|415:318,1,350,2|0,0:0|1:0,0:0:0:0:
287,363,46076,22,0,L|148:347,1,140,4|8,0:0|0:0,0:0:0:0:
84,375,46773,2,0,L|68:236,1,140,2|0,0:0|0:0,0:0:0:0:
60,166,47471,1,8,0:0:0:0:
189,219,47936,6,0,L|328:203,1,140,2|8,0:0|0:0,0:0:0:0:
392,231,48634,2,0,L|408:92,1,140,2|0,0:0|0:0,0:0:0:0:
416,24,49331,1,8,0:0:0:0:
301,104,49797,38,0,L|162:120,1,140,2|8,0:0|0:0,0:0:0:0:
101,84,50494,2,0,L|85:223,1,140,2|0,0:0|0:0,0:0:0:0:
77,291,51192,1,0,1:0:0:0:
210,250,51657,37,4,1:3:0:0:
279,259,51890,1,4,1:3:0:0:
348,268,52122,1,4,1:3:0:0:
348,268,53052,1,10,0:1:0:0:
449,171,53518,6,2,B|443:133|417:104|386:90|386:90|348:89|316:109|297:138,1,210,6|2,1:1|0:1,0:1:0:0:
182,58,54680,1,2,0:1:0:0:
182,58,54913,1,0,1:0:0:0:
182,58,55145,2,0,L|40:71,1,140,2|2,0:1|0:1,0:0:0:0:
123,185,56076,5,2,0:1:0:0:
123,185,56308,1,2,0:1:0:0:
53,306,56773,1,2,1:1:0:0:
53,306,57006,2,2,P|114:356|213:288,1,210,2|0,0:1|1:0,0:1:0:0:
270,331,57936,5,2,0:1:0:0:
270,331,58169,1,2,0:1:0:0:
285,191,58634,1,2,1:0:0:0:
285,191,58866,1,2,0:1:0:0:
300,51,59331,1,2,0:1:0:0:
300,51,59564,2,0,L|158:64,1,140,2|0,1:1|0:0,0:0:0:0:
45,143,60494,22,0,L|39:214,1,70,0|2,1:0|0:0,0:0:0:0:
74,273,60959,2,0,P|134:297|187:247,1,140,4|0,0:0|1:0,0:0:0:0:
156,188,61657,1,2,0:0:0:0:
363,222,62355,6,0,L|357:151,1,70,0|2,1:0|0:0,0:0:0:0:
392,92,62820,2,0,P|452:68|505:118,1,140,2|0,0:0|1:0,0:0:0:0:
474,177,63518,1,2,0:0:0:0:
497,314,63983,1,2,0:0:0:0:
371,376,64448,2,0,P|277:325|100:327,1,280,2|0,0:0|0:0,0:0:0:0:
45,357,65611,5,0,1:0:0:0:
69,219,66076,1,0,1:0:0:0:
69,219,66308,2,0,P|11:198|97:146,1,210,0|0,1:0|1:0,0:0:0:0:
126,191,67238,1,2,1:0:0:0:
316,101,67936,21,2,1:1:0:0:
316,101,68169,1,0,0:0:0:0:
316,101,68401,2,2,B|310:63|284:34|253:20|253:20|215:19|183:39|164:68,1,210,6|2,1:1|0:1,0:1:0:0:
199,127,69331,1,2,0:1:0:0:
116,240,69797,1,2,1:0:0:0:
116,240,70029,2,0,L|258:253,1,140,2|2,0:1|0:1,0:0:0:0:
388,209,70959,5,2,0:1:0:0:
388,209,71192,1,2,0:1:0:0:
318,330,71657,1,2,1:1:0:0:
318,330,71890,2,2,P|379:380|478:312,1,210,2|0,0:1|1:0,0:1:0:0:
426,268,72820,5,2,0:1:0:0:
426,268,73052,1,2,0:1:0:0:
462,132,73518,1,2,0:1:0:0:
462,132,73750,2,0,L|320:145,1,140,6|2,0:1|0:1,0:0:0:0:
211,59,74680,2,0,L|69:72,1,140,2|2,0:1|0:1,0:0:0:0:
11,198,75611,2,2,P|58:283|286:281,1,350,2|0,0:1|1:0,0:1:0:0:
250,220,77006,37,2,0:1:0:0:
305,91,77471,1,2,1:0:0:0:
256,192,77704,12,6,79564,1:0:0:0:
231,81,81424,38,0,B|293:88|293:88|304:82|304:82|368:88,1,140,4|0,0:0|1:0,0:0:0:0:
438,94,82122,5,2,0:0:0:0:
482,227,82587,1,2,0:0:0:0:
349,271,83052,1,2,0:0:0:0:
305,138,83518,2,0,P|157:98|100:265,1,350,2|0,0:0|1:0,0:0:0:0:
192,353,85145,6,0,P|268:303|383:316,1,210,6|2,0:0|0:0,0:0:0:0:
436,186,86308,1,2,0:0:0:0:
305,138,86773,1,2,0:0:0:0:
305,138,87006,2,0,B|254:102|183:119|153:173|153:173|122:227|53:242|2:208,1,350,2|0,0:0|0:0,0:0:0:0:
