osu file format v14

[General]
AudioFilename: audio.mp3
AudioLeadIn: 0
PreviewTime: 52267
Countdown: 0
SampleSet: Soft
StackLeniency: 0.4
Mode: 0
LetterboxInBreaks: 0
WidescreenStoryboard: 1

[Editor]
Bookmarks: 1395,8836,16278,31162,46046,53488,81394,88371
DistanceSpacing: 1
BeatDivisor: 4
GridSize: 16
TimelineZoom: 1

[Metadata]
Title:Dear My Friend -Mada Minu Mirai e- (TV Size)
TitleUnicode:Dear My Friend -まだ見ぬ未来へ- (TV Size)
Artist:ELISA
ArtistUnicode:ELISA
Creator:Sonnyc
Version:Hard
Source:とある科学の超電磁砲
Tags:Ending A Certain Scientific Railgun Toaru Kagaku no Japanese Anime Animation Toward a Future We Haven't Seen Yet
BeatmapID:2266413
BeatmapSetID:1083684

[Difficulty]
HPDrainRate:5
CircleSize:4
OverallDifficulty:6
ApproachRate:7
SliderMultiplier:1.6
SliderTickRate:2

[Events]
//Background and Video events
0,0,"bg.jpg",0,0
//Break Periods
//Storyboard Layer 0 (Background)
//Storyboard Layer 1 (Fail)
//Storyboard Layer 2 (Pass)
//Storyboard Layer 3 (Foreground)
//Storyboard Layer 4 (Overlay)
//Storyboard Sound Samples

[TimingPoints]
1425,465.116279069767,4,2,1,40,1,0
8401,-100,4,2,1,50,0,0
8866,-100,4,2,1,60,0,0
16308,-125,4,2,1,40,0,0
31192,-100,4,2,1,60,0,0
53518,-66.6666666666667,4,2,1,70,0,1
54215,-83.3333333333333,4,2,1,70,0,1
57006,-74.0740740740741,4,2,1,70,0,1
57936,-83.3333333333333,4,2,1,70,0,1
60494,-100,4,2,1,70,0,0
68401,-66.6666666666667,4,2,1,70,0,1
69099,-83.3333333333333,4,2,1,70,0,1
71890,-74.0740740740741,4,2,1,70,0,1
72820,-83.3333333333333,4,2,1,70,0,1
73750,-83.3333333333333,4,2,1,70,0,1
79797,-100,4,2,1,50,0,0
81424,-100,4,2,1,60,0,0
85145,-133.333333333333,4,2,1,40,0,0
88169,-100,4,2,1,5,0,0

[Colours]
Combo1 : 255,128,64
Combo2 : 0,255,128
Combo3 : 128,128,255
Combo4 : 255,0,128

[HitObjects]
37,323,494,5,2,0:0:0:0:
37,323,959,1,2,0:0:0:0:
37,323,1425,2,0,B|109:315|109:315|122:322|122:322|195:315,1,160,4|0,0:0|0:0,0:0:0:0:
275,306,2122,5,2,0:0:0:0:
330,124,2587,1,2,0:0:0:0:
148,69,3052,1,2,0:0:0:0:
93,251,3518,2,0,P|255:227|457:335,1,400,2|8,0:0|0:0,0:0:0:0:
510,149,5145,6,0,P|512:90|439:18,1,160,2|0,0:0|0:0,0:0:0:0:
384,71,5843,1,2,0:0:0:0:
225,49,6308,1,2,0:0:0:0:
66,27,6773,1,2,0:0:0:0:
66,27,7006,2,0,B|90:62|78:110|41:131|41:131|4:152|-6:200|17:235,1,240,2|0,0:0|0:0,0:0:0:0:
97,237,7936,22,0,P|98:197|124:167,1,80,2|0,0:0|0:0,0:0:0:0:
203,172,8401,2,0,P|226:203|225:243,1,80,0|0,1:0|1:0,0:0:0:0:
158,288,8866,2,0,B|230:280|230:280|243:287|243:287|316:280,1,160,4|0,0:0|1:0,0:0:0:0:
400,303,9564,6,0,L|405:222,1,80,2|0,0:0|0:0,0:0:0:0:
435,141,10029,2,0,L|354:136,1,80,2|0,0:0|1:0,0:0:0:0:
273,106,10494,2,0,L|268:187,1,80,2|0,0:0|0:0,0:0:0:0:
198,241,10959,21,2,0:1:0:0:
120,235,11192,1,0,1:0:0:0:
42,229,11424,1,2,0:1:0:0:
42,229,11890,2,0,P|30:161|82:76,1,160,2|0,0:1|0:0,0:0:0:0:
150,45,12587,38,0,P|201:103|278:108,1,160,2|0,0:0|1:0,0:0:0:0:
360,143,13285,2,0,P|397:143|438:175,1,80,2|0,0:0|0:0,0:0:0:0:
369,228,13750,2,0,P|332:228|291:260,1,80,2|0,0:0|1:0,0:0:0:0:
358,314,14215,1,2,0:0:0:0:
358,314,14448,2,0,B|381:297|413:305|427:330|427:330|441:355|473:362|496:346,1,160,2|4,0:0|1:2,0:0:0:0:
479,259,15145,5,2,0:1:0:0:
490,220,15262,1,0,0:0:0:0:
462,190,15378,1,2,1:0:0:0:
495,117,15611,1,2,1:1:0:0:
495,117,15727,1,0,1:0:0:0:
495,117,15843,2,0,L|498:69,2,40,2|0|0,1:0|1:0|1:0,0:0:0:0:
412,124,16308,6,0,P|403:83|328:103,1,128,4|0,0:0|0:0,0:0:0:0:
347,169,17006,2,0,P|292:148|266:201,1,128,2|2,0:0|0:0,0:0:0:0:
341,344,17936,2,0,P|341:254|252:325,1,256,2|0,0:0|0:0,0:0:0:0:
67,244,19331,5,2,0:0:0:0:
67,244,19564,1,0,1:0:0:0:
81,168,19797,1,0,0:0:0:0:
81,168,20029,2,0,P|90:209|165:189,1,128,2|0,0:0|0:0,0:0:0:0:
147,124,20727,2,0,P|156:83|231:103,2,128,2|2|2,0:0|0:0|0:0,0:0:0:0:
249,251,22122,2,0,P|334:154|340:274,1,320,2|0,0:0|1:0,0:0:0:0:
163,291,23750,38,0,P|154:332|79:312,1,128,4|0,0:0|0:0,0:0:0:0:
98,246,24448,2,0,P|43:267|17:214,1,128,2|2,0:0|0:0,0:0:0:0:
146,111,25378,2,0,P|214:188|237:87,1,256,2|0,0:0|0:0,0:0:0:0:
418,133,26773,21,2,0:0:0:0:
418,133,27006,1,0,1:0:0:0:
365,193,27238,1,2,0:0:0:0:
365,193,27471,2,0,P|419:172|445:225,1,128,2|0,0:0|0:0,0:0:0:0:
383,271,28169,2,0,P|357:323|302:303,2,128,2|2|2,0:0|0:0|0:0,0:0:0:0:
318,224,29331,5,4,0:0:0:0:
368,166,29564,1,0,1:1:0:0:
368,166,29680,1,0,1:0:0:0:
368,166,29797,2,0,L|416:169,3,32,2|0|0|0,1:0|1:0|1:0|1:0,0:0:0:0:
432,170,30262,1,2,1:0:0:0:
243,50,31192,6,0,P|214:112|134:100,1,160,4|0,0:0|1:0,0:0:0:0:
84,172,31890,2,0,P|107:211|106:260,1,80,2|0,0:0|0:0,0:0:0:0:
26,275,32355,2,0,P|4:241|0:202,2,80,2|0|2,0:0|1:0|0:0,0:0:0:0:
149,323,33052,37,2,0:1:0:0:
109,244,33285,1,0,0:0:0:0:
172,182,33518,1,2,1:0:0:0:
251,223,33750,1,0,0:0:0:0:
235,309,33983,1,2,0:1:0:0:
371,368,34215,22,0,L|292:375,2,80,2|0|2,0:0|1:0|0:0,0:0:0:0:
428,300,34913,2,0,P|354:315|319:249,1,160,2|0,0:0|1:0,0:0:0:0:
401,218,35611,2,0,P|396:174|362:140,1,80,2|0,0:0|0:0,0:0:0:0:
343,64,36076,2,0,P|302:46|256:58,1,80,2|0,0:0|1:0,0:0:0:0:
180,37,36541,2,0,P|144:62|131:108,1,80,2|0,0:0|0:0,0:0:0:0:
41,158,37006,21,2,0:1:0:0:
50,255,37238,1,0,1:0:0:0:
59,352,37471,1,2,0:1:0:0:
59,352,37936,1,2,0:1:0:0:
156,343,38169,1,0,1:0:0:0:
253,334,38401,1,2,0:1:0:0:
147,244,38634,6,0,P|131:170|197:135,1,160,4|0,0:0|1:0,0:0:0:0:
233,215,39331,2,0,P|266:194|306:190,1,80,2|0,0:0|0:0,0:0:0:0:
368,253,39797,2,0,P|334:273|294:277,1,80,2|0,0:0|1:0,0:0:0:0:
283,364,40262,2,0,P|361:355|429:314,1,160,2|0,0:0|0:0,0:0:0:0:
473,238,40959,37,2,1:0:0:0:
214,309,41424,1,2,0:1:0:0:
263,235,41657,38,0,L|256:156,2,80,2|0|2,0:0|1:0|0:0,0:0:0:0:
330,291,42355,2,0,P|404:307|439:241,1,160,2|0,0:0|1:0,0:0:0:0:
500,180,43052,2,0,P|467:159|427:155,1,80,2|0,0:0|0:0,0:0:0:0:
367,89,43518,2,0,P|343:121|337:160,1,80,2|0,0:0|1:0,0:0:0:0:
272,219,43983,1,4,0:0:0:0:
272,219,44448,5,2,1:1:0:0:
250,132,44680,1,2,1:0:0:0:
170,94,44913,1,2,0:0:0:0:
92,133,45145,1,2,1:1:0:0:
73,219,45378,1,2,0:0:0:0:
128,287,45611,1,2,1:1:0:0:
217,287,45843,1,2,0:0:0:0:
272,219,46076,5,4,0:0:0:0:
351,227,46308,1,2,0:0:0:0:
430,235,46541,1,8,0:0:0:0:
504,207,46773,6,0,L|512:286,2,80,2|2|0,0:0|0:0|0:0,0:0:0:0:
430,235,47471,37,10,0:0:0:0:
351,227,47704,1,2,0:0:0:0:
272,219,47936,1,0,0:0:0:0:
195,242,48169,6,0,L|187:163,2,80,2|2|0,0:0|0:0|0:0,0:0:0:0:
116,226,48866,5,2,0:0:0:0:
20,248,49099,1,2,0:0:0:0:
88,321,49331,1,8,0:0:0:0:
219,152,49797,21,2,0:0:0:0:
298,144,50029,1,0,0:0:0:0:
377,136,50262,1,0,0:0:0:0:
454,159,50494,6,0,L|462:80,2,80,2|2|0,0:0|0:0|0:0,0:0:0:0:
454,159,51192,1,0,1:0:0:0:
212,90,51657,21,4,1:3:0:0:
228,216,51890,1,4,1:3:0:0:
244,342,52122,1,4,1:3:0:0:
167,318,52355,6,0,P|111:369|37:346,1,160,2|0,0:0|0:0,0:0:0:0:
94,292,53052,1,10,0:1:0:0:
94,292,53285,1,0,0:0:0:0:
8,229,53518,2,2,B|11:186|29:154|49:143|49:143|70:144|70:144|87:136|87:136|113:143|140:168|155:206,1,240.000009155274,6|0,1:1|1:0,0:1:0:0:
94,292,54215,6,0,B|101:313|120:332|148:336|171:322|171:322|187:296|217:278|251:279,1,191.999994140625,2|2,0:1|0:1,0:0:0:0:
254,375,54913,1,0,1:0:0:0:
254,375,55145,2,0,B|288:375|317:357|333:331|333:331|357:318|385:321|404:340|411:362,1,191.999994140625,2|2,0:1|0:1,0:0:0:0:
333,161,56076,37,2,0:1:0:0:
255,172,56308,2,0,P|314:238|400:205,1,191.999994140625,2|2,0:1|1:0,0:0:0:0:
461,135,57006,2,2,B|452:77|413:33|365:12|365:12|307:10|257:40|229:85,1,324.000001235962,2|0,0:1|1:0,0:1:0:0:
123,65,57936,21,2,0:1:0:0:
145,168,58169,1,2,0:1:0:0:
65,157,58401,1,2,0:1:0:0:
87,260,58634,1,2,1:1:0:0:
109,363,58866,2,0,L|302:349,1,191.999994140625,2|2,0:1|0:1,0:0:0:0:
390,294,59564,2,0,P|380:203|245:261,1,287.999991210938,2|0,1:1|0:0,0:0:0:0:
153,238,60494,21,0,1:0:0:0:
74,254,60727,1,2,0:0:0:0:
41,181,60959,2,0,P|116:171|153:238,1,160,4|0,0:0|1:0,0:0:0:0:
232,229,61657,2,0,P|268:295|343:285,1,160,2|0,0:0|0:0,0:0:0:0:
386,218,62355,5,0,1:0:0:0:
465,234,62587,1,2,0:0:0:0:
498,162,62820,2,0,P|423:152|386:218,1,160,2|0,0:0|1:0,0:0:0:0:
465,234,63518,1,2,0:0:0:0:
283,168,63983,1,2,0:0:0:0:
138,297,64448,2,0,P|218:230|259:326,1,240,2|0,0:0|1:0,0:0:0:0:
338,341,65378,5,2,0:0:0:0:
416,358,65611,1,0,1:0:0:0:
494,374,65843,1,2,1:2:0:0:
477,296,66076,1,0,1:0:0:0:
457,218,66308,2,0,L|219:267,1,240,4|0,1:2|1:0,0:0:0:0:
200,189,67238,22,0,P|144:138|70:161,1,160,2|0,0:0|0:0,0:0:0:0:
127,215,67936,1,2,0:1:0:0:
41,278,68169,1,2,1:1:0:0:
41,278,68285,1,0,1:0:0:0:
41,278,68401,2,2,B|44:321|62:353|82:364|82:364|103:363|103:363|120:371|120:371|146:364|173:339|188:301,1,240.000009155274,6|0,1:1|1:0,0:1:0:0:
127,215,69099,5,2,0:1:0:0:
211,169,69331,1,2,0:1:0:0:
268,246,69564,1,2,0:1:0:0:
352,200,69797,1,2,1:1:0:0:
352,200,70029,2,0,B|352:166|334:137|308:121|308:121|295:97|298:69|317:50|339:43,1,191.999994140625,2|2,0:1|0:1,0:0:0:0:
342,282,70959,37,2,0:1:0:0:
264,293,71192,2,0,P|323:359|409:326,1,191.999994140625,2|2,0:1|1:0,0:0:0:0:
463,245,71890,2,2,B|412:216|382:167|375:115|375:115|344:164|295:193|242:198,1,324.000001235962,2|0,0:1|1:0,0:1:0:0:
261,104,72820,21,2,0:1:0:0:
158,126,73052,1,2,0:1:0:0:
169,46,73285,1,2,0:1:0:0:
66,68,73518,1,2,1:1:0:0:
52,172,73750,38,0,L|39:270,1,95.9999970703126,6|0,0:1|0:1,0:0:0:0:
118,281,74215,2,0,L|130:185,1,95.9999970703126,2|0,0:1|1:1,0:0:0:0:
209,131,74680,2,0,L|196:33,1,95.9999970703126,2|0,0:1|0:1,0:0:0:0:
275,22,75145,2,0,L|287:118,1,95.9999970703126,2|0,0:1|1:1,0:0:0:0:
350,190,75611,2,2,P|429:136|388:324,1,479.999985351563,2|0,0:1|0:0,0:1:0:0:
309,275,77006,6,0,L|213:285,1,95.9999970703126,2|0,0:1|0:0,0:0:0:0:
124,321,77471,2,0,L|143:130,1,191.999994140625,2|0,0:1|1:0,0:0:0:0:
143,130,78169,1,0,1:0:0:0:
228,172,78401,5,2,1:0:0:0:
275,165,78518,1,0,1:0:0:0:
322,158,78634,1,2,1:0:0:0:
385,85,78866,1,2,1:0:0:0:
385,85,78983,1,0,1:0:0:0:
385,85,79099,1,2,1:0:0:0:
454,151,79331,1,2,1:0:0:0:
447,198,79448,1,0,1:0:0:0:
440,245,79564,1,6,1:0:0:0:
360,299,79797,37,2,0:0:0:0:
360,299,80029,1,2,0:0:0:0:
281,286,80262,1,2,0:0:0:0:
281,286,80494,1,2,0:0:0:0:
224,343,80727,1,2,0:0:0:0:
224,343,80959,1,2,0:0:0:0:
145,330,81192,1,0,0:0:0:0:
199,260,81424,22,0,B|207:188|207:188|200:175|200:175|207:102,1,160,4|0,0:0|1:0,0:0:0:0:
289,132,82122,6,0,L|370:127,1,80,2|0,0:0|0:0,0:0:0:0:
451,97,82587,2,0,L|456:178,1,80,2|0,0:0|1:0,0:0:0:0:
486,259,83052,2,0,L|405:264,1,80,2|0,0:0|0:0,0:0:0:0:
341,324,83518,21,2,0:1:0:0:
263,318,83750,1,0,1:0:0:0:
185,312,83983,1,2,0:1:0:0:
185,312,84448,2,0,P|173:244|225:159,1,160,2|0,0:1|0:0,0:0:0:0:
294,161,85145,38,0,P|276:116|151:117,1,180.000006866455,4|2,0:0|0:0,0:0:0:0:
259,232,86308,1,2,0:0:0:0:
122,307,86773,1,2,0:0:0:0:
122,307,87006,1,2,0:0:0:0:
256,192,87122,12,0,88169,0:0:0:0:
