osu file format v14

[General]
AudioFilename: audio.mp3
AudioLeadIn: 0
PreviewTime: 52267
Countdown: 0
SampleSet: Soft
StackLeniency: 0.7
Mode: 0
LetterboxInBreaks: 0
WidescreenStoryboard: 1

[Editor]
Bookmarks: 1395,8836,16278,31162,46046,53488,81394,88371
DistanceSpacing: 1
BeatDivisor: 4
GridSize: 16
TimelineZoom: 1

[Metadata]
Title:Dear My Friend -Mada Minu Mirai e- (TV Size)
TitleUnicode:Dear My Friend -まだ見ぬ未来へ- (TV Size)
Artist:ELISA
ArtistUnicode:ELISA
Creator:Sonnyc
Version:Easy
Source:とある科学の超電磁砲
Tags:Ending A Certain Scientific Railgun Toaru Kagaku no Japanese Anime Animation Toward a Future We Haven't Seen Yet
BeatmapID:2267115
BeatmapSetID:1083684

[Difficulty]
HPDrainRate:2
CircleSize:3
OverallDifficulty:2
ApproachRate:3
SliderMultiplier:1
SliderTickRate:2

[Events]
//Background and Video events
0,0,"bg.jpg",0,0
//Break Periods
//Storyboard Layer 0 (Background)
//Storyboard Layer 1 (Fail)
//Storyboard Layer 2 (Pass)
//Storyboard Layer 3 (Foreground)
//Storyboard Layer 4 (Overlay)
//Storyboard Sound Samples

[TimingPoints]
1425,465.116279069767,4,2,1,40,1,0
8401,-100,4,2,1,50,0,0
8866,-100,4,2,1,60,0,0
16308,-100,4,2,1,40,0,0
31192,-100,4,2,1,60,0,0
53518,-100,4,2,1,70,0,1
60494,-100,4,2,1,70,0,0
68401,-100,4,2,1,70,0,1
79797,-100,4,2,1,70,0,0
81424,-100,4,2,1,60,0,0
85145,-100,4,2,1,40,0,0
88169,-100,4,2,1,5,0,0

[Colours]
Combo1 : 255,128,64
Combo2 : 0,255,128
Combo3 : 128,128,255
Combo4 : 255,0,128

[HitObjects]
22,296,1425,6,0,B|89:288|89:288|101:294|101:294|169:288,1,150,4|4,0:0|0:3,0:0:0:0:
327,353,3285,2,0,B|394:345|394:345|406:351|406:351|474:345,1,150,4|4,0:3|0:3,0:0:0:0:
407,176,5145,22,0,P|461:127|456:55,2,150,2|2|8,0:0|0:0|0:0,0:0:0:0:
361,86,7006,2,0,B|332:66|291:76|274:107|274:107|256:137|216:146|187:127,1,200,2|0,0:0|0:0,0:0:0:0:
77,293,8866,22,0,B|144:285|144:285|156:291|156:291|224:285,1,150,4|2,0:0|0:0,0:0:0:0:
306,343,10029,1,2,0:0:0:0:
395,298,10494,2,0,L|387:195,1,100,2|2,0:0|0:0,0:0:0:0:
104,208,12587,22,0,P|50:256|55:328,2,150,2|2|0,0:0|0:0|1:0,0:0:0:0:
149,297,14448,2,0,B|178:277|219:287|236:318|236:318|254:348|294:357|323:338,1,200,2|2,0:0|0:1,0:0:0:0:
379,206,16308,38,0,P|395:45|512:157,1,400,4|4,0:0|0:3,0:0:0:0:
416,361,20029,2,0,P|399:200|282:312,1,400,2|4,0:0|0:3,0:0:0:0:
135,198,23750,6,0,P|118:358|1:246,1,400,4|4,0:0|0:3,0:0:0:0:
98,43,27471,2,0,P|124:165|231:91,1,300,2|8,0:0|0:0,0:0:0:0:
327,63,29331,5,4,0:0:0:0:
294,260,30262,1,2,1:0:0:0:
456,143,31192,6,0,P|407:189|330:178,2,150,4|2|0,0:0|0:0|1:0,0:0:0:0:
444,43,33052,2,0,P|360:8|289:90,1,200,2|2,0:1|0:1,0:0:0:0:
323,239,34913,6,0,P|274:193|197:204,1,150,2|2,0:0|0:0,0:0:0:0:
240,294,36076,1,2,0:0:0:0:
185,377,36541,2,0,L|82:371,1,100,2|2,0:0|0:0,0:0:0:0:
22,139,38634,38,0,P|71:185|148:174,2,150,4|2|0,0:0|0:0|1:0,0:0:0:0:
195,40,40959,2,0,L|294:45,1,100,2|2,1:0|0:1,0:0:0:0:
362,120,41890,21,0,1:0:0:0:
417,37,42355,2,0,P|464:91|451:163,1,150,2|2,0:0|0:0,0:0:0:0:
293,284,43983,2,0,L|193:278,1,100,4|2,0:0|0:0,0:0:0:0:
279,68,46076,38,0,L|128:89,2,150,4|2|8,0:0|0:0|0:0,0:0:0:0:
356,132,47936,2,0,L|507:153,2,150,2|2|8,0:0|0:0|0:0,0:0:0:0:
264,173,49797,2,0,L|113:194,2,150,2|2|8,0:0|0:0|0:0,0:0:0:0:
340,238,51657,21,4,1:3:0:0:
330,338,52122,1,4,1:3:0:0:
490,178,53518,6,2,B|480:115|437:67|386:44|386:44|323:43|271:75|239:123,1,350,6|2,1:1|0:1,0:1:0:0:
295,207,55611,1,2,0:1:0:0:
147,180,56308,5,2,0:1:0:0:
68,307,57006,2,2,P|139:365|254:285,1,250,2|2,0:1|0:1,0:1:0:0:
146,181,58866,2,0,P|195:127|266:135,1,150,2|2,0:1|1:1,0:0:0:0:
439,236,60494,5,0,1:0:0:0:
359,176,60959,2,0,P|311:225|295:311,1,150,4|2,0:0|0:0,0:0:0:0:
174,212,62355,1,0,1:0:0:0:
94,152,62820,2,0,P|46:201|30:287,1,150,2|2,0:0|0:0,0:0:0:0:
200,381,64448,38,0,P|277:319|427:316,1,250,2|2,0:0|0:0,0:0:0:0:
341,189,66308,2,0,P|375:146|280:139,1,200,4|0,1:2|1:0,0:0:0:0:
30,154,68401,38,2,B|40:91|82:43|134:21|134:21|195:19|248:50|279:99,1,350,6|2,1:1|0:1,0:1:0:0:
199,160,70494,1,2,0:1:0:0:
346,188,71192,5,2,0:1:0:0:
267,315,71890,2,2,P|338:373|453:293,1,250,2|2,0:1|0:1,0:1:0:0:
346,188,73750,6,0,L|245:195,1,100,6|2,0:1|0:1,0:0:0:0:
165,135,74680,2,0,L|64:142,1,100,2|2,0:1|0:1,0:0:0:0:
13,227,75611,2,2,P|60:312|246:301,1,300,2|2,0:1|1:0,0:1:0:0:
182,224,77471,1,2,1:0:0:0:
256,192,77704,12,6,79564,1:0:0:0:
79,227,81424,22,0,B|146:235|146:235|158:229|158:229|226:235,1,150,4|2,0:0|0:0,0:0:0:0:
308,177,82587,1,2,0:0:0:0:
397,222,83052,2,0,L|389:325,1,100,2|2,0:0|0:0,0:0:0:0:
193,262,85145,22,0,P|145:316|73:311,1,150,6|2,0:0|0:0,0:0:0:0:
69,123,87006,2,0,B|105:148|156:136|177:97|177:97|200:60|250:48|286:72,1,250,2|0,0:0|0:1,0:0:0:0:
