osu file format v14

[General]
AudioFilename: audio.mp3
AudioLeadIn: 0
PreviewTime: 52244
Countdown: 0
SampleSet: Normal
StackLeniency: 0.7
Mode: 1
LetterboxInBreaks: 0
WidescreenStoryboard: 1

[Editor]
DistanceSpacing: 1.1
BeatDivisor: 4
GridSize: 32
TimelineZoom: 1.6

[Metadata]
Title:Dear My Friend -Mada Minu Mirai e- (TV Size)
TitleUnicode:Dear My Friend -まだ見ぬ未来へ- (TV Size)
Artist:ELISA
ArtistUnicode:ELISA
Creator:BlackBN
Version:Xavy's Mirai Oni
Source:とある科学の超電磁砲
Tags:BlackBq anime japanese j-pop jpop rouge adolescence to the unseen future ed1 ending1 a certain scientific railgun toaru kagaku no rērugan rerugan reerugan season 1 manga J.C.STAFF JAPAN CREATIVE 春和文 Harukazu Aya 渡辺拓也 Watanabe Takuya 大久保薫 Ookubo Kaoru 御坂美琴 pop STAFF 佐藤利奈 misaka mikoto rina satō sato satou 白井黒子 新井里美 shirai kuroko arai satomi 佐天涙子 伊藤かな恵 saten ruiko itō ito itou kanae 初春飾利 豊崎愛生 uiharu kazari toyosaki aki xavy x_a_v_y ilv_rem
BeatmapID:2875838
BeatmapSetID:1388931

[Difficulty]
HPDrainRate:6
CircleSize:2
OverallDifficulty:6
ApproachRate:10
SliderMultiplier:1.4
SliderTickRate:1

[Events]
//Background and Video events
0,0,"railgun.jpg",0,70
Video,-25,"dear my friend.mp4"
//Break Periods
//Storyboard Layer 0 (Background)
//Storyboard Layer 1 (Fail)
//Storyboard Layer 2 (Pass)
//Storyboard Layer 3 (Foreground)
//Storyboard Layer 4 (Overlay)
//Storyboard Sound Samples

[TimingPoints]
1431,465.116279069767,4,1,0,50,1,0
8872,-83.3333333333333,4,1,0,60,0,0
9105,-100,4,1,0,60,0,0
15151,-100.418410041841,4,1,0,60,0,0
15268,-100.840336134454,4,1,0,60,0,0
15384,-101.26582278481,4,1,0,60,0,0
15500,-101.694915254237,4,1,0,60,0,0
15617,-102.127659574468,4,1,0,60,0,0
15733,-102.564102564103,4,1,0,60,0,0
15849,-103.004291845494,4,1,0,60,0,0
15965,-103.448275862069,4,1,0,60,0,0
16082,-103.896103896104,4,1,0,60,0,0
16198,-104.347826086957,4,1,0,60,0,0
16314,-104.803493449782,4,1,0,60,0,0
16663,-105.263157894737,4,1,0,50,0,0
28756,-104.477611940299,4,1,0,50,0,0
28872,-103.703703703704,4,1,0,50,0,0
28989,-102.941176470588,4,1,0,50,0,0
29105,-102.189781021898,4,1,0,50,0,0
29221,-101.449275362319,4,1,0,50,0,0
29337,-100.719424460432,4,1,0,50,0,0
29454,-100,4,1,0,50,0,0
29570,-99.290780141844,4,1,0,50,0,0
29686,-98.5915492957747,4,1,0,50,0,0
29803,-97.9020979020979,4,1,0,53,0,0
29919,-97.2222222222222,4,1,0,53,0,0
30035,-96.551724137931,4,1,0,53,0,0
30151,-95.8904109589041,4,1,0,53,0,0
30268,-95.2380952380952,4,1,0,56,0,0
31198,-83.3333333333333,4,1,0,53,0,0
31430,-100,4,1,0,53,0,0
43989,-83.3333333333333,4,1,0,53,0,0
44221,-90.9090909090909,4,1,0,53,0,0
44337,-91.2200684150513,4,1,0,53,0,0
44454,-91.533180778032,4,1,0,53,0,0
44570,-91.8484500574053,4,1,0,53,0,0
44686,-92.1658986175115,4,1,0,53,0,0
44803,-92.485549132948,4,1,0,53,0,0
44919,-92.8074245939675,4,1,0,53,0,0
45035,-93.1315483119907,4,1,0,53,0,0
45151,-93.4579439252336,4,1,0,53,0,0
45268,-93.7866354044549,4,1,0,53,0,0
45384,-94.1176470588235,4,1,0,53,0,0
45500,-94.4510035419126,4,1,0,53,0,0
45617,-94.7867298578199,4,1,0,53,0,0
45733,-95.1248513674197,4,1,0,53,0,0
45849,-95.4653937947494,4,1,0,53,0,0
45965,-95.8083832335329,4,1,0,53,0,0
46082,-96.1538461538461,4,1,0,53,0,0
46198,-96.5018094089264,4,1,0,53,0,0
46314,-96.8523002421308,4,1,0,53,0,0
46430,-97.2053462940462,4,1,0,53,0,0
46547,-97.5609756097561,4,1,0,53,0,0
46663,-97.9192166462668,4,1,0,53,0,0
46779,-98.2800982800983,4,1,0,53,0,0
46896,-98.6436498150431,4,1,0,53,0,0
47012,-99.009900990099,4,1,0,53,0,0
47128,-99.3788819875776,4,1,0,53,0,0
47244,-99.7506234413965,4,1,0,53,0,0
47361,-100.125156445557,4,1,0,53,0,0
47477,-100.502512562814,4,1,0,53,0,0
47593,-100.882723833543,4,1,0,53,0,0
47710,-101.26582278481,4,1,0,53,0,0
47826,-101.651842439644,4,1,0,53,0,0
47942,-102.040816326531,4,1,0,53,0,0
48058,-102.432778489117,4,1,0,53,0,0
48175,-102.827763496144,4,1,0,53,0,0
48291,-103.225806451613,4,1,0,53,0,0
48407,-103.626943005181,4,1,0,53,0,0
48524,-104.031209362809,4,1,0,53,0,0
48640,-104.43864229765,4,1,0,53,0,0
48756,-104.849279161206,4,1,0,53,0,0
48872,-105.263157894737,4,1,0,53,0,0
48989,-105.680317040951,4,1,0,53,0,0
49105,-106.100795755968,4,1,0,53,0,0
49221,-106.524633821571,4,1,0,53,0,0
49337,-106.951871657754,4,1,0,53,0,0
49454,-107.38255033557,4,1,0,53,0,0
49570,-107.816711590296,4,1,0,53,0,0
49686,-108.254397834912,4,1,0,53,0,0
49803,-108.695652173913,4,1,0,53,0,0
49919,-109.140518417462,4,1,0,53,0,0
50035,-109.58904109589,4,1,0,53,0,0
50151,-110.041265474553,4,1,0,53,0,0
50268,-110.497237569061,4,1,0,53,0,0
50384,-110.957004160888,4,1,0,53,0,0
50500,-111.42061281337,4,1,0,53,0,0
50617,-111.888111888112,4,1,0,53,0,0
50733,-112.359550561798,4,1,0,53,0,0
50849,-112.834978843441,4,1,0,53,0,0
50965,-113.314447592068,4,1,0,53,0,0
51082,-113.798008534851,4,1,0,53,0,0
51198,-114.285714285714,4,1,0,53,0,0
51663,-83.3333333333333,4,1,0,65,0,0
52593,-90.9090909090909,4,1,0,57,0,0
53524,-83.3333333333333,4,1,0,65,0,1
53756,-90.9090909090909,4,1,0,65,0,1
66314,-83.3333333333333,4,1,0,65,0,0
66547,-100,4,1,0,65,0,0
66779,-100,4,1,0,60,0,0
66896,-99.290780141844,4,1,0,60,0,0
67012,-98.5915492957747,4,1,0,60,0,0
67128,-97.9020979020979,4,1,0,60,0,0
67244,-97.2222222222222,4,1,0,60,0,0
67361,-96.551724137931,4,1,0,60,0,0
67477,-95.8904109589041,4,1,0,63,0,0
67594,-95.2380952380952,4,1,0,63,0,0
67710,-94.5945945945946,4,1,0,63,0,0
67826,-93.9597315436242,4,1,0,63,0,0
67942,-93.3333333333333,4,1,0,63,0,0
68059,-92.7152317880795,4,1,0,63,0,0
68175,-92.1052631578947,4,1,0,63,0,0
68291,-91.5032679738562,4,1,0,63,0,0
68407,-83.3333333333333,4,1,0,65,0,1
68640,-90.9090909090909,4,1,0,65,0,1
73756,-83.3333333333333,4,1,0,65,0,1
73989,-90.9090909090909,4,1,0,65,0,1
74686,-83.3333333333333,4,1,0,65,0,1
74919,-90.9090909090909,4,1,0,65,0,1
77012,-83.3333333333333,4,1,0,65,0,1
77245,-90.9090909090909,4,1,0,65,0,1
77477,-83.3333333333333,4,1,0,65,0,1
77710,-90.9090909090909,4,1,0,65,0,1
77826,-91.6700565489661,4,1,0,65,0,1
77942,-91.9170448670075,4,1,0,65,0,1
78058,-92.1653677110155,4,1,0,65,0,1
78175,-92.4150359263452,4,1,0,65,0,1
78291,-92.6660604761877,4,1,0,65,0,1
78407,-92.9184524431746,4,1,0,65,0,1
78523,-93.1722230310089,4,1,0,65,0,1
78640,-93.4273835661232,4,1,0,65,0,1
78756,-93.6839454993647,4,1,0,65,0,1
78872,-93.9419204077079,4,1,0,65,0,1
78988,-94.2013199959964,4,1,0,65,0,1
79105,-94.4621560987129,4,1,0,65,0,1
79221,-94.7244406817792,4,1,0,65,0,1
79337,-94.9881858443856,4,1,0,65,0,1
79453,-95.2534038208522,4,1,0,65,0,1
79570,-95.5201069825198,4,1,0,65,0,1
79686,-95.7883078396743,4,1,0,65,0,1
79803,-96.0580190435023,4,1,0,65,0,1
79919,-96.3292533880805,4,1,0,65,0,1
80035,-96.6020238123989,4,1,0,65,0,1
80151,-96.8763434024183,4,1,0,65,0,1
80268,-97.1522253931629,4,1,0,65,0,1
80384,-97.429683170849,4,1,0,65,0,1
80500,-97.7087302750501,4,1,0,55,0,1
80617,-97.9893804008991,4,1,0,55,0,1
80733,-98.2716474013291,4,1,0,55,0,1
80849,-98.5555452893529,4,1,0,55,0,1
80965,-98.8410882403815,4,1,0,55,0,1
81082,-99.1282905945839,4,1,0,57,0,1
81198,-99.4171668592874,4,1,0,57,0,1
81314,-99.7108385681524,4,1,0,60,0,1
81430,-83.4503274198139,4,1,0,60,0,0
81663,-100.16851880222,4,1,0,60,0,0
83407,-100.630419984018,4,1,0,60,0,0
83524,-101.09660077547,4,1,0,60,0,0
83640,-101.567120930594,4,1,0,60,0,0
83756,-102.042041321024,4,1,0,60,0,0
83872,-102.521423962272,4,1,0,60,0,0
83989,-103.005332040717,4,1,0,60,0,0
84105,-103.493829941374,4,1,0,60,0,0
84221,-103.986983276446,4,1,0,60,0,0
84337,-104.48485891471,4,1,0,60,0,0
84454,-104.987525011734,4,1,0,60,0,0
84570,-105.495051040988,4,1,0,60,0,0
84686,-106.007507825848,4,1,0,57,0,0
84803,-106.524967572547,4,1,0,57,0,0
84919,-107.047503904085,4,1,0,57,0,0
85035,-107.575191895158,4,1,0,57,0,0
85093,-108.108108108108,4,1,0,54,0,0
85733,-108.108108108108,4,1,0,50,0,0
86315,-105.263157894737,4,1,0,40,0,0
86780,-105.263157894737,4,1,0,30,0,0
87245,-105.263157894737,4,1,0,20,0,0
87710,-105.263157894737,4,1,0,10,0,0

[HitObjects]
256,192,1431,5,4,1:0:0:0:
256,192,1779,1,0,1:0:0:0:
256,192,1896,1,8,1:0:0:0:
256,192,2128,1,0,1:0:0:0:
256,192,2593,1,0,1:0:0:0:
256,192,2826,1,8,1:0:0:0:
256,192,3058,1,0,1:0:0:0:
256,192,3175,1,0,1:0:0:0:
256,192,3291,1,0,1:0:0:0:
256,192,3640,1,0,1:0:0:0:
256,192,3756,1,8,1:0:0:0:
256,192,3989,1,0,1:0:0:0:
256,192,4454,1,0,1:0:0:0:
256,192,4686,1,8,1:0:0:0:
256,192,4919,1,0,1:0:0:0:
256,192,5035,1,0,1:0:0:0:
256,192,5151,1,8,1:0:0:0:
256,192,5500,1,0,1:0:0:0:
256,192,5617,1,8,1:0:0:0:
256,192,5849,1,8,1:0:0:0:
256,192,6082,1,0,1:0:0:0:
256,192,6314,1,0,1:0:0:0:
256,192,6547,1,8,1:0:0:0:
256,192,6779,1,8,1:0:0:0:
256,192,6896,1,8,1:0:0:0:
256,192,7012,1,0,1:0:0:0:
256,192,7361,1,0,1:0:0:0:
256,192,7477,1,8,1:0:0:0:
256,192,7710,1,0,1:0:0:0:
256,192,7942,1,8,1:0:0:0:
256,192,8058,1,8,1:0:0:0:
256,192,8175,1,0,1:0:0:0:
256,192,8291,1,0,1:0:0:0:
256,192,8407,1,8,1:0:0:0:
256,192,8872,1,4,1:0:0:0:
256,192,9221,1,8,1:0:0:0:
256,192,9337,1,0,1:0:0:0:
256,192,9570,1,8,1:0:0:0:
256,192,9803,1,0,1:0:0:0:
256,192,9919,1,0,1:0:0:0:
256,192,10035,1,8,1:0:0:0:
256,192,10151,1,8,1:0:0:0:
256,192,10268,1,0,1:0:0:0:
256,192,10500,1,8,1:0:0:0:
256,192,10733,1,0,1:0:0:0:
256,192,10965,1,8,1:0:0:0:
256,192,11082,1,0,1:0:0:0:
256,192,11198,1,8,1:0:0:0:
256,192,11314,1,0,1:0:0:0:
256,192,11430,1,8,1:0:0:0:
256,192,11547,1,8,1:0:0:0:
256,192,11663,1,0,1:0:0:0:
256,192,11896,1,8,1:0:0:0:
256,192,12012,1,0,1:0:0:0:
256,192,12128,1,8,1:0:0:0:
256,192,12361,1,0,1:0:0:0:
256,192,12593,1,8,1:0:0:0:
256,192,12710,1,8,1:0:0:0:
256,192,12826,1,8,1:0:0:0:
256,192,13058,1,8,1:0:0:0:
256,192,13291,1,0,1:0:0:0:
256,192,13756,1,0,1:0:0:0:
256,192,13989,1,8,1:0:0:0:
256,192,14221,1,8,1:0:0:0:
256,192,14337,1,8,1:0:0:0:
256,192,14454,1,0,1:0:0:0:
256,192,14686,1,0,1:0:0:0:
256,192,14803,1,0,1:0:0:0:
256,192,14919,1,8,1:0:0:0:
256,192,15151,1,8,1:0:0:0:
256,192,15268,1,0,1:0:0:0:
256,192,15384,1,8,1:0:0:0:
256,192,15617,1,8,1:0:0:0:
256,192,15733,1,0,1:0:0:0:
256,192,15849,1,8,1:0:0:0:
256,192,15965,1,8,1:0:0:0:
256,192,16082,1,0,1:0:0:0:
256,192,16198,1,0,1:0:0:0:
256,192,16314,1,8,1:0:0:0:
256,192,16663,1,0,1:0:0:0:
256,192,16779,1,8,1:0:0:0:
256,192,17012,1,0,1:0:0:0:
256,192,17477,1,0,1:0:0:0:
256,192,17710,1,8,1:0:0:0:
256,192,17942,1,0,1:0:0:0:
256,192,18058,1,0,1:0:0:0:
256,192,18175,1,0,1:0:0:0:
256,192,18524,1,0,1:0:0:0:
256,192,18640,1,8,1:0:0:0:
256,192,18872,1,0,1:0:0:0:
256,192,19337,1,8,1:0:0:0:
256,192,19570,1,8,1:0:0:0:
256,192,19803,1,0,1:0:0:0:
256,192,19919,1,8,1:0:0:0:
256,192,20035,1,0,1:0:0:0:
256,192,20384,1,0,1:0:0:0:
256,192,20500,1,8,1:0:0:0:
256,192,20733,1,0,1:0:0:0:
256,192,20965,1,0,1:0:0:0:
256,192,21198,1,8,1:0:0:0:
256,192,21314,1,0,1:0:0:0:
256,192,21430,1,8,1:0:0:0:
256,192,21663,1,8,1:0:0:0:
256,192,21896,1,0,1:0:0:0:
256,192,22244,1,0,1:0:0:0:
256,192,22361,1,8,1:0:0:0:
256,192,22593,1,0,1:0:0:0:
256,192,22826,1,8,1:0:0:0:
256,192,22942,1,8,1:0:0:0:
256,192,23058,1,0,1:0:0:0:
256,192,23291,1,8,1:0:0:0:
256,192,23524,1,0,1:0:0:0:
256,192,23640,1,0,1:0:0:0:
256,192,23756,1,8,1:0:0:0:
256,192,24105,1,0,1:0:0:0:
256,192,24221,1,8,1:0:0:0:
256,192,24454,1,0,1:0:0:0:
256,192,24919,1,0,1:0:0:0:
256,192,25151,1,8,1:0:0:0:
256,192,25384,1,8,1:0:0:0:
256,192,25500,1,8,1:0:0:0:
256,192,25617,1,0,1:0:0:0:
256,192,25965,1,0,1:0:0:0:
256,192,26082,1,8,1:0:0:0:
256,192,26314,1,0,1:0:0:0:
256,192,26779,1,0,1:0:0:0:
256,192,26896,1,0,1:0:0:0:
256,192,27012,1,8,1:0:0:0:
256,192,27244,1,0,1:0:0:0:
256,192,27477,1,8,1:0:0:0:
256,192,27826,1,0,1:0:0:0:
256,192,27942,1,8,1:0:0:0:
256,192,28175,1,0,1:0:0:0:
256,192,28640,1,0,1:0:0:0:
256,192,28872,1,8,1:0:0:0:
256,192,29105,1,8,1:0:0:0:
256,192,29221,1,8,1:0:0:0:
256,192,29337,1,0,1:0:0:0:
256,192,29570,1,8,1:0:0:0:
256,192,29686,1,0,1:0:0:0:
256,192,29803,1,8,1:0:0:0:
256,192,29919,1,8,1:0:0:0:
256,192,30035,1,0,1:0:0:0:
256,192,30151,1,0,1:0:0:0:
256,192,30268,1,8,1:0:0:0:
256,192,31198,1,4,1:0:0:0:
256,192,31547,1,0,1:0:0:0:
256,192,31663,1,8,1:0:0:0:
256,192,31896,1,0,1:0:0:0:
256,192,32128,1,8,1:0:0:0:
256,192,32244,1,8,1:0:0:0:
256,192,32361,1,0,1:0:0:0:
256,192,32593,1,8,1:0:0:0:
256,192,32826,1,0,1:0:0:0:
256,192,32942,1,0,1:0:0:0:
256,192,33058,1,0,1:0:0:0:
256,192,33291,1,8,1:0:0:0:
256,192,33407,1,0,1:0:0:0:
256,192,33524,1,8,1:0:0:0:
256,192,33756,1,0,1:0:0:0:
256,192,34221,1,0,1:0:0:0:
256,192,34454,1,8,1:0:0:0:
256,192,34686,1,8,1:0:0:0:
256,192,34803,1,8,1:0:0:0:
256,192,34919,1,0,1:0:0:0:
256,192,35268,1,0,1:0:0:0:
256,192,35384,1,8,1:0:0:0:
256,192,35617,1,8,1:0:0:0:
256,192,35849,1,0,1:0:0:0:
256,192,35965,1,0,1:0:0:0:
256,192,36082,1,8,1:0:0:0:
256,192,36314,1,0,1:0:0:0:
256,192,36547,1,8,1:0:0:0:
256,192,36779,1,0,1:0:0:0:
256,192,37012,1,8,1:0:0:0:
256,192,37128,1,0,1:0:0:0:
256,192,37244,1,8,1:0:0:0:
256,192,37477,1,0,1:0:0:0:
256,192,37942,1,8,1:0:0:0:
256,192,38175,1,8,1:0:0:0:
256,192,38407,1,8,1:0:0:0:
256,192,38524,1,8,1:0:0:0:
256,192,38640,1,0,1:0:0:0:
256,192,38989,1,0,1:0:0:0:
256,192,39105,1,8,1:0:0:0:
256,192,39337,1,0,1:0:0:0:
256,192,39570,1,0,1:0:0:0:
256,192,39803,1,8,1:0:0:0:
256,192,40035,1,0,1:0:0:0:
256,192,40268,1,8,1:0:0:0:
256,192,40384,1,8,1:0:0:0:
256,192,40500,1,0,1:0:0:0:
256,192,40733,1,0,1:0:0:0:
256,192,40849,1,0,1:0:0:0:
256,192,40965,1,8,1:0:0:0:
256,192,41198,1,0,1:0:0:0:
256,192,41430,1,8,1:0:0:0:
256,192,41547,1,0,1:0:0:0:
256,192,41663,1,0,1:0:0:0:
256,192,41896,1,8,1:0:0:0:
256,192,42128,1,0,1:0:0:0:
256,192,42361,1,8,1:0:0:0:
256,192,42710,1,0,1:0:0:0:
256,192,42826,1,8,1:0:0:0:
256,192,43058,1,8,1:0:0:0:
256,192,43291,1,0,1:0:0:0:
256,192,43524,1,8,1:0:0:0:
256,192,43756,1,8,1:0:0:0:
256,192,43989,1,4,1:0:0:0:
256,192,44454,1,8,1:0:0:0:
256,192,44570,1,0,0:0:0:0:
256,192,44686,1,8,1:0:0:0:
256,192,44919,1,0,0:0:0:0:
256,192,45151,1,0,0:0:0:0:
256,192,45384,1,8,1:0:0:0:
256,192,45500,1,0,1:0:0:0:
256,192,45617,1,8,1:0:0:0:
256,192,45733,1,8,1:0:0:0:
256,192,45849,1,0,1:0:0:0:
256,192,45965,1,0,1:0:0:0:
256,192,46082,1,8,1:0:0:0:
256,192,46314,1,0,1:0:0:0:
256,192,46430,1,0,1:0:0:0:
256,192,46547,1,8,1:0:0:0:
256,192,46779,1,0,1:0:0:0:
256,192,47012,1,8,1:0:0:0:
256,192,47128,1,8,1:0:0:0:
256,192,47244,1,0,1:0:0:0:
256,192,47477,1,8,1:0:0:0:
256,192,47710,1,0,1:0:0:0:
256,192,47826,1,0,1:0:0:0:
256,192,47942,1,0,1:0:0:0:
256,192,48175,1,8,1:0:0:0:
256,192,48291,1,0,1:0:0:0:
256,192,48407,1,8,1:0:0:0:
256,192,48640,1,0,1:0:0:0:
256,192,48872,1,8,1:0:0:0:
256,192,48989,1,8,1:0:0:0:
256,192,49105,1,0,1:0:0:0:
256,192,49337,1,8,1:0:0:0:
256,192,49803,1,0,1:0:0:0:
256,192,50035,1,0,1:0:0:0:
256,192,50151,1,0,1:0:0:0:
256,192,50268,1,8,1:0:0:0:
256,192,50500,1,0,1:0:0:0:
256,192,50733,1,8,1:0:0:0:
256,192,50849,1,8,1:0:0:0:
256,192,50965,1,0,1:0:0:0:
256,192,51198,1,8,1:0:0:0:
256,192,51663,1,12,1:0:0:0:
256,192,51896,1,12,1:0:0:0:
256,192,52128,1,12,1:0:0:0:
256,192,52826,1,0,1:0:0:0:
256,192,52942,1,0,1:0:0:0:
256,192,53058,1,8,1:0:0:0:
256,192,53524,1,4,1:0:0:0:
256,192,53756,1,8,1:0:0:0:
256,192,53872,1,0,1:0:0:0:
256,192,53989,1,8,1:0:0:0:
256,192,54221,1,8,1:0:0:0:
256,192,54337,1,0,1:0:0:0:
256,192,54454,1,8,1:0:0:0:
256,192,54570,1,8,1:0:0:0:
256,192,54686,1,0,1:0:0:0:
256,192,54803,1,0,1:0:0:0:
256,192,54919,1,8,1:0:0:0:
256,192,55151,1,8,1:0:0:0:
256,192,55384,1,0,1:0:0:0:
256,192,55617,1,0,1:0:0:0:
256,192,55733,1,0,1:0:0:0:
256,192,55849,1,8,1:0:0:0:
256,192,56082,1,0,1:0:0:0:
256,192,56314,1,8,1:0:0:0:
256,192,56430,1,0,1:0:0:0:
256,192,56547,1,0,1:0:0:0:
256,192,56663,1,0,1:0:0:0:
256,192,56779,1,8,1:0:0:0:
256,192,57012,1,8,1:0:0:0:
256,192,57244,1,0,1:0:0:0:
256,192,57477,1,8,1:0:0:0:
256,192,57593,1,0,1:0:0:0:
256,192,57710,1,8,1:0:0:0:
256,192,57942,1,0,1:0:0:0:
256,192,58058,1,0,1:0:0:0:
256,192,58175,1,8,1:0:0:0:
256,192,58291,1,8,1:0:0:0:
256,192,58407,1,0,1:0:0:0:
256,192,58524,1,0,1:0:0:0:
256,192,58640,1,8,1:0:0:0:
256,192,58872,1,8,1:0:0:0:
256,192,59105,1,0,1:0:0:0:
256,192,59337,1,8,1:0:0:0:
256,192,59454,1,8,1:0:0:0:
256,192,59570,1,0,1:0:0:0:
256,192,59803,1,8,1:0:0:0:
256,192,60268,1,8,1:0:0:0:
256,192,60384,1,0,1:0:0:0:
256,192,60500,1,8,1:0:0:0:
256,192,60617,1,8,1:0:0:0:
256,192,60733,1,0,1:0:0:0:
256,192,60849,1,0,1:0:0:0:
256,192,60965,1,8,1:0:0:0:
256,192,61198,1,0,1:0:0:0:
256,192,61314,1,0,1:0:0:0:
256,192,61430,1,8,1:0:0:0:
256,192,61663,1,8,1:0:0:0:
256,192,61896,1,0,1:0:0:0:
256,192,62128,1,0,1:0:0:0:
256,192,62244,1,0,1:0:0:0:
256,192,62361,1,8,1:0:0:0:
256,192,62477,1,0,1:0:0:0:
256,192,62593,1,8,1:0:0:0:
256,192,62710,1,0,1:0:0:0:
256,192,62826,1,8,1:0:0:0:
256,192,63058,1,0,1:0:0:0:
256,192,63175,1,0,1:0:0:0:
256,192,63291,1,8,1:0:0:0:
256,192,63524,1,8,1:0:0:0:
256,192,63756,1,0,1:0:0:0:
256,192,63989,1,8,1:0:0:0:
256,192,64105,1,8,1:0:0:0:
256,192,64221,1,0,1:0:0:0:
256,192,64454,1,8,1:0:0:0:
256,192,64686,1,0,1:0:0:0:
256,192,64919,1,0,1:0:0:0:
256,192,65035,1,0,1:0:0:0:
256,192,65151,1,8,1:0:0:0:
256,192,65384,1,0,1:0:0:0:
256,192,65500,1,0,1:0:0:0:
256,192,65617,1,8,1:0:0:0:
256,192,65733,1,0,1:0:0:0:
256,192,65849,1,8,1:0:0:0:
256,192,66082,1,0,1:0:0:0:
256,192,66314,1,12,1:0:0:0:
256,192,66779,1,0,1:0:0:0:
256,192,67012,1,8,1:0:0:0:
256,192,67244,1,8,1:0:0:0:
256,192,67361,1,0,1:0:0:0:
256,192,67477,1,8,1:0:0:0:
256,192,67593,1,8,1:0:0:0:
256,192,67710,1,0,1:0:0:0:
256,192,67826,1,0,1:0:0:0:
256,192,67942,1,8,1:0:0:0:
256,192,68175,1,8,1:0:0:0:
256,192,68407,1,4,1:0:0:0:
256,192,68640,1,0,1:0:0:0:
256,192,68756,1,0,1:0:0:0:
256,192,68872,1,8,1:0:0:0:
256,192,69105,1,8,1:0:0:0:
256,192,69221,1,0,1:0:0:0:
256,192,69337,1,8,1:0:0:0:
256,192,69454,1,8,1:0:0:0:
256,192,69570,1,0,1:0:0:0:
256,192,69686,1,0,1:0:0:0:
256,192,69803,1,8,1:0:0:0:
256,192,70035,1,8,1:0:0:0:
256,192,70268,1,0,1:0:0:0:
256,192,70500,1,0,1:0:0:0:
256,192,70617,1,0,1:0:0:0:
256,192,70733,1,8,1:0:0:0:
256,192,70965,1,8,1:0:0:0:
256,192,71198,1,0,1:0:0:0:
256,192,71314,1,0,1:0:0:0:
256,192,71430,1,8,1:0:0:0:
256,192,71547,1,0,1:0:0:0:
256,192,71663,1,8,1:0:0:0:
256,192,71896,1,8,1:0:0:0:
256,192,72128,1,0,1:0:0:0:
256,192,72361,1,0,1:0:0:0:
256,192,72477,1,0,1:0:0:0:
256,192,72593,1,8,1:0:0:0:
256,192,72826,1,8,1:0:0:0:
256,192,72942,1,0,1:0:0:0:
256,192,73058,1,8,1:0:0:0:
256,192,73175,1,8,1:0:0:0:
256,192,73291,1,0,1:0:0:0:
256,192,73407,1,0,1:0:0:0:
256,192,73524,1,8,1:0:0:0:
256,192,73756,1,4,1:0:0:0:
256,192,74221,1,0,1:0:0:0:
256,192,74337,1,0,1:0:0:0:
256,192,74454,1,8,1:0:0:0:
256,192,74686,1,4,1:0:0:0:
256,192,75151,1,0,1:0:0:0:
256,192,75384,1,8,1:0:0:0:
256,192,75617,1,8,1:0:0:0:
256,192,75733,1,8,1:0:0:0:
256,192,75849,1,0,1:0:0:0:
256,192,76082,1,0,1:0:0:0:
256,192,76314,1,8,1:0:0:0:
256,192,76547,1,8,1:0:0:0:
256,192,76663,1,0,1:0:0:0:
256,192,76779,1,8,1:0:0:0:
256,192,77012,1,4,1:0:0:0:
256,192,77477,1,4,1:0:0:0:
256,192,77942,1,0,1:0:0:0:
256,192,78058,1,0,1:0:0:0:
256,192,78175,1,8,1:0:0:0:
256,192,78291,1,0,1:0:0:0:
256,192,78407,1,8,1:0:0:0:
256,192,78524,1,8,1:0:0:0:
256,192,78640,1,0,1:0:0:0:
256,192,78756,1,0,1:0:0:0:
256,192,78872,1,8,1:0:0:0:
256,192,78989,1,0,1:0:0:0:
256,192,79105,1,8,1:0:0:0:
256,192,79221,1,8,1:0:0:0:
256,192,79337,1,0,1:0:0:0:
256,192,79454,1,0,1:0:0:0:
256,192,79570,1,8,1:0:0:0:
256,192,79803,1,8,0:0:0:0:
256,192,80035,1,8,0:0:0:0:
256,192,80268,1,0,0:0:0:0:
256,192,80500,1,8,0:0:0:0:
256,192,80733,1,0,0:0:0:0:
256,192,80849,1,0,0:0:0:0:
256,192,80965,1,8,0:0:0:0:
256,192,81082,1,8,0:0:0:0:
256,192,81198,1,8,0:0:0:0:
256,192,81430,1,4,1:0:0:0:
256,192,81779,1,0,1:0:0:0:
256,192,81896,1,8,1:0:0:0:
256,192,82128,1,0,1:0:0:0:
256,192,82361,1,8,1:0:0:0:
256,192,82593,1,8,1:0:0:0:
256,192,82710,1,8,1:0:0:0:
256,192,82826,1,0,1:0:0:0:
256,192,83058,1,8,1:0:0:0:
256,192,83291,1,0,1:0:0:0:
256,192,83524,1,8,1:0:0:0:
256,192,83640,1,8,1:0:0:0:
256,192,83756,1,8,1:0:0:0:
256,192,83989,1,0,1:0:0:0:
256,192,84221,1,8,1:0:0:0:
256,192,84454,1,0,1:0:0:0:
256,192,84570,1,8,1:0:0:0:
256,192,84686,1,0,1:0:0:0:
256,192,84803,1,0,1:0:0:0:
256,192,84919,1,8,1:0:0:0:
256,192,85035,1,0,1:0:0:0:
256,192,85151,1,8,1:0:0:0:
256,192,85849,8,0,88407,1:0:0:0:
