osu file format v14

[General]
AudioFilename: audio.mp3
AudioLeadIn: 0
PreviewTime: 46398
Countdown: 0
SampleSet: Soft
StackLeniency: 0.7
Mode: 0
LetterboxInBreaks: 0
WidescreenStoryboard: 1

[Editor]
Bookmarks: 53840,133840,199886,214770,239073
DistanceSpacing: 1.5
BeatDivisor: 16
GridSize: 32
TimelineZoom: 2.599998

[Metadata]
Title:Dear My Friend -Mada Minu Mirai e-
TitleUnicode:Dear My Friend -まだ見ぬ未来へ-
Artist:ELISA
ArtistUnicode:ELISA
Creator:Dilectus
Version:Azunyan's Hard
Source:とある科学の超電磁砲
Tags:Mayu Sakuma Xexyz Cycopton DavidEd Wanpachi Azunyan- Ed Ending A Certain Scientific Railgun Toaru Kagaku no Japanese Anime Animation Toward a Future We Haven't Seen Yet Pop
BeatmapID:2545803
BeatmapSetID:1191574

[Difficulty]
HPDrainRate:4
CircleSize:3.4
OverallDifficulty:6
ApproachRate:7
SliderMultiplier:1.6
SliderTickRate:1

[Events]
//Background and Video events
0,0,"bg.jpg",0,0
//Break Periods
2,96831,97591
2,197761,198986
//Storyboard Layer 0 (Background)
//Storyboard Layer 1 (Fail)
//Storyboard Layer 2 (Pass)
//Storyboard Layer 3 (Foreground)
//Storyboard Layer 4 (Overlay)
//Storyboard Sound Samples

[TimingPoints]
-113,465.116279069767,4,2,1,30,1,0
817,-100,4,2,1,30,0,0
1747,-125,4,2,1,60,0,0
5468,-125,4,2,24,60,0,0
5497,-125,4,2,1,60,0,0
6166,-125,4,2,22,60,0,0
6195,-125,4,2,1,60,0,0
6631,-125,4,2,21,60,0,0
6660,-125,4,2,1,60,0,0
6863,-125,4,2,21,60,0,0
7096,-125,4,2,22,60,0,0
7328,-125,4,2,21,60,0,0
7357,-125,4,2,1,60,0,0
9189,-100,4,2,1,70,0,0
11282,-100,4,2,29,70,0,0
11514,-100,4,2,28,70,0,0
11747,-100,4,2,24,70,0,0
11776,-100,4,2,1,70,0,0
12212,-100,4,2,19,70,0,0
12445,-100,4,2,1,70,0,0
15468,-100,4,2,21,70,0,0
15584,-100,4,2,22,70,0,0
15700,-100,4,2,24,70,0,0
15933,-100,4,2,22,70,0,0
16049,-100,4,2,21,70,0,0
16166,-100,4,2,19,70,0,0
16282,-100,4,2,17,70,0,0
16398,-100,4,2,16,70,0,0
16514,-100,4,2,14,70,0,0
16631,-142.857142857143,4,2,1,50,0,0
29654,-142.857142857143,4,2,9,50,0,0
29683,-142.857142857143,4,2,1,50,0,0
30119,-142.857142857143,4,2,12,50,0,0
30235,-142.857142857143,4,2,16,50,0,0
30352,-142.857142857143,4,2,19,50,0,0
30468,-142.857142857143,4,2,22,50,0,0
30584,-142.857142857143,4,2,24,50,0,0
31514,-125,4,2,1,60,0,0
37328,-125,4,2,16,60,0,0
37561,-125,4,2,17,60,0,0
37793,-125,4,2,24,60,0,0
37823,-125,4,2,1,60,0,0
38259,-125,4,2,28,60,0,0
38491,-125,4,2,29,60,0,0
38724,-125,4,2,34,60,0,0
38753,-125,4,2,1,60,0,0
41282,-125,4,2,24,60,0,0
41311,-125,4,2,1,60,0,0
41747,-125,4,2,22,60,0,0
41776,-125,4,2,1,60,0,0
42212,-125,4,2,21,60,0,0
42241,-125,4,2,1,60,0,0
42677,-125,4,2,19,60,0,0
42706,-125,4,2,1,60,0,0
44770,-125,4,2,29,60,0,0
45003,-125,4,2,28,60,0,0
45235,-125,4,2,24,60,0,0
45468,-125,4,2,21,60,0,0
45584,-125,4,2,1,60,0,0
45700,-125,4,2,17,60,0,0
45817,-125,4,2,1,60,0,0
45933,-125,4,2,16,60,0,0
46049,-125,4,2,1,60,0,0
46166,-125,4,2,12,60,0,0
46282,-125,4,2,1,60,0,0
46398,-100,4,2,1,60,0,0
51514,-100,4,2,24,60,0,0
51631,-100,4,2,26,60,0,0
51747,-100,4,2,28,60,0,0
51863,-100,4,2,29,60,0,0
51980,-100,4,2,31,60,0,0
53840,-90.9090909090909,4,2,24,80,0,1
53869,-90.9090909090909,4,2,1,80,0,1
55933,-90.9090909090909,4,2,21,80,0,1
55962,-90.9090909090909,4,2,1,80,0,1
56166,-90.9090909090909,4,2,22,80,0,1
56398,-90.9090909090909,4,2,24,80,0,1
56631,-90.9090909090909,4,2,1,80,0,1
57096,-90.9090909090909,4,2,26,80,0,1
57328,-90.9090909090909,4,2,1,80,0,1
57561,-90.9090909090909,4,2,24,80,0,1
57590,-90.9090909090909,4,2,1,80,0,1
59654,-90.9090909090909,4,2,29,80,0,1
59886,-90.9090909090909,4,2,28,80,0,1
59916,-90.9090909090909,4,2,1,80,0,1
60119,-90.9090909090909,4,2,24,80,0,1
60148,-90.9090909090909,4,2,1,80,0,1
60584,-90.9090909090909,4,2,21,80,0,1
60817,-90.9090909090909,4,2,1,80,0,1
61049,-90.9090909090909,4,2,17,80,0,1
61282,-90.9090909090909,4,2,16,80,0,1
61311,-90.9090909090909,4,2,1,80,0,1
63142,-90.9090909090909,4,2,25,80,0,1
63171,-90.9090909090909,4,2,1,80,0,1
64073,-90.9090909090909,4,2,28,80,0,1
64102,-90.9090909090909,4,2,1,80,0,1
65003,-90.9090909090909,4,2,29,80,0,1
65032,-90.9090909090909,4,2,1,80,0,1
65468,-90.9090909090909,4,2,22,80,0,1
65700,-90.9090909090909,4,2,21,80,0,1
65933,-90.9090909090909,4,2,17,80,0,1
66166,-90.9090909090909,4,2,1,80,0,1
66631,-90.9090909090909,4,2,19,80,0,1
66660,-90.9090909090909,4,2,1,80,0,1
67096,-90.9090909090909,4,2,21,80,0,1
67328,-90.9090909090909,4,2,22,80,0,1
67561,-90.9090909090909,4,2,24,80,0,1
67590,-90.9090909090909,4,2,1,80,0,1
68724,-90.9090909090909,4,2,29,80,0,1
68753,-90.9090909090909,4,2,1,80,0,1
70584,-90.9090909090909,4,2,28,80,0,1
70817,-90.9090909090909,4,2,1,80,0,1
71980,-90.9090909090909,4,2,29,80,0,1
72009,-90.9090909090909,4,2,1,80,0,1
72445,-90.9090909090909,4,2,31,80,0,1
72474,-90.9090909090909,4,2,1,80,0,1
74073,-90.9090909090909,4,2,29,80,0,1
74102,-90.9090909090909,4,2,1,80,0,1
75003,-90.9090909090909,4,2,29,80,0,1
75032,-90.9090909090909,4,2,1,80,0,1
78724,-90.9090909090909,4,2,14,80,0,1
78956,-90.9090909090909,4,2,17,80,0,1
79189,-90.9090909090909,4,2,16,80,0,1
79305,-90.9090909090909,4,2,17,80,0,1
79421,-90.9090909090909,4,2,19,80,0,1
79538,-90.9090909090909,4,2,17,80,0,1
79654,-90.9090909090909,4,2,21,80,0,1
79770,-90.9090909090909,4,2,22,80,0,1
79886,-90.9090909090909,4,2,24,80,0,1
80119,-125,4,2,1,60,0,1
81282,-125,4,2,1,60,0,1
81747,-100,4,2,1,70,0,0
83840,-100,4,2,29,70,0,0
84073,-100,4,2,28,70,0,0
84305,-100,4,2,24,70,0,0
84334,-100,4,2,1,70,0,0
84770,-100,4,2,19,70,0,0
85003,-100,4,2,1,70,0,0
91282,-100,4,2,29,70,0,0
91514,-100,4,2,28,70,0,0
91747,-100,4,2,24,70,0,0
91776,-100,4,2,1,70,0,0
92212,-100,4,2,19,70,0,0
92445,-100,4,2,1,70,0,0
95468,-100,4,2,21,70,0,0
95584,-100,4,2,22,70,0,0
95700,-100,4,2,24,70,0,0
95933,-100,4,2,22,70,0,0
96049,-100,4,2,21,70,0,0
96166,-100,4,2,19,70,0,0
96282,-100,4,2,17,70,0,0
96398,-100,4,2,16,70,0,0
96514,-100,4,2,14,70,0,0
96631,-100,4,2,1,60,0,0
98491,-100,4,2,12,60,0,0
98520,-100,4,2,1,60,0,0
98840,-100,4,2,16,60,0,0
98869,-100,4,2,1,60,0,0
99189,-100,4,2,19,60,0,0
99421,-100,4,2,24,60,0,0
100352,-142.857142857143,4,2,1,60,0,0
109654,-142.857142857143,4,2,9,60,0,0
110119,-142.857142857143,4,2,12,60,0,0
110235,-142.857142857143,4,2,16,60,0,0
110352,-142.857142857143,4,2,19,60,0,0
110468,-142.857142857143,4,2,22,60,0,0
110584,-142.857142857143,4,2,24,60,0,0
111514,-125,4,2,1,60,0,0
117328,-125,4,2,16,60,0,0
117561,-125,4,2,17,60,0,0
117793,-125,4,2,24,60,0,0
117823,-125,4,2,1,60,0,0
118259,-125,4,2,28,60,0,0
118491,-125,4,2,29,60,0,0
118724,-125,4,2,34,60,0,0
118753,-125,4,2,1,60,0,0
121282,-125,4,2,24,60,0,0
121311,-125,4,2,1,60,0,0
121747,-125,4,2,22,60,0,0
121776,-125,4,2,1,60,0,0
122212,-125,4,2,21,60,0,0
122241,-125,4,2,1,60,0,0
122677,-125,4,2,19,60,0,0
122706,-125,4,2,1,60,0,0
124770,-125,4,2,29,60,0,0
125003,-125,4,2,28,60,0,0
125235,-125,4,2,24,60,0,0
125468,-125,4,2,21,60,0,0
125584,-125,4,2,1,60,0,0
125700,-125,4,2,17,60,0,0
125817,-125,4,2,1,60,0,0
125933,-125,4,2,16,60,0,0
126049,-125,4,2,1,60,0,0
126166,-125,4,2,12,60,0,0
126282,-125,4,2,1,60,0,0
126398,-100,4,2,1,60,0,0
131514,-100,4,2,24,60,0,0
131631,-100,4,2,26,60,0,0
131747,-100,4,2,28,60,0,0
131863,-100,4,2,29,60,0,0
131980,-100,4,2,31,60,0,0
133840,-90.9090909090909,4,2,24,80,0,1
133869,-90.9090909090909,4,2,1,80,0,1
135933,-90.9090909090909,4,2,21,80,0,1
135962,-90.9090909090909,4,2,1,80,0,1
136166,-90.9090909090909,4,2,22,80,0,1
136398,-90.9090909090909,4,2,24,80,0,1
136631,-90.9090909090909,4,2,1,80,0,1
137096,-90.9090909090909,4,2,26,80,0,1
137125,-90.9090909090909,4,2,1,80,0,1
137561,-90.9090909090909,4,2,24,80,0,1
137590,-90.9090909090909,4,2,1,80,0,1
139654,-90.9090909090909,4,2,29,80,0,1
139886,-90.9090909090909,4,2,28,80,0,1
139916,-90.9090909090909,4,2,1,80,0,1
140119,-90.9090909090909,4,2,24,80,0,1
140148,-90.9090909090909,4,2,1,80,0,1
140584,-90.9090909090909,4,2,21,80,0,1
140817,-90.9090909090909,4,2,1,80,0,1
141049,-90.9090909090909,4,2,17,80,0,1
141282,-90.9090909090909,4,2,16,80,0,1
141311,-90.9090909090909,4,2,1,80,0,1
143142,-90.9090909090909,4,2,25,80,0,1
143171,-90.9090909090909,4,2,1,80,0,1
144073,-90.9090909090909,4,2,28,80,0,1
144102,-90.9090909090909,4,2,1,80,0,1
145003,-90.9090909090909,4,2,29,80,0,1
145032,-90.9090909090909,4,2,1,80,0,1
145468,-90.9090909090909,4,2,22,80,0,1
145700,-90.9090909090909,4,2,21,80,0,1
145933,-90.9090909090909,4,2,17,80,0,1
146166,-90.9090909090909,4,2,1,80,0,1
146631,-90.9090909090909,4,2,19,80,0,1
146660,-90.9090909090909,4,2,1,80,0,1
147096,-90.9090909090909,4,2,21,80,0,1
147328,-90.9090909090909,4,2,22,80,0,1
147561,-90.9090909090909,4,2,24,80,0,1
147590,-90.9090909090909,4,2,1,80,0,1
148724,-90.9090909090909,4,2,29,80,0,1
148753,-90.9090909090909,4,2,1,80,0,1
150584,-90.9090909090909,4,2,28,80,0,1
150817,-90.9090909090909,4,2,1,80,0,1
151980,-90.9090909090909,4,2,29,80,0,1
152009,-90.9090909090909,4,2,1,80,0,1
152445,-90.9090909090909,4,2,31,80,0,1
152474,-90.9090909090909,4,2,1,80,0,1
154073,-90.9090909090909,4,2,29,80,0,1
154102,-90.9090909090909,4,2,1,80,0,1
155003,-90.9090909090909,4,2,29,80,0,1
155032,-90.9090909090909,4,2,1,80,0,1
158724,-90.9090909090909,4,2,14,80,0,1
158956,-90.9090909090909,4,2,17,80,0,1
159189,-90.9090909090909,4,2,16,80,0,1
159305,-90.9090909090909,4,2,17,80,0,1
159421,-90.9090909090909,4,2,19,80,0,1
159538,-90.9090909090909,4,2,17,80,0,1
159654,-90.9090909090909,4,2,21,80,0,1
159770,-90.9090909090909,4,2,22,80,0,1
159886,-125,4,2,24,80,0,1
160119,-125,4,2,1,60,0,1
161282,-125,4,2,1,60,0,1
161747,-100,4,2,29,70,0,0
161776,-100,4,2,1,70,0,0
162677,-100,4,2,24,70,0,0
162706,-100,4,2,1,70,0,0
163607,-100,4,2,22,70,0,0
163636,-100,4,2,1,70,0,0
164538,-100,4,2,27,70,0,0
164567,-100,4,2,1,70,0,0
165468,-100,4,2,24,70,0,0
165497,-100,4,2,1,70,0,0
166166,-100,4,2,22,70,0,0
166282,-100,4,2,21,70,0,0
166398,-100,4,2,22,70,0,0
166631,-100,4,2,21,70,0,0
166863,-100,4,2,17,70,0,0
167096,-100,4,2,21,70,0,0
167125,-100,4,2,1,70,0,0
167561,-100,4,2,22,70,0,0
167793,-100,4,2,21,70,0,0
168026,-100,4,2,17,70,0,0
168055,-100,4,2,1,70,0,0
168491,-100,4,2,12,70,0,0
168724,-100,4,2,17,70,0,0
168840,-100,4,2,19,70,0,0
168956,-100,4,2,21,70,0,0
169073,-100,4,2,24,70,0,0
169189,-100,4,2,29,70,0,0
169218,-100,4,2,1,70,0,0
170119,-100,4,2,27,70,0,0
170148,-100,4,2,1,70,0,0
170468,-100,4,2,25,70,0,0
170497,-100,4,2,1,70,0,0
170817,-100,4,2,24,70,0,0
171049,-100,4,2,22,70,0,0
171078,-100,4,2,1,70,0,0
171398,-100,4,2,24,70,0,0
171427,-100,4,2,1,70,0,0
171747,-100,4,2,25,70,0,0
171980,-100,4,2,27,70,0,0
172328,-100,4,2,29,70,0,0
172677,-100,4,2,31,70,0,0
172910,-100,4,2,33,70,0,0
172939,-100,4,2,1,70,0,0
174538,-100,4,2,32,70,0,0
174567,-100,4,2,1,70,0,0
175003,-100,4,2,29,70,0,0
175235,-100,4,2,24,70,0,0
175468,-100,4,2,29,70,0,0
175700,-100,4,2,24,70,0,0
175933,-100,4,2,21,70,0,0
176049,-100,4,2,1,70,0,0
176166,-100,4,2,17,70,0,0
176282,-100,4,2,1,70,0,0
176398,-100,4,2,12,70,0,0
176631,-125,4,2,1,60,0,0
183375,-125,4,2,12,60,0,0
183607,-125,4,2,13,60,0,0
183840,-100,4,2,20,70,0,0
183869,-100,4,2,1,70,0,0
185235,-100,4,2,12,70,0,0
185468,-100,4,2,13,70,0,0
185700,-100,4,2,20,70,0,0
185730,-100,4,2,1,70,0,0
187096,-100,4,2,18,70,0,0
187328,-100,4,2,17,70,0,0
187561,-100,4,2,15,70,0,0
187590,-100,4,2,1,70,0,0
189421,-100,4,2,15,70,0,0
189450,-100,4,2,1,70,0,0
189886,-100,4,2,10,70,0,0
190119,-100,4,2,11,70,0,0
190352,-100,4,2,15,70,0,0
190584,-100,4,2,18,70,0,0
190700,-100,4,2,1,70,0,0
191514,-100,4,2,29,70,0,0
191543,-100,4,2,1,70,0,0
191980,-100,4,2,27,70,0,0
192212,-100,4,2,26,70,0,0
192241,-100,4,2,1,70,0,0
192677,-100,4,2,24,70,0,0
192910,-100,4,2,27,70,0,0
193142,-100,4,2,26,70,0,0
193171,-100,4,2,1,70,0,0
193607,-100,4,2,24,70,0,0
193840,-100,4,2,24,70,0,0
194073,-100,4,2,21,70,0,0
194305,-100,4,2,17,70,0,0
194421,-100,4,2,1,70,0,0
195235,-100,4,2,29,70,0,0
195264,-100,4,2,1,70,0,0
195700,-100,4,2,29,70,0,0
195730,-100,4,2,1,70,0,0
195933,-100,4,2,28,70,0,0
196049,-100,4,2,23,70,0,0
196166,-100,4,2,24,70,0,0
196398,-100,4,2,23,70,0,0
196514,-100,4,2,24,70,0,0
196631,-100,4,2,26,70,0,0
196747,-100,4,2,28,70,0,0
196863,-100,4,2,29,70,0,0
196980,-100,4,2,30,70,0,0
197096,-100,4,2,31,70,0,0
199886,465.116279069767,4,2,1,70,1,0
199886,-152.439024390244,4,2,1,50,0,0
203606,-169.348010160881,4,2,1,50,0,0
205932,-169.348010160881,4,2,28,50,0,0
206165,-125,4,2,24,50,0,0
206194,-125,4,2,1,50,0,0
206630,-125,4,2,21,50,0,0
206862,-125,4,2,1,50,0,0
207095,-125,4,2,17,50,0,0
207327,-111.111111111111,4,2,16,60,0,0
207356,-111.111111111111,4,2,1,60,0,0
209188,-111.111111111111,4,2,25,60,0,0
209217,-111.111111111111,4,2,1,60,0,0
211048,-111.111111111111,4,2,29,70,0,0
211077,-111.111111111111,4,2,1,70,0,0
211513,-111.111111111111,4,2,22,70,0,0
211746,-111.111111111111,4,2,21,70,0,0
211979,-111.111111111111,4,2,17,70,0,0
212676,-99.9999999999999,4,2,19,70,0,0
212705,-99.9999999999999,4,2,1,70,0,0
213141,-99.9999999999999,4,2,21,70,0,0
213374,-99.9999999999999,4,2,22,70,0,0
213606,-99.9999999999999,4,2,24,70,0,0
213635,-99.9999999999999,4,2,1,70,0,0
214769,-90.9090909090909,4,2,29,80,0,1
214798,-90.9090909090909,4,2,1,80,0,1
216630,-90.9090909090909,4,2,28,80,0,1
216862,-90.9090909090909,4,2,1,80,0,1
218025,-90.9090909090909,4,2,29,80,0,1
218054,-90.9090909090909,4,2,1,80,0,1
218490,-90.9090909090909,4,2,31,80,0,1
218519,-90.9090909090909,4,2,1,80,0,1
220118,-90.9090909090909,4,2,29,80,0,1
220147,-90.9090909090909,4,2,1,80,0,1
221048,-90.9090909090909,4,2,29,80,0,1
221077,-90.9090909090909,4,2,1,80,0,1
224769,-90.9090909090909,4,2,14,80,0,1
225002,-90.9090909090909,4,2,17,80,0,1
225234,-90.9090909090909,4,2,16,80,0,1
225351,-90.9090909090909,4,2,17,80,0,1
225467,-90.9090909090909,4,2,19,80,0,1
225583,-90.9090909090909,4,2,17,80,0,1
225699,-90.9090909090909,4,2,21,80,0,1
225816,-90.9090909090909,4,2,22,80,0,1
225931,-125,4,2,24,80,0,1
226165,-125,4,2,1,80,0,1
227792,-100,4,2,1,80,0,0
229885,-100,4,2,29,80,0,0
230118,-100,4,2,28,80,0,0
230351,-100,4,2,24,80,0,0
230380,-100,4,2,1,80,0,0
230816,-100,4,2,19,80,0,0
231048,-100,4,2,1,80,0,0
237327,-100,4,2,29,80,0,0
237560,-100,4,2,28,80,0,0
237792,-100,4,2,24,80,0,0
238258,-100,4,2,19,80,0,0
238374,-100,4,2,1,80,0,0
238955,-125,4,2,1,80,0,0
238984,-125,4,2,1,50,0,0
242676,-125,4,2,1,40,0,0

[Colours]
Combo1 : 224,201,120
Combo2 : 80,159,203
Combo3 : 194,241,216
Combo4 : 239,188,203

[HitObjects]
56,321,817,5,2,0:0:0:0:
72,347,1282,1,2,0:0:0:0:
90,233,1747,6,0,P|112:116|122:90,1,128,4|8,0:1|0:0,0:0:0:0:
169,28,2445,2,0,L|246:20,1,64,6|0,0:3|0:0,0:0:0:0:
298,93,2910,2,0,L|364:99,1,64,2|8,0:0|0:0,0:0:0:0:
456,64,3375,6,0,P|443:119|437:195,1,128,2|2,0:0|0:0,0:0:0:0:
437,190,3956,1,4,0:3:0:0:
437,190,4073,1,8,0:0:0:0:
388,277,4305,2,0,L|260:288,1,128,4|2,0:3|0:3,0:0:0:0:
197,233,5003,1,8,0:0:0:0:
6,360,5468,6,0,B|40:339|40:339|130:356,1,128,6|8,0:3|0:0,0:0:0:0:
214,313,6166,2,0,L|277:302,1,64,6|0,0:3|0:0,0:0:0:0:
331,222,6631,2,0,P|337:181|334:152,1,64,2|10,0:0|0:0,0:0:0:0:
289,78,7096,1,2,0:0:0:0:
289,78,7328,6,0,P|191:63|162:83,1,128,6|0,0:3|0:0,0:0:0:0:
102,148,8026,1,4,0:3:0:0:
102,148,8259,2,0,L|120:286,1,128,2|8,0:0|0:0,0:0:0:0:
204,355,8956,1,8,0:0:0:0:
204,355,9073,1,8,0:0:0:0:
204,355,9189,6,0,B|278:376|279:324|362:343,1,160,4|8,0:1|0:0,0:0:0:0:
464,339,9886,2,0,L|482:261,1,80,2|4,0:0|0:3,0:0:0:0:
404,172,10352,2,0,L|383:84,1,80,2|8,0:0|0:0,0:0:0:0:
308,25,10817,6,0,P|256:6|214:4,1,80,2|4,0:0|0:3,0:0:0:0:
161,52,11282,1,2,0:0:0:0:
161,52,11514,1,10,0:0:0:0:
76,20,11747,2,0,L|64:185,1,160,2|2,0:0|0:0,0:0:0:0:
144,256,12445,2,0,P|183:262|224:258,1,80,8|0,0:0|0:0,0:0:0:0:
296,184,12910,6,0,L|307:24,1,160,4|8,0:3|0:0,0:0:0:0:
418,6,13607,2,0,P|410:40|408:87,1,80,2|4,0:0|0:3,0:0:0:0:
451,172,14073,2,0,P|459:206|457:258,1,80,2|8,0:0|0:0,0:0:0:0:
403,326,14538,1,2,0:0:0:0:
323,283,14770,6,0,B|282:264|282:264|170:290,1,160,4|12,0:3|0:0,0:0:0:0:
86,292,15468,1,2,0:0:0:0:
86,292,15584,1,2,0:0:0:0:
86,292,15700,1,10,0:0:0:0:
27,212,15933,1,10,0:0:0:0:
21,195,16049,1,10,0:0:0:0:
19,178,16165,1,10,0:0:0:0:
20,160,16281,1,10,0:0:0:0:
24,143,16398,2,0,L|29:79,1,40,10|10,0:0|0:0,0:0:0:0:
56,66,16631,6,0,P|97:55|131:57,1,55.9999982910157,4|0,0:1|0:0,0:0:0:0:
201,95,17096,1,10,0:0:0:0:
201,95,17328,2,0,L|191:175,1,55.9999982910157,4|0,0:3|0:0,0:0:0:0:
145,231,17793,2,0,L|154:311,1,55.9999982910157,2|8,0:0|0:0,0:0:0:0:
239,346,18259,1,2,0:0:0:0:
239,346,18491,6,0,P|301:355|363:342,1,111.999996582031,4|8,0:3|0:0,0:0:0:0:
421,283,19189,2,0,L|428:205,1,55.9999982910157,4|0,0:3|0:0,0:0:0:0:
373,153,19654,2,0,L|367:89,2,55.9999982910157,2|8|2,0:3|0:2|0:0,0:0:0:0:
304,209,20352,6,0,P|269:217|235:214,1,55.9999982910157,4|0,0:3|0:0,0:0:0:0:
159,178,20817,1,8,0:0:0:0:
159,178,21049,2,0,L|153:241,1,55.9999982910157,4|0,0:3|0:0,0:0:0:0:
59,285,21514,2,0,L|53:221,1,55.9999982910157,2|8,0:0|0:0,0:0:0:0:
0,154,21980,1,2,0:0:0:0:
0,154,22212,5,4,0:3:0:0:
48,75,22445,2,0,P|97:60|127:63,1,55.9999982910157,0|8,0:0|0:0,0:0:0:0:
190,105,22910,2,0,B|225:121|225:121|315:104,1,111.999996582031,4|2,0:3|0:3,0:0:0:0:
380,87,23607,1,8,0:0:0:0:
447,156,23840,1,2,0:0:0:0:
447,156,24073,6,0,P|434:208|422:285,1,111.999996582031,4|8,0:0|0:0,0:0:0:0:
343,306,24770,2,0,P|325:253|317:238,1,55.9999982910157,4|0,0:3|0:0,0:0:0:0:
259,179,25235,2,0,P|204:182|187:185,1,55.9999982910157,2|8,0:0|0:0,0:0:0:0:
142,249,25700,1,2,0:0:0:0:
142,249,25933,6,0,L|166:366,1,111.999996582031,4|8,0:3|0:0,0:0:0:0:
253,351,26631,2,0,P|291:332|315:325,1,55.9999982910157,4|0,0:3|0:0,0:0:0:0:
403,352,27096,1,2,0:3:0:0:
403,352,27328,1,8,0:0:0:0:
470,301,27561,1,2,0:0:0:0:
470,301,27677,1,0,0:0:0:0:
470,301,27793,6,0,P|452:220|451:167,1,111.999996582031,4|8,0:3|0:0,0:0:0:0:
390,124,28491,2,0,L|310:144,1,55.9999982910157,6|0,0:3|0:0,0:0:0:0:
232,125,28956,2,0,L|169:109,1,55.9999982910157,2|8,0:0|0:0,0:0:0:0:
100,55,29421,1,2,0:3:0:0:
28,104,29654,5,6,0:1:0:0:
52,188,29886,1,4,0:3:0:0:
58,205,30002,1,4,0:3:0:0:
60,222,30118,1,10,0:0:0:0:
59,240,30234,1,10,0:0:0:0:
55,257,30351,2,0,L|50:303,1,27.9999991455078,8|6,0:3|0:3,0:0:0:0:
34,316,30584,5,14,0:0:0:0:
200,247,31514,6,0,L|187:119,1,128,4|10,0:1|0:0,0:0:0:0:
213,28,32212,2,0,P|255:15|281:9,1,64,2|4,0:0|0:3,0:0:0:0:
337,75,32677,2,0,P|379:88|405:94,1,64,2|8,0:0|0:0,0:0:0:0:
501,58,33142,6,0,B|478:95|478:95|482:203,1,128,2|2,0:0|0:0,0:0:0:0:
439,261,33840,1,8,0:0:0:0:
439,261,34073,2,0,P|382:287|301:281,1,128,2|2,0:0|0:0,0:0:0:0:
249,239,34770,1,8,0:0:0:0:
188,295,35003,1,2,0:0:0:0:
123,243,35235,6,0,L|37:239,1,64,4|0,0:3|0:0,0:0:0:0:
5,176,35700,1,8,0:0:0:0:
5,176,35933,2,0,P|0:136|1:90,1,64,2|4,0:0|0:3,0:0:0:0:
51,40,36398,2,0,P|85:52|130:62,1,64,2|8,0:0|0:0,0:0:0:0:
194,108,36863,2,0,P|228:96|273:86,1,64,2|4,0:0|0:3,0:0:0:0:
327,53,37328,5,2,0:0:0:0:
383,112,37561,1,10,0:0:0:0:
343,183,37793,2,0,P|337:219|337:314,1,128,2|2,0:0|0:0,0:0:0:0:
298,380,38491,1,10,0:0:0:0:
229,334,38724,1,2,0:0:0:0:
155,377,38956,6,0,P|106:383|28:327,1,128,4|8,0:1|0:0,0:0:0:0:
7,266,39654,2,0,L|-3:185,1,64,2|4,0:0|0:3,0:0:0:0:
35,123,40119,2,0,P|66:111|113:106,1,64,2|8,0:0|0:0,0:0:0:0:
196,162,40584,6,0,L|188:289,1,128,2|0,0:0|0:0,0:0:0:0:
265,365,41282,2,0,P|323:376|392:374,1,128,10|6,0:0|0:3,0:0:0:0:
446,289,41980,2,0,L|509:282,2,64,0|10|2,0:0|0:0|0:0,0:0:0:0:
381,211,42677,6,0,B|342:189|342:189|235:204,1,128,4|8,0:3|0:0,0:0:0:0:
177,255,43375,2,0,L|106:245,1,64,2|4,0:0|0:3,0:0:0:0:
40,185,43840,2,0,P|33:150|34:99,1,64,2|8,0:0|0:0,0:0:0:0:
71,41,44305,6,0,B|130:29|139:64|205:54,1,128,4|6,0:1|0:3,0:0:0:0:
285,58,45003,1,14,0:0:0:0:
342,0,45235,1,2,0:0:0:0:
427,35,45468,2,0,L|470:28,3,32,10|4|6|8,0:3|0:3|0:3|0:0,0:0:0:0:
406,71,45933,2,0,L|363:64,3,32,10|8|6|4,0:0|0:0|0:3|0:3,0:0:0:0:
431,100,46398,6,0,L|448:282,1,160,4|10,0:1|0:0,0:0:0:0:
363,305,47096,2,0,L|350:391,2,80,4|2|2,0:3|0:0|0:0,0:0:0:0:
285,235,47793,2,0,L|270:144,2,80,10|2|4,0:0|0:0|0:3,0:0:0:0:
238,317,48491,5,2,0:0:0:0:
163,360,48724,1,10,0:0:0:0:
95,306,48956,1,4,0:3:0:0:
16,346,49189,2,0,L|-1:264,1,80,2|2,0:0|0:0,0:0:0:0:
59,209,49654,2,0,L|77:122,1,80,10|2,0:0|0:0,0:0:0:0:
24,50,50119,6,0,P|102:26|197:33,1,160,4|10,0:3|0:0,0:0:0:0:
239,104,50817,2,0,L|249:202,2,80,4|2|2,0:3|0:0|0:0,0:0:0:0:
313,48,51514,1,10,0:0:0:0:
313,48,51631,1,10,0:0:0:0:
313,48,51747,2,0,L|371:30,1,40,10|10,0:0|0:0,0:0:0:0:
395,55,51980,5,14,0:3:0:0:
391,153,52212,1,14,0:3:0:0:
387,251,52445,1,14,0:3:0:0:
97,90,53840,6,0,L|80:287,1,176.000005371094,6|8,0:1|0:0,0:0:0:0:
139,356,54538,2,0,P|185:369|246:368,1,88.000002685547,2|4,0:0|0:3,0:0:0:0:
301,318,55003,1,2,0:0:0:0:
385,362,55235,1,8,0:0:0:0:
453,295,55468,6,0,L|468:176,1,88.000002685547,2|0,0:0|0:0,0:0:0:0:
426,113,55933,2,0,P|367:101|314:111,1,88.000002685547,2|10,0:0|0:0,0:0:0:0:
269,169,56398,1,2,0:0:0:0:
189,112,56631,2,0,L|177:229,1,88.000002685547,4|2,0:3|0:0,0:0:0:0:
116,279,57096,1,10,0:0:0:0:
116,279,57328,1,2,0:0:0:0:
27,249,57561,6,0,L|7:62,1,176.000005371094,6|8,0:3|0:0,0:0:0:0:
69,5,58259,1,2,0:0:0:0:
110,87,58491,1,4,0:3:0:0:
207,104,58724,1,2,0:0:0:0:
168,189,58956,1,10,0:0:0:0:
297,75,59189,6,0,P|352:60|492:38,1,176.000005371094,2|2,0:0|0:0,0:0:0:0:
500,126,59886,2,0,L|514:223,1,88.000002685547,10|2,0:0|0:0,0:0:0:0:
411,334,60352,2,0,L|423:246,1,88.000002685547,4|2,0:3|0:0,0:0:0:0:
383,153,60817,1,10,0:0:0:0:
307,216,61049,1,2,0:0:0:0:
215,111,61282,6,0,B|139:86|123:144|40:115,1,176.000005371094,6|10,0:0|0:0,0:0:0:0:
0,211,61980,2,0,P|54:222|65:340,1,176.000005371094,2|2,0:0|0:0,0:0:0:0:
157,374,62677,1,10,0:0:0:0:
226,309,62910,1,2,0:0:0:0:
325,384,63142,6,0,B|357:339|357:339|367:193,1,176.000005371094,6|10,0:3|0:0,0:0:0:0:
316,132,63840,2,0,P|269:128|222:134,1,88.000002685547,2|6,0:0|0:3,0:0:0:0:
166,213,64305,2,0,P|122:217|78:213,1,88.000002685547,2|8,0:0|0:0,0:0:0:0:
9,159,64770,1,2,0:0:0:0:
42,57,65003,6,0,B|92:17|125:7|125:7|155:47|224:66,1,176.000005371094,6|10,0:0|0:0,0:0:0:0:
261,131,65700,1,10,0:0:0:0:
261,131,65817,1,8,0:0:0:0:
261,131,65933,1,10,0:0:0:0:
325,63,66166,1,8,0:3:0:0:
387,126,66398,1,4,0:3:0:0:
493,44,66631,6,0,P|471:120|448:226,1,176.000005371094,6|10,0:0|0:0,0:0:0:0:
478,315,67328,1,10,0:0:0:0:
357,349,67561,2,0,L|243:336,1,88.000002685547,6|0,0:0|0:0,0:0:0:0:
269,338,67910,1,8,0:0:0:0:
269,338,68026,1,4,0:3:0:0:
198,290,68259,1,8,0:3:0:0:
105,362,68491,1,8,0:0:0:0:
105,362,68607,1,8,0:0:0:0:
105,362,68724,6,0,P|74:224|73:155,1,176.000005371094,6|8,0:1|0:0,0:0:0:0:
125,115,69421,1,2,0:0:0:0:
166,196,69654,1,4,0:3:0:0:
246,150,69886,1,2,0:0:0:0:
279,233,70119,1,10,0:0:0:0:
357,133,70352,6,0,L|473:106,1,88.000002685547,2|6,0:0|0:3,0:0:0:0:
498,271,70817,2,0,L|382:244,1,88.000002685547,2|8,0:0|0:0,0:0:0:0:
357,133,71282,1,2,0:0:0:0:
261,192,71514,2,0,P|262:256|289:393,1,176.000005371094,4|10,0:3|0:0,0:0:0:0:
179,314,72212,1,2,0:0:0:0:
68,375,72445,6,0,L|41:168,1,176.000005371094,6|8,0:0|0:0,0:0:0:0:
97,106,73142,1,2,0:0:0:0:
197,150,73375,1,4,0:3:0:0:
283,87,73607,1,10,0:0:0:0:
283,87,73724,1,8,0:0:0:0:
283,87,73840,1,10,0:0:0:0:
368,228,74073,6,0,P|379:168|390:129,1,88.000002685547,6|0,0:0|0:0,0:0:0:0:
468,22,74538,2,0,P|477:64|485:108,1,88.000002685547,4|8,0:3|0:0,0:0:0:0:
281,59,75003,2,0,L|367:40,1,88.000002685547,6|0,0:0|0:0,0:0:0:0:
214,133,75468,2,0,L|128:113,1,88.000002685547,4|8,0:3|0:0,0:0:0:0:
23,52,75933,1,8,0:0:0:0:
23,52,76049,1,8,0:0:0:0:
23,52,76166,6,0,P|34:125|48:242,1,176.000005371094,6|12,0:0|0:3,0:0:0:0:
84,319,76863,1,0,0:0:0:0:
84,319,77096,1,8,0:0:0:0:
183,196,77328,2,0,L|168:298,1,88.000002685547,6|0,0:0|0:0,0:0:0:0:
292,381,77793,2,0,L|279:293,1,88.000002685547,6|0,0:0|0:0,0:0:0:0:
294,177,78259,5,4,0:3:0:0:
355,247,78491,1,8,0:0:0:0:
400,153,78724,1,6,0:3:0:0:
478,214,78956,1,10,0:0:0:0:
507,121,79189,1,2,0:0:0:0:
483,111,79305,1,6,0:3:0:0:
458,108,79421,1,10,0:0:0:0:
430,109,79537,1,10,0:0:0:0:
409,121,79654,2,0,L|343:129,1,44.0000013427735,10|6,0:3|0:3,0:0:0:0:
334,103,79886,5,14,0:0:0:0:
238,48,80119,2,0,L|247:111,2,64,2|2|2,0:0|0:0|0:0,0:0:0:0:
139,11,80817,2,0,L|126:99,1,64,8|2,0:3|0:0,0:0:0:0:
52,133,81282,1,10,0:0:0:0:
52,133,81398,1,8,0:0:0:0:
52,133,81514,1,10,0:0:0:0:
74,219,81747,6,0,B|148:240|149:188|232:207,1,160,4|8,0:1|0:0,0:0:0:0:
303,163,82444,2,0,L|312:84,1,80,2|4,0:0|0:3,0:0:0:0:
363,13,82910,2,0,P|404:10|455:23,1,80,2|8,0:0|0:0,0:0:0:0:
493,92,83375,2,0,L|502:171,1,80,2|4,0:0|0:3,0:0:0:0:
496,276,83840,5,2,0:0:0:0:
496,276,84072,1,10,0:0:0:0:
387,248,84305,2,0,L|222:236,1,160,2|2,0:0|0:0,0:0:0:0:
142,277,85003,2,0,P|124:312|115:352,1,80,8|0,0:0|0:0,0:0:0:0:
28,312,85468,6,0,L|17:152,1,160,4|8,0:3|0:0,0:0:0:0:
56,69,86166,2,0,L|145:45,1,80,2|4,0:0|0:3,0:0:0:0:
210,98,86631,2,0,L|287:118,1,80,2|8,0:0|0:0,0:0:0:0:
360,57,87096,1,2,0:0:0:0:
460,91,87328,6,0,P|451:142|467:279,1,160,4|12,0:3|0:0,0:0:0:0:
434,333,88026,1,0,0:0:0:0:
350,306,88259,1,4,0:3:0:0:
350,306,88375,1,8,0:0:0:0:
350,306,88491,1,8,0:0:0:0:
272,360,88724,1,8,0:0:0:0:
212,288,88956,1,8,0:0:0:0:
212,288,89073,1,8,0:0:0:0:
212,288,89189,6,0,B|156:277|156:277|54:300,1,160,4|8,0:1|0:0,0:0:0:0:
0,217,89886,2,0,L|78:199,1,80,2|4,0:0|0:3,0:0:0:0:
154,136,90352,2,0,L|242:157,1,80,2|8,0:0|0:0,0:0:0:0:
309,227,90817,6,0,P|325:283|328:319,1,80,2|4,0:0|0:3,0:0:0:0:
413,363,91282,1,2,0:0:0:0:
413,363,91514,1,10,0:0:0:0:
474,297,91747,2,0,L|485:137,1,160,2|2,0:0|0:0,0:0:0:0:
441,48,92445,2,0,P|402:42|361:46,1,80,8|0,0:0|0:0,0:0:0:0:
301,118,92910,6,0,P|224:124|141:107,1,160,4|8,0:3|0:0,0:0:0:0:
41,61,93607,2,0,P|33:95|31:142,1,80,2|4,0:0|0:3,0:0:0:0:
100,214,94073,2,0,P|108:248|106:300,1,80,2|8,0:0|0:0,0:0:0:0:
199,354,94538,1,2,0:0:0:0:
266,295,94770,6,0,B|285:254|285:254|259:142,1,160,4|12,0:3|0:0,0:0:0:0:
334,79,95468,1,2,0:0:0:0:
334,79,95584,1,2,0:0:0:0:
334,79,95700,1,10,0:0:0:0:
406,130,95933,1,10,0:0:0:0:
412,147,96049,1,10,0:0:0:0:
414,164,96165,1,10,0:0:0:0:
413,182,96281,1,10,0:0:0:0:
409,199,96398,2,0,L|404:263,1,40,10|10,0:0|0:0,0:0:0:0:
424,274,96631,5,12,0:3:0:0:
66,253,98491,6,0,B|56:170|56:170|65:134,2,120,6|6|6,0:0|0:0|0:0,0:0:0:0:
80,350,99421,1,6,0:0:0:0:
215,186,100352,6,0,P|250:178|285:181,1,55.9999982910157,4|0,0:3|0:0,0:0:0:0:
340,256,100817,1,10,0:0:0:0:
340,256,101049,2,0,L|334:319,1,55.9999982910157,4|0,0:3|0:0,0:0:0:0:
431,356,101514,2,0,L|437:292,1,55.9999982910157,2|8,0:0|0:0,0:0:0:0:
492,226,101980,1,2,0:0:0:0:
492,226,102212,5,4,0:3:0:0:
451,136,102445,2,0,P|412:126|385:125,1,55.9999982910157,0|8,0:0|0:0,0:0:0:0:
321,182,102910,2,0,B|239:201|239:201|191:180,1,111.999996582031,4|2,0:3|0:3,0:0:0:0:
129,164,103607,1,8,0:0:0:0:
47,221,103840,1,2,0:0:0:0:
47,221,104073,6,0,P|34:169|18:92,1,111.999996582031,4|10,0:0|0:0,0:0:0:0:
71,33,104770,2,0,L|133:15,1,55.9999982910157,4|0,0:3|0:0,0:0:0:0:
204,71,105235,2,0,L|266:89,1,55.9999982910157,2|8,0:0|0:0,0:0:0:0:
339,19,105700,1,2,0:0:0:0:
339,19,105933,6,0,P|343:61|360:148,1,111.999996582031,4|8,0:3|0:0,0:0:0:0:
341,231,106631,2,0,P|314:244|281:253,1,55.9999982910157,4|0,0:3|0:0,0:0:0:0:
213,196,107096,1,2,0:3:0:0:
213,196,107328,1,10,0:0:0:0:
125,246,107561,1,2,0:0:0:0:
125,246,107793,6,0,P|130:328|125:375,1,111.999996582031,4|8,0:3|0:0,0:0:0:0:
219,329,108491,2,0,L|281:313,1,55.9999982910157,4|0,0:3|0:0,0:0:0:0:
348,365,108956,2,0,L|410:380,1,55.9999982910157,2|8,0:0|0:0,0:0:0:0:
485,324,109421,1,2,0:3:0:0:
458,229,109654,5,6,0:0:0:0:
354,221,109886,1,4,0:3:0:0:
337,222,110002,1,4,0:3:0:0:
320,225,110118,1,10,0:0:0:0:
302,226,110234,1,10,0:0:0:0:
285,230,110352,2,0,L|239:235,1,27.9999991455078,10|6,0:3|0:3,0:0:0:0:
233,210,110584,5,6,0:0:0:0:
44,78,111514,6,0,L|172:65,1,128,4|10,0:1|0:0,0:0:0:0:
242,135,112212,2,0,P|284:122|310:116,1,64,2|4,0:0|0:3,0:0:0:0:
355,42,112677,2,0,P|397:55|423:61,1,64,2|8,0:0|0:0,0:0:0:0:
479,136,113142,6,0,B|456:173|456:173|460:281,1,128,2|0,0:0|0:0,0:0:0:0:
392,333,113840,1,8,0:0:0:0:
392,333,114073,2,0,P|335:359|254:353,1,128,0|2,0:0|0:0,0:0:0:0:
208,302,114770,1,10,0:0:0:0:
262,237,115003,1,2,0:0:0:0:
204,169,115235,6,0,L|208:83,1,64,4|0,0:3|0:0,0:0:0:0:
108,60,115700,1,10,0:0:0:0:
108,60,115933,2,0,L|105:123,1,64,2|4,0:0|0:3,0:0:0:0:
39,203,116398,2,0,P|36:242|37:281,1,64,2|8,0:0|0:0,0:0:0:0:
81,347,116863,2,0,P|115:359|160:369,1,64,2|4,0:0|0:3,0:0:0:0:
204,305,117328,5,2,0:0:0:0:
263,361,117561,1,10,0:0:0:0:
334,321,117793,2,0,P|370:315|465:315,1,128,2|2,0:0|0:0,0:0:0:0:
503,248,118491,1,10,0:0:0:0:
459,168,118724,1,2,0:0:0:0:
510,102,118956,6,0,P|461:72|387:85,1,128,4|10,0:1|0:0,0:0:0:0:
336,155,119654,2,0,L|255:165,1,64,2|4,0:0|0:3,0:0:0:0:
205,95,120119,2,0,L|141:87,1,64,2|8,0:0|0:0,0:0:0:0:
53,141,120584,6,0,L|61:268,1,128,2|0,0:0|0:0,0:0:0:0:
126,356,121282,2,0,P|184:367|253:365,1,128,10|6,0:0|0:3,0:0:0:0:
313,307,121980,2,0,L|376:300,2,64,2|10|2,0:0|0:0|0:0,0:0:0:0:
243,248,122677,6,0,B|221:209|221:209|232:126,1,128,6|10,0:3|0:0,0:0:0:0:
294,49,123375,2,0,L|365:39,1,64,2|4,0:0|0:3,0:0:0:0:
435,92,123840,2,0,P|440:123|441:155,1,64,2|8,0:0|0:0,0:0:0:0:
402,250,124305,6,0,B|343:262|334:227|268:237,1,128,4|6,0:0|0:3,0:0:0:0:
220,298,125003,1,14,0:0:0:0:
135,280,125235,1,10,0:0:0:0:
63,326,125468,2,0,L|20:333,3,32,10|4|6|10,0:3|0:3|0:3|0:0,0:0:0:0:
81,284,125933,2,0,L|112:289,3,32,10|10|10|4,0:0|0:0|0:3|0:3,0:0:0:0:
46,259,126398,6,0,P|41:160|79:121,1,160,4|10,0:1|0:0,0:0:0:0:
165,79,127096,2,0,L|161:0,2,80,4|2|2,0:3|0:0|0:0,0:0:0:0:
224,152,127793,2,0,L|220:231,2,80,10|2|4,0:0|0:0|0:3,0:0:0:0:
278,83,128491,5,2,0:0:0:0:
346,148,128724,1,10,0:0:0:0:
419,84,128956,1,4,0:3:0:0:
494,140,129189,2,0,P|505:176|511:222,1,80,2|2,0:0|0:0,0:0:0:0:
452,293,129654,2,0,P|441:329|435:375,1,80,10|2,0:0|0:0,0:0:0:0:
339,250,130119,6,0,L|351:357,2,80,4|2|10,0:3|0:0|0:0,0:0:0:0:
232,227,130817,2,0,L|240:147,2,80,4|2|2,0:3|0:0|0:0,0:0:0:0:
199,336,131514,1,10,0:0:0:0:
199,336,131631,1,10,0:0:0:0:
199,336,131747,2,0,L|141:354,1,40,10|10,0:0|0:0,0:0:0:0:
124,332,131980,5,14,0:3:0:0:
17,283,132212,1,14,0:3:0:0:
111,215,132445,1,14,0:3:0:0:
415,294,133607,1,8,0:0:0:0:
415,294,133724,1,8,0:0:0:0:
415,294,133840,6,0,P|441:207|432:97,1,176.000005371094,6|8,0:1|0:0,0:0:0:0:
384,45,134538,2,0,L|277:33,1,88.000002685547,2|4,0:0|0:3,0:0:0:0:
209,0,135003,1,2,0:0:0:0:
139,65,135235,1,10,0:0:0:0:
52,19,135468,6,0,L|37:138,1,88.000002685547,2|0,0:0|0:0,0:0:0:0:
68,202,135933,2,0,P|127:214|180:204,1,88.000002685547,2|10,0:0|0:0,0:0:0:0:
232,143,136398,1,2,0:0:0:0:
295,251,136631,2,0,L|286:338,1,88.000002685547,4|2,0:3|0:0,0:0:0:0:
383,384,137096,1,10,0:0:0:0:
383,384,137328,1,2,0:0:0:0:
462,326,137561,6,0,P|449:236|443:150,1,176.000005371094,6|8,0:3|0:0,0:0:0:0:
399,62,138259,1,2,0:0:0:0:
356,147,138491,1,4,0:3:0:0:
285,90,138724,1,2,0:0:0:0:
238,178,138956,1,10,0:0:0:0:
171,72,139189,6,0,B|89:41|89:111|-14:64,1,176.000005371094,2|2,0:0|0:0,0:0:0:0:
0,186,139886,2,0,L|12:274,1,88.000002685547,10|2,0:0|0:0,0:0:0:0:
103,362,140352,2,0,L|115:274,1,88.000002685547,4|2,0:3|0:0,0:0:0:0:
180,201,140817,1,10,0:0:0:0:
210,307,141049,1,2,0:0:0:0:
312,232,141282,6,0,B|355:196|389:180|389:180|422:211|482:212,1,176.000005371094,6|10,0:0|0:0,0:0:0:0:
512,116,141980,2,0,P|458:105|447:-13,1,176.000005371094,2|2,0:0|0:0,0:0:0:0:
332,0,142677,1,10,0:0:0:0:
263,67,142910,1,2,0:0:0:0:
150,1,143142,6,0,B|205:189,1,176.000005371094,6|10,0:3|0:0,0:0:0:0:
119,244,143840,2,0,P|72:248|25:242,1,88.000002685547,2|6,0:0|0:3,0:0:0:0:
113,359,144305,2,0,P|157:355|201:359,1,88.000002685547,2|8,0:0|0:0,0:0:0:0:
269,283,144770,1,2,0:0:0:0:
358,381,145003,6,0,P|366:316|389:192,1,176.000005371094,6|10,0:0|0:0,0:0:0:0:
304,155,145700,1,10,0:0:0:0:
304,155,145817,1,8,0:0:0:0:
304,155,145933,1,10,0:0:0:0:
262,234,146166,1,8,0:3:0:0:
182,195,146398,1,4,0:3:0:0:
76,284,146631,6,0,P|88:203|72:104,1,176.000005371094,6|10,0:0|0:0,0:0:0:0:
101,21,147328,1,10,0:0:0:0:
193,44,147561,2,0,L|307:57,1,88.000002685547,6|0,0:0|0:0,0:0:0:0:
280,53,147910,1,8,0:0:0:0:
280,53,148026,1,4,0:3:0:0:
374,90,148259,1,4,0:3:0:0:
440,19,148491,1,8,0:0:0:0:
440,19,148607,1,8,0:0:0:0:
440,19,148724,6,0,P|471:157|472:226,1,176.000005371094,6|8,0:1|0:0,0:0:0:0:
453,288,149421,1,2,0:0:0:0:
368,237,149654,1,4,0:3:0:0:
320,319,149886,1,2,0:0:0:0:
234,264,150119,1,10,0:0:0:0:
148,338,150352,6,0,P|110:332|50:318,1,88.000002685547,2|6,0:0|0:3,0:0:0:0:
0,217,150817,2,0,P|38:211|98:197,1,88.000002685547,2|8,0:0|0:0,0:0:0:0:
162,148,151282,1,2,0:0:0:0:
234,264,151514,2,0,P|235:200|262:63,1,176.000005371094,4|10,0:3|0:0,0:0:0:0:
193,0,152212,1,2,0:0:0:0:
63,25,152445,6,0,L|90:232,1,176.000005371094,6|8,0:0|0:0,0:0:0:0:
126,292,153142,1,2,0:0:0:0:
209,240,153375,1,4,0:3:0:0:
282,322,153607,1,10,0:0:0:0:
282,322,153724,1,8,0:0:0:0:
282,322,153840,1,10,0:0:0:0:
394,238,154073,6,0,P|383:298|372:337,1,88.000002685547,6|0,0:0|0:0,0:0:0:0:
504,237,154538,2,0,P|495:195|487:151,1,88.000002685547,4|8,0:3|0:0,0:0:0:0:
338,87,155003,2,0,L|424:68,1,88.000002685547,6|0,0:0|0:0,0:0:0:0:
273,165,155468,2,0,L|187:145,1,88.000002685547,4|8,0:3|0:0,0:0:0:0:
79,73,155933,1,10,0:0:0:0:
79,73,156049,1,8,0:0:0:0:
79,73,156166,6,0,P|90:146|104:263,1,176.000005371094,4|12,0:0|0:3,0:0:0:0:
195,318,156863,1,0,0:0:0:0:
195,318,157096,1,8,0:0:0:0:
273,245,157328,2,0,L|375:260,1,88.000002685547,6|0,0:0|0:0,0:0:0:0:
430,122,157793,2,0,L|342:135,1,88.000002685547,6|0,0:0|0:0,0:0:0:0:
260,166,158259,5,4,0:3:0:0:
203,97,158491,1,8,0:0:0:0:
160,176,158724,1,14,0:3:0:0:
103,109,158956,1,10,0:0:0:0:
21,225,159189,1,2,0:0:0:0:
11,201,159305,1,6,0:3:0:0:
8,176,159421,1,10,0:0:0:0:
9,148,159537,1,10,0:0:0:0:
21,127,159654,2,0,L|29:61,1,44.0000013427735,10|6,0:3|0:3,0:0:0:0:
12,54,159886,5,14,0:0:0:0:
113,38,160119,2,0,L|126:126,2,64,2|2|2,0:0|0:0|0:0,0:0:0:0:
223,90,160817,2,0,L|236:2,1,64,4|2,0:3|0:0,0:0:0:0:
333,1,161282,1,10,0:0:0:0:
333,1,161398,1,8,0:0:0:0:
333,1,161514,1,10,0:0:0:0:
396,72,161747,6,0,P|441:78|476:75,1,80,6|0,0:1|0:0,0:0:0:0:
505,192,162212,2,0,P|459:193|425:201,1,80,8|0,0:0|0:0,0:0:0:0:
332,168,162677,2,0,P|277:155|161:161,1,160,2|8,0:0|0:0,0:0:0:0:
84,142,163375,1,2,0:0:0:0:
26,210,163607,6,0,L|49:377,1,160,2|8,0:0|0:0,0:0:0:0:
128,313,164305,1,2,0:0:0:0:
219,358,164537,1,2,0:0:0:0:
219,358,164654,1,0,0:0:0:0:
219,358,164770,1,0,0:0:0:0:
283,299,165003,2,0,L|299:189,1,80,8|2,0:0|0:0,0:0:0:0:
364,109,165468,6,0,P|432:103|497:185,1,160,6|8,0:0|0:0,0:0:0:0:
461,253,166166,1,2,0:0:0:0:
461,253,166282,1,2,0:0:0:0:
461,253,166398,1,6,0:3:0:0:
362,223,166631,1,10,0:0:0:0:
300,289,166863,1,10,0:0:0:0:
215,192,167096,6,0,B|139:183|133:231|52:219,1,160,6|6,0:0|0:3,0:0:0:0:
0,151,167793,1,10,0:0:0:0:
59,45,168026,2,0,B|99:75|99:75|238:40,1,160,6|6,0:0|0:3,0:0:0:0:
300,6,168724,1,10,0:0:0:0:
329,8,168840,1,10,0:0:0:0:
355,22,168956,1,10,0:3:0:0:
374,45,169072,1,6,0:3:0:0:
381,73,169189,6,0,L|367:254,1,160,6|8,0:1|0:0,0:0:0:0:
339,310,169886,1,0,0:0:0:0:
244,256,170119,6,0,P|261:327|266:377,2,120,2|2|2,0:0|0:0|0:0,0:0:0:0:
147,191,171049,2,0,B|91:173|91:173|31:194,2,120,2|2|2,0:0|0:0|0:0,0:0:0:0:
248,126,171980,5,2,0:0:0:0:
344,220,172328,5,2,0:0:0:0:
479,159,172677,5,2,0:0:0:0:
434,63,172910,5,6,0:0:0:0:
361,119,173142,1,8,0:0:0:0:
361,119,173259,1,8,0:0:0:0:
361,119,173375,1,6,0:0:0:0:
293,48,173607,1,8,0:0:0:0:
293,48,173724,1,8,0:0:0:0:
293,48,173840,2,0,B|212:31|208:79|120:48,1,160,8|8,0:3|0:0,0:0:0:0:
13,19,174538,6,0,L|34:126,1,80,6|0,0:0|0:0,0:0:0:0:
0,182,175003,1,6,0:3:0:0:
39,270,175235,1,6,0:3:0:0:
104,205,175468,1,6,0:3:0:0:
137,291,175700,1,6,0:3:0:0:
225,246,175933,1,10,0:0:0:0:
225,246,176049,1,8,0:0:0:0:
225,246,176166,2,0,L|233:187,1,40,10|8,0:3|0:3,0:0:0:0:
253,176,176398,1,6,0:3:0:0:
344,116,176631,6,0,P|394:100|484:127,1,128,4|8,0:1|0:0,0:0:0:0:
502,219,177328,2,0,L|478:376,1,128,4|2,0:3|0:0,0:0:0:0:
389,376,178026,1,8,0:0:0:0:
364,292,178258,1,2,0:0:0:0:
364,292,178375,1,0,0:0:0:0:
364,292,178491,6,0,B|292:265|305:319|227:287,1,128,4|10,0:3|0:0,0:0:0:0:
200,215,179189,1,4,0:3:0:0:
62,335,179654,2,0,L|36:201,1,128,2|2,0:0|0:0,0:0:0:0:
69,116,180352,6,0,P|136:100|215:88,1,128,4|8,0:3|0:0,0:0:0:0:
285,64,181049,1,4,0:3:0:0:
285,64,181282,2,0,L|267:170,2,96,2|2|2,0:0|0:0|0:0,0:0:0:0:
366,20,182212,6,0,P|444:17|457:65,1,128,4|8,0:3|0:0,0:0:0:0:
430,140,182910,2,0,P|415:198|399:290,1,128,6|14,0:3|0:3,0:0:0:0:
355,340,183607,1,14,0:3:0:0:
277,260,183840,6,0,L|266:72,1,160,6|4,0:0|0:3,0:0:0:0:
223,26,184538,1,8,0:0:0:0:
150,67,184770,2,0,P|96:58|0:115,1,160,0|6,0:0|0:3,0:0:0:0:
0,191,185468,1,10,0:0:0:0:
98,138,185700,6,0,L|115:311,1,160,6|4,0:0|0:3,0:0:0:0:
172,365,186398,1,10,0:0:0:0:
238,310,186631,2,0,L|349:283,1,80,2|4,0:0|0:3,0:0:0:0:
315,291,186980,1,8,0:0:0:0:
315,291,187096,1,6,0:3:0:0:
387,354,187328,1,10,0:0:0:0:
479,308,187561,6,0,P|472:215|477:113,1,160,6|4,0:0|0:3,0:0:0:0:
431,74,188259,1,10,0:0:0:0:
431,74,188491,1,2,0:0:0:0:
378,143,188724,1,4,0:3:0:0:
308,84,188956,1,4,0:3:0:0:
276,172,189189,1,10,0:0:0:0:
198,97,189421,6,0,L|177:278,1,160,6|6,0:0|0:3,0:0:0:0:
114,330,190119,1,6,0:3:0:0:
24,291,190352,1,6,0:3:0:0:
33,193,190584,1,10,0:0:0:0:
33,193,190700,1,8,0:0:0:0:
33,193,190817,1,4,0:3:0:0:
128,172,191049,1,8,0:3:0:0:
179,256,191282,1,4,0:3:0:0:
179,256,191398,1,4,0:3:0:0:
179,256,191514,6,0,P|259:282|356:263,1,160,6|10,0:1|0:0,0:0:0:0:
420,216,192212,2,0,B|448:173|448:173|447:46,1,160,6|6,0:3|0:3,0:0:0:0:
390,0,192910,1,14,0:3:0:0:
318,71,193142,6,0,P|254:49|152:31,1,160,14|14,0:0|0:0,0:0:0:0:
69,8,193840,1,14,0:0:0:0:
18,90,194073,1,6,0:3:0:0:
80,163,194305,1,10,0:0:0:0:
80,163,194421,1,8,0:0:0:0:
80,163,194538,1,4,0:3:0:0:
168,126,194770,1,8,0:3:0:0:
230,199,195003,1,4,0:3:0:0:
317,134,195235,6,0,L|340:48,1,80,14|4,0:0|0:3,0:0:0:0:
397,233,195700,2,0,L|417:310,1,80,14|2,0:0|0:0,0:0:0:0:
418,311,196049,1,2,0:0:0:0:
418,311,196166,1,14,0:0:0:0:
323,378,196398,1,6,0:3:0:0:
293,384,196514,1,6,0:3:0:0:
263,382,196630,1,10,0:0:0:0:
235,373,196746,1,10,0:0:0:0:
210,356,196863,2,0,L|215:288,1,40,6|6,0:3|0:3,0:0:0:0:
193,274,197096,5,14,0:3:0:0:
89,370,197328,1,14,0:3:0:0:
57,231,197561,1,14,0:3:0:0:
57,231,199886,6,1,B|-2:222|-27:141|36:89|97:108|117:149|117:149|143:204|226:204|258:128|223:76|177:69,1,472.499999999995,4|0,0:1|0:0,0:0:0:0:
177,68,203606,6,1,B|116:60|70:131|117:198|181:197|211:163|211:163|252:118|332:141|341:222|294:263|247:257,1,472.500000000004,0|0,0:0|0:0,0:0:0:0:
172,319,206165,38,0,L|100:302,1,64,2|0,0:0|0:0,0:0:0:0:
7,235,206630,1,2,0:0:0:0:
7,235,206862,2,0,L|79:218,1,64,10|2,0:0|0:0,0:0:0:0:
149,168,207327,6,0,P|158:101|158:64,1,71.9999978027344,6|0,0:1|0:0,0:0:0:0:
217,22,207792,1,10,0:0:0:0:
217,22,208025,2,0,P|284:13|362:40,1,143.999995605469,2|0,0:0|0:0,0:0:0:0:
433,122,208723,2,0,L|449:202,1,71.9999978027344,10|2,0:0|0:0,0:0:0:0:
398,288,209188,2,0,L|382:368,1,71.9999978027344,6|0,0:3|0:0,0:0:0:0:
289,384,209653,1,10,0:0:0:0:
289,384,209885,6,0,P|274:294|281:208,1,143.999995605469,2|2,0:0|0:0,0:0:0:0:
323,164,210583,1,10,0:0:0:0:
323,164,210816,1,2,0:0:0:0:
286,85,211048,2,0,P|211:55|148:69,1,143.999995605469,6|10,0:1|0:0,0:0:0:0:
80,127,211746,1,10,0:0:0:0:
80,127,211979,5,10,0:0:0:0:
151,186,212211,1,8,0:3:0:0:
62,218,212444,1,4,0:3:0:0:
134,322,212676,6,0,B|213:358|221:287|320:332,1,160,6|10,0:0|0:0,0:0:0:0:
404,380,213374,1,10,0:0:0:0:
404,380,213490,1,0,0:0:0:0:
404,380,213606,6,0,L|421:194,1,160,14|4,0:0|0:3,0:0:0:0:
365,135,214304,1,8,0:0:0:0:
294,198,214537,1,8,0:0:0:0:
294,198,214653,1,8,0:0:0:0:
294,198,214769,6,0,B|250:229|250:229|99:202,1,176.000005371094,6|8,0:1|0:0,0:0:0:0:
29,237,215467,1,2,0:0:0:0:
0,157,215699,1,4,0:3:0:0:
93,133,215932,1,2,0:0:0:0:
89,41,216165,1,10,0:0:0:0:
196,96,216397,6,0,P|248:78|293:67,1,88.000002685547,2|6,0:0|0:3,0:0:0:0:
346,154,216862,2,0,P|387:168|429:180,1,88.000002685547,2|8,0:0|0:0,0:0:0:0:
512,118,217326,1,2,0:0:0:0:
512,236,217559,2,0,L|491:358,1,88.000002685547,4|0,0:3|0:0,0:0:0:0:
407,374,218024,1,10,0:0:0:0:
407,374,218257,1,2,0:0:0:0:
330,301,218489,6,0,B|249:273|245:343|133:298,1,176.000005371094,6|8,0:0|0:0,0:0:0:0:
84,240,219187,1,2,0:0:0:0:
119,143,219419,1,4,0:3:0:0:
224,166,219652,1,8,0:0:0:0:
224,166,219768,1,8,0:0:0:0:
224,166,219884,1,8,0:0:0:0:
299,84,220119,6,0,L|316:188,1,88.000002685547,6|0,0:0|0:0,0:0:0:0:
420,225,220584,2,0,L|434:138,1,88.000002685547,4|8,0:3|0:0,0:0:0:0:
392,7,221049,2,0,P|349:1|305:0,1,88.000002685547,6|0,0:0|0:0,0:0:0:0:
205,81,221514,2,0,P|161:78|117:72,1,88.000002685547,4|8,0:3|0:0,0:0:0:0:
4,6,221980,1,10,0:0:0:0:
4,6,222096,1,8,0:0:0:0:
4,6,222212,6,0,P|20:87|19:193,1,176.000005371094,6|12,0:0|0:3,0:0:0:0:
56,273,222910,1,0,0:0:0:0:
56,273,223142,1,8,0:0:0:0:
164,226,223375,2,0,L|149:328,1,88.000002685547,6|0,0:0|0:0,0:0:0:0:
279,384,223840,2,0,L|266:296,1,88.000002685547,6|0,0:0|0:0,0:0:0:0:
303,205,224305,5,4,0:3:0:0:
376,273,224537,1,8,0:0:0:0:
409,192,224770,1,6,0:3:0:0:
492,249,225002,1,10,0:0:0:0:
455,122,225235,1,2,0:0:0:0:
431,112,225351,1,6,0:3:0:0:
406,109,225467,1,10,0:0:0:0:
378,110,225583,1,10,0:0:0:0:
357,122,225700,2,0,L|291:130,1,44.0000013427735,10|6,0:3|0:3,0:0:0:0:
289,156,225932,5,14,0:0:0:0:
195,110,226165,2,0,L|107:123,2,64,2|2|2,0:0|0:0|0:0,0:0:0:0:
250,29,226862,2,0,L|338:42,1,64,4|2,0:3|0:0,0:0:0:0:
401,71,227327,1,10,0:0:0:0:
401,71,227444,1,8,0:0:0:0:
401,71,227560,1,10,0:0:0:0:
504,10,227792,6,0,P|484:69|478:182,1,160,4|8,0:1|0:0,0:0:0:0:
403,246,228490,2,0,L|421:324,1,80,2|4,0:0|0:3,0:0:0:0:
334,378,228955,2,0,P|288:378|250:372,1,80,2|8,0:0|0:0,0:0:0:0:
191,308,229420,2,0,L|202:214,1,80,2|4,0:0|0:3,0:0:0:0:
120,178,229884,1,2,0:0:0:0:
120,178,230118,1,10,0:0:0:0:
40,234,230351,2,0,P|29:159|28:69,1,160,2|2,0:0|0:0,0:0:0:0:
83,2,231048,2,0,P|122:-4|163:0,1,80,8|2,0:0|0:0,0:0:0:0:
233,70,231513,6,0,B|304:100|316:45|390:72,1,160,4|8,0:3|0:0,0:0:0:0:
474,137,232211,2,0,P|483:176|479:224,1,80,2|4,0:0|0:3,0:0:0:0:
418,297,232676,2,0,P|378:299|331:286,1,80,2|8,0:0|0:0,0:0:0:0:
297,198,233140,1,2,0:0:0:0:
216,248,233374,6,0,B|175:229|175:229|63:255,1,160,4|12,0:3|0:0,0:0:0:0:
8,186,234072,1,0,0:0:0:0:
55,115,234304,1,4,0:3:0:0:
55,115,234420,1,8,0:0:0:0:
55,115,234537,1,8,0:0:0:0:
136,138,234769,1,8,0:0:0:0:
183,67,235002,1,8,0:0:0:0:
183,67,235118,1,8,0:0:0:0:
183,67,235234,6,0,L|354:27,1,160,4|8,0:1|0:0,0:0:0:0:
422,108,235932,2,0,L|326:131,1,80,2|4,0:0|0:3,0:0:0:0:
253,184,236397,2,0,L|168:169,1,80,2|8,0:0|0:0,0:0:0:0:
80,209,236862,2,0,P|71:258|81:298,1,80,2|4,0:0|0:1,0:0:0:0:
163,342,237327,1,6,0:3:0:0:
179,252,237560,1,6,0:3:0:0:
268,269,237792,1,6,0:3:0:0:
251,358,238025,1,4,0:3:0:0:
347,334,238258,1,10,0:0:0:0:
347,334,238374,1,8,0:0:0:0:
347,334,238490,2,0,L|387:340,3,40,8|8|4|4,0:0|0:0|0:3|0:3,0:0:0:0:
305,299,238955,6,0,P|295:183|311:96,1,192,4|2,0:1|0:0,0:0:0:0:
164,7,240118,1,2,0:0:0:0:
147,181,240583,1,2,0:0:0:0:
147,181,240816,1,2,0:0:0:0:
256,192,240932,12,0,242676,0:0:0:0:
