osu file format v14

[General]
AudioFilename: audio.mp3
AudioLeadIn: 0
PreviewTime: 103531
Countdown: 0
SampleSet: Soft
StackLeniency: 0.9
Mode: 0
LetterboxInBreaks: 0
WidescreenStoryboard: 1

[Editor]
DistanceSpacing: 1
BeatDivisor: 12
GridSize: 32
TimelineZoom: 2

[Metadata]
Title:Yasou
TitleUnicode:夜葬
Artist:ELFENSJoN
ArtistUnicode:ELFENSJóN
Creator:iljaaz
Version:Sorrow
Source:osu!
Tags:Featured Artist Mappers' Guild ASH OF ROUGE: SIDE ELISIA alternative metalcore jrock japanese rock 黒瀬 圭亮 keisuke kurose okogeeechann 藤田 和哉 fujita kazuya 戎屋 聖一郎 Seiichiro Ebisuya みゅー YUU ORYO Shizuku-
BeatmapID:2459210
BeatmapSetID:1179300

[Difficulty]
HPDrainRate:7
CircleSize:4.2
OverallDifficulty:8.2
ApproachRate:9
SliderMultiplier:1.74
SliderTickRate:1

[Events]
//Background and Video events
0,0,"bbae87ca-163e-4711-8296-cda286701bb6.png",0,0
//Break Periods
//Storyboard Layer 0 (Background)
//Storyboard Layer 1 (Fail)
//Storyboard Layer 2 (Pass)
//Storyboard Layer 3 (Foreground)
//Storyboard Layer 4 (Overlay)
//Storyboard Sound Samples

[TimingPoints]
954,483.870967741935,4,2,4,34,1,0
2889,-119.047619047619,4,2,4,34,0,0
10631,-119.047619047619,4,2,4,40,0,0
18373,-106.382978723404,4,2,4,47,0,0
45470,-80.6451612903224,4,2,4,60,0,0
46760,-69.4444444444444,4,2,4,60,0,0
49341,-69.4444444444444,4,2,4,80,0,0
63857,322.58064516129,4,2,4,80,1,0
64824,483.870967741935,4,2,4,80,1,0
64824,-69.4444444444444,4,2,4,80,0,0
71598,322.58064516129,4,2,4,80,1,0
72565,483.870967741935,4,2,4,80,1,0
72565,-69.4444444444444,4,2,4,80,0,0
79339,322.58064516129,4,2,4,80,1,0
80306,483.870967741935,4,2,4,80,1,0
80306,-294.117647058823,4,2,4,80,0,0
80467,-294.117647058823,4,2,4,34,0,0
88047,-106.382978723404,4,2,4,47,0,0
102564,322.58064516129,4,2,4,47,1,0
103531,483.870967741935,4,2,4,37,1,0
105466,-135.135135135135,4,2,4,37,0,0
111272,-135.135135135135,4,2,4,47,0,0
119014,-106.382978723404,4,2,4,47,0,0
126756,-106.382978723404,4,2,4,60,0,0
133530,-106.382978723404,4,2,4,60,0,0
134498,-69.4444444444444,4,2,4,80,0,0
149014,322.58064516129,4,2,4,80,1,0
149981,483.870967741935,4,2,4,80,1,0
149981,-69.4444444444444,4,2,4,80,0,0
156755,322.58064516129,4,2,4,80,1,0
157722,483.870967741935,4,2,4,80,1,0
157722,-74.6268656716418,4,2,4,80,0,0
164496,322.58064516129,4,2,4,80,1,0
165463,483.870967741935,4,2,4,80,1,0
165463,-69.4444444444444,4,2,4,85,0,0
172237,322.58064516129,4,2,4,85,1,0
173204,483.870967741935,4,2,4,85,1,0
173204,-69.4444444444444,4,2,4,85,0,0
179978,322.58064516129,4,2,4,85,1,0
180945,483.870967741935,4,2,4,85,1,0
180945,-69.4444444444444,4,2,4,85,0,0
187719,322.58064516129,4,2,4,85,1,0
188686,483.870967741935,4,2,4,85,1,0
188686,-69.4444444444444,4,2,4,85,0,0
192556,-69.4444444444444,4,2,4,85,0,0
194492,-69.4444444444444,4,2,4,85,0,1
194653,-54.3478260869565,4,2,4,85,0,1
195137,-49.0196078431373,4,2,4,85,0,1
195460,-185.185185185185,4,2,4,85,0,0
196427,-185.185185185185,4,2,4,50,0,0
207073,-294.117647058823,4,2,4,50,0,0
208040,-74.6268656716417,4,2,4,60,0,0
210944,322.58064516129,4,2,4,60,1,0
211911,483.870967741935,4,2,4,80,1,0
211911,-74.6268656716417,4,2,4,80,0,0
249652,322.58064516129,4,2,4,80,1,0
250619,483.870967741935,4,2,4,80,1,0
250619,-74.6268656716417,4,2,4,80,0,0
254489,-156.25,4,2,4,60,0,0
257272,-156.25,4,2,4,30,0,0
257433,-156.25,4,2,4,60,0,0
257473,-156.25,4,2,4,60,0,0
258360,-156.25,4,2,4,45,0,0
259328,-156.25,4,2,4,35,0,0
260296,-156.25,4,2,4,25,0,0
261264,-156.25,4,2,4,15,0,0
262231,-156.25,4,2,4,5,0,0

[Colours]
Combo1 : 255,168,255
Combo2 : 235,114,145
Combo3 : 170,0,170
Combo4 : 206,6,12

[HitObjects]
504,291,2728,5,2,0:0:0:0:
504,291,2809,1,2,0:0:0:0:
504,291,2889,6,0,B|435:286|438:341|346:330,1,146.159995539551,2|2,0:0|0:0,0:0:0:0:
512,298,3857,5,2,0:0:0:0:
339,165,4180,1,2,0:0:0:0:
493,48,4502,1,2,0:0:0:0:
470,216,4824,6,0,L|463:181,3,24.3599992565918,2|2|2|2,0:0|0:0|0:0|0:0,0:0:0:0:
481,180,5148,1,2,0:0:0:0:
265,90,5470,1,2,0:0:0:0:
151,287,5793,1,2,0:0:0:0:
136,213,6115,2,0,B|218:203|198:267|285:260,1,146.159995539551,2|0,0:0|0:0,0:0:0:0:
93,62,6760,6,0,P|87:79|87:92,3,24.3599992565918,2|2|2|2,0:0|0:0|0:0|0:0,0:0:0:0:
104,107,7083,2,0,B|157:101|138:84|206:75,2,97.4399970263673,2|2|2,0:0|0:0|0:0,0:0:0:0:
277,241,8050,1,2,0:0:0:0:
98,363,8373,6,0,P|102:313|121:261,1,97.4399970263673,2|0,0:0|0:0,0:0:0:0:
313,151,9018,1,2,0:0:0:0:
193,212,9341,5,2,0:0:0:0:
397,384,9663,2,0,P|389:335|370:278,2,97.4399970263673,2|2|2,0:0|0:0|0:0,0:0:0:0:
327,214,10631,6,0,P|361:252|463:249,1,146.159995539551,6|2,3:2|0:0,0:0:0:0:
451,255,11599,6,0,P|401:262|371:317,1,97.4399970263673,2|2,0:0|0:0,0:0:0:0:
512,158,12244,1,2,0:0:0:0:
358,97,12566,5,2,0:0:0:0:
334,72,12647,1,2,0:0:0:0:
332,34,12728,1,2,0:0:0:0:
351,9,12808,1,2,0:0:0:0:
380,0,12889,6,0,B|430:8|416:25|479:40,1,97.4399970263673,2|2,0:0|0:0,0:0:0:0:
301,177,13534,2,0,L|191:203,1,97.4399970263673,2|2,0:0|0:0,0:0:0:0:
395,372,14179,1,2,0:0:0:0:
176,274,14502,5,2,0:0:0:0:
157,251,14583,1,2,0:0:0:0:
160,220,14663,1,2,0:0:0:0:
177,204,14744,1,2,0:0:0:0:
206,199,14824,1,2,0:0:0:0:
81,352,15147,1,2,0:0:0:0:
266,308,15470,6,0,B|215:299|235:283|171:273,1,97.4399970263673,2|2,0:0|0:0,0:0:0:0:
75,148,16115,1,2,0:0:0:0:
29,209,16437,1,2,0:0:0:0:
236,116,16760,2,0,B|223:65|250:79|230:14,2,97.4399970263673,2|2|2,0:0|0:0|0:0,0:0:0:0:
415,306,18050,5,0,0:0:0:0:
320,238,18212,1,0,0:0:0:0:
433,121,18373,6,0,P|432:178|397:221,1,109.039998336182,2|0,3:2|0:0,0:0:0:0:
474,380,18857,2,0,P|422:336|317:359,1,163.559997504273,2|0,3:2|0:0,0:0:0:0:
483,257,19502,1,2,0:0:0:0:
347,164,19663,1,2,0:0:0:0:
433,121,19824,1,2,0:0:0:0:
305,259,19986,6,0,B|247:242|273:220|200:204,1,109.039998336182,2|2,0:0|0:0,0:0:0:0:
61,343,20470,1,2,0:0:0:0:
132,372,20631,1,2,0:0:0:0:
66,267,20792,1,2,0:0:0:0:
139,242,20953,1,2,0:0:0:0:
49,359,21115,1,2,0:0:0:0:
188,312,21276,2,0,B|247:322|231:347|300:356,1,109.039998336182,2|0,0:0|3:2,0:0:0:0:
70,186,21921,1,8,0:2:0:0:
225,16,22244,6,0,B|259:34|259:34|275:78|249:106,1,109.039998336182,2|0,3:2|0:0,0:0:0:0:
324,222,22728,1,8,0:0:0:0:
324,222,22889,2,0,B|238:238|265:290|184:309,1,163.559997504273,2|2,0:0|0:0,0:0:0:0:
327,144,23534,1,2,3:2:0:0:
402,252,23695,1,2,0:0:0:0:
189,307,23857,6,0,P|198:279|210:217,1,54.5199991680908,2|0,0:0|0:0,0:0:0:0:
360,336,24179,2,0,P|313:370|243:344,1,109.039998336182,2|0,0:0|0:0,0:0:0:0:
408,236,24663,1,2,0:0:0:0:
268,144,24824,2,0,P|311:108|374:118,1,109.039998336182,2|0,0:0|0:0,0:0:0:0:
228,239,25308,1,2,0:0:0:0:
349,319,25470,5,0,3:2:0:0:
274,174,25631,1,2,0:0:0:0:
120,356,25792,5,8,0:0:0:0:
155,217,25953,1,0,0:0:0:0:
360,336,26115,6,0,B|397:344|397:344|413:360|413:360|479:375,1,109.039998336182,2|0,3:2|0:0,0:0:0:0:
294,187,26599,1,8,0:0:0:0:
294,187,26760,2,0,B|345:175|345:175|372:138|372:138|443:124,1,163.559997504273,2|2,0:0|0:0,0:0:0:0:
295,273,27405,1,2,0:0:0:0:
419,209,27566,1,2,0:0:0:0:
302,94,27728,2,0,L|321:18,1,54.5199991680908,2|0,0:0|0:0,0:0:0:0:
436,125,28050,5,2,0:0:0:0:
281,293,28212,2,0,L|292:360,2,54.5199991680908,2|0|0,0:0|0:0|0:0,0:0:0:0:
156,131,28695,1,2,0:0:0:0:
223,165,28857,1,2,0:0:0:0:
138,293,29018,1,2,0:0:0:0:
208,265,29179,1,2,0:0:0:0:
86,184,29341,2,0,P|72:218|67:255,1,54.5199991680908,2|0,3:2|0:0,0:0:0:0:
225,90,29663,2,0,L|211:22,1,54.5199991680908,8|0,0:0|0:0,0:0:0:0:
351,211,29986,6,0,B|390:218|390:218|409:233|409:233|465:245,1,109.039998336182,2|0,3:2|0:0,0:0:0:0:
358,128,30470,1,8,0:0:0:0:
358,128,30631,2,0,B|283:120|288:188|204:174,1,163.559997504273,2|2,0:0|0:0,0:0:0:0:
88,308,31276,1,2,3:2:0:0:
152,348,31437,1,2,0:0:0:0:
205,290,31599,1,2,0:0:0:0:
139,254,31760,1,2,0:0:0:0:
272,363,31921,6,0,B|415:315|361:453|545:412|486:256|378:289|374:338,1,327.119995008545,2|2,0:0|0:0,0:0:0:0:
374,334,33212,2,0,P|407:286|385:228,1,109.039998336182,2|2,3:2|0:0,0:0:0:0:
261,52,33857,6,0,P|209:72|138:85,1,109.039998336182,4|0,3:2|0:0,0:0:0:0:
156,83,34341,2,0,P|172:135|187:208,1,109.039998336182,2|0,3:2|0:0,0:0:0:0:
247,230,34824,1,2,3:2:0:0:
76,367,35147,1,2,0:0:0:0:
122,247,35470,1,2,0:0:0:0:
258,362,35792,6,0,P|336:373|372:296,1,163.559997504273,2|0,3:2|3:2,0:0:0:0:
488,158,36437,1,2,0:0:0:0:
506,230,36599,1,2,0:0:0:0:
356,116,36760,2,0,B|298:108|303:141|229:135,1,109.039998336182,2|2,0:0|3:2,0:0:0:0:
398,27,37405,1,2,0:0:0:0:
250,135,37728,6,0,P|304:117|381:203,1,163.559997504273,2|0,3:2|3:2,0:0:0:0:
450,342,38373,2,0,P|421:348|378:362,1,54.5199991680908,2|0,0:0|0:0,0:0:0:0:
491,243,38695,2,0,B|438:233|457:209|363:197,1,109.039998336182,2|2,3:2|0:0,0:0:0:0:
193,378,39341,1,2,0:0:0:0:
4,261,39663,6,0,P|43:195|144:215,1,163.559997504273,2|2,3:2|3:2,0:0:0:0:
216,43,40308,1,2,0:0:0:0:
148,73,40470,1,2,0:0:0:0:
285,226,40631,2,0,P|314:178|300:110,1,109.039998336182,2|2,0:0|3:2,0:0:0:0:
198,277,41276,1,2,0:0:0:0:
240,164,41599,6,0,B|332:149|310:239|425:219,1,163.559997504273,2|0,3:2|3:2,0:0:0:0:
443,173,42244,1,2,0:0:0:0:
292,368,42566,1,2,3:2:0:0:
220,135,42889,1,2,0:0:0:0:
420,322,43212,1,2,0:0:0:0:
185,279,43534,6,0,B|125:291|125:291|93:322|93:322|35:335,1,163.559997504273,2|0,3:2|3:2,0:0:0:0:
185,279,44502,6,0,P|132:286|93:226,1,109.039998336182,2|2,0:0|3:2,0:0:0:0:
279,383,45147,5,8,0:0:0:0:
351,266,45308,1,0,3:2:0:0:
375,289,45389,1,0,3:2:0:0:
370,324,45470,5,12,0:0:0:0:
219,179,45631,2,0,L|243:47,1,107.879995720093,8|0,0:0|0:0,0:0:0:0:
246,43,45953,5,8,0:0:0:0:
95,248,46115,1,10,0:0:0:0:
320,144,46276,1,0,3:2:0:0:
320,144,46357,1,0,3:2:0:0:
320,144,46437,6,0,P|350:158|401:166,1,71.9199971467286,10|8,0:0|3:0,0:0:0:0:
473,248,46679,1,8,3:0:0:0:
461,234,46760,2,0,P|414:238|383:279,1,83.5200020390625,12|0,0:0|3:0,0:0:0:0:
292,367,47002,1,0,3:0:0:0:
310,376,47083,2,0,P|303:315|272:230,1,125.280003058594,8|0,0:0|0:0,0:0:0:0:
263,242,47405,5,12,0:0:0:0:
426,336,47566,1,8,0:0:0:0:
290,158,47728,5,8,3:2:0:0:
206,334,47889,1,8,0:0:0:0:
373,209,48050,5,8,3:2:0:0:
182,117,48212,1,8,0:0:0:0:
373,209,48373,6,0,B|317:178|253:247|253:247|212:341|101:345|111:178|253:232,1,417.600010195313,4|0,3:2|0:0,0:0:0:0:
331,307,49341,6,0,B|411:319|386:368|480:383,1,167.040004078125,4|0,3:1|3:2,0:0:0:0:
294,171,49824,1,8,0:0:0:0:
244,229,49986,2,0,P|209:252|148:250,1,83.5200020390625,2|0,0:0|0:0,0:0:0:0:
323,56,50308,2,0,B|383:74|383:74|409:143|361:176,1,167.040004078125,8|2,0:0|0:0,0:0:0:0:
457,289,50792,1,2,3:2:0:0:
397,334,50953,2,0,P|357:330|324:302,1,83.5200020390625,2|0,0:0|0:0,0:0:0:0:
198,114,51276,6,0,P|122:99|62:160,1,167.040004078125,4|0,3:2|3:2,0:0:0:0:
220,112,51760,2,0,P|187:86|135:84,1,83.5200020390625,8|2,0:0|0:0,0:0:0:0:
244,219,52083,1,0,3:2:0:0:
49,382,52244,6,0,B|136:368|97:313|189:293,1,167.040004078125,10|2,0:0|0:0,0:0:0:0:
16,211,52728,1,8,0:0:0:0:
141,172,52889,1,2,0:0:0:0:
44,303,53050,1,0,3:2:0:0:
66,127,53212,6,0,B|186:98|172:216|304:186,1,250.560006117188,6|0,3:2|3:2,0:0:0:0:
439,59,53857,1,2,0:0:0:0:
355,1,54018,1,0,3:2:0:0:
343,17,54099,1,0,3:2:0:0:
345,38,54179,1,10,0:0:0:0:
476,179,54341,1,8,3:2:0:0:
319,280,54502,5,0,3:0:0:0:
392,130,54663,1,0,3:0:0:0:
408,308,54824,5,8,3:0:0:0:
319,167,54986,1,8,3:0:0:0:
408,308,55147,6,0,B|285:279|309:405|171:365,1,250.560006117188,14|0,0:0|3:2,0:0:0:0:
379,220,55792,1,2,0:0:0:0:
205,68,55953,5,0,3:2:0:0:
200,84,56034,1,0,3:2:0:0:
195,101,56115,5,8,0:0:0:0:
233,140,56195,1,8,0:0:0:0:
287,127,56276,1,8,0:0:0:0:
304,80,56357,1,8,3:2:0:0:
338,48,56437,1,8,3:0:0:0:
387,63,56518,1,0,3:0:0:0:
407,88,56599,6,0,L|395:142,1,41.7600010195313,8|8,3:0|3:0,0:0:0:0:
284,243,56760,1,8,3:0:0:0:
284,243,56841,2,0,L|275:194,1,41.7600010195313,8|8,3:0|3:0,0:0:0:0:
426,317,57002,1,8,3:0:0:0:
426,317,57083,6,0,B|379:321|347:279|347:279|352:347|296:386,1,208.800005097656,4|0,3:2|0:0,0:0:0:0:
284,384,57566,1,8,0:0:0:0:
421,235,57728,1,2,3:2:0:0:
233,140,57889,1,0,3:2:0:0:
328,259,58050,6,0,B|342:207|342:207|326:160|326:160|354:84,1,167.040004078125,14|0,0:0|0:0,0:0:0:0:
144,275,58534,1,4,3:2:0:0:
89,220,58695,2,0,L|80:131,1,83.5200020390625,2|0,0:0|0:0,0:0:0:0:
236,293,59018,6,0,B|124:274|148:375|41:350,1,208.800005097656,4|0,3:2|0:0,0:0:0:0:
28,363,59502,1,8,0:0:0:0:
212,219,59663,1,2,0:0:0:0:
81,142,59824,1,2,0:0:0:0:
224,370,59986,6,0,P|262:368|308:331,1,83.5200020390625,12|0,0:0|0:0,0:0:0:0:
411,175,60308,1,2,0:0:0:0:
298,234,60470,5,8,0:0:0:0:
463,329,60631,1,2,0:0:0:0:
364,381,60792,5,0,3:2:0:0:
490,225,60953,2,0,B|415:197|415:197|340:240|384:310,1,208.800005097656,4|0,3:2|0:0,0:0:0:0:
392,312,61437,1,0,3:2:0:0:
295,140,61599,2,0,B|264:130|264:130|256:121|256:121|201:104,1,83.5200020390625,2|0,3:2|0:0,0:0:0:0:
151,88,61841,1,0,3:2:0:0:
132,83,61921,5,8,0:0:0:0:
345,25,62083,1,8,0:0:0:0:
185,192,62244,1,8,0:0:0:0:
380,303,62405,1,8,0:0:0:0:
295,140,62566,1,8,0:0:0:0:
168,309,62728,1,8,0:0:0:0:
304,384,62889,6,0,P|293:347|287:270,1,83.5200020390625,4|0,3:2|0:0,0:0:0:0:
95,176,63212,1,2,0:0:0:0:
45,251,63373,6,0,P|63:183|69:72,1,167.040004078125,2|0,3:2|3:2,0:0:0:0:
149,0,63776,1,0,3:2:0:0:
134,11,63857,6,0,P|137:40|153:78,1,58,8|8,0:0|0:0,0:0:0:0:
230,187,64072,1,8,0:0:0:0:
274,116,64179,6,0,P|268:144|254:169,1,58,0|0,3:0|3:0,0:0:0:0:
151,285,64394,1,0,3:0:0:0:
88,237,64502,6,0,P|111:251|146:257,1,58,8|8,3:0|3:0,0:0:0:0:
289,384,64717,1,8,3:0:0:0:
328,324,64824,6,0,P|260:306|193:370,1,167.040004078125,6|2,3:2|0:0,0:0:0:0:
398,208,65307,1,8,0:0:0:0:
274,116,65469,2,0,P|276:153|304:212,1,83.5200020390625,2|0,3:2|3:2,0:0:0:0:
445,58,65791,1,8,0:0:0:0:
385,13,65953,2,0,P|368:49|363:95,1,83.5200020390625,2|0,3:2|0:0,0:0:0:0:
472,273,66275,2,0,P|498:209|498:96,1,167.040004078125,2|0,3:2|0:0,0:0:0:0:
234,250,66759,6,0,B|150:240|168:311|56:288,1,167.040004078125,6|2,3:2|0:0,0:0:0:0:
280,193,67243,1,8,0:0:0:0:
78,283,67404,2,0,P|121:281|164:323,1,83.5200020390625,2|2,0:0|0:0,0:0:0:0:
31,164,67727,1,8,0:0:0:0:
157,312,67888,2,0,L|129:143,1,167.040004078125,2|8,0:0|0:0,0:0:0:0:
8,264,68372,1,2,0:0:0:0:
238,375,68533,1,0,3:2:0:0:
253,336,68614,1,0,3:2:0:0:
231,302,68694,6,0,B|143:320|182:369|91:388,1,167.040004078125,12|0,3:2|0:0,0:0:0:0:
256,208,69178,1,0,3:2:0:0:
151,72,69340,2,0,P|128:107|132:166,1,83.5200020390625,2|0,0:0|3:2,0:0:0:0:
113,217,69582,1,0,3:2:0:0:
119,228,69662,5,8,0:0:0:0:
308,149,69824,1,0,3:2:0:0:
201,132,69985,5,8,3:0:0:0:
331,221,70146,1,0,3:0:0:0:
392,164,70307,5,0,3:2:0:0:
512,96,70469,1,0,3:2:0:0:
308,149,70630,6,0,P|286:238|278:357,1,208.800005097656,12|0,0:0|0:0,0:0:0:0:
263,366,71114,1,0,3:2:0:0:
431,231,71275,1,2,0:0:0:0:
226,100,71436,1,0,3:2:0:0:
226,100,71517,1,0,3:2:0:0:
226,100,71598,6,0,P|198:115|147:123,1,58,8|8,0:0|0:0,0:0:0:0:
75,227,71813,1,8,0:0:0:0:
16,167,71920,6,0,P|43:181|80:189,1,58,0|0,3:2|3:2,0:0:0:0:
181,301,72135,1,0,3:2:0:0:
248,240,72243,6,0,P|221:257|183:268,1,58,8|8,3:0|3:0,0:0:0:0:
82,384,72458,1,8,3:0:0:0:
111,313,72565,6,0,B|193:300|186:374|291:352,1,167.040004078125,4|0,3:2|0:0,0:0:0:0:
399,204,73048,1,8,0:0:0:0:
340,253,73210,1,2,0:0:0:0:
456,380,73371,1,2,3:2:0:0:
334,323,73532,5,8,0:0:0:0:
472,184,73694,2,0,L|449:59,1,125.280003058594,2|0,0:0|0:0,0:0:0:0:
461,46,74016,1,0,3:2:0:0:
331,170,74177,2,0,B|303:163|303:163|292:155|292:155|239:141,1,83.5200020390625,2|0,0:0|0:0,0:0:0:0:
75,33,74500,6,0,B|133:21|133:21|202:73|153:136,1,167.040004078125,4|2,3:2|0:0,0:0:0:0:
23,237,74984,1,8,0:0:0:0:
28,163,75145,2,0,P|61:172|107:206,1,83.5200020390625,2|2,0:0|3:2,0:0:0:0:
235,313,75468,2,0,B|142:323|177:360|77:369,1,167.040004078125,8|8,0:0|0:0,0:0:0:0:
71,348,75871,1,8,0:0:0:0:
71,348,75952,6,0,L|86:292,1,41.7600010195313,8|0,0:0|3:2,0:0:0:0:
180,198,76113,2,0,L|193:251,1,41.7600010195313,8|0,3:0|3:0,0:0:0:0:
101,121,76274,2,0,L|114:75,1,41.7600010195313,8|8,3:0|3:0,0:0:0:0:
235,14,76435,6,0,P|306:16|344:99,1,167.040004078125,12|0,0:0|0:0,0:0:0:0:
482,210,76919,1,0,3:0:0:0:
424,254,77081,1,2,0:0:0:0:
416,181,77242,1,2,3:2:0:0:
508,324,77403,5,8,0:0:0:0:
312,239,77565,1,8,0:0:0:0:
275,304,77726,5,0,3:0:0:0:
98,384,77887,1,0,3:0:0:0:
252,378,78048,5,8,3:0:0:0:
116,248,78210,1,8,3:0:0:0:
287,18,78371,6,0,P|272:88|265:194,1,167.040004078125,12|2,0:0|0:0,0:0:0:0:
383,58,78855,1,0,3:2:0:0:
482,210,79016,1,2,0:0:0:0:
408,142,79177,5,0,3:2:0:0:
408,142,79258,1,0,3:2:0:0:
408,142,79339,6,0,P|381:156|346:161,1,58,12|8,0:0|0:0,0:0:0:0:
248,251,79554,1,8,0:0:0:0:
193,204,79661,6,0,P|220:218|250:223,1,58,0|0,3:2|3:2,0:0:0:0:
360,318,79876,1,0,3:2:0:0:
420,274,79984,6,0,P|418:247|405:217,2,58,8|8|8,3:0|3:0|3:0,0:0:0:0:
360,318,80306,6,0,B|236:308|254:405|137:359,1,236.640001444336,2|2,3:2|0:0,0:0:0:0:
101,297,82564,1,2,0:0:0:0:
156,246,82886,1,2,0:0:0:0:
71,150,83209,6,0,L|61:95,2,39.4400002407227,2|2|2,0:0|0:0|0:0,0:0:0:0:
84,223,84176,1,2,0:0:0:0:
196,147,84499,6,0,L|246:132,1,39.4400002407227,2|2,0:0|0:0,0:0:0:0:
281,80,85144,1,2,0:0:0:0:
371,171,85467,6,0,L|422:186,1,39.4400002407227,2|2,0:0|0:0,0:0:0:0:
455,238,86112,1,2,0:0:0:0:
460,250,87080,5,2,0:0:0:0:
188,41,87685,5,2,0:0:0:0:
123,98,88047,6,0,P|107:149|96:217,1,109.039998336182,6|2,3:2|0:0,0:0:0:0:
32,125,88531,1,8,0:0:0:0:
106,212,88693,2,0,P|155:217|177:165,1,109.039998336182,2|2,0:0|0:0,0:0:0:0:
44,286,89176,1,2,0:0:0:0:
95,345,89338,2,0,P|123:352|157:370,1,54.5199991680908,2|0,3:2|0:0,0:0:0:0:
295,258,89660,2,0,P|267:291|265:330,1,81.7799987521363,2|0,0:0|0:0,0:0:0:0:
272,334,89983,6,0,B|288:276|249:294|273:213,1,109.039998336182,2|2,3:2|0:0,0:0:0:0:
382,356,90467,1,8,0:0:0:0:
449,320,90628,2,0,P|459:362|459:398,1,54.5199991680908,2|0,0:0|0:0,0:0:0:0:
349,205,90951,2,0,P|405:195|466:176,1,109.039998336182,2|0,0:0|3:2,0:0:0:0:
349,217,91596,6,0,P|303:220|284:175,1,81.7799987521363,2|0,0:0|0:0,0:0:0:0:
289,178,91918,6,0,P|233:145|179:214,1,163.559997504273,2|8,3:2|0:0,0:0:0:0:
125,260,92564,1,2,0:0:0:0:
227,356,92725,1,0,0:0:0:0:
190,297,92886,2,0,B|126:305|145:325|67:333,1,109.039998336182,2|0,0:0|3:2,0:0:0:0:
289,178,93531,6,0,P|295:137|314:86,1,81.7799987521363,2|0,0:0|0:0,0:0:0:0:
304,76,93854,2,0,P|292:104|286:139,1,54.5199991680908,2|0,3:2|0:0,0:0:0:0:
163,15,94176,2,0,P|193:11|226:0,1,54.5199991680908,2|0,0:0|3:2,0:0:0:0:
100,156,94499,2,0,P|153:169|216:196,1,109.039998336182,2|2,0:0|0:0,0:0:0:0:
100,77,94983,1,2,0:0:0:0:
212,163,95144,5,8,0:0:0:0:
65,273,95305,1,8,0:0:0:0:
50,251,95386,1,8,0:0:0:0:
54,227,95467,1,8,0:0:0:0:
114,177,95628,1,2,0:0:0:0:
282,298,95789,6,0,B|367:318|336:361|426:386,1,163.559997504273,4|8,3:2|0:0,0:0:0:0:
280,304,96757,6,0,P|347:318|356:234,1,163.559997504273,2|0,0:0|0:0,0:0:0:0:
458,114,97402,2,0,P|429:108|386:88,1,54.5199991680908,8|0,0:0|0:0,0:0:0:0:
487,229,97725,6,0,P|436:239|375:260,1,109.039998336182,2|0,3:2|0:0,0:0:0:0:
239,96,98209,2,0,P|294:99|327:142,1,109.039998336182,0|0,3:2|3:2,0:0:0:0:
174,238,98693,2,0,P|150:221|116:208,1,54.5199991680908,10|0,0:0|0:0,0:0:0:0:
268,308,99015,2,0,P|276:338|279:377,1,54.5199991680908,0|0,3:2|0:0,0:0:0:0:
105,215,99338,2,0,P|95:242|95:279,1,54.5199991680908,10|0,0:0|0:0,0:0:0:0:
318,147,99660,6,0,P|331:80|242:25,1,163.559997504273,2|0,3:2|3:2,0:0:0:0:
260,29,100305,2,0,P|262:63|281:96,1,54.5199991680908,2|0,0:0|0:0,0:0:0:0:
93,267,100628,2,0,P|148:263|190:303,2,109.039998336182,8|0|8,0:0|3:2|3:0,0:0:0:0:
85,282,101596,5,12,0:0:0:0:
230,194,101757,1,2,0:0:0:0:
131,140,101918,1,2,0:0:0:0:
265,305,102080,5,0,3:2:0:0:
148,224,102241,1,8,3:0:0:0:
296,150,102402,1,8,3:0:0:0:
179,302,102564,6,0,P|169:329|166:362,2,58,8|8|8,0:0|0:0|0:0,0:0:0:0:
248,224,102886,5,0,3:2:0:0:
317,218,102994,1,0,3:2:0:0:
356,275,103101,1,8,3:2:0:0:
412,357,103209,6,0,P|471:362|511:313,1,116,2|2,3:2|3:2,0:0:0:0:
474,259,103531,6,0,B|355:243|378:359|251:323,1,232,4|2,3:2|0:0,0:0:0:0:
485,242,104498,1,2,0:0:0:0:
102,46,105143,5,2,0:0:0:0:
181,106,105466,6,0,B|206:88|237:86|237:86|111:65,1,171.680004191406,2|2,0:0|0:0,0:0:0:0:
234,164,106434,2,0,B|322:181|278:239|374:262,1,171.680004191406,2|2,0:0|0:0,0:0:0:0:
172,366,107401,6,0,B|128:348|128:348|96:272|161:233,1,171.680004191406,2|2,0:0|0:0,0:0:0:0:
348,69,108369,2,0,B|305:60|284:101|284:101|327:139|317:189,1,171.680004191406,2|2,0:0|0:0,0:0:0:0:
458,319,109337,5,2,0:0:0:0:
470,334,109982,5,2,0:0:0:0:
388,252,110305,2,0,L|290:287,1,85.8400020957032,2|2,0:0|0:0,0:0:0:0:
416,152,110789,1,2,0:0:0:0:
329,185,110950,5,2,0:0:0:0:
418,273,111111,1,2,0:0:0:0:
422,261,111192,1,2,0:0:0:0:
425,250,111272,6,0,B|380:265|380:265|362:291|362:291|300:309,1,128.760003143555,2|0,0:0|0:0,0:0:0:0:
271,359,111918,1,2,0:0:0:0:
88,187,112240,1,2,0:0:0:0:
152,147,112401,2,0,P|163:187|165:238,1,85.8400020957032,0|0,3:2|3:2,0:0:0:0:
32,317,112885,2,0,P|27:295|28:257,1,42.9200010478516,2|0,0:0|0:0,0:0:0:0:
238,375,113208,6,0,B|172:354|197:318|118:303,1,128.760003143555,2|0,3:2|3:2,0:0:0:0:
324,149,114176,5,10,0:0:0:0:
118,318,114498,1,2,0:0:0:0:
234,149,114821,1,2,0:0:0:0:
368,349,115143,6,0,P|425:362|451:263,1,171.680004191406,2|2,0:0|0:0,0:0:0:0:
183,69,116111,1,2,0:0:0:0:
125,114,116272,2,0,P|157:138|215:141,1,85.8400020957032,0|0,3:2|0:0,0:0:0:0:
318,47,116756,2,0,L|309:-12,1,42.9200010478516,2|0,0:0|0:0,0:0:0:0:
417,110,117079,5,2,3:2:0:0:
317,208,117240,2,0,L|335:115,1,85.8400020957032,0|0,3:2|3:2,0:0:0:0:
450,266,117724,1,2,0:0:0:0:
405,209,117885,1,0,3:2:0:0:
280,324,118047,6,0,P|238:330|181:352,1,85.8400020957032,8|8,0:0|0:0,0:0:0:0:
321,244,118530,1,8,3:0:0:0:
188,191,118692,1,8,3:0:0:0:
309,132,118853,5,0,3:0:0:0:
147,269,119014,2,0,P|162:198|166:98,1,163.559997504273,4|2,3:2|3:2,0:0:0:0:
302,222,119660,1,2,0:0:0:0:
238,253,119821,1,2,0:0:0:0:
345,110,119982,2,0,P|394:131|466:141,1,109.039998336182,2|0,0:0|0:0,0:0:0:0:
506,191,120385,1,0,0:0:0:0:
506,191,120466,1,0,0:0:0:0:
415,333,120627,2,0,P|436:319|470:313,1,54.5199991680908,2|0,0:0|0:0,0:0:0:0:
476,322,120950,6,0,P|421:345|367:259,1,163.559997504273,2|0,3:2|3:2,0:0:0:0:
278,141,121595,1,2,0:0:0:0:
345,110,121756,1,0,0:0:0:0:
233,249,121918,2,0,B|171:260|198:278|109:293,1,109.039998336182,2|0,0:0|3:2,0:0:0:0:
273,384,122401,2,0,P|288:358|281:314,1,54.5199991680908,2|0,0:0|0:0,0:0:0:0:
252,269,122724,1,0,0:0:0:0:
103,167,122885,6,0,P|92:111|183:51,1,163.559997504273,4|0,3:2|3:2,0:0:0:0:
232,9,123530,1,2,0:0:0:0:
325,100,123692,1,0,0:0:0:0:
383,52,123853,2,0,P|443:65|500:88,1,109.039998336182,2|0,0:0|0:0,0:0:0:0:
331,0,124337,1,0,3:2:0:0:
387,148,124498,2,0,P|381:183|364:217,1,54.5199991680908,2|0,0:0|0:0,0:0:0:0:
208,316,124821,5,2,3:2:0:0:
334,383,124982,2,0,P|317:330|311:260,1,109.039998336182,8|0,0:0|3:2,0:0:0:0:
255,384,125466,1,2,0:0:0:0:
148,216,125627,1,0,3:2:0:0:
136,230,125708,1,0,3:2:0:0:
137,252,125789,1,10,0:0:0:0:
276,160,125950,2,0,P|317:151|393:126,1,109.039998336182,0|0,3:2|3:2,0:0:0:0:
243,236,126434,1,2,0:0:0:0:
404,334,126595,1,2,0:0:0:0:
359,218,126756,5,8,0:0:0:0:
172,358,126918,1,8,0:0:0:0:
169,373,127079,1,0,3:2:0:0:
105,197,127240,5,8,0:0:0:0:
319,330,127401,2,0,L|304:273,1,54.5199991680908,8|0,0:0|3:2,0:0:0:0:
153,104,127724,6,0,P|100:126|102:177,1,109.039998336182,12|8,0:0|0:0,0:0:0:0:
308,50,128208,1,8,0:0:0:0:
244,5,128369,5,0,3:2:0:0:
343,194,128530,1,0,3:2:0:0:
153,104,128692,1,6,3:2:0:0:
402,370,129014,6,0,L|473:346,2,54.5199991680908,0|0|2,0:0|3:2|0:0,0:0:0:0:
493,249,129498,1,2,0:0:0:0:
314,123,129660,6,0,P|323:151|324:198,1,54.5199991680908,8|0,0:0|0:0,0:0:0:0:
407,248,129982,1,2,0:0:0:0:
203,383,130143,6,0,P|212:355|213:308,1,54.5199991680908,8|0,0:0|0:0,0:0:0:0:
296,258,130465,1,2,0:0:0:0:
387,349,130627,5,12,0:0:0:0:
221,213,130789,1,8,0:0:0:0:
227,198,130950,1,0,3:2:0:0:
402,145,131111,5,8,0:0:0:0:
211,315,131272,1,8,0:0:0:0:
214,330,131434,1,0,3:2:0:0:
397,223,131595,6,0,B|340:207|356:184|288:166,1,109.039998336182,4|8,3:2|0:0,0:0:0:0:
93,305,132079,1,8,0:0:0:0:
160,211,132240,5,0,3:0:0:0:
272,272,132401,1,0,3:0:0:0:
191,357,132563,6,0,P|182:327|187:282,1,54.5199991680908,12|0,0:0|3:2,0:0:0:0:
259,164,132805,1,8,0:0:0:0:
272,148,132885,1,0,3:0:0:0:
273,126,132966,1,0,3:0:0:0:
260,101,133047,6,0,P|254:84|254:54,5,27.2599995840454,8|8|8|8|8|8,3:0|3:0|3:0|3:0|3:0|3:0,0:0:0:0:
325,58,133530,6,0,B|384:75|361:87|436:111,2,109.039998336182,6|2|2,3:2|0:0|0:0,0:0:0:0:
320,51,134498,6,0,P|379:76|380:169,1,167.040004078125,4|0,3:1|0:0,0:0:0:0:
192,319,134982,2,0,P|180:279|180:227,1,83.5200020390625,8|0,0:0|0:0,0:0:0:0:
228,181,135305,1,0,3:2:0:0:
435,321,135466,2,0,P|352:336|264:366,1,167.040004078125,8|2,0:0|0:0,0:0:0:0:
420,191,135950,2,0,P|380:181|332:159,1,83.5200020390625,2|0,3:2|0:0,0:0:0:0:
444,337,136272,1,0,0:0:0:0:
303,256,136434,6,0,B|174:225|193:358|53:310,1,250.560006117188,4|8,3:2|0:0,0:0:0:0:
315,244,137079,1,2,0:0:0:0:
150,127,137240,1,0,0:0:0:0:
236,30,137401,2,0,P|252:66|250:121,1,83.5200020390625,10|0,0:0|0:0,0:0:0:0:
98,278,137724,2,0,P|82:242|84:187,1,83.5200020390625,2|8,0:0|0:0,0:0:0:0:
264,328,138047,1,0,3:2:0:0:
201,366,138208,1,0,3:2:0:0:
278,201,138369,6,0,B|314:178|352:216|352:216|382:273|443:262,1,167.040004078125,4|0,3:2|0:0,0:0:0:0:
470,314,138853,1,0,3:2:0:0:
273,211,139014,2,0,P|326:216|348:139,1,125.280003058594,2|0,0:0|3:2,0:0:0:0:
371,144,139337,1,8,0:0:0:0:
282,303,139498,1,0,3:2:0:0:
317,83,139660,5,8,3:0:0:0:
416,263,139821,1,8,3:0:0:0:
207,354,139982,5,2,3:2:0:0:
267,227,140143,1,0,3:0:0:0:
347,363,140305,6,0,P|220:327|99:310,1,250.560006117188,4|2,3:2|3:2,0:0:0:0:
273,211,140950,1,0,3:2:0:0:
126,90,141111,1,0,3:2:0:0:
118,95,141192,1,0,3:2:0:0:
111,100,141272,2,0,L|126:155,1,41.7600010195313,8|0,0:0|0:0,0:0:0:0:
258,289,141434,5,8,0:0:0:0:
228,306,141514,1,8,0:0:0:0:
201,289,141595,2,0,L|210:242,1,41.7600010195313,0|0,3:2|3:2,0:0:0:0:
281,65,141756,5,0,3:2:0:0:
285,73,141837,1,0,3:2:0:0:
286,82,141918,2,0,L|244:95,1,41.7600010195313,8|0,3:0|3:2,0:0:0:0:
78,214,142079,2,0,L|120:227,1,41.7600010195313,8|0,3:0|3:2,0:0:0:0:
323,373,142240,6,0,P|347:324|276:230,1,167.040004078125,6|0,3:2|0:0,0:0:0:0:
108,10,142724,2,0,P|143:28|185:35,1,83.5200020390625,8|2,0:0|3:2,0:0:0:0:
12,159,143047,1,0,3:2:0:0:
190,29,143208,6,0,B|158:28|133:15|133:15|57:64|94:117,1,167.040004078125,10|2,0:0|0:0,0:0:0:0:
294,234,143692,2,0,P|292:198|255:159,1,83.5200020390625,0|2,3:2|0:0,0:0:0:0:
242,93,144014,1,0,0:0:0:0:
58,268,144176,6,0,P|130:287|230:329,1,167.040004078125,6|0,3:2|0:0,0:0:0:0:
52,253,144660,2,0,P|6:269|-5:320,1,83.5200020390625,8|2,0:0|0:0,0:0:0:0:
158,171,144982,1,0,3:2:0:0:
219,334,145143,2,0,P|283:355|336:265,1,167.040004078125,10|0,0:0|0:0,0:0:0:0:
450,151,145627,2,0,P|454:193|474:249,1,83.5200020390625,8|2,0:0|0:0,0:0:0:0:
372,76,145950,1,0,3:2:0:0:
472,240,146111,6,0,B|389:225|415:166|328:153,1,167.040004078125,6|0,3:2|0:0,0:0:0:0:
199,17,146595,2,0,B|179:27|179:27|257:43,1,83.5200020390625,0|2,3:2|0:0,0:0:0:0:
115,203,146918,1,0,3:2:0:0:
103,186,146998,1,0,3:2:0:0:
109,163,147079,5,10,0:0:0:0:
256,259,147240,1,8,0:0:0:0:
199,157,147401,5,8,0:0:0:0:
95,308,147563,1,8,0:0:0:0:
228,384,147724,5,10,0:0:0:0:
165,272,147885,1,8,0:0:0:0:
68,384,148047,5,10,0:0:0:0:
274,275,148208,2,0,B|358:288|332:342|416:361,1,167.040004078125,0|0,3:2|3:2,0:0:0:0:
256,259,148692,1,2,0:0:0:0:
416,105,148853,5,0,3:2:0:0:
416,105,148934,1,0,3:2:0:0:
416,105,149014,6,0,P|392:121|340:127,1,58,8|8,0:0|0:0,0:0:0:0:
512,254,149229,1,8,0:0:0:0:
461,305,149336,6,0,P|439:290|396:278,1,58,0|0,3:2|3:2,0:0:0:0:
488,121,149551,1,0,3:2:0:0:
384,202,149659,6,0,P|354:209|316:222,1,58,0|0,3:2|3:2,0:0:0:0:
207,101,149874,1,0,3:2:0:0:
266,50,149981,6,0,P|285:106|230:202,1,167.040004078125,2|2,3:2|0:0,0:0:0:0:
91,355,150464,2,0,P|132:363|181:381,1,83.5200020390625,8|0,0:0|3:2,0:0:0:0:
77,235,150787,1,0,3:2:0:0:
211,122,150948,6,0,P|184:194|168:292,1,167.040004078125,8|0,0:0|0:0,0:0:0:0:
44,91,151432,2,0,P|59:55|75:-4,1,83.5200020390625,0|2,3:2|0:0,0:0:0:0:
133,92,151755,1,0,0:0:0:0:
6,210,151916,6,0,B|88:225|46:283|144:308,1,167.040004078125,6|2,3:2|0:0,0:0:0:0:
291,207,152400,1,8,0:0:0:0:
346,258,152561,2,0,P|343:301|317:345,1,83.5200020390625,2|0,0:0|3:2,0:0:0:0:
188,142,152884,2,0,P|271:125|353:101,1,167.040004078125,10|2,0:0|0:0,0:0:0:0:
229,260,153368,1,8,0:0:0:0:
329,357,153529,2,0,P|369:366|419:386,1,83.5200020390625,2|0,0:0|3:2,0:0:0:0:
471,336,153771,1,0,3:2:0:0:
491,348,153851,6,0,P|446:363|401:258,1,167.040004078125,4|0,3:2|0:0,0:0:0:0:
288,149,154335,1,0,3:2:0:0:
334,20,154497,2,0,P|347:59|349:109,1,83.5200020390625,2|0,0:0|3:2,0:0:0:0:
391,162,154739,1,0,3:2:0:0:
391,162,154819,1,10,0:0:0:0:
231,57,154981,1,0,0:0:0:0:
190,119,155142,5,8,3:0:0:0:
61,170,155303,1,8,3:0:0:0:
100,104,155464,5,2,3:2:0:0:
214,243,155626,1,0,3:2:0:0:
87,384,155787,6,0,P|95:299|120:211,1,167.040004078125,4|0,3:2|0:0,0:0:0:0:
282,115,156271,1,0,3:2:0:0:
232,0,156432,2,0,P|218:39|215:103,1,83.5200020390625,2|0,0:0|3:2,0:0:0:0:
170,145,156674,1,0,3:2:0:0:
170,145,156755,6,0,P|190:163|239:172,1,58,8|8,0:0|0:0,0:0:0:0:
323,261,156970,1,8,0:0:0:0:
352,192,157077,6,0,P|375:176|423:166,1,58,0|0,3:2|3:2,0:0:0:0:
501,218,157292,1,0,3:2:0:0:
482,287,157400,6,0,P|448:276|427:257,1,58,8|8,3:0|3:0,0:0:0:0:
477,142,157615,1,8,3:0:0:0:
429,85,157722,6,0,P|358:88|339:162,1,155.439992647339,6|0,3:2|0:0,0:0:0:0:
195,309,158205,2,0,P|231:318|274:339,1,77.7199963236696,8|2,0:0|0:0,0:0:0:0:
185,176,158528,1,0,3:2:0:0:
262,196,158689,6,0,P|191:222|80:235,1,155.439992647339,10|0,0:0|0:0,0:0:0:0:
30,373,159173,2,0,P|20:338|21:292,1,77.7199963236696,0|2,3:2|0:0,0:0:0:0:
149,383,159496,1,0,0:0:0:0:
262,196,159657,6,0,B|347:210|321:260|410:280,1,155.439992647339,6|0,3:2|0:0,0:0:0:0:
227,78,160141,2,0,P|194:95|144:102,1,77.7199963236696,8|2,0:0|3:2,0:0:0:0:
283,0,160463,1,0,3:2:0:0:
447,205,160625,6,0,P|425:278|409:384,1,155.439992647339,10|8,0:0|0:0,0:0:0:0:
344,380,161028,1,8,0:0:0:0:
332,371,161109,2,0,P|338:349|341:316,1,38.8599981618348,8|0,0:0|3:2,0:0:0:0:
508,251,161270,2,0,P|502:273|497:307,1,38.8599981618348,8|8,3:0|3:0,0:0:0:0:
391,141,161431,1,8,3:0:0:0:
273,260,161592,6,0,P|218:311|110:303,1,155.439992647339,6|0,3:2|0:0,0:0:0:0:
227,78,162076,2,0,P|186:85|142:115,1,77.7199963236696,0|0,3:2|0:0,0:0:0:0:
288,159,162399,1,0,3:2:0:0:
288,159,162480,1,0,3:2:0:0:
288,159,162560,5,8,0:0:0:0:
92,230,162722,1,8,0:0:0:0:
140,125,162883,5,0,3:2:0:0:
273,260,163044,1,0,3:2:0:0:
130,334,163205,5,8,3:0:0:0:
199,204,163367,1,8,3:0:0:0:
349,333,163528,6,0,P|422:334|444:249,1,155.439992647339,12|2,0:0|0:0,0:0:0:0:
288,159,164012,1,0,3:2:0:0:
419,36,164173,2,0,P|415:79|384:118,1,77.7199963236696,2|0,0:0|3:2,0:0:0:0:
441,170,164415,1,0,3:2:0:0:
441,170,164496,6,0,P|414:186|373:191,1,58,8|8,0:0|0:0,0:0:0:0:
259,83,164711,1,8,0:0:0:0:
201,38,164818,6,0,P|171:42|135:64,1,58,0|0,3:2|3:2,0:0:0:0:
80,200,165033,1,0,3:2:0:0:
17,144,165141,6,0,P|41:160|81:169,1,58,8|8,3:0|3:0,0:0:0:0:
199,295,165356,1,8,3:0:0:0:
253,244,165463,6,0,P|243:204|238:137,1,83.5200020390625,4|8,3:2|0:0,0:0:0:0:
63,329,165785,1,0,3:2:0:0:
109,267,165946,6,0,B|187:289|157:349|243:371,1,167.040004078125,8|0,0:0|3:2,0:0:0:0:
410,127,166430,1,8,0:0:0:0:
262,184,166592,1,0,3:2:0:0:
467,300,166753,1,2,0:0:0:0:
353,208,166914,1,0,3:2:0:0:
329,335,167075,5,8,0:0:0:0:
482,190,167237,1,8,0:0:0:0:
359,57,167398,5,4,3:2:0:0:
277,84,167559,2,0,P|255:120|260:178,1,83.5200020390625,8|0,0:0|3:2,0:0:0:0:
93,367,167882,2,0,P|124:317|231:330,1,167.040004078125,12|0,0:0|0:0,0:0:0:0:
31,204,168366,5,8,0:0:0:0:
93,367,168527,1,0,3:2:0:0:
128,186,168688,5,0,3:2:0:0:
28,296,168850,1,0,3:2:0:0:
186,253,169011,5,8,3:0:0:0:
65,125,169172,1,8,3:0:0:0:
65,125,169253,1,8,3:0:0:0:
65,125,169333,6,0,B|86:48|86:48|136:20|175:70,1,167.040004078125,4|0,3:2|3:2,0:0:0:0:
345,217,169817,2,0,B|302:200|267:231|267:231|245:283|176:276,1,167.040004078125,8|0,0:0|0:0,0:0:0:0:
326,88,170301,1,8,0:0:0:0:
198,269,170463,2,0,P|245:266|277:306,1,83.5200020390625,2|0,3:2|0:0,0:0:0:0:
369,382,170785,6,0,L|339:180,1,167.040004078125,2|0,3:2|3:2,0:0:0:0:
100,348,171269,1,12,0:0:0:0:
191,164,171430,1,0,3:2:0:0:
270,288,171592,1,0,3:2:0:0:
121,223,171753,5,8,0:0:0:0:
292,105,171914,2,0,P|255:125|204:130,1,83.5200020390625,2|0,0:0|3:2,0:0:0:0:
76,19,172237,5,8,0:0:0:0:
94,21,172344,2,0,P|113:43|114:87,1,58,8|8,0:0|0:0,0:0:0:0:
34,215,172559,5,0,3:2:0:0:
15,201,172667,2,0,P|23:177|69:146,1,58,0|0,3:2|3:2,0:0:0:0:
219,182,172882,5,8,3:0:0:0:
209,196,172989,2,0,P|179:191|152:168,1,58,8|8,3:0|3:0,0:0:0:0:
0,58,173204,6,0,P|40:50|100:29,1,83.5200020390625,4|0,3:2|0:0,0:0:0:0:
289,106,173526,1,0,0:0:0:0:
147,311,173687,6,0,P|229:326|319:361,1,167.040004078125,8|0,0:0|3:2,0:0:0:0:
137,138,174171,2,0,P|81:129|37:225,1,167.040004078125,8|0,0:0|3:2,0:0:0:0:
244,47,174655,1,2,3:2:0:0:
289,106,174816,2,0,P|332:123|396:128,1,83.5200020390625,0|0,3:2|3:2,0:0:0:0:
451,278,175139,6,0,B|360:292|392:350|285:357,1,167.040004078125,4|0,3:2|0:0,0:0:0:0:
447,266,175623,2,0,P|401:278|373:313,1,83.5200020390625,8|0,0:0|0:0,0:0:0:0:
241,182,175945,1,0,3:2:0:0:
170,206,176107,2,0,P|169:169|189:92,1,83.5200020390625,8|0,0:0|0:0,0:0:0:0:
143,58,176429,1,0,3:2:0:0:
315,164,176591,2,0,P|310:242|292:339,1,167.040004078125,8|0,0:0|3:2,0:0:0:0:
0,384,177074,6,0,P|5:306|23:209,1,167.040004078125,4|0,3:2|3:2,0:0:0:0:
98,200,177558,2,0,P|95:242|81:293,1,83.5200020390625
44,143,177881,1,0,3:2:0:0:
44,143,177962,1,0,3:2:0:0:
44,143,178042,5,8,0:0:0:0:
210,245,178204,1,8,0:0:0:0:
81,303,178365,1,8,0:0:0:0:
161,137,178526,1,8,0:0:0:0:
244,170,178687,5,8,0:0:0:0:
285,354,178849,1,8,0:0:0:0:
185,261,179010,5,12,0:0:0:0:
388,132,179171,2,0,P|354:109|296:113,1,83.5200020390625,0|0,3:2|0:0,0:0:0:0:
438,323,179494,2,0,P|375:377|284:356,1,167.040004078125,0|0,3:2|3:2,0:0:0:0:
268,298,179897,1,0,3:2:0:0:
289,286,179978,6,0,P|316:288|343:316,2,58,8|8|8,0:0|0:0|0:0,0:0:0:0:
211,209,180300,1,0,3:0:0:0:
165,265,180408,2,0,P|138:285|100:292,1,58,0|0,3:2|3:2,0:0:0:0:
0,180,180623,1,8,3:0:0:0:
47,124,180730,2,0,P|78:129|112:150,1,58,8|8,3:0|3:0,0:0:0:0:
10,267,180945,5,4,3:2:0:0:
196,111,181106,2,0,P|184:75|185:13,1,83.5200020390625,8|0,0:0|3:2,0:0:0:0:
448,204,181428,2,0,B|487:271|422:318|422:318|381:302,1,167.040004078125,12|0,0:0|0:0,0:0:0:0:
508,146,181912,1,8,0:0:0:0:
383,297,182074,2,0,B|416:310|416:310|425:319|425:319|481:344,1,83.5200020390625,2|0,3:2|0:0,0:0:0:0:
334,170,182396,1,0,3:2:0:0:
334,170,182477,1,0,3:2:0:0:
334,170,182557,1,8,0:0:0:0:
201,337,182719,1,8,0:0:0:0:
322,252,182880,5,4,3:2:0:0:
184,99,183041,2,0,P|217:124|269:128,1,83.5200020390625,8|0,0:0|3:2,0:0:0:0:
132,272,183364,2,0,B|41:262|66:334|-36:315,1,167.040004078125,8|0,0:0|0:0,0:0:0:0:
201,200,183848,1,10,0:0:0:0:
26,86,184009,1,2,3:2:0:0:
20,167,184170,5,2,3:2:0:0:
143,40,184332,1,2,3:2:0:0:
201,89,184493,5,8,3:0:0:0:
345,204,184654,1,8,3:0:0:0:
355,179,184735,1,8,3:0:0:0:
346,152,184815,5,10,0:0:0:0:
201,200,184977,1,2,0:0:0:0:
322,48,185138,1,2,0:0:0:0:
444,293,185299,5,12,0:0:0:0:
346,152,185461,2,0,P|331:192|329:258,1,83.5200020390625,2|0,3:2|3:2,0:0:0:0:
146,375,185783,1,10,0:0:0:0:
189,235,185945,2,0,P|203:276|206:337,1,83.5200020390625,2|0,3:2|0:0,0:0:0:0:
37,159,186267,2,0,P|8:239|4:339,1,167.040004078125,2|0,3:2|3:2,0:0:0:0:
250,87,186751,6,0,B|250:47|190:29|190:29|97:64,1,167.040004078125,4|0,3:2|0:0,0:0:0:0:
291,258,187235,1,10,0:0:0:0:
149,154,187396,1,2,0:0:0:0:
266,65,187557,1,2,3:2:0:0:
184,264,187719,6,0,P|173:292|168:338,2,58,8|8|8,0:0|0:0|0:0,0:0:0:0:
325,185,188041,2,0,P|323:217|310:254,1,58,0|0,3:2|3:2,0:0:0:0:
340,313,188256,1,0,3:2:0:0:
152,326,188364,6,0,P|157:297|176:249,1,58,0|0,3:2|3:2,0:0:0:0:
112,218,188579,1,8,3:0:0:0:
291,258,188686,6,0,B|347:284|347:284|373:322|373:322|438:353,1,167.040004078125,6|0,3:2|0:0,0:0:0:0:
149,154,189169,2,0,B|87:173|87:173|61:199|61:199|-21:223,1,167.040004078125,10|0,0:0|3:2,0:0:0:0:
205,17,189653,2,0,B|221:55|221:55|212:106,1,83.5200020390625,10|2,0:0|0:0,0:0:0:0:
299,243,189976,1,2,3:2:0:0:
149,154,190137,1,2,3:2:0:0:
289,77,190298,1,2,0:0:0:0:
205,17,190460,1,0,0:0:0:0:
314,255,190621,6,0,P|358:249|406:216,1,83.5200020390625,6|2,3:2|0:0,0:0:0:0:
434,170,190944,1,2,0:0:0:0:
244,331,191105,2,0,P|180:334|115:255,1,167.040004078125,10|2,0:0|3:2,0:0:0:0:
331,382,191589,5,8,0:0:0:0:
106,252,191750,1,2,0:0:0:0:
240,226,191911,5,2,3:2:0:0:
89,368,192073,1,8,0:0:0:0:
233,312,192234,1,2,3:2:0:0:
82,162,192395,1,0,3:2:0:0:
275,42,192556,6,0,B|323:29|358:67|358:67|367:116|427:131,1,167.040004078125,6|0,3:2|0:0,0:0:0:0:
263,32,193040,2,0,P|231:69|238:123,1,83.5200020390625,0|2,3:2|0:0,0:0:0:0:
434,242,193363,1,0,3:2:0:0:
450,221,193444,1,0,3:2:0:0:
449,192,193524,5,10,0:0:0:0:
233,312,193686,1,8,0:0:0:0:
171,252,193847,5,8,0:0:0:0:
10,178,194008,1,8,0:0:0:0:
229,101,194169,5,8,0:0:0:0:
124,361,194331,1,8,0:0:0:0:
73,30,194492,5,14,0:0:0:0:
269,241,194653,2,0,P|321:239|370:196,2,106.719996417481,2|2|0,3:2|0:0|3:2,0:0:0:0:
9,384,195137,2,0,P|5:313|98:243,1,177.480001083252,2|0,0:0|0:0,0:0:0:0:
171,168,195460,6,0,B|174:180|174:180|169:219|169:219|172:230,2,62.6400015292969,14|2|2,0:0|0:0|0:0,0:0:0:0:
165,160,196427,5,2,0:0:0:0:
78,245,196750,1,2,0:0:0:0:
223,340,197073,1,2,0:0:0:0:
166,384,197395,1,2,0:0:0:0:
340,105,198363,6,0,P|373:100|411:86,1,62.6400015292969,2|2,0:0|0:0,0:0:0:0:
276,38,199008,1,2,0:0:0:0:
193,189,199331,6,0,P|163:182|128:166,1,62.6400015292969,2|2,0:0|0:0,0:0:0:0:
230,118,199976,1,2,0:0:0:0:
376,211,200298,6,0,P|390:269|398:342,1,125.280003058594,2|2,0:0|0:0,0:0:0:0:
107,102,201266,2,0,P|93:160|85:233,1,125.280003058594,2|2,0:0|0:0,0:0:0:0:
286,25,202234,1,2,0:0:0:0:
233,75,202556,1,2,0:0:0:0:
303,108,202879,1,2,0:0:0:0:
355,53,203202,5,2,0:0:0:0:
231,157,203524,1,2,0:0:0:0:
425,268,203847,1,2,0:0:0:0:
274,345,204169,6,0,B|206:341|233:373|139:364,1,125.280003058594,2|2,0:0|0:0,0:0:0:0:
38,206,205137,2,0,P|74:191|144:237,1,125.280003058594,2|2,0:0|0:0,0:0:0:0:
298,118,206105,2,0,P|285:154|282:191,1,62.6400015292969,2|2,0:0|0:0,0:0:0:0:
374,322,206750,1,2,0:0:0:0:
441,355,207073,6,0,P|459:323|448:285,1,73.950000451355,2|2,0:0|0:0,0:0:0:0:
292,136,207879,1,0,3:2:0:0:
289,151,207960,1,0,3:2:0:0:
283,179,208040,5,10,0:0:0:0:
436,109,208202,2,0,L|419:17,1,77.7199963236696,8|0,0:0|0:0,0:0:0:0:
360,200,208524,6,0,B|304:214|304:214|284:235|284:235|213:253,1,155.439992647339,0|0,3:2|0:0,0:0:0:0:
69,31,209008,1,10,0:0:0:0:
218,119,209169,1,0,3:2:0:0:
175,184,209331,5,8,3:0:0:0:
13,253,209492,1,8,3:0:0:0:
75,138,209653,5,8,3:0:0:0:
151,322,209815,1,8,3:0:0:0:
0,245,209976,5,10,0:0:0:0:
226,26,210137,2,0,P|209:65|205:115,1,77.7199963236696,0|0,3:2|0:0,0:0:0:0:
352,319,210460,2,0,P|378:249|388:162,1,155.439992647339,0|0,3:2|0:0,0:0:0:0:
443,117,210863,1,0,3:2:0:0:
432,94,210944,6,0,P|402:89|368:74,1,58,10|8,0:0|0:0,0:0:0:0:
238,144,211159,1,8,0:0:0:0:
163,136,211266,6,0,P|193:130|222:115,1,58,2|0,3:2|3:2,0:0:0:0:
363,211,211481,1,0,3:2:0:0:
430,249,211589,6,0,P|405:245|376:228,1,58,8|8,3:0|3:0,0:0:0:0:
222,333,211804,1,8,3:0:0:0:
248,265,211911,5,4,3:1:0:0:
360,350,212072,2,0,B|441:340|438:393|538:384,1,155.439992647339,8|0,0:0|3:2,0:0:0:0:
283,201,212556,1,2,3:2:0:0:
145,336,212717,1,0,3:0:0:0:
283,201,212878,6,0,B|273:149|273:149|292:105|292:105|277:44,1,155.439992647339,10|0,0:0|3:2,0:0:0:0:
435,222,213362,2,0,B|402:241|402:241|353:233,1,77.7199963236696,0|2,3:2|0:0,0:0:0:0:
201,35,213685,1,0,0:0:0:0:
359,144,213846,5,6,3:2:0:0:
180,272,214007,2,0,P|145:264|104:233,1,77.7199963236696,8|2,0:0|0:0,0:0:0:0:
255,141,214330,2,0,P|269:211|274:307,1,155.439992647339,2|0,3:2|3:2,0:0:0:0:
78,75,214814,2,0,P|68:108|60:159,1,77.7199963236696,10|0,0:0|0:0,0:0:0:0:
197,24,215136,1,2,3:2:0:0:
49,162,215298,1,8,0:0:0:0:
214,343,215459,2,0,P|253:338|285:302,1,77.7199963236696,2|0,0:0|3:2,0:0:0:0:
258,245,215701,1,0,3:2:0:0:
247,238,215781,6,0,B|163:231|176:290|78:271,1,155.439992647339,6|0,0:0|0:0,0:0:0:0:
329,120,216265,2,0,P|361:143|411:149,1,77.7199963236696,0|2,3:2|3:2,0:0:0:0:
488,279,216588,1,0,3:2:0:0:
501,257,216669,1,0,3:2:0:0:
487,232,216749,6,0,B|427:264|427:264|393:322|450:360,1,155.439992647339,10|8,0:0|3:0,0:0:0:0:
409,133,217233,1,8,3:0:0:0:
488,279,217394,5,8,3:0:0:0:
306,217,217556,1,8,3:0:0:0:
210,291,217717,6,0,B|161:301|161:301|134:325|134:325|56:342,1,155.439992647339,6|0,3:2|0:0,0:0:0:0:
217,132,218201,2,0,B|231:172|231:172|222:221,1,77.7199963236696,0|0,3:2|3:2,0:0:0:0:
57,112,218523,1,0,3:2:0:0:
57,112,218604,1,0,3:2:0:0:
57,112,218685,6,0,L|67:48,2,38.8599981618348,10|8|8,0:0|0:0|0:0,0:0:0:0:
107,164,218927,1,0,3:0:0:0:
114,175,219007,2,0,L|119:224,1,38.8599981618348,8|0,3:0|3:0,0:0:0:0:
56,254,219169,2,0,L|45:307,1,38.8599981618348,8|0,3:0|3:0,0:0:0:0:
98,350,219330,1,8,3:0:0:0:
125,363,219411,1,8,3:0:0:0:
154,356,219491,1,8,3:0:0:0:
175,338,219572,1,8,3:0:0:0:
185,301,219652,5,6,3:2:0:0:
295,157,219814,2,0,P|356:144|425:222,1,155.439992647339,8|0,0:0|3:2,0:0:0:0:
415,347,220298,2,0,P|379:331|329:318,1,77.7199963236696,2|0,3:2|3:2,0:0:0:0:
444,117,220620,2,0,P|370:143|265:158,1,155.439992647339,10|0,0:0|3:2,0:0:0:0:
486,259,221104,1,0,3:2:0:0:
318,332,221265,1,2,3:2:0:0:
413,373,221427,1,0,3:2:0:0:
259,150,221588,5,6,3:2:0:0:
451,50,221749,2,0,P|429:122|421:220,1,155.439992647339,8|0,0:0|3:2,0:0:0:0:
285,47,222233,1,2,3:2:0:0:
163,151,222394,1,0,3:2:0:0:
61,47,222556,6,0,P|97:39|149:17,1,77.7199963236696,8|0,0:0|0:0,0:0:0:0:
31,204,222878,1,8,0:0:0:0:
205,268,223040,1,8,0:0:0:0:
139,133,223201,5,2,3:2:0:0:
51,313,223362,1,8,3:0:0:0:
229,185,223523,5,14,0:0:0:0:
318,347,223685,2,0,B|347:358|347:358|359:368|359:368|420:388,1,77.7199963236696,8|0,0:0|0:0,0:0:0:0:
205,268,224007,5,8,0:0:0:0:
404,180,224169,1,8,0:0:0:0:
491,336,224330,5,0,3:2:0:0:
481,330,224411,1,0,3:2:0:0:
464,320,224491,1,8,0:0:0:0:
309,147,224652,1,8,0:0:0:0:
254,200,224814,5,0,3:2:0:0:
67,313,224975,1,0,3:2:0:0:
32,239,225136,5,8,3:0:0:0:
146,331,225298,1,8,3:0:0:0:
0,384,225459,5,12,0:0:0:0:
158,229,225620,2,0,P|162:190|179:124,1,77.7199963236696,8|2,0:0|0:0,0:0:0:0:
36,21,225943,1,8,0:0:0:0:
182,164,226104,6,0,P|178:201|166:248,1,77.7199963236696,8|0,0:0|0:0,0:0:0:0:
215,304,226346,1,0,3:2:0:0:
215,304,226427,5,10,0:0:0:0:
489,144,226749,5,2,0:0:0:0:
250,0,227072,5,2,0:0:0:0:
334,145,227394,6,0,P|341:218|339:316,1,155.439992647339,4|0,3:1|0:0,0:0:0:0:
123,383,227878,2,0,P|119:347|122:300,1,77.7199963236696,0|0,3:2|0:0,0:0:0:0:
168,240,228201,1,0,3:2:0:0:
265,308,228362,6,0,B|348:318|315:371|420:380,1,155.439992647339,8|0,0:0|3:2,0:0:0:0:
261,172,228846,2,0,P|300:161|338:142,1,77.7199963236696
419,249,229169,1,0,0:0:0:0:
302,77,229330,5,4,3:2:0:0:
168,240,229491,2,0,B|139:232|139:232|126:223|126:223|80:209,1,77.7199963236696,8|0,0:0|0:0,0:0:0:0:
307,332,229814,2,0,B|246:345|246:345|217:375|217:375|151:388,1,155.439992647339,0|0,3:2|3:2,0:0:0:0:
85,103,230298,6,0,B|137:128|136:188|136:188|118:213|87:214,1,155.439992647339,8|0,0:0|3:2,0:0:0:0:
307,332,230781,1,8,0:0:0:0:
166,384,230943,2,0,P|171:345|190:296,1,77.7199963236696,0|0,3:2|3:2,0:0:0:0:
390,129,231265,6,0,P|376:172|275:194,1,155.439992647339,4|0,3:2|0:0,0:0:0:0:
409,100,231749,2,0,P|412:143|384:192,1,77.7199963236696,0|0,3:2|0:0,0:0:0:0:
465,343,232072,1,0,3:2:0:0:
485,321,232152,1,0,3:2:0:0:
479,288,232233,5,8,0:0:0:0:
278,195,232394,1,8,0:0:0:0:
224,140,232556,5,0,3:2:0:0:
50,232,232717,1,0,3:2:0:0:
113,290,232878,5,8,3:0:0:0:
40,148,233040,1,8,3:0:0:0:
237,318,233201,5,12,0:0:0:0:
336,137,233362,2,0,P|347:101|356:52,1,77.7199963236696,0|0,0:0|3:2,0:0:0:0:
506,212,233685,2,0,P|458:272|364:255,1,155.439992647339,0|0,3:2|3:2,0:0:0:0:
327,308,234088,1,0,3:2:0:0:
307,290,234169,6,0,P|302:273|306:243,2,38.8599981618348,8|8|8,0:0|0:0|0:0,0:0:0:0:
258,341,234410,1,8,0:0:0:0:
252,353,234491,2,0,L|199:368,1,38.8599981618348,2|0,3:2|3:2,0:0:0:0:
77,251,234652,1,0,3:2:0:0:
75,258,234733,1,0,3:2:0:0:
73,267,234814,2,0,L|117:285,1,38.8599981618348,2|0,3:2|3:2,0:0:0:0:
249,177,234975,1,8,3:0:0:0:
249,177,235056,1,8,3:0:0:0:
249,177,235136,6,0,B|299:100|226:48|226:48|175:62,1,194.299990809174,6|0,3:2|0:0,0:0:0:0:
177,69,235620,2,0,B|200:75|200:75|210:84|210:84|255:96,1,77.7199963236696,0|2,3:2|0:0,0:0:0:0:
387,247,235943,1,0,0:0:0:0:
477,90,236104,2,0,P|423:82|362:159,1,155.439992647339,8|2,0:0|3:2,0:0:0:0:
475,304,236588,1,2,0:0:0:0:
293,384,236749,2,0,P|301:338|322:301,1,77.7199963236696,2|8,3:2|0:0,0:0:0:0:
146,123,237072,6,0,B|219:83|279:152|272:182|223:181,1,155.439992647339,4|0,3:2|0:0,0:0:0:0:
328,48,237556,2,0,B|361:41|361:41|370:35|370:35|419:24,1,77.7199963236696,2|0,3:2|0:0,0:0:0:0:
267,254,237878,1,8,0:0:0:0:
135,119,238040,2,0,P|88:106|27:194,1,155.439992647339,4|0,3:2|3:2,0:0:0:0:
208,27,238523,1,8,0:0:0:0:
338,161,238685,1,2,0:0:0:0:
239,102,238846,5,0,3:2:0:0:
53,261,239007,2,0,B|131:282|106:317|186:343,1,155.439992647339,6|0,3:2|0:0,0:0:0:0:
31,103,239491,1,0,3:2:0:0:
24,177,239652,2,0,P|64:171|116:141,1,77.7199963236696,2|0,0:0|3:2,0:0:0:0:
168,156,239894,1,0,3:2:0:0:
170,146,239975,5,8,0:0:0:0:
46,275,240136,1,8,3:2:0:0:
234,219,240298,5,0,3:2:0:0:
285,376,240459,1,0,3:2:0:0:
154,234,240620,5,0,3:0:0:0:
323,145,240781,1,0,3:2:0:0:
205,293,240943,6,0,P|195:196|176:89,1,194.299990809174,4|0,3:2|0:0,0:0:0:0:
193,79,241427,1,0,3:2:0:0:
340,163,241588,2,0,P|377:172|421:194,1,77.7199963236696,2|0,0:0|3:2,0:0:0:0:
480,160,241830,1,0,3:2:0:0:
491,167,241910,5,8,0:0:0:0:
321,254,242072,1,8,0:0:0:0:
483,311,242233,5,0,3:2:0:0:
324,148,242394,1,0,3:2:0:0:
386,313,242556,5,8,0:0:0:0:
394,298,242636,1,0,3:2:0:0:
414,96,242798,5,8,0:0:0:0:
402,112,242878,2,0,P|404:149|421:211,1,77.7199963236696,4|0,3:2|0:0,0:0:0:0:
264,58,243201,1,0,0:0:0:0:
158,197,243362,2,0,P|112:210|43:114,1,155.439992647339,4|0,3:2|0:0,0:0:0:0:
309,259,243846,6,0,P|323:298|329:368,1,77.7199963236696,8|0,0:0|0:0,0:0:0:0:
246,197,244169,1,0,3:2:0:0:
331,94,244330,2,0,P|402:74|493:63,1,155.439992647339,2|0,3:2|0:0,0:0:0:0:
300,268,244814,6,0,B|220:264|231:308|142:296,1,155.439992647339,4|0,3:2|0:0,0:0:0:0:
54,96,245298,2,0,P|101:86|162:172,1,155.439992647339,4|0,3:2|0:0,0:0:0:0:
10,255,245781,2,0,P|7:217|-5:164,1,77.7199963236696,8|0,0:0|0:0,0:0:0:0:
202,308,246104,1,0,3:2:0:0:
93,384,246265,2,0,P|94:341|118:276,1,77.7199963236696,8|0,0:0|0:0,0:0:0:0:
308,145,246588,1,0,3:2:0:0:
254,70,246749,6,0,P|299:113|407:108,1,155.439992647339,4|0,3:2|0:0,0:0:0:0:
512,218,247233,2,0,B|496:195|457:191|457:191|385:229|416:292,1,155.439992647339,2|0,3:2|3:2,0:0:0:0:
377,327,247636,1,0,3:2:0:0:
385,338,247717,5,8,0:0:0:0:
458,161,247878,1,8,0:0:0:0:
313,204,248040,5,0,3:2:0:0:
487,300,248201,1,0,3:2:0:0:
283,308,248362,5,8,3:0:0:0:
438,180,248523,1,8,3:0:0:0:
395,351,248685,5,4,3:2:0:0:
231,166,248846,2,0,L|137:191,1,77.7199963236696,0|0,0:0|3:2,0:0:0:0:
300,16,249169,2,0,B|355:28|355:28|382:45|382:45|456:63,1,155.439992647339,0|0,3:2|3:2,0:0:0:0:
500,120,249572,1,0,3:2:0:0:
500,120,249652,6,0,P|505:150|493:181,1,58,8|8,0:0|0:0,0:0:0:0:
375,253,249867,1,8,0:0:0:0:
446,294,249974,6,0,P|417:292|387:273,1,58,2|0,3:2|3:2,0:0:0:0:
313,147,250189,1,0,3:2:0:0:
276,206,250297,6,0,P|279:177|298:142,1,58,8|8,3:0|3:0,0:0:0:0:
510,250,250512,1,8,3:0:0:0:
446,294,250619,6,0,P|360:309|276:343,1,155.439992647339,6|2,3:2|0:0,0:0:0:0:
428,99,251102,2,0,P|390:91|341:72,1,77.7199963236696,2|0,3:2|0:0,0:0:0:0:
463,190,251425,1,0,3:2:0:0:
246,271,251586,2,0,B|330:286|303:333|392:353,1,155.439992647339,8|2,0:0|0:0,0:0:0:0:
212,146,252070,1,2,3:2:0:0:
281,104,252231,2,0,P|292:138|291:196,1,77.7199963236696,2|0,3:2|0:0,0:0:0:0:
134,355,252554,6,0,P|118:283|116:188,1,155.439992647339,6|2,3:2|0:0,0:0:0:0:
64,143,253038,1,2,3:2:0:0:
246,271,253199,1,2,0:0:0:0:
118,375,253360,1,0,3:2:0:0:
159,292,253522,6,0,P|234:290|302:368,1,155.439992647339,10|2,0:0|3:2,0:0:0:0:
115,201,254006,1,8,0:0:0:0:
289,60,254167,2,0,P|263:85|195:83,1,77.7199963236696,2|2,0:0|0:0,0:0:0:0:
111,100,254489,6,0,P|171:96|271:231,1,241.28,2|2,0:0|0:0,0:0:0:0:
111,100,256102,1,2,0:0:0:0:
89,378,256909,5,2,0:0:0:0:
20,313,257070,1,0,0:0:0:0:
92,232,257231,6,0,L|87:247,3,9.28,2|2|2|2,0:0|0:0|0:0|0:0,0:0:0:0:
96,264,257433,1,2,0:0:0:0:
256,192,257473,12,0,262231,0:0:0:0:
