osu file format v14

[General]
AudioFilename: audio.mp3
AudioLeadIn: 0
PreviewTime: 54605
Countdown: 0
SampleSet: Soft
StackLeniency: 0.7
Mode: 0
LetterboxInBreaks: 0
WidescreenStoryboard: 1

[Editor]
Bookmarks: 8553,12899,19628,28600,37572,46544,51030,55516,64488,73460,82432,91404,100376,109348,118320,127291,136263,145235,154207,163179,181123,199067,208039,217011,225983,234955,243927,252899,261871,279815
DistanceSpacing: 1.1
BeatDivisor: 2
GridSize: 8
TimelineZoom: 2.4

[Metadata]
Title:Shiroki Yume wa Madara ni
TitleUnicode:白き夢は斑に
Artist:ELFENSJoN
ArtistUnicode:ELFENSJóN
Creator:Nao Tomori
Version:Normal
Source:
Tags:ash of rouge side elisia asriel uroboros japanese rock jrock the mottled white dream mura 黒瀬 圭亮 Keisuke Kurose okogeeechann 藤田 和哉 Fujita Kazuya 戎屋 聖一郎 Seiichiro Ebisuya みゅー YUU ORYO icekalt
BeatmapID:2267500
BeatmapSetID:1083468

[Difficulty]
HPDrainRate:3
CircleSize:3.2
OverallDifficulty:4
ApproachRate:6
SliderMultiplier:0.869999999999999
SliderTickRate:1

[Events]
//Background and Video events
0,0,"criin bird bg.jpg",0,0
//Break Periods
2,109547,115027
2,154407,161849
2,199267,206989
//Storyboard Layer 0 (Background)
//Storyboard Layer 1 (Fail)
//Storyboard Layer 2 (Pass)
//Storyboard Layer 3 (Foreground)
//Storyboard Layer 4 (Overlay)
//Storyboard Sound Samples

[TimingPoints]
2806,280.373831775701,4,2,1,23,1,0
2806,-100,4,2,1,23,0,0
4488,-100,4,2,1,23,0,0
5609,-100,4,2,1,23,0,0
6030,-100,4,2,1,23,0,0
7291,-133.333333333333,4,2,1,33,0,0
12198,-133.333333333333,4,2,1,57,0,0
12478,-100,4,2,1,57,0,0
13880,-100,4,2,1,57,0,0
14862,-100,4,2,1,57,0,0
15142,-100,4,2,1,57,0,0
16123,-100,4,2,1,60,0,0
16824,-100,4,2,1,60,0,0
19628,-100,4,2,1,70,0,0
28600,-100,4,2,1,55,0,0
35469,-100,4,2,1,60,0,0
36030,-100,4,2,1,55,0,0
36871,-100,4,2,1,55,0,0
42058,-100,4,2,1,55,0,0
42338,-100,4,2,1,55,0,0
46544,-100,4,2,1,55,0,0
51030,-100,4,2,1,35,0,0
51100,-100,4,2,1,25,0,0
52712,-100,4,2,1,55,0,0
52992,-100,4,2,1,55,0,0
54254,-100,4,2,1,55,0,0
55516,-100,4,2,1,75,0,1
63226,-100,4,2,1,75,0,1
64488,-100,4,2,1,75,0,1
64768,-100,4,2,1,75,0,1
71217,-100,4,2,1,75,0,1
72198,-100,4,2,1,75,0,1
73460,-100,4,2,1,75,0,1
77946,-100,4,2,1,75,0,1
78226,-100,4,2,1,75,0,1
80189,-100,4,2,1,75,0,1
81030,-100,4,2,1,75,0,1
82432,-100,4,2,1,75,0,1
82852,-100,4,2,1,75,0,1
84675,-100,4,2,1,75,0,1
86918,-100,4,2,1,75,0,1
91404,-100,4,2,1,55,0,0
91684,-100,4,2,1,55,0,0
99955,-100,4,2,1,55,0,0
100656,-100,4,2,1,55,0,0
104721,-100,4,2,1,55,0,0
105142,-100,4,2,1,55,0,0
109348,-100,4,2,1,25,0,0
115516,-100,4,2,1,25,0,0
116077,-100,4,2,1,60,0,0
116217,-100,4,2,1,60,0,0
116637,-100,4,2,1,60,0,0
117619,-100,4,2,1,60,0,0
117689,-100,4,2,1,20,0,0
118320,-100,4,2,1,75,0,1
127291,-100,4,2,1,75,0,1
127572,-100,4,2,1,75,0,1
135703,-100,4,2,1,75,0,1
135983,-100,4,2,1,75,0,1
136263,-100,4,2,1,75,0,1
136684,-100,4,2,1,75,0,1
145235,-100,4,2,1,75,0,1
145516,-100,4,2,1,75,0,1
146637,-100,4,2,1,75,0,1
149721,-100,4,2,1,75,0,1
154207,-100,4,2,1,20,0,0
158693,-100,4,2,1,20,0,0
162899,-100,4,2,1,60,0,0
163039,-100,4,2,1,73,0,1
163740,-100,4,2,1,73,0,1
164161,-100,4,2,1,73,0,1
165282,-100,4,2,1,73,0,1
165703,-100,4,2,1,73,0,1
166404,-100,4,2,1,73,0,1
168927,-100,4,2,1,73,0,1
169768,-100,4,2,1,73,0,1
171310,-100,4,2,1,73,0,1
172011,-100,4,2,1,73,0,1
172432,-100,4,2,1,73,0,1
175936,-100,4,2,1,73,0,1
181123,-100,4,2,1,73,0,1
196964,-100,4,2,1,73,0,1
197385,-100,4,2,1,73,0,1
198927,-100,4,2,1,40,0,1
199067,-100,4,2,1,40,0,0
208039,-100,4,2,1,50,0,0
212525,-133.333333333333,4,2,1,35,0,0
214488,-100,4,2,1,35,0,0
214768,-100,4,2,1,60,0,0
214908,-100,4,2,1,60,0,0
217011,-100,4,2,1,75,0,1
217291,-100,4,2,1,75,0,1
223179,-100,4,2,1,75,0,1
223460,-100,4,2,1,75,0,1
225983,-100,4,2,1,75,0,1
230609,-100,4,2,1,75,0,1
234955,-100,4,2,1,75,0,1
239441,-100,4,2,1,75,0,1
241824,-100,4,2,1,75,0,1
242665,-100,4,2,1,75,0,1
243927,-100,4,2,1,70,0,0
251497,-100,4,2,1,70,0,0
252899,-100,4,2,1,70,0,0
253179,-100,4,2,1,70,0,0
261871,-100,4,2,1,35,0,0

[Colours]
Combo1 : 217,183,251
Combo2 : 242,150,145
Combo3 : 157,191,247
Combo4 : 242,143,23

[HitObjects]
234,204,7291,6,0,P|181:190|129:204,1,97.875003733635,2|2,2:2|2:2,0:0:0:0:
140,306,8133,2,0,P|193:320|245:306,1,97.875003733635,2|2,2:2|2:2,0:0:0:0:
342,338,8974,1,2,2:2:0:0:
371,272,9254,1,2,2:2:0:0:
404,208,9534,6,0,L|395:103,1,97.875003733635,2|2,2:2|2:2,0:0:0:0:
294,71,10376,2,0,L|303:176,1,97.875003733635,2|2,2:2|2:2,0:0:0:0:
199,228,11217,1,2,2:2:0:0:
130,205,11497,1,2,2:2:0:0:
68,242,11777,6,0,P|55:289|70:345,1,97.875003733635,2|0,2:2|3:2,0:0:0:0:
106,341,12338,2,0,P|161:334|205:347,1,97.875003733635,8|0,2:2|0:0,0:0:0:0:
243,320,12899,6,0,B|283:328|283:328|424:307,1,174,6|8,3:2|0:2,0:0:0:0:
501,348,13740,1,4,0:3:0:0:
501,348,13880,2,0,P|485:315|475:213,1,130.5,6|0,3:2|0:0,0:0:0:0:
499,130,14581,1,8,0:2:0:0:
456,44,14862,1,4,0:3:0:0:
363,21,15142,6,0,P|310:22|267:45,1,86.9999999999999,6|10,3:2|0:2,0:0:0:0:
250,74,15563,2,0,L|263:216,1,130.5,10|8,0:2|0:2,0:0:0:0:
228,238,16123,2,0,L|210:378,1,130.5,6|0,3:2|3:2,0:0:0:0:
115,375,16824,1,2,3:2:0:0:
41,313,17105,1,10,0:2:0:0:
88,229,17385,6,0,L|82:134,1,86.9999999999999,10|8,0:2|0:2,0:0:0:0:
48,107,17806,2,0,L|64:21,1,86.9999999999999,2|8,3:2|0:2,0:0:0:0:
109,8,18226,2,0,P|146:25|204:15,1,86.9999999999999,2|8,3:2|0:2,0:0:0:0:
231,47,18647,2,0,P|284:38|328:49,1,86.9999999999999,10|8,0:2|0:2,0:0:0:0:
350,77,19067,1,10,0:2:0:0:
261,247,19628,6,0,B|157:232|203:304|88:280,1,174,2|0,3:2|3:2,0:0:0:0:
21,223,20469,1,8,0:2:0:0:
89,156,20749,2,0,L|86:56,1,86.9999999999999,0|8,3:2|0:2,0:0:0:0:
182,65,21310,2,0,L|185:165,1,86.9999999999999,0|8,3:2|0:2,0:0:0:0:
267,200,21871,6,0,B|329:177|329:177|439:201,1,174,2|0,3:2|3:2,0:0:0:0:
505,135,22712,1,10,0:2:0:0:
440,64,22992,2,0,P|392:58|339:75,1,86.9999999999999,0|8,3:2|0:2,0:0:0:0:
260,49,23553,2,0,P|212:54|159:37,1,86.9999999999999,0|8,3:2|0:2,0:0:0:0:
83,16,24114,6,0,P|75:69|60:204,1,174,6|2,3:2|3:2,0:0:0:0:
24,277,24955,2,0,P|20:313|40:368,1,86.9999999999999,10|2,0:2|3:2,0:0:0:0:
130,372,25516,1,10,0:2:0:0:
218,334,25796,1,2,3:2:0:0:
310,360,26077,1,10,0:2:0:0:
388,305,26357,6,0,B|452:292|452:292|518:338,2,130.5,14|14|8,0:2|3:2|0:2,0:0:0:0:
342,291,27338,2,0,L|203:282,1,130.5,6|10,3:2|0:2,0:0:0:0:
131,334,28039,1,10,0:2:0:0:
43,294,28320,1,10,0:2:0:0:
86,208,28600,6,0,P|147:202|268:193,1,174,2|2,3:2|0:2,0:0:0:0:
348,229,29441,1,0,0:2:0:0:
432,183,29721,2,0,P|456:133|378:43,1,174,0|0,3:2|0:0,0:0:0:0:
302,75,30563,1,10,0:2:0:0:
214,35,30843,2,0,L|113:28,1,86.9999999999999,2|2,3:2|3:2,0:0:0:0:
52,89,31404,2,0,L|45:175,1,86.9999999999999,2|10,0:2|0:2,0:0:0:0:
112,244,31964,6,0,B|208:225|180:294|280:275,1,174,0|2,3:2|3:2,0:0:0:0:
368,246,32806,1,10,0:2:0:0:
458,277,33086,2,0,L|472:365,2,86.9999999999999,6|0|0,3:2|3:2|0:0,0:0:0:0:
495,188,33927,2,0,B|501:120|501:120|482:97|482:97|488:20,1,174,10|0,0:2|3:2,0:0:0:0:
398,55,34768,1,0,3:2:0:0:
306,26,35048,6,0,P|252:8|210:25,1,86.9999999999999,8|0,0:2|3:2,0:0:0:0:
187,47,35469,2,0,B|158:121|199:200|199:200|201:154|238:121,1,217.5,14|0,0:0|0:0,0:0:0:0:
306,199,36450,2,0,L|447:191,2,130.5,10|14|14,0:2|0:2|0:2,0:0:0:0:
264,285,37572,6,0,B|329:312|329:312|442:275,1,174,2|0,3:2|0:0,0:0:0:0:
463,193,38413,1,10,0:2:0:0:
463,193,38553,2,0,L|443:62,1,130.5,2|8,0:2|0:2,0:0:0:0:
347,51,39254,2,0,P|350:95|361:155,1,86.9999999999999,0|10,3:2|0:2,0:0:0:0:
292,208,39815,5,2,3:2:0:0:
199,184,40095,1,10,0:2:0:0:
117,234,40376,2,0,P|83:240|24:226,1,86.9999999999999,2|10,3:2|0:2,0:0:0:0:
13,185,40796,2,0,L|25:49,1,130.5,2|10,3:2|0:2,0:0:0:0:
115,25,41497,1,10,0:2:0:0:
203,60,41777,1,10,0:2:0:0:
290,20,42058,6,0,P|330:9|390:22,1,86.9999999999999,2|14,0:2|0:2,0:0:0:0:
413,42,42478,2,0,P|424:82|411:142,1,86.9999999999999,0|0,0:2|0:2,0:0:0:0:
395,168,42899,2,0,P|355:179|295:166,1,86.9999999999999,10|0,0:2|3:2,0:0:0:0:
220,139,43460,1,10,0:2:0:0:
145,198,43740,1,10,0:2:0:0:
164,291,44020,1,10,0:2:0:0:
242,346,44301,6,0,L|378:329,2,130.5,6|10|8,3:2|2:2|0:2,0:0:0:0:
152,379,45422,1,8,2:2:0:0:
63,341,45703,1,2,3:2:0:0:
32,250,45983,1,10,0:2:0:0:
70,162,46263,1,4,0:3:0:0:
157,122,46544,6,0,B|209:122|209:122|231:144|231:144|291:144,1,130.5,6|14,3:2|0:2,0:0:0:0:
364,107,47245,1,2,3:2:0:0:
432,173,47525,2,0,L|449:318,1,130.5,2|2,3:2|3:2,0:0:0:0:
381,372,48226,1,10,0:2:0:0:
290,341,48506,1,8,0:3:0:0:
201,377,48787,6,0,P|183:340|205:249,1,130.5,6|14,3:2|0:2,0:0:0:0:
264,185,49488,1,2,3:2:0:0:
215,102,49768,2,0,L|70:109,1,130.5,0|0,3:2|3:2,0:0:0:0:
17,177,50469,1,2,3:2:0:0:
56,263,50749,1,4,2:3:0:0:
16,350,51030,5,6,3:2:0:0:
16,350,52712,6,0,P|61:341|119:347,1,86.9999999999999,10|12,0:2|0:2,0:0:0:0:
195,364,53273,2,0,L|287:350,1,86.9999999999999,8|8,0:2|2:2,0:0:0:0:
325,367,53693,1,2,3:2:0:0:
413,330,53974,1,2,3:2:0:0:
502,362,54254,1,6,3:2:0:0:
502,362,55516,6,0,P|470:325|474:241,1,130.5,6|2,3:2|0:2,0:0:0:0:
419,165,56217,1,2,0:2:0:0:
446,73,56497,2,0,P|404:49|319:67,1,130.5,2|10,3:2|0:2,0:0:0:0:
250,120,57198,1,2,3:2:0:0:
164,77,57478,1,10,0:2:0:0:
83,129,57759,6,0,L|77:229,1,86.9999999999999,6|10,3:2|0:2,0:0:0:0:
52,256,58179,1,2,0:2:0:0:
102,337,58460,1,2,0:2:0:0:
189,299,58740,2,0,B|238:288|238:288|329:315,1,130.5,2|10,3:2|0:2,0:0:0:0:
400,267,59441,1,2,3:2:0:0:
358,180,59721,6,0,L|171:193,1,174,8|10,0:2|0:2,0:0:0:0:
103,139,60563,1,2,3:2:0:0:
161,63,60843,2,0,P|208:44|253:47,1,86.9999999999999,10|0,0:2|3:2,0:0:0:0:
334,74,61404,1,10,0:2:0:0:
413,21,61684,1,2,3:2:0:0:
480,88,61964,1,10,0:2:0:0:
426,167,62245,6,0,L|423:269,1,86.9999999999999,14|0,2:2|3:2,0:0:0:0:
396,293,62665,2,0,L|294:290,1,86.9999999999999,14|0,0:2|3:2,0:0:0:0:
269,262,63086,2,0,L|167:259,1,86.9999999999999,10|0,0:2|0:0,0:0:0:0:
145,289,63506,2,0,L|43:286,1,86.9999999999999,2|8,3:2|0:2,0:0:0:0:
17,259,63927,1,10,0:2:0:0:
65,176,64207,1,10,0:2:0:0:
27,87,64488,6,0,P|66:110|191:69,1,174,2|2,3:2|3:2,0:0:0:0:
271,42,65329,2,0,L|376:49,1,86.9999999999999,10|0,0:2|3:2,0:0:0:0:
449,20,65890,1,10,0:2:0:0:
490,105,66170,2,0,P|500:148|495:207,1,86.9999999999999,2|10,3:2|3:2,0:0:0:0:
430,258,66731,6,0,P|374:248|332:250,1,86.9999999999999,6|8,3:2|0:2,0:0:0:0:
300,229,67151,2,0,P|245:236|199:230,1,86.9999999999999,2|0,0:2|3:2,0:0:0:0:
170,211,67572,2,0,L|160:114,1,86.9999999999999,10|0,0:2|3:2,0:0:0:0:
104,47,68133,1,10,0:2:0:0:
20,93,68413,1,2,3:2:0:0:
65,177,68693,1,14,0:2:0:0:
153,139,68974,6,0,P|218:127|276:175,2,130.5,2|6|10,3:2|3:2|0:2,0:0:0:0:
198,222,70095,2,0,L|217:365,2,130.5,2|6|10,3:2|3:2|0:2,0:0:0:0:
120,278,71217,2,0,P|75:286|25:278,1,86.9999999999999,10|0,3:2|3:2,0:0:0:0:
7,241,71637,2,0,P|-1:196|7:146,1,86.9999999999999,14|0,0:2|3:2,0:0:0:0:
37,120,72058,2,0,B|89:113|89:113|131:133|131:133|215:122,1,174,14|10,0:2|0:2,0:0:0:0:
290,78,72899,1,10,0:2:0:0:
379,112,73179,1,10,0:2:0:0:
469,78,73460,6,0,P|484:121|478:171,1,86.9999999999999,2|14,3:2|0:2,0:0:0:0:
451,199,73880,2,0,P|440:243|449:294,1,86.9999999999999,2|2,0:2|0:2,0:0:0:0:
369,342,74441,2,0,B|322:333|322:333|238:346,1,130.5,2|10,3:2|0:2,0:0:0:0:
150,313,75142,1,2,3:2:0:0:
196,229,75422,1,10,0:2:0:0:
126,163,75703,6,0,L|121:63,1,86.9999999999999,6|10,3:2|0:2,0:0:0:0:
149,37,76123,1,2,0:2:0:0:
232,85,76404,1,2,0:2:0:0:
313,34,76684,2,0,P|390:30|438:60,1,130.5,2|10,3:2|0:2,0:0:0:0:
498,127,77385,5,2,3:2:0:0:
437,201,77665,2,0,L|438:293,1,86.9999999999999,10|6,0:2|3:2,0:0:0:0:
372,358,78226,1,10,0:2:0:0:
283,321,78506,1,2,3:2:0:0:
203,373,78787,2,0,P|147:379|104:372,1,86.9999999999999,10|0,0:2|3:2,0:0:0:0:
43,313,79348,5,10,2:2:0:0:
106,241,79628,1,2,3:2:0:0:
59,157,79908,1,10,2:2:0:0:
112,77,80189,2,0,B|204:68|204:68,1,86.9999999999999,14|0,0:2|3:2,0:0:0:0:
242,87,80609,2,0,B|334:78|334:78,1,86.9999999999999,14|0,0:2|3:2,0:0:0:0:
369,103,81030,2,0,P|388:144|392:196,1,86.9999999999999,14|0,0:2|0:0,0:0:0:0:
372,228,81450,2,0,B|310:220|310:220|237:240,1,130.5,2|10,3:2|0:2,0:0:0:0:
151,213,82151,1,10,0:2:0:0:
72,267,82432,6,0,P|60:297|75:362,1,86.9999999999999,2|14,3:2|0:2,0:0:0:0:
112,366,82852,2,0,L|206:356,1,86.9999999999999,2|0,3:2|0:2,0:0:0:0:
243,374,83273,2,0,L|347:366,1,86.9999999999999,10|0,0:2|3:2,0:0:0:0:
424,378,83834,1,10,0:2:0:0:
496,315,84114,1,2,3:2:0:0:
451,230,84394,1,10,0:2:0:0:
493,144,84675,6,0,P|505:99|491:53,1,86.9999999999999,6|8,3:2|0:2,0:0:0:0:
459,29,85095,2,0,P|414:17|368:31,1,86.9999999999999,2|0,3:2|2:2,0:0:0:0:
337,56,85516,1,10,0:2:0:0:
245,28,85796,1,8,0:2:0:0:
155,63,86077,1,10,0:2:0:0:
66,27,86357,2,0,P|57:81|45:127,1,86.9999999999999,10|10,0:2|0:2,0:0:0:0:
93,197,86918,6,0,P|106:280|121:342,2,130.5,6|2|8,3:2|0:2|0:2,0:0:0:0:
175,148,88039,2,0,P|217:139|281:240,1,174,2|10,3:2|0:2,0:0:0:0:
234,314,88880,1,8,0:2:0:0:
317,360,89161,2,0,L|447:341,2,130.5,14|2|14,2:2|3:2|0:2,0:0:0:0:
134,301,90563,5,2,3:2:0:0:
47,342,90843,1,8,0:2:0:0:
20,250,91123,1,8,0:3:0:0:
105,207,91404,2,0,P|124:174|115:119,1,86.9999999999999,2|14,3:2|0:2,0:0:0:0:
209,94,91964,2,0,P|228:126|322:147,2,130.5,2|2|10,3:2|0:2|0:2,0:0:0:0:
271,21,93086,1,2,3:2:0:0:
357,61,93366,1,10,0:2:0:0:
445,23,93647,6,0,B|458:53|458:53|448:117,1,86.9999999999999,2|14,3:2|0:2,0:0:0:0:
422,145,94067,1,2,0:2:0:0:
467,229,94348,1,2,3:2:0:0:
444,321,94628,1,2,0:2:0:0:
244,354,95329,6,0,L|196:347,1,43.5,14|0,0:2|0:2,0:0:0:0:
154,356,95609,2,0,L|98:348,1,43.5,14|0,0:2|0:2,0:0:0:0:
66,368,95890,2,0,P|48:312|61:236,1,130.5,2|2,3:2|0:2,0:0:0:0:
113,163,96591,1,2,0:2:0:0:
191,217,96871,2,0,B|236:228|236:228|331:212,1,130.5,2|10,3:2|0:2,0:0:0:0:
406,252,97572,2,0,P|441:261|499:245,1,86.9999999999999,10|2,0:2|3:2,0:0:0:0:
446,165,98133,6,0,B|429:115|429:115|445:28,1,130.5,2|10,3:2|2:2,0:0:0:0:
351,10,98834,1,2,0:0:0:0:
294,87,99114,2,0,L|308:316,1,217.5,2|10,0:0|2:2,0:0:0:0:
236,369,100095,1,2,0:0:0:0:
154,319,100376,6,0,P|148:241|158:227,1,86.9999999999999,2|14,0:2|0:2,0:0:0:0:
163,191,100796,2,0,P|101:197|67:201,2,86.9999999999999,2|2|2,0:2|0:2|3:2,0:0:0:0:
224,61,101777,1,10,0:2:0:0:
316,85,102058,1,2,3:2:0:0:
407,57,102338,1,10,3:2:0:0:
455,140,102619,6,0,L|463:230,1,86.9999999999999,2|10,3:2|0:2,0:0:0:0:
429,261,103039,2,0,L|437:351,2,86.9999999999999,2|2|2,3:2|3:2|3:2,0:0:0:0:
299,198,104020,1,10,0:2:0:0:
210,234,104301,1,10,0:2:0:0:
124,191,104581,1,10,0:2:0:0:
40,237,104862,6,0,P|23:268|29:319,1,86.9999999999999,2|14,0:0|0:2,0:0:0:0:
18,364,105282,2,0,P|103:344|150:364,1,130.5,0|10,0:0|0:2,0:0:0:0:
314,277,106263,1,10,3:2:0:0:
392,331,106544,1,2,3:2:0:0:
473,281,106824,1,10,0:2:0:0:
453,187,107105,6,0,L|442:95,1,86.9999999999999,14|8,0:2|0:2,0:0:0:0:
404,72,107525,2,0,B|364:113|364:113|276:99,1,130.5,10|8,0:2|0:2,0:0:0:0:
199,76,108226,1,8,0:2:0:0:
116,123,108506,1,8,0:3:0:0:
27,86,108787,2,0,P|14:35|25:2,2,86.9999999999999,8|6|2,2:2|3:2|0:2,0:0:0:0:
49,329,116077,6,0,P|92:321|176:361,2,130.5,8|8|8,0:2|0:2|0:2,0:0:0:0:
82,239,117198,1,8,0:2:0:0:
41,152,117478,1,8,0:2:0:0:
88,68,117759,1,2,0:0:0:0:
259,153,118320,6,0,P|322:159|374:121,1,130.5,6|2,3:2|0:2,0:0:0:0:
451,178,119021,1,2,0:2:0:0:
416,267,119301,2,0,L|267:255,1,130.5,2|10,3:2|0:2,0:0:0:0:
233,336,120002,1,2,3:2:0:0:
137,339,120282,1,10,0:2:0:0:
70,269,120563,6,0,P|60:216|64:169,1,86.9999999999999,6|10,3:2|0:2,0:0:0:0:
81,139,120983,1,2,0:2:0:0:
154,77,121264,1,2,0:2:0:0:
230,134,121544,2,0,B|279:145|279:145|370:118,1,130.5,2|10,3:2|0:2,0:0:0:0:
441,165,122245,1,2,3:2:0:0:
387,244,122525,6,0,L|200:231,1,174,8|10,0:2|0:2,0:0:0:0:
117,243,123367,1,2,3:2:0:0:
152,331,123647,2,0,P|199:350|244:347,1,86.9999999999999,10|0,0:2|3:2,0:0:0:0:
322,311,124208,1,10,0:2:0:0:
404,359,124488,1,2,3:2:0:0:
488,314,124768,1,10,0:2:0:0:
478,218,125049,6,0,L|475:116,1,86.9999999999999,14|0,2:2|3:2,0:0:0:0:
438,100,125469,2,0,L|336:103,1,86.9999999999999,14|0,0:2|3:2,0:0:0:0:
306,120,125890,2,0,L|204:123,1,86.9999999999999,14|0,0:2|3:2,0:0:0:0:
179,95,126310,2,0,L|77:98,1,86.9999999999999,2|8,3:2|0:2,0:0:0:0:
48,118,126731,1,10,0:2:0:0:
82,207,127011,1,10,0:2:0:0:
35,290,127292,6,0,P|74:267|199:308,1,174,2|0,3:2|3:2,0:0:0:0:
268,355,128133,2,0,L|369:344,1,86.9999999999999,10|0,0:2|3:2,0:0:0:0:
449,364,128694,1,10,2:2:0:0:
490,279,128974,2,0,P|500:236|495:177,1,86.9999999999999,2|10,3:2|2:2,0:0:0:0:
430,126,129535,6,0,P|374:136|332:134,1,86.9999999999999,6|8,3:2|0:2,0:0:0:0:
300,155,129955,2,0,P|245:148|199:154,1,86.9999999999999,2|0,0:2|3:2,0:0:0:0:
170,173,130376,2,0,L|160:270,1,86.9999999999999,10|0,0:2|3:2,0:0:0:0:
104,337,130937,1,10,0:2:0:0:
20,291,131217,1,2,3:2:0:0:
65,207,131497,1,14,3:2:0:0:
153,245,131778,6,0,P|218:257|276:209,2,130.5,6|6|10,3:2|0:2|0:2,0:0:0:0:
198,162,132899,2,0,L|217:19,2,130.5,6|6|10,3:2|3:2|0:2,0:0:0:0:
120,106,134021,2,0,P|75:98|25:106,1,86.9999999999999,14|0,0:2|3:2,0:0:0:0:
7,143,134441,2,0,P|-1:188|7:238,1,86.9999999999999,14|0,0:2|3:2,0:0:0:0:
37,264,134862,2,0,B|89:271|89:271|131:251|131:251|215:262,1,174,14|10,0:2|0:2,0:0:0:0:
290,306,135703,1,10,0:2:0:0:
379,272,135983,1,10,0:2:0:0:
469,306,136264,6,0,P|484:263|478:213,1,86.9999999999999,2|14,3:2|0:2,0:0:0:0:
451,185,136684,2,0,P|440:141|449:90,1,86.9999999999999,2|2,0:2|0:2,0:0:0:0:
369,42,137245,2,0,B|322:51|322:51|238:38,1,130.5,2|10,3:2|0:2,0:0:0:0:
150,71,137946,1,2,3:2:0:0:
196,155,138226,1,10,0:2:0:0:
126,221,138507,6,0,L|121:321,1,86.9999999999999,2|10,3:2|0:2,0:0:0:0:
149,347,138927,1,2,2:2:0:0:
232,299,139208,1,2,0:2:0:0:
313,350,139488,2,0,P|390:354|438:324,1,130.5,2|10,3:2|0:2,0:0:0:0:
498,257,140189,5,2,3:2:0:0:
437,183,140469,2,0,L|438:91,1,86.9999999999999,10|6,0:2|3:2,0:0:0:0:
372,26,141030,1,10,0:2:0:0:
283,63,141310,1,2,3:2:0:0:
203,11,141591,2,0,P|147:5|104:12,1,86.9999999999999,10|0,0:2|3:2,0:0:0:0:
43,71,142152,5,10,0:2:0:0:
106,143,142432,1,2,3:2:0:0:
59,227,142712,1,10,0:2:0:0:
112,307,142993,2,0,B|204:316|204:316,1,86.9999999999999,14|0,2:2|3:2,0:0:0:0:
242,297,143413,2,0,B|334:306|334:306,1,86.9999999999999,14|0,0:2|3:2,0:0:0:0:
369,281,143834,2,0,P|388:240|392:188,1,86.9999999999999,14|0,0:2|3:2,0:0:0:0:
372,156,144254,2,0,B|310:164|310:164|237:144,1,130.5,2|10,3:2|0:2,0:0:0:0:
151,171,144955,1,10,0:2:0:0:
72,117,145236,6,0,P|60:87|75:22,1,86.9999999999999,2|14,3:2|0:2,0:0:0:0:
112,18,145656,2,0,L|206:28,1,86.9999999999999,0|0,0:0|0:2,0:0:0:0:
243,10,146077,2,0,L|347:18,1,86.9999999999999,10|0,0:2|3:2,0:0:0:0:
424,6,146638,1,10,0:2:0:0:
496,69,146918,1,2,3:2:0:0:
451,154,147198,1,10,0:2:0:0:
493,240,147479,6,0,P|505:285|491:331,1,86.9999999999999,6|8,3:2|0:2,0:0:0:0:
459,355,147899,2,0,P|414:367|368:353,1,86.9999999999999,2|0,3:2|3:2,0:0:0:0:
337,328,148320,2,0,L|239:335,1,86.9999999999999,10|8,0:2|0:0,0:0:0:0:
155,321,148880,1,10,0:0:0:0:
66,357,149161,2,0,P|57:303|45:257,1,86.9999999999999,10|10,0:2|0:2,0:0:0:0:
93,187,149722,6,0,P|106:104|121:42,2,130.5,14|0|14,0:2|3:2|0:2,0:0:0:0:
175,236,150843,2,0,P|217:245|281:144,1,174,2|10,3:2|0:2,0:0:0:0:
234,70,151684,1,10,0:2:0:0:
317,24,151965,2,0,L|447:43,2,130.5,14|0|14,0:2|3:2|0:2,0:0:0:0:
277,51,152946,6,0,B|221:60|221:60|192:44|192:44|139:88|58:66,1,217.5,0|8,3:2|0:2,0:0:0:0:
1,134,153927,1,4,0:3:0:0:
55,212,154207,1,0,0:2:0:0:
55,212,162899,5,10,2:2:0:0:
55,212,163039,2,0,B|132:203|132:203|179:244,1,130.5,6|8,3:1|0:2,0:0:0:0:
253,287,163740,2,0,B|339:265|321:336|435:306,1,174,2|0,3:1|0:0,0:0:0:0:
491,242,164581,1,10,0:2:0:0:
444,157,164862,2,0,P|433:131|440:65,1,86.9999999999999,0|10,3:2|0:1,0:0:0:0:
469,39,165282,6,0,P|408:70|258:22,1,217.5,2|0,3:1|3:2,0:0:0:0:
200,100,166263,1,10,0:1:0:0:
200,100,166404,2,0,P|146:87|67:121,1,130.5,2|8,3:1|0:0,0:0:0:0:
33,197,167105,1,2,3:1:0:0:
113,315,167525,6,0,B|172:305|172:305|213:335|213:335|331:315,1,217.5,6|0,3:1|3:2,0:0:0:0:
385,248,168506,2,0,L|439:254,2,43.5,10|2|2,0:1|0:2|3:1,0:0:0:0:
357,208,168927,2,0,P|315:190|232:215,1,130.5,2|0,3:1|3:2,0:0:0:0:
159,153,169628,1,8,0:2:0:0:
159,153,169768,2,0,P|137:120|175:26,1,130.5,2|8,3:1|0:2,0:0:0:0:
249,6,170469,1,0,3:2:0:0:
329,57,170749,1,10,2:1:0:0:
329,57,170890,6,0,B|426:46|426:46|487:148|423:252,1,304.5,2|8,3:1|0:2,0:0:0:0:
440,288,172011,6,0,L|302:275,1,130.5,6|10,3:1|0:2,0:0:0:0:
225,321,172712,1,2,3:2:0:0:
141,275,172992,2,0,L|142:223,1,43.5,10|0,0:2|0:0,0:0:0:0:
178,200,173273,2,0,L|172:105,1,86.9999999999999,2|10,3:2|0:2,0:0:0:0:
114,36,173834,1,2,3:2:0:0:
30,82,174114,1,10,0:2:0:0:
48,175,174394,6,0,P|58:216|39:313,1,130.5,2|2,3:1|0:1,0:0:0:0:
20,343,174955,2,0,P|69:337|152:361,1,130.5,2|2,3:1|0:1,0:0:0:0:
190,337,175516,1,2,3:1:0:0:
283,354,175796,1,8,0:1:0:0:
339,276,176077,1,0,3:0:0:0:
432,293,176357,1,8,0:2:0:0:
492,218,176637,6,0,P|503:180|496:126,1,86.9999999999999,2|10,3:1|2:1,0:0:0:0:
427,69,177198,1,2,3:1:0:0:
339,108,177478,1,10,2:1:0:0:
258,55,177759,2,0,P|200:64|163:57,1,86.9999999999999,2|10,3:1|0:1,0:0:0:0:
100,123,178320,2,8,P|109:180|102:218,1,86.9999999999999,2|10,3:1|0:2,0:0:0:0:
35,273,178880,6,0,P|89:250|201:298,1,174,2|2,3:1|3:1,0:0:0:0:
284,260,179721,1,10,0:2:0:0:
284,260,179862,2,0,L|427:241,1,130.5,0|10,0:0|0:1,0:0:0:0:
463,324,180563,1,8,0:2:0:0:
387,382,180843,1,8,0:2:0:0:
296,351,181123,6,0,P|250:337|196:343,1,86.9999999999999,6|10,3:2|0:2,0:0:0:0:
135,280,181684,2,0,P|74:292|35:280,1,86.9999999999999,10|10,0:2|0:2,0:0:0:0:
4,301,182105,2,0,L|18:155,1,130.5,6|10,3:2|0:2,0:0:0:0:
3,76,182806,1,8,0:2:0:0:
77,15,183086,1,8,0:2:0:0:
159,62,183366,6,0,B|199:74|201:74|201:74|260:65,1,86.9999999999999,14|10,0:2|0:2,0:0:0:0:
339,63,183927,2,0,B|381:56|381:56|383:56|423:68,1,86.9999999999999,10|8,0:2|0:2,0:0:0:0:
470,58,184348,2,0,P|456:102|457:204,1,130.5,6|10,3:2|0:2,0:0:0:0:
485,276,185048,2,0,P|497:313|490:362,1,86.9999999999999,10|8,0:2|0:2,0:0:0:0:
395,373,185609,5,14,0:2:0:0:
310,327,185890,1,10,0:2:0:0:
219,356,186170,2,0,L|120:346,1,86.9999999999999,10|10,0:2|0:2,0:0:0:0:
111,303,186591,2,0,P|105:260|116:168,1,130.5,6|10,3:2|0:2,0:0:0:0:
197,126,187291,1,10,0:2:0:0:
286,161,187572,1,10,0:2:0:0:
376,131,187852,6,0,P|386:98|370:37,1,86.9999999999999,14|10,2:2|0:2,0:0:0:0:
289,6,188413,2,0,L|191:17,1,86.9999999999999,10|10,0:2|0:2,0:0:0:0:
175,55,188834,2,0,B|129:59|129:59|110:82|110:82|44:89,1,130.5,6|10,3:2|0:2,0:0:0:0:
10,171,189534,2,0,P|6:210|22:266,1,86.9999999999999,10|4,0:2|0:3,0:0:0:0:
102,300,190095,5,6,3:2:0:0:
188,259,190376,1,10,0:2:0:0:
271,304,190656,2,0,L|370:297,1,86.9999999999999,10|10,0:2|0:2,0:0:0:0:
401,318,191077,2,0,B|426:260|426:260|396:181,1,130.5,6|10,3:2|0:2,0:0:0:0:
364,109,191777,1,10,0:2:0:0:
276,147,192058,1,10,0:2:0:0:
187,110,192338,6,0,P|141:99|96:96,1,86.9999999999999,14|10,0:2|0:2,0:0:0:0:
117,1,192899,2,0,P|163:12|208:15,1,86.9999999999999,10|10,0:2|0:2,0:0:0:0:
243,39,193320,2,0,P|317:37|384:26,1,130.5,6|10,3:2|0:2,0:0:0:0:
460,67,194020,1,10,0:2:0:0:
400,142,194301,1,8,0:2:0:0:
466,210,194581,6,0,P|479:253|477:308,1,86.9999999999999,6|8,3:2|0:2,0:0:0:0:
453,335,195002,2,0,P|400:346|353:339,1,86.9999999999999,2|0,3:2|0:0,0:0:0:0:
325,319,195422,2,0,P|257:304|146:338,1,174,2|14,3:2|0:2,0:0:0:0:
71,289,196263,1,10,0:2:0:0:
133,216,196544,1,10,0:2:0:0:
70,143,196824,6,0,B|57:88|57:88|94:58|90:5,2,130.5,10|8|8,2:2|0:2|0:2,0:0:0:0:
38,179,197806,2,0,L|48:275,2,86.9999999999999,0|8|8,3:2|2:2|0:2,0:0:0:0:
224,184,199067,5,6,3:2:0:0:
202,177,208039,6,0,P|190:204|212:302,2,130.5,2|2|10,3:2|0:2|0:2,0:0:0:0:
298,70,209301,2,0,P|350:59|422:101,1,130.5,2|2,0:2|3:2,0:0:0:0:
467,174,210002,1,10,0:2:0:0:
394,236,210282,2,0,L|385:372,2,130.5,6|2|10,3:2|0:2|0:2,0:0:0:0:
207,281,211684,6,0,P|161:267|112:265,2,86.9999999999999,10|2|10,0:2|3:2|0:2,0:0:0:0:
281,220,212525,2,0,P|268:168|268:120,2,97.875003733635,2|0|0,2:2|0:0|0:0,0:0:0:0:
374,216,213647,2,0,P|380:171|378:117,2,97.875003733635,2|0|2,0:2|0:0|0:2,0:0:0:0:
461,246,214768,6,0,B|480:286|480:286|478:339,1,86.9999999999999,8|4,0:2|0:3,0:0:0:0:
448,366,215189,2,0,P|406:361|314:384,1,130.5,8|8,0:2|0:2,0:0:0:0:
229,352,215890,1,8,0:2:0:0:
134,362,216170,1,10,0:2:0:0:
50,314,216450,1,10,0:2:0:0:
36,219,216731,1,10,0:2:0:0:
93,142,217011,6,0,P|151:129|185:137,1,86.9999999999999,2|14,3:2|0:2,0:0:0:0:
218,109,217432,2,0,P|272:126|358:106,1,130.5,0|8,0:0|0:2,0:0:0:0:
423,60,218133,1,0,3:2:0:0:
500,116,218413,1,10,0:2:0:0:
466,205,218693,1,2,3:2:0:0:
499,294,218974,1,10,0:2:0:0:
435,365,219254,6,0,L|336:352,1,86.9999999999999,2|10,3:2|0:2,0:0:0:0:
306,329,219675,2,0,L|214:339,1,86.9999999999999,2|2,0:2|0:2,0:0:0:0:
129,306,220235,2,0,P|72:326|-3:298,1,130.5,2|10,3:2|0:2,0:0:0:0:
67,231,220936,5,2,3:2:0:0:
8,154,221217,2,0,L|-2:64,1,86.9999999999999,10|6,0:2|3:2,0:0:0:0:
79,16,221777,1,10,0:2:0:0:
169,47,222058,1,2,3:2:0:0:
258,14,222338,2,0,B|303:11|303:11|358:31,1,86.9999999999999,10|0,0:2|3:2,0:0:0:0:
414,88,222899,1,10,0:2:0:0:
370,173,223179,1,2,3:2:0:0:
421,254,223460,1,10,0:2:0:0:
348,316,223740,6,0,L|249:302,1,86.9999999999999,14|0,0:2|3:2,0:0:0:0:
215,315,224161,2,0,L|197:216,1,86.9999999999999,14|0,0:2|3:2,0:0:0:0:
172,190,224581,2,0,L|260:143,1,86.9999999999999,14|0,0:2|3:2,0:0:0:0:
282,115,225002,2,0,L|353:184,1,86.9999999999999,2|0,3:2|3:2,0:0:0:0:
392,179,225422,1,10,0:2:0:0:
474,130,225703,1,10,0:2:0:0:
429,45,225983,6,0,P|370:33|333:44,1,86.9999999999999,2|8,3:2|0:2,0:0:0:0:
304,13,226404,2,0,P|245:24|208:13,1,86.9999999999999,2|0,3:2|0:2,0:0:0:0:
177,40,226824,2,0,L|157:223,1,174,10|10,0:2|0:2,0:0:0:0:
101,290,227665,1,2,3:2:0:0:
159,366,227946,1,10,0:2:0:0:
239,315,228226,6,0,P|286:308|329:316,1,86.9999999999999,6|8,3:2|0:2,0:0:0:0:
367,293,228647,2,0,P|408:297|468:291,1,86.9999999999999,2|0,0:2|3:2,0:0:0:0:
494,318,229067,2,0,B|466:256|466:256|482:139,1,174,10|10,0:2|0:2,0:0:0:0:
431,68,229908,1,10,0:2:0:0:
348,116,230189,1,10,0:2:0:0:
265,67,230469,6,0,P|203:56|136:96,2,130.5,2|0|14,3:2|3:2|0:2,0:0:0:0:
278,112,231450,2,0,L|286:251,1,130.5,0|0,3:2|0:0,0:0:0:0:
292,337,232151,2,0,P|243:329|191:345,1,86.9999999999999,10|10,0:2|0:2,0:0:0:0:
116,306,232712,6,0,P|97:272|111:216,1,86.9999999999999,10|0,0:2|0:0,0:0:0:0:
128,184,233133,2,0,L|121:82,2,86.9999999999999,0|0|0,3:2|3:2|3:2,0:0:0:0:
213,228,233974,2,0,P|281:218|347:206,1,130.5,2|10,3:2|0:2,0:0:0:0:
432,239,234675,1,4,0:3:0:0:
503,175,234955,6,0,P|515:131|499:82,1,86.9999999999999,6|10,3:2|0:2,0:0:0:0:
468,60,235376,2,0,L|382:69,1,86.9999999999999,0|0,3:2|0:0,0:0:0:0:
340,43,235796,2,0,B|256:28|256:28|153:36,1,174,14|10,0:2|0:2,0:0:0:0:
88,93,236637,1,8,0:2:0:0:
129,179,236918,1,4,0:3:0:0:
75,258,237198,6,0,P|60:303|73:351,1,86.9999999999999,6|10,3:2|0:2,0:0:0:0:
101,374,237619,1,10,0:2:0:0:
193,351,237899,1,10,0:2:0:0:
284,378,238179,2,0,B|328:364|328:364|353:371|353:371|416:350,1,130.5,6|10,3:2|0:2,0:0:0:0:
464,274,238880,1,2,3:2:0:0:
393,208,239161,1,10,0:2:0:0:
306,247,239441,6,0,L|205:234,1,86.9999999999999,14|8,0:2|0:2,0:0:0:0:
172,247,239862,2,0,L|81:236,1,86.9999999999999,10|8,0:2|0:2,0:0:0:0:
49,205,240282,2,0,P|40:153|64:112,1,86.9999999999999,6|8,3:2|0:2,0:0:0:0:
126,61,240843,1,10,0:2:0:0:
214,96,241123,1,10,0:2:0:0:
297,49,241404,1,10,0:2:0:0:
375,103,241684,6,0,L|385:193,1,86.9999999999999,2|0,3:2|0:2,0:0:0:0:
355,227,242105,2,0,L|342:373,1,130.5,10|0,0:2|0:2,0:0:0:0:
300,377,242665,2,0,B|252:347|252:347|267:180,1,217.5,10|0,0:2|0:0,0:0:0:0:
205,111,243647,1,10,0:2:0:0:
122,159,243927,6,0,P|67:171|31:158,2,86.9999999999999,6|10|2,3:2|0:2|3:2,0:0:0:0:
195,220,244768,1,8,0:2:0:0:
282,180,245048,2,0,L|377:175,2,86.9999999999999,0|10|2,3:2|0:2|3:2,0:0:0:0:
210,116,245890,1,10,0:2:0:0:
275,46,246170,6,0,P|320:27|430:83,1,174,2|2,3:2|3:2,0:0:0:0:
492,146,247011,2,0,L|481:252,1,86.9999999999999,10|2,0:2|3:2,0:0:0:0:
502,326,247572,1,10,0:2:0:0:
417,371,247852,2,0,B|374:378|374:378|321:369,1,86.9999999999999,8|8,0:2|0:2,0:0:0:0:
258,308,248413,6,0,P|203:291|82:312,2,174,2|2|2,3:2|3:2|3:2,0:0:0:0:
324,238,249815,1,10,0:2:0:0:
260,166,250095,1,2,3:2:0:0:
306,82,250376,1,10,0:2:0:0:
235,17,250656,6,0,L|97:32,4,130.5,6|14|14|14|10,3:2|0:2|0:2|0:2|0:2,0:0:0:0:
321,57,252619,2,0,P|359:68|407:57,1,86.9999999999999,10|2,0:2|3:2,0:0:0:0:
491,19,253179,6,0,B|525:74|525:74|501:193,1,174,14|10,0:2|0:2,0:0:0:0:
472,272,254020,1,2,3:2:0:0:
379,245,254301,1,10,0:2:0:0:
298,296,254581,2,0,P|253:310|195:301,1,86.9999999999999,2|8,3:2|0:2,0:0:0:0:
127,349,255142,6,0,L|112:170,1,174,2|2,3:2|3:2,0:0:0:0:
48,104,255983,1,8,0:2:0:0:
112,33,256263,2,0,P|153:19|208:28,1,86.9999999999999,0|10,0:0|0:2,0:0:0:0:
280,67,256824,2,0,P|321:73|376:52,1,86.9999999999999,8|8,0:2|0:2,0:0:0:0:
453,26,257385,6,0,L|447:208,1,174,2|2,3:2|3:2,0:0:0:0:
389,276,258226,1,10,0:2:0:0:
301,238,258506,2,0,P|284:196|290:154,1,86.9999999999999,2|8,3:2|0:2,0:0:0:0:
212,98,259067,2,0,L|106:110,1,86.9999999999999,0|10,0:2|0:2,0:0:0:0:
48,165,259628,6,0,B|23:228|23:228|61:292,4,130.5,14|14|14|10|10,2:2|0:2|0:2|0:2|0:2,0:0:0:0:
13,75,261591,1,14,0:2:0:0:
84,11,261871,5,2,0:2:0:0:
