osu file format v14

[General]
AudioFilename: audio.mp3
AudioLeadIn: 0
PreviewTime: 54605
Countdown: 0
SampleSet: Soft
StackLeniency: 0.7
Mode: 0
LetterboxInBreaks: 0
WidescreenStoryboard: 1

[Editor]
Bookmarks: 8553,12899,19628,28600,30002,37572,46544,51030,55516,64488,73460,79067,82432,91404,100376,109348,118320,127291,136263,145235,154207,163179,181123,199067,208039,209721,217011,225983,234955,243927,252899,261871,279815
DistanceSpacing: 1.1
BeatDivisor: 2
GridSize: 8
TimelineZoom: 2.4

[Metadata]
Title:Shiroki Yume wa Madara ni
TitleUnicode:白き夢は斑に
Artist:ELFENSJoN
ArtistUnicode:ELFENSJóN
Creator:Nao Tomori
Version:Insane
Source:
Tags:ash of rouge side elisia asriel uroboros japanese rock jrock the mottled white dream mura 黒瀬 圭亮 Keisuke Kurose okogeeechann 藤田 和哉 Fujita Kazuya 戎屋 聖一郎 Seiichiro Ebisuya みゅー YUU ORYO icekalt
BeatmapID:2297631
BeatmapSetID:1083468

[Difficulty]
HPDrainRate:5
CircleSize:3.8
OverallDifficulty:8
ApproachRate:9
SliderMultiplier:1.57
SliderTickRate:1

[Events]
//Background and Video events
0,0,"criin bird bg.jpg",0,0
//Break Periods
2,109548,114916
2,154407,158093
2,199267,207439
//Storyboard Layer 0 (Background)
//Storyboard Layer 1 (Fail)
//Storyboard Layer 2 (Pass)
//Storyboard Layer 3 (Foreground)
//Storyboard Layer 4 (Overlay)
//Storyboard Sound Samples

[TimingPoints]
2806,280.373831775701,4,2,1,23,1,0
2806,-100,4,2,1,23,0,0
4488,-100,4,2,1,23,0,0
5609,-100,4,2,1,23,0,0
6030,-100,4,2,1,23,0,0
7291,-133.333333333333,4,2,1,33,0,0
12198,-133.333333333333,4,2,1,57,0,0
12478,-100,4,2,1,57,0,0
13880,-100,4,2,1,57,0,0
14862,-100,4,2,1,57,0,0
15142,-100,4,2,1,57,0,0
16123,-100,4,2,1,60,0,0
16824,-100,4,2,1,60,0,0
19628,-100,4,2,1,70,0,0
28600,-133.333333333333,4,2,1,55,0,0
35469,-100,4,2,1,60,0,0
36030,-100,4,2,1,55,0,0
36871,-100,4,2,1,55,0,0
42058,-100,4,2,1,55,0,0
42338,-100,4,2,1,55,0,0
46544,-100,4,2,1,55,0,0
51030,-250,4,2,1,35,0,0
51100,-250,4,2,1,25,0,0
52712,-250,4,2,1,55,0,0
52852,-100,4,2,1,55,0,0
52992,-100,4,2,1,55,0,0
54254,-133.333333333333,4,2,1,55,0,0
55516,-90.9090909090909,4,2,1,75,0,1
63226,-90.9090909090909,4,2,1,75,0,1
64488,-90.9090909090909,4,2,1,75,0,1
64768,-90.9090909090909,4,2,1,75,0,1
71217,-90.9090909090909,4,2,1,75,0,1
72198,-90.9090909090909,4,2,1,75,0,1
73460,-90.9090909090909,4,2,1,75,0,1
77946,-90.9090909090909,4,2,1,75,0,1
78226,-90.9090909090909,4,2,1,75,0,1
80189,-90.9090909090909,4,2,1,75,0,1
81030,-90.9090909090909,4,2,1,75,0,1
82432,-90.9090909090909,4,2,1,75,0,1
82852,-90.9090909090909,4,2,1,75,0,1
84675,-90.9090909090909,4,2,1,75,0,1
86918,-133.333333333333,4,2,1,75,0,1
91404,-100,4,2,1,55,0,0
91684,-117.647058823529,4,2,1,55,0,0
100656,-100,4,2,1,55,0,0
104721,-100,4,2,1,55,0,0
105142,-100,4,2,1,55,0,0
109348,-100,4,2,1,25,0,0
115516,-200,4,2,1,25,0,0
116077,-200,4,2,1,60,0,0
116217,-100,4,2,1,60,0,0
116637,-100,4,2,1,60,0,0
117619,-100,4,2,1,60,0,0
117689,-100,4,2,1,20,0,0
118320,-90.9090909090909,4,2,1,75,0,1
127291,-90.9090909090909,4,2,1,75,0,1
127572,-90.9090909090909,4,2,1,75,0,1
135703,-90.9090909090909,4,2,1,75,0,1
135983,-90.9090909090909,4,2,1,75,0,1
136263,-90.9090909090909,4,2,1,75,0,1
136684,-90.9090909090909,4,2,1,75,0,1
145235,-90.9090909090909,4,2,1,75,0,1
145516,-90.9090909090909,4,2,1,75,0,1
146637,-90.9090909090909,4,2,1,75,0,1
149721,-133.333333333333,4,2,1,75,0,1
154207,-100,4,2,1,20,0,0
158693,-100,4,2,1,20,0,0
162899,-100,4,2,1,60,0,0
163039,-90.9090909090909,4,2,1,73,0,1
163740,-90.9090909090909,4,2,1,73,0,1
164161,-90.9090909090909,4,2,1,73,0,1
165282,-90.9090909090909,4,2,1,73,0,1
165703,-90.9090909090909,4,2,1,73,0,1
166404,-90.9090909090909,4,2,1,73,0,1
168927,-90.9090909090909,4,2,1,73,0,1
169768,-90.9090909090909,4,2,1,73,0,1
171310,-90.9090909090909,4,2,1,73,0,1
172011,-90.9090909090909,4,2,1,73,0,1
172432,-90.9090909090909,4,2,1,73,0,1
175936,-90.9090909090909,4,2,1,73,0,1
181123,-90.9090909090909,4,2,1,73,0,1
196964,-90.9090909090909,4,2,1,73,0,1
197385,-90.9090909090909,4,2,1,73,0,1
198366,-133.333333333333,4,2,1,73,0,1
198927,-133.333333333333,4,2,1,40,0,1
199067,-100,4,2,1,40,0,0
208039,-133.333333333333,4,2,1,50,0,0
212525,-133.333333333333,4,2,1,35,0,0
214488,-166.666666666667,4,2,1,35,0,0
214768,-166.666666666667,4,2,1,60,0,0
214908,-100,4,2,1,60,0,0
217011,-100,4,2,1,75,0,1
217291,-90.9090909090909,4,2,1,75,0,1
223179,-90.9090909090909,4,2,1,75,0,1
223460,-90.9090909090909,4,2,1,75,0,1
225983,-90.9090909090909,4,2,1,75,0,1
230469,-133.333333333333,4,2,1,75,0,1
230609,-133.333333333333,4,2,1,75,0,1
232151,-100,4,2,1,75,0,1
232712,-133.333333333333,4,2,1,75,0,1
234394,-100,4,2,1,75,0,1
234955,-90.9090909090909,4,2,1,75,0,1
239441,-90.9090909090909,4,2,1,75,0,1
241824,-90.9090909090909,4,2,1,75,0,1
242665,-90.9090909090909,4,2,1,75,0,1
243927,-100,4,2,1,70,0,0
251497,-100,4,2,1,70,0,0
252899,-200,4,2,1,70,0,0
253179,-100,4,2,1,70,0,0
261871,-100,4,2,1,25,0,0

[Colours]
Combo1 : 217,183,251
Combo2 : 242,150,145
Combo3 : 157,191,247
Combo4 : 242,143,23

[HitObjects]
111,116,7291,6,0,P|93:155|118:233,1,117.750004491806,2|0,2:2|2:2,0:0:0:0:
192,76,7712,2,0,P|167:40|87:23,1,117.750004491806,2|0,2:2|2:2,0:0:0:0:
186,166,8133,2,0,B|269:138|260:225|371:181,1,176.625006737709,2|2,2:2|2:2,0:0:0:0:
354,186,8974,2,0,L|365:330,1,117.750004491806,2|2,2:2|2:2,0:0:0:0:
186,166,9534,6,0,L|177:48,1,117.750004491806,2|0,2:2|2:2,0:0:0:0:
87,105,9955,2,0,L|96:223,1,117.750004491806,2|0,2:2|2:2,0:0:0:0:
23,275,10376,2,0,P|79:249|178:329,2,176.625006737709,2|2|2,2:2|2:2|2:2,0:0:0:0:
16,290,11497,1,2,2:2:0:0:
12,307,11777,5,2,2:2:0:0:
465,345,12198,5,0,3:2:0:0:
455,328,12268,1,0,3:2:0:0:
446,310,12338,1,8,2:2:0:0:
375,344,12478,2,0,B|401:302|401:302|375:188,1,157,2|0,3:2|3:2,0:0:0:0:
47,175,12899,6,0,B|192:172|105:261|279:258,1,235.5,6|0,3:2|3:2,0:0:0:0:
231,156,13460,1,8,0:2:0:0:
70,272,13600,1,8,0:3:0:0:
70,272,13670,1,8,0:3:0:0:
70,272,13740,1,4,0:3:0:0:
126,345,13880,6,0,P|193:321|359:303,1,235.5,6|0,3:2|0:0,0:0:0:0:
482,364,14581,5,8,0:2:0:0:
497,335,14675,2,0,L|487:262,1,52.3333333333333,8|8,0:2|0:2,0:0:0:0:
401,218,14862,5,4,0:3:0:0:
386,189,14956,2,0,L|396:116,1,52.3333333333333,8|4,0:3|0:3,0:0:0:0:
454,32,15142,6,0,P|402:88|302:64,1,157,6|10,3:2|0:2,0:0:0:0:
199,16,15563,1,10,0:2:0:0:
190,154,15703,1,8,0:2:0:0:
240,88,15843,1,10,0:2:0:0:
143,81,15983,1,8,0:2:0:0:
180,235,16123,6,0,B|218:240|246:213|246:213|294:204|353:246,1,157,6|0,3:2|3:2,0:0:0:0:
327,229,16474,1,0,3:2:0:0:
327,229,16544,1,0,3:2:0:0:
402,191,16684,1,8,0:2:0:0:
471,240,16824,6,0,L|475:324,1,78.5,2|0,3:2|0:2,0:0:0:0:
336,142,17105,2,0,L|332:58,1,78.5,10|0,0:2|0:2,0:0:0:0:
180,217,17385,6,0,P|134:227|94:221,1,78.5,10|8,0:2|0:2,0:0:0:0:
103,223,17595,1,8,0:2:0:0:
103,223,17665,1,8,0:2:0:0:
262,278,17806,2,0,P|308:268|348:274,1,78.5,2|8,3:2|0:2,0:0:0:0:
338,271,18016,1,8,0:2:0:0:
338,271,18086,1,8,0:2:0:0:
433,218,18226,2,0,L|420:126,1,78.5,2|8,3:2|0:2,0:0:0:0:
339,13,18506,5,8,0:2:0:0:
335,52,18576,1,8,0:2:0:0:
331,91,18646,1,10,0:2:0:0:
328,130,18716,1,8,0:2:0:0:
324,169,18787,2,0,L|267:180,3,39.25,8|8|8|8,0:2|0:2|0:2|0:2,0:0:0:0:
210,238,19067,5,10,0:2:0:0:
190,252,19137,1,8,0:2:0:0:
168,262,19207,1,8,0:2:0:0:
144,267,19277,1,8,0:2:0:0:
119,267,19347,1,8,0:2:0:0:
95,261,19417,1,8,0:2:0:0:
73,251,19487,1,8,0:2:0:0:
54,235,19557,1,8,0:2:0:0:
37,214,19628,6,0,L|43:37,1,157,2|14,3:2|0:2,0:0:0:0:
182,159,20048,1,10,0:2:0:0:
78,289,20189,2,0,P|22:299|-4:289,1,78.5,0|0,3:2|3:2,0:0:0:0:
182,159,20469,2,0,P|238:149|264:159,1,78.5,8|0,0:2|0:2,0:0:0:0:
374,264,20749,6,0,B|274:281|323:217|204:249,1,157,0|8,3:2|0:2,0:0:0:0:
345,179,21170,1,0,0:2:0:0:
414,346,21310,2,0,P|376:355|338:349,1,78.5,0|0,3:2|3:2,0:0:0:0:
345,179,21591,2,0,P|383:170|421:176,1,78.5,8|0,0:2|0:2,0:0:0:0:
467,24,21871,6,0,P|412:44|309:25,1,157,2|10,3:2|0:2,0:0:0:0:
201,80,22291,2,0,P|160:68|30:94,1,157,2|0,0:2|3:2,0:0:0:0:
126,237,22712,2,0,L|126:158,1,78.5,10|0,0:2|0:0,0:0:0:0:
86,326,22992,6,0,P|129:332|164:326,1,78.5,0|0,3:2|0:2,0:0:0:0:
273,358,23273,2,0,P|316:352|351:358,1,78.5,8|0,0:2|3:2,0:0:0:0:
350,357,23483,1,0,3:2:0:0:
350,357,23553,1,0,3:2:0:0:
446,303,23693,1,0,3:2:0:0:
443,277,23763,1,8,0:2:0:0:
439,249,23834,2,0,L|499:241,3,39.25,8|8|8|8,0:2|0:0|0:0|0:0,0:0:0:0:
482,150,24114,6,0,B|424:146|424:146|403:164|403:164|313:158,1,157,6|10,3:2|0:2,0:0:0:0:
245,100,24534,1,2,0:2:0:0:
81,147,24675,2,0,P|65:186|70:237,1,78.5,2|0,3:2|0:2,0:0:0:0:
245,100,24955,2,0,P|244:61|229:25,1,78.5,10|0,0:2|0:2,0:0:0:0:
155,87,25235,6,0,L|168:189,1,78.5,2|0,3:2|0:2,0:0:0:0:
257,309,25516,2,0,L|248:232,1,78.5,10|0,0:2|0:2,0:0:0:0:
176,370,25796,1,2,3:2:0:0:
176,370,25936,1,0,3:2:0:0:
347,280,26077,2,0,P|382:268|424:270,1,78.5,10|0,0:2|0:2,0:0:0:0:
164,171,26357,6,0,L|50:155,2,78.5,14|0|0,0:2|3:2|3:2,0:0:0:0:
338,78,26777,5,14,3:2:0:0:
267,21,26918,1,0,3:2:0:0:
246,104,27058,1,0,3:2:0:0:
419,16,27198,5,8,0:2:0:0:
419,16,27338,2,0,P|448:58|430:174,1,157,6|8,3:2|0:2,0:0:0:0:
468,264,27759,2,0,P|407:257|373:262,1,78.5,10|8,0:2|0:2,0:0:0:0:
233,341,28039,2,0,P|272:342|310:335,1,78.5,10|0,0:2|3:2,0:0:0:0:
304,183,28320,2,0,P|265:176|226:177,1,78.5,10|0,0:2|0:0,0:0:0:0:
125,128,28600,6,0,P|166:150|273:88,1,176.625006737709,2|0,3:2|0:2,0:0:0:0:
190,9,29161,2,0,B|179:45|179:45|202:138,1,117.750004491806,2|0,0:2|0:2,0:0:0:0:
110,144,29581,2,0,L|96:271,1,117.750004491806,2|0,0:2|0:2,0:0:0:0:
188,330,30002,2,0,L|200:212,2,117.750004491806,2|0|10,3:2|0:0|0:2,0:0:0:0:
492,358,30843,6,0,P|485:315|468:283,1,58.8750022459031,2|0,3:2|0:0,0:0:0:0:
347,329,31123,2,0,P|373:340|402:346,1,58.8750022459031,2|0,3:2|0:0,0:0:0:0:
444,217,31404,2,0,P|420:234|401:256,1,58.8750022459031,2|0,0:2|0:2,0:0:0:0:
479,301,31684,1,10,0:2:0:0:
361,170,31824,2,0,L|223:179,1,117.750004491806,2|8,0:2|0:2,0:0:0:0:
45,112,32245,6,0,L|-24:104,1,58.8750022459031,2|8,3:2|0:2,0:0:0:0:
109,37,32525,1,2,3:2:0:0:
109,37,32665,1,8,0:2:0:0:
144,143,32806,1,10,0:2:0:0:
144,143,32946,1,8,0:2:0:0:
180,246,33086,6,0,P|239:236|312:252,1,117.750004491806,6|0,3:2|3:2,0:0:0:0:
368,333,33506,2,0,P|404:338|441:334,2,58.8750022459031,2|0|0,0:2|0:0|0:2,0:0:0:0:
318,243,33927,2,0,L|327:107,2,117.750004491806,10|0|0,0:2|3:2|3:2,0:0:0:0:
100,154,34768,2,0,L|109:18,2,117.750004491806,0|8|0,3:2|0:2|3:2,0:0:0:0:
318,243,35469,6,0,B|354:320|281:364|281:364|244:323|172:333,1,235.5,14|0,0:2|0:2,0:0:0:0:
37,378,36030,2,0,P|88:382|133:357,2,78.5,2|0|0,0:2|0:2|0:2,0:0:0:0:
69,289,36450,2,0,B|76:241|76:241|54:206|54:206|69:115,1,157,10|0,0:2|3:2,0:0:0:0:
164,20,36871,2,0,B|157:68|157:68|179:103|179:103|164:194,1,157,14|0,0:2|3:2,0:0:0:0:
262,244,37291,2,0,P|309:233|345:239,1,78.5,14|0,0:2|3:2,0:0:0:0:
496,160,37572,6,0,P|448:180|352:128,1,157,2|14,3:2|0:2,0:0:0:0:
433,13,37992,1,2,3:2:0:0:
433,13,38133,2,0,P|435:66|435:116,1,78.5,0|0,0:0|0:2,0:0:0:0:
308,234,38413,1,10,0:2:0:0:
232,180,38553,6,0,P|172:168|64:188,1,157,2|0,0:2|0:2,0:0:0:0:
119,48,38974,2,0,P|179:56|213:50,1,78.5,8|0,0:2|3:2,0:0:0:0:
196,53,39184,1,8,0:2:0:0:
196,53,39254,2,0,P|256:45|290:51,1,78.5,0|0,3:2|0:0,0:0:0:0:
353,110,39534,2,0,L|360:202,1,78.5,10|0,0:2|0:2,0:0:0:0:
389,369,39815,6,0,L|383:290,1,78.5,2|0,3:2|0:2,0:0:0:0:
218,305,40095,2,0,L|288:338,1,78.5,10|0,0:2|0:2,0:0:0:0:
358,188,40376,2,0,L|293:232,1,78.5,2|0,3:2|0:2,0:0:0:0:
383,290,40656,1,10,0:2:0:0:
269,135,40796,2,0,B|184:115|220:181|109:156,1,157,2|0,3:2|0:2,0:0:0:0:
6,51,41217,6,0,P|58:44|96:54,1,78.5,10|0,0:2|0:2,0:0:0:0:
193,23,41497,1,10,0:2:0:0:
211,28,41567,1,8,0:2:0:0:
231,30,41637,1,8,0:2:0:0:
250,29,41707,1,8,0:2:0:0:
274,25,41777,2,0,L|280:132,1,78.5,10|0,0:2|3:2,0:0:0:0:
377,135,42058,6,0,L|369:271,1,117.75,2|0,0:2|0:2,0:0:0:0:
388,279,42338,2,0,P|406:241|393:196,1,78.5,14|0,0:2|0:2,0:0:0:0:
185,99,42619,2,0,P|167:137|180:182,1,78.5,2|0,3:2|0:2,0:0:0:0:
105,252,42899,1,10,0:2:0:0:
105,252,43039,2,0,L|20:262,2,78.5,0|0|0,0:2|3:2|0:2,0:0:0:0:
182,329,43460,6,0,P|231:332|268:316,1,78.5,10|0,0:2|3:2,0:0:0:0:
131,153,43740,2,0,P|82:150|45:166,1,78.5,10|0,0:2|3:2,0:0:0:0:
205,231,44020,2,0,P|282:211|346:202,1,117.75,10|0,0:2|0:0,0:0:0:0:
352,208,44301,6,0,P|398:212|438:208,1,78.5,6|0,3:2|3:2,0:0:0:0:
395,116,44581,1,8,0:2:0:0:
321,295,44721,2,0,P|381:306|422:306,1,78.5,10|0,2:2|3:2,0:0:0:0:
398,306,44932,1,0,3:2:0:0:
398,306,45002,1,8,0:2:0:0:
241,375,45142,2,0,P|184:372|145:378,1,78.5,8|0,0:2|3:2,0:0:0:0:
162,374,45352,1,0,3:2:0:0:
162,374,45422,6,0,P|104:382|76:380,1,78.5,8|8,2:2|0:2,0:0:0:0:
0,247,45703,2,0,P|58:239|86:241,1,78.5,2|0,3:2|3:2,0:0:0:0:
171,163,45983,1,10,0:2:0:0:
188,145,46077,2,0,L|195:78,1,52.3333333333333,8|8,2:2|0:0,0:0:0:0:
251,208,46263,1,4,0:3:0:0:
268,190,46357,2,0,L|275:123,1,52.3333333333333,4|4,0:3|0:3,0:0:0:0:
333,274,46544,6,0,B|379:260|379:260|417:277|417:277|486:257,1,157,6|2,3:2|3:2,0:0:0:0:
269,361,46964,2,0,L|183:347,1,78.5,14|0,0:2|3:2,0:0:0:0:
13,268,47245,2,0,L|91:281,1,78.5,2|14,3:2|0:2,0:0:0:0:
197,193,47525,2,0,P|212:139|195:33,1,157,2|8,3:2|0:2,0:0:0:0:
122,105,47946,5,2,3:2:0:0:
295,129,48086,1,0,0:2:0:0:
122,105,48226,2,0,P|62:118|30:127,1,78.5,10|8,0:2|0:3,0:0:0:0:
295,129,48506,2,0,P|355:116|387:107,1,78.5,8|4,0:3|0:3,0:0:0:0:
197,193,48787,6,0,B|165:271|221:258|188:348,1,157,6|2,3:2|3:2,0:0:0:0:
295,129,49207,2,0,P|290:71|276:17,1,78.5,14|0,0:2|0:0,0:0:0:0:
384,197,49488,2,0,P|389:255|403:309,1,78.5,2|14,3:2|0:2,0:0:0:0:
475,124,49768,2,0,L|479:27,1,78.5,0|2,3:2|3:2,0:0:0:0:
371,76,50048,2,0,B|269:78|335:130|219:126,1,157,14|0,0:2|3:2,0:0:0:0:
57,80,50469,5,2,3:2:0:0:
57,80,50609,1,8,0:3:0:0:
28,168,50749,1,4,2:3:0:0:
28,168,50890,1,4,0:3:0:0:
81,250,51030,5,6,3:2:0:0:
76,268,51871,1,2,0:2:0:0:
71,287,52432,1,2,0:2:0:0:
66,306,52712,1,10,0:2:0:0:
61,328,52852,6,0,L|123:318,1,39.25,2|0,3:2|3:2,0:0:0:0:
188,363,52992,2,0,B|224:352|224:352|287:362,1,78.5,12|0,0:2|0:2,0:0:0:0:
410,290,53273,5,8,0:2:0:0:
309,151,53413,1,8,0:2:0:0:
472,204,53553,1,8,2:2:0:0:
309,257,53693,1,2,3:2:0:0:
410,118,53974,1,2,3:2:0:0:
386,201,54254,5,6,3:2:0:0:
375,198,55516,6,0,B|270:190|324:263|200:253,1,172.700005270386,6|10,3:2|0:2,0:0:0:0:
45,205,55936,2,0,P|39:151|31:103,1,86.350002635193,2|0,0:2|3:2,0:0:0:0:
119,276,56217,2,0,P|112:318|108:361,1,86.350002635193,2|8,0:2|0:2,0:0:0:0:
232,173,56497,1,2,3:2:0:0:
232,173,56567,1,0,3:2:0:0:
232,173,56637,2,0,P|176:169|133:167,1,86.350002635193,0|0,3:2|0:2,0:0:0:0:
289,82,56918,6,0,P|338:92|383:80,1,86.350002635193,10|0,0:2|0:2,0:0:0:0:
232,173,57198,2,0,P|198:210|186:255,1,86.350002635193,2|0,3:2|0:2,0:0:0:0:
184,85,57478,2,0,P|168:37|135:4,1,86.350002635193,10|0,0:2|0:2,0:0:0:0:
68,174,57759,6,0,B|126:200|126:200|242:170,1,172.700005270386,6|10,3:2|0:2,0:0:0:0:
438,243,58179,2,0,P|462:289|454:341,1,86.350002635193,2|0,0:2|3:2,0:0:0:0:
350,182,58460,2,0,L|377:58,1,86.350002635193,2|8,0:2|0:2,0:0:0:0:
274,248,58740,1,2,3:2:0:0:
274,248,58810,1,0,3:2:0:0:
274,248,58880,2,0,L|256:333,1,86.350002635193,0|0,3:2|0:2,0:0:0:0:
155,380,59161,6,0,B|111:372|111:372|47:392,1,86.350002635193,10|0,0:2|0:2,0:0:0:0:
375,293,59441,2,0,B|419:301|419:301|483:281,1,86.350002635193,2|0,3:2|3:2,0:0:0:0:
219,161,59721,1,8,0:2:0:0:
186,164,59791,1,8,0:2:0:0:
154,168,59861,1,8,0:2:0:0:
122,172,59931,1,8,0:2:0:0:
90,176,60002,2,0,P|64:123|78:47,1,129.525003952789,6|0,3:2|0:0,0:0:0:0:
96,18,60282,6,0,P|40:38|-4:30,1,86.350002635193,10|0,0:2|0:2,0:0:0:0:
242,176,60563,2,0,P|298:156|342:164,1,86.350002635193,2|0,3:2|3:2,0:0:0:0:
158,282,60843,2,0,B|45:283|109:336|-8:333,1,172.700005270386,10|0,0:2|3:2,0:0:0:0:
18,240,61263,1,0,3:2:0:0:
235,345,61404,6,0,B|332:333,1,86.350002635193,10|0,0:2|0:2,0:0:0:0:
84,323,61684,2,0,B|-13:335,1,86.350002635193,2|0,3:2|0:2,0:0:0:0:
270,240,61964,2,0,P|323:228|371:235,1,86.350002635193,10|0,0:2|0:2,0:0:0:0:
172,104,62245,6,0,B|115:118|115:118|95:147|95:147|8:168,1,172.700005270386,14|0,2:2|3:2,0:0:0:0:
152,7,62665,1,14,0:2:0:0:
250,45,62806,2,0,P|308:56|342:43,1,86.350002635193,0|0,3:2|3:2,0:0:0:0:
512,121,63086,5,10,0:2:0:0:
432,22,63226,2,0,L|417:195,1,172.700005270386,0|2,3:2|3:2,0:0:0:0:
290,241,63647,1,8,0:2:0:0:
295,272,63717,1,8,0:2:0:0:
301,304,63787,1,8,0:2:0:0:
307,336,63857,1,8,0:2:0:0:
313,368,63927,6,0,P|360:359|382:358,3,43.1750013175965,10|8|8|8,0:2|0:2|0:2|0:2,0:0:0:0:
223,344,64207,2,0,P|201:340|180:335,3,43.1750013175965,10|8|8|8,0:2|0:2|0:2|0:2,0:0:0:0:
96,375,64488,6,0,B|59:372|59:372|23:331|61:275,1,129.525003952789,2|0,3:2|0:2,0:0:0:0:
82,262,64768,6,0,B|82:128,1,129.525003952789,14|0,0:2|0:2,0:0:0:0:
78,101,65048,2,0,P|36:88|-8:103,1,86.350002635193,2|0,3:2|0:2,0:0:0:0:
82,262,65329,2,0,L|191:246,1,86.350002635193,10|0,0:2|0:0,0:0:0:0:
271,138,65609,2,0,L|185:150,1,86.350002635193,0|0,3:2|3:2,0:0:0:0:
410,259,65890,6,0,P|448:258|496:241,1,86.350002635193,10|0,0:2|0:2,0:0:0:0:
341,202,66170,2,0,P|322:235|313:285,1,86.350002635193,2|0,3:2|0:2,0:0:0:0:
431,167,66450,2,0,L|411:15,1,129.525003952789,10|0,3:2|0:0,0:0:0:0:
405,7,66731,6,0,B|312:51|323:-6|219:39,1,172.700005270386,6|8,3:2|0:2,0:0:0:0:
13,94,67151,2,0,P|62:126|183:93,1,172.700005270386,2|0,0:2|3:2,0:0:0:0:
291,188,67572,2,0,P|297:243|304:286,1,86.350002635193,10|0,0:2|0:2,0:0:0:0:
178,87,67852,2,0,P|172:32|165:-11,1,86.350002635193,0|0,3:2|0:2,0:0:0:0:
14,238,68133,6,0,P|61:244|112:227,1,86.350002635193,10|0,0:2|0:2,0:0:0:0:
289,288,68413,2,0,P|330:278|373:284,1,86.350002635193,2|0,3:2|0:2,0:0:0:0:
186,345,68693,2,0,L|199:180,1,129.525003952789,14|0,0:2|0:2,0:0:0:0:
219,190,68974,6,0,P|223:136|204:89,2,86.350002635193,2|0|8,3:2|3:0|0:2,0:0:0:0:
461,180,69394,2,0,P|398:174|302:253,1,172.700005270386,6|0,3:2|3:2,0:0:0:0:
126,129,69815,2,0,P|134:56|139:35,1,86.350002635193,10|0,0:2|0:2,0:0:0:0:
63,200,70095,6,0,L|75:306,2,86.350002635193,2|0|8,3:2|3:2|0:2,0:0:0:0:
0,353,70516,2,0,P|47:322|153:357,1,172.700005270386,6|0,3:2|3:2,0:0:0:0:
337,341,70936,2,0,P|283:353|235:341,1,86.350002635193,10|0,0:2|0:2,0:0:0:0:
387,242,71217,5,10,3:2:0:0:
449,329,71357,2,0,P|432:270|424:234,1,86.350002635193,0|0,0:0|3:2,0:0:0:0:
465,59,71637,1,14,0:2:0:0:
475,94,71777,2,0,P|432:138|405:163,1,86.350002635193,0|0,3:0|3:2,0:0:0:0:
227,216,72058,1,14,0:2:0:0:
252,196,72198,2,0,P|311:210|346:221,2,86.350002635193,0|0|0,3:2|3:0|3:2,0:0:0:0:
123,122,72619,5,10,0:2:0:0:
103,130,72689,1,8,0:2:0:0:
82,136,72759,1,8,0:2:0:0:
61,141,72829,1,8,0:2:0:0:
36,142,72899,2,0,P|0:136|-22:136,3,43.1750013175965,10|8|8|8,0:2|0:2|0:2|0:2,0:0:0:0:
60,237,73179,2,0,P|96:243|118:243,3,43.1750013175965,10|8|8|8,0:2|0:2|0:2|0:2,0:0:0:0:
18,356,73460,6,0,P|71:342|156:360,1,129.525003952789,2|0,3:2|0:2,0:0:0:0:
169,331,73740,1,14,0:2:0:0:
295,351,73880,2,0,P|353:345|390:335,1,86.350002635193,2|0,0:2|3:2,0:0:0:0:
201,232,74161,2,0,P|143:238|106:248,1,86.350002635193,2|8,0:2|0:2,0:0:0:0:
283,161,74441,1,2,3:2:0:0:
283,161,74511,1,0,3:2:0:0:
283,161,74581,2,0,P|345:173|378:172,1,86.350002635193,0|0,3:2|0:2,0:0:0:0:
214,73,74862,6,0,L|108:92,1,86.350002635193,10|0,0:2|0:2,0:0:0:0:
367,172,75142,2,0,L|473:153,1,86.350002635193,2|0,3:2|0:2,0:0:0:0:
333,285,75422,2,0,P|265:322|204:306,1,129.525003952789,10|0,0:2|0:0,0:0:0:0:
185,302,75703,6,0,L|189:201,1,86.350002635193,6|0,3:2|0:0,0:0:0:0:
103,128,75983,1,10,0:2:0:0:
214,51,76123,2,0,P|262:52|306:29,1,86.350002635193,2|0,0:2|3:2,0:0:0:0:
103,128,76404,2,0,P|80:85|38:59,1,86.350002635193,2|8,0:2|0:2,0:0:0:0:
214,223,76684,1,2,3:2:0:0:
214,223,76754,1,0,3:2:0:0:
214,223,76824,2,0,P|188:264|186:313,1,86.350002635193,0|0,3:2|0:2,0:0:0:0:
422,363,77105,6,0,L|409:260,1,86.350002635193,10|0,0:2|0:2,0:0:0:0:
325,116,77385,2,0,L|338:219,1,86.350002635193,2|0,3:2|0:2,0:0:0:0:
392,33,77665,1,10,0:2:0:0:
354,12,77735,1,8,0:2:0:0:
311,8,77805,1,8,0:2:0:0:
270,22,77875,1,8,0:2:0:0:
238,50,77946,2,0,P|187:78|105:49,1,129.525003952789,6|0,3:2|2:2,0:0:0:0:
93,37,78226,6,0,P|100:88|86:128,1,86.350002635193,10|0,0:2|0:2,0:0:0:0:
155,311,78506,2,0,P|148:260|162:220,1,86.350002635193,2|0,3:2|0:2,0:0:0:0:
348,258,78787,2,0,L|229:269,1,86.350002635193,10|0,0:2|0:2,0:0:0:0:
71,235,79067,2,0,L|190:224,1,86.350002635193,0|0,3:2|0:2,0:0:0:0:
323,114,79348,6,0,P|368:102|428:117,1,86.350002635193,10|0,2:2|0:2,0:0:0:0:
179,82,79628,2,0,L|75:74,1,86.350002635193,2|0,3:2|0:2,0:0:0:0:
323,114,79908,2,0,P|328:71|316:30,1,86.350002635193,10|0,2:2|0:0,0:0:0:0:
197,185,80189,5,14,0:2:0:0:
280,270,80329,2,0,P|348:260|468:247,2,172.700005270386,0|14|0,3:2|0:2|3:2,0:0:0:0:
122,361,81030,1,14,0:2:0:0:
15,304,81170,2,0,B|-3:286|-6:257|-6:257|38:197|-1:126,1,172.700005270386,0|2,3:2|3:2,0:0:0:0:
71,52,81591,1,8,0:2:0:0:
97,33,81661,1,8,0:2:0:0:
128,25,81731,1,8,0:2:0:0:
160,28,81801,1,8,0:2:0:0:
189,42,81871,6,0,L|197:114,1,43.1750013175965,10|8,0:2|0:2,0:0:0:0:
129,139,82011,2,0,L|136:210,1,43.1750013175965,0|0,3:2|3:2,0:0:0:0:
308,240,82151,2,0,L|312:197,1,43.1750013175965,10|8,0:2|0:2,0:0:0:0:
214,314,82291,2,0,L|218:271,1,43.1750013175965,8|8,0:2|0:2,0:0:0:0:
306,372,82432,6,0,B|363:357|363:357|403:378|403:378|484:356,1,172.700005270386,2|14,3:2|0:2,0:0:0:0:
512,208,82852,2,0,P|434:240|346:177,1,172.700005270386,2|0,3:2|0:2,0:0:0:0:
429,43,83273,2,0,P|440:96|442:142,1,86.350002635193,10|0,0:2|0:0,0:0:0:0:
271,268,83553,2,0,P|260:215|258:169,1,86.350002635193,0|0,3:2|3:2,0:0:0:0:
118,95,83834,6,0,L|22:82,1,86.350002635193,10|0,0:2|0:2,0:0:0:0:
64,190,84044,1,0,3:0:0:0:
64,190,84114,2,0,L|160:203,1,86.350002635193,2|0,3:2|0:2,0:0:0:0:
106,297,84394,2,0,P|49:315|2:307,1,86.350002635193,10|0,0:2|0:2,0:0:0:0:
200,364,84675,6,0,B|289:341|282:407|387:375,1,172.700005270386,6|8,3:2|0:2,0:0:0:0:
466,232,85095,2,0,B|425:197|425:197|446:340,1,172.700005270386,2|0,3:2|2:2,0:0:0:0:
345,288,85516,2,0,L|327:181,1,86.350002635193,10|0,0:2|0:2,0:0:0:0:
392,87,85796,6,0,L|398:25,2,57.566668423462,8|8|8,0:2|0:2|0:2,0:0:0:0:
304,58,86077,2,0,L|310:-4,2,57.566668423462,10|8|8,0:2|0:2|0:2,0:0:0:0:
221,113,86357,1,10,0:2:0:0:
221,113,86450,2,0,P|178:101|148:98,1,57.566668423462,8|8,0:2|0:2,0:0:0:0:
112,179,86637,1,10,0:2:0:0:
112,179,86730,2,0,P|155:191|185:194,1,57.566668423462,8|8,0:2|0:2,0:0:0:0:
114,299,86918,6,0,P|199:277|295:310,2,176.625006737709,6|2|8,3:2|0:2|0:2,0:0:0:0:
300,282,87899,2,0,P|340:290|424:267,2,117.750004491806,6|0|0,3:2|3:2|3:2,0:0:0:0:
210,188,88600,1,10,0:2:0:0:
196,170,88693,2,0,L|204:119,1,39.2500014972687,8|8,0:2|0:2,0:0:0:0:
121,222,88880,1,8,0:2:0:0:
107,204,88973,2,0,L|115:153,1,39.2500014972687,8|8,0:2|0:2,0:0:0:0:
36,272,89161,5,14,2:2:0:0:
108,346,89301,2,0,P|167:354|243:345,2,117.750004491806,0|2|0,3:2|3:2|3:2,0:0:0:0:
14,374,90002,1,14,0:2:0:0:
61,262,90142,2,0,L|49:130,1,117.750004491806,0|0,3:2|3:2,0:0:0:0:
118,73,90563,2,0,L|127:3,1,58.8750022459031,2|0,3:2|0:2,0:0:0:0:
207,95,90843,2,0,L|212:145,2,39.2500014972687,8|0|0,0:2|3:2|3:2,0:0:0:0:
292,48,91123,2,0,L|287:-2,2,39.2500014972687,8|4|4,0:3|0:3|0:3,0:0:0:0:
370,97,91404,2,0,P|377:136|362:189,1,78.5,2|0,3:2|0:0,0:0:0:0:
307,234,91684,6,0,P|348:214|446:255,2,133.450002545357,14|2|8,0:2|3:2|0:2,0:0:0:0:
229,320,92385,2,0,P|167:314|78:308,1,133.450002545357,2|0,0:2|3:2,0:0:0:0:
11,222,92806,2,0,P|71:208|101:200,1,66.7250012726784,10|0,0:2|0:2,0:0:0:0:
190,102,93086,2,0,P|158:110|126:118,1,66.7250012726784,2|0,3:2|3:2,0:0:0:0:
257,29,93366,2,0,P|281:66|286:100,1,66.7250012726784,10|0,0:2|0:2,0:0:0:0:
300,217,93647,6,0,P|349:170|424:170,1,133.450002545357,2|14,3:2|0:2,0:0:0:0:
453,251,94067,2,0,P|416:257|368:248,1,66.7250012726784,2|0,0:2|0:0,0:0:0:0:
233,214,94348,2,0,L|299:216,1,66.7250012726784,2|0,3:2|3:2,0:0:0:0:
161,274,94628,1,2,0:2:0:0:
80,215,94768,6,0,P|71:170|81:57,1,133.450002545357,14|0,0:2|0:2,0:0:0:0:
162,13,95189,1,0,3:2:0:0:
162,13,95259,1,0,3:2:0:0:
162,13,95329,2,0,L|244:6,1,66.7250012726784,14|0,0:2|0:2,0:0:0:0:
383,77,95609,2,0,L|317:83,2,66.7250012726784,14|0|2,0:2|0:2|3:2,0:0:0:0:
477,11,96030,5,8,0:2:0:0:
351,170,96170,2,0,P|298:175|262:164,1,66.7250012726784,8|2,0:2|0:2,0:0:0:0:
430,227,96450,2,0,P|482:221|518:232,2,66.7250012726784,8|2|8,0:2|0:2|0:2,0:0:0:0:
356,301,96871,1,2,3:2:0:0:
264,264,97011,1,0,3:2:0:0:
215,347,97151,1,8,0:2:0:0:
123,310,97291,6,0,L|113:224,1,66.7250012726784,10|8,0:2|0:2,0:0:0:0:
33,306,97572,2,0,L|40:372,1,66.7250012726784,10|8,0:2|0:2,0:0:0:0:
147,231,97852,2,0,P|155:188|145:145,1,66.7250012726784,2|8,3:2|0:2,0:0:0:0:
94,95,98063,1,8,0:2:0:0:
94,95,98133,6,0,P|91:61|99:29,1,66.7250012726784,2|0,3:2|3:2,0:0:0:0:
182,62,98413,1,0,3:2:0:0:
66,186,98553,2,0,L|-2:180,1,66.7250012726784,10|0,2:2|3:2,0:0:0:0:
182,62,98834,2,0,L|248:56,1,66.7250012726784,0|10,3:2|0:2,0:0:0:0:
333,107,99114,2,0,L|417:110,1,66.7250012726784,0|0,3:2|3:2,0:0:0:0:
477,43,99394,2,0,P|502:101|467:190,1,133.450002545357,8|0,0:2|3:2,0:0:0:0:
363,278,99815,6,0,P|408:267|451:276,1,66.7250012726784,10|2,2:2|3:2,0:0:0:0:
284,346,100095,2,0,P|239:357|196:348,1,66.7250012726784,0|0,0:0|0:0,0:0:0:0:
135,294,100376,2,0,L|145:179,1,100.087501909018,2|0,0:2|3:2,0:0:0:0:
176,190,100656,5,14,0:2:0:0:
116,99,100796,2,0,L|106:21,1,78.5,2|0,0:2|3:2,0:0:0:0:
35,146,101077,2,0,L|45:224,1,78.5,2|8,0:2|0:2,0:0:0:0:
0,323,101357,2,0,B|86:293|59:361|167:336,1,157,2|0,3:2|0:2,0:0:0:0:
338,368,101777,6,0,P|396:360|436:369,1,78.5,10|0,0:2|0:0,0:0:0:0:
415,362,101988,1,8,0:2:0:0:
415,362,102058,2,0,P|426:313|419:277,1,78.5,2|0,3:2|0:2,0:0:0:0:
353,143,102338,2,0,P|342:192|349:228,1,78.5,10|0,3:2|0:2,0:0:0:0:
448,190,102619,6,0,L|430:26,1,157,2|10,3:2|0:2,0:0:0:0:
276,138,103039,2,0,P|317:147|373:134,1,78.5,2|0,3:2|3:2,0:0:0:0:
228,62,103320,2,0,P|187:53|131:66,1,78.5,2|8,3:2|3:2,0:0:0:0:
48,27,103600,2,0,P|70:93|60:185,1,157,2|0,3:2|0:2,0:0:0:0:
5,300,104020,6,0,L|99:289,1,78.5,10|0,0:2|0:2,0:0:0:0:
185,312,104301,1,10,0:2:0:0:
190,319,104371,1,8,0:2:0:0:
196,327,104441,1,8,0:2:0:0:
202,335,104511,1,8,0:2:0:0:
206,345,104581,2,0,L|300:334,1,78.5,10|0,0:2|3:2,0:0:0:0:
298,348,105142,6,0,B|328:347|353:360|353:360|402:317|380:250,1,157,14|8,0:2|2:2,0:0:0:0:
328,192,105563,1,0,3:2:0:0:
328,192,105633,1,0,3:0:0:0:
328,192,105703,1,10,0:2:0:0:
380,112,105843,2,0,P|438:81|513:141,1,157,0|0,3:2|0:2,0:0:0:0:
331,29,106263,6,0,L|243:33,1,78.5,10|0,3:2|3:2,0:0:0:0:
102,98,106544,2,0,L|181:95,1,78.5,2|0,3:2|0:2,0:0:0:0:
19,65,106824,2,0,P|12:107|22:143,1,78.5,10|0,0:2|0:0,0:0:0:0:
85,311,107105,6,0,P|91:272|82:234,1,78.5,14|0,0:2|3:2,0:0:0:0:
82,234,107315,1,0,3:2:0:0:
82,234,107385,1,8,0:2:0:0:
144,137,107525,2,0,P|182:143|220:134,1,78.5,10|0,0:2|3:2,0:0:0:0:
220,134,107735,1,0,3:2:0:0:
220,134,107805,1,8,0:2:0:0:
322,73,107946,2,0,P|368:64|415:71,1,78.5,8|0,0:2|3:2,0:0:0:0:
482,150,108226,5,8,0:2:0:0:
487,168,108296,1,8,0:2:0:0:
490,188,108366,1,8,0:2:0:0:
490,207,108436,1,8,0:2:0:0:
488,227,108506,6,0,P|430:224|342:254,1,117.75,8|8,0:3|0:3,0:0:0:0:
347,211,108787,2,0,P|297:216|210:201,1,117.75,8|4,2:2|0:3,0:0:0:0:
203,188,109067,2,0,P|202:240|202:287,1,78.5,6|0,3:2|0:0,0:0:0:0:
156,368,109348,5,2,0:2:0:0:
182,248,115516,6,0,L|200:126,1,117.75,2|0,0:2|0:2,0:0:0:0:
107,306,116077,5,8,0:2:0:0:
129,333,116147,1,8,0:2:0:0:
151,357,116217,2,0,L|251:345,1,78.5,0|0,3:2|2:2,0:0:0:0:
314,285,116497,5,8,0:2:0:0:
336,312,116567,1,8,0:2:0:0:
358,336,116637,2,0,L|458:324,1,78.5,0|0,3:2|0:2,0:0:0:0:
496,194,116918,5,8,0:2:0:0:
503,165,116988,1,8,0:2:0:0:
503,136,117058,1,0,3:2:0:0:
495,108,117128,1,0,3:2:0:0:
480,83,117198,6,0,L|415:76,1,39.25,8|0,0:2|0:2,0:0:0:0:
285,54,117338,1,8,0:2:0:0:
440,78,117478,1,8,0:2:0:0:
347,198,117619,5,10,0:2:0:0:
9,235,118320,6,0,B|116:229|62:309|184:290,1,172.700005270386,6|10,3:2|0:2,0:0:0:0:
282,145,118740,2,0,L|289:56,1,86.350002635193,2|0,0:2|3:2,0:0:0:0:
437,216,119021,2,0,P|429:258|425:301,1,86.350002635193,2|8,0:2|0:2,0:0:0:0:
491,114,119301,1,2,3:2:0:0:
491,114,119371,1,0,3:2:0:0:
491,114,119441,2,0,P|435:118|392:120,1,86.350002635193,0|0,3:2|0:2,0:0:0:0:
200,100,119722,6,0,P|151:110|106:98,1,86.350002635193,10|0,0:2|3:2,0:0:0:0:
257,191,120002,2,0,P|291:228|303:273,1,86.350002635193,2|0,3:2|0:2,0:0:0:0:
305,103,120282,2,0,P|321:55|354:22,1,86.350002635193,10|0,0:2|0:2,0:0:0:0:
419,180,120563,6,0,B|394:203|361:206|361:206|309:176|242:194,1,172.700005270386,6|10,3:2|0:2,0:0:0:0:
74,243,120983,2,0,P|50:289|58:341,1,86.350002635193,2|0,0:2|3:2,0:0:0:0:
152,176,121264,2,0,L|125:52,1,86.350002635193,2|8,0:2|0:2,0:0:0:0:
256,190,121544,1,2,3:2:0:0:
256,190,121614,1,0,3:2:0:0:
256,190,121684,2,0,L|274:275,1,86.350002635193,0|0,3:2|0:2,0:0:0:0:
357,380,121965,6,0,B|401:372|401:372|465:392,1,86.350002635193,10|0,0:2|0:2,0:0:0:0:
137,293,122245,2,0,B|93:301|93:301|29:281,1,86.350002635193,2|0,3:2|3:2,0:0:0:0:
256,190,122525,1,8,0:2:0:0:
289,193,122595,1,8,0:2:0:0:
321,197,122665,1,8,0:2:0:0:
353,201,122735,1,8,0:2:0:0:
385,205,122806,2,0,L|397:76,1,129.525003952789,6|0,3:2|0:0,0:0:0:0:
402,40,123086,6,0,P|458:60|502:52,1,86.350002635193,10|0,0:2|3:2,0:0:0:0:
278,92,123367,2,0,P|222:72|178:80,1,86.350002635193,2|0,3:2|0:0,0:0:0:0:
302,292,123647,2,0,B|415:293|351:346|468:343,2,172.700005270386,10|0|10,0:2|3:2|0:2,0:0:0:0:
200,347,124348,1,0,0:2:0:0:
417,224,124488,2,0,B|514:236,1,86.350002635193,2|0,3:2|0:2,0:0:0:0:
200,347,124768,2,0,P|147:335|99:342,1,86.350002635193,10|0,0:2|0:0,0:0:0:0:
294,106,125049,6,0,B|351:114|351:114|376:139|376:139|419:126|465:145,1,172.700005270386,14|0,2:2|3:2,0:0:0:0:
254,22,125469,1,14,0:2:0:0:
211,109,125610,2,0,P|252:118|294:106,1,86.350002635193,0|0,3:2|0:0,0:0:0:0:
45,130,125890,5,14,0:2:0:0:
129,208,126030,2,0,L|114:35,1,172.700005270386,0|2,3:0|3:2,0:0:0:0:
230,208,126451,1,8,0:2:0:0:
225,239,126521,1,8,0:2:0:0:
219,271,126591,1,8,0:2:0:0:
213,303,126661,1,8,0:2:0:0:
207,335,126731,6,0,P|160:326|138:325,3,43.1750013175965,10|8|8|8,0:2|0:2|0:2|0:2,0:0:0:0:
304,337,127011,2,0,P|326:333|347:328,3,43.1750013175965,10|8|8|8,0:2|0:2|0:2|0:2,0:0:0:0:
416,375,127292,6,0,B|453:372|453:372|489:331|451:275,1,129.525003952789,2|0,3:2|0:2,0:0:0:0:
430,262,127572,6,0,B|430:128,1,129.525003952789,14|0,0:2|0:0,0:0:0:0:
434,101,127852,2,0,P|476:88|520:103,1,86.350002635193,0|0,3:2|3:2,0:0:0:0:
430,262,128133,2,0,L|321:246,1,86.350002635193,10|0,0:2|0:0,0:0:0:0:
241,138,128413,2,0,L|327:150,1,86.350002635193,0|2,3:2|3:2,0:0:0:0:
102,259,128694,6,0,P|64:258|16:241,1,86.350002635193,10|0,2:2|2:2,0:0:0:0:
171,202,128974,2,0,P|190:235|199:285,1,86.350002635193,2|0,3:2|3:2,0:0:0:0:
81,167,129254,2,0,L|101:15,1,129.525003952789,10|0,2:2|0:0,0:0:0:0:
126,17,129534,6,0,B|168:51|210:47|210:47|243:13|310:14,1,172.700005270386,6|8,3:2|0:2,0:0:0:0:
453,60,129955,2,0,B|341:56|404:116|278:105,1,172.700005270386,2|0,0:2|3:2,0:0:0:0:
221,188,130376,2,0,P|215:243|208:286,1,86.350002635193,10|0,0:2|0:2,0:0:0:0:
442,145,130656,2,0,P|448:90|455:47,1,86.350002635193,0|0,3:2|0:2,0:0:0:0:
477,242,130937,6,0,P|430:248|379:231,1,86.350002635193,10|0,0:2|0:2,0:0:0:0:
223,288,131217,2,0,P|182:278|139:284,1,86.350002635193,2|0,3:2|3:2,0:0:0:0:
317,347,131497,2,0,L|304:182,1,129.525003952789,14|0,3:2|2:2,0:0:0:0:
293,190,131778,6,0,P|289:136|308:89,2,86.350002635193,6|0|8,3:2|0:0|0:2,0:0:0:0:
51,180,132198,2,0,P|114:174|210:253,1,172.700005270386,6|0,0:2|3:2,0:0:0:0:
386,129,132619,2,0,P|378:56|373:35,1,86.350002635193,10|0,0:2|0:2,0:0:0:0:
449,200,132899,6,0,L|437:306,2,86.350002635193,6|0|8,3:2|3:2|0:2,0:0:0:0:
512,353,133320,2,0,P|465:322|359:357,1,172.700005270386,6|0,3:2|3:2,0:0:0:0:
175,341,133740,2,0,P|229:353|277:341,1,86.350002635193,10|0,0:2|0:2,0:0:0:0:
125,242,134021,5,14,0:2:0:0:
63,329,134161,2,0,P|80:270|88:234,1,86.350002635193,0|0,3:2|3:2,0:0:0:0:
47,59,134441,1,14,0:2:0:0:
37,94,134581,2,0,P|80:138|107:163,1,86.350002635193,0|0,3:2|3:2,0:0:0:0:
285,216,134862,1,14,0:2:0:0:
260,196,135002,2,0,P|201:210|166:221,2,86.350002635193,0|0|0,3:2|0:0|0:2,0:0:0:0:
389,122,135423,5,10,0:2:0:0:
409,130,135493,1,8,0:2:0:0:
430,136,135563,1,8,0:2:0:0:
451,141,135633,1,8,0:2:0:0:
476,142,135703,2,0,P|512:136|534:136,3,43.1750013175965,10|8|8|8,0:2|0:2|0:2|0:2,0:0:0:0:
452,237,135983,2,0,P|416:243|394:243,3,43.1750013175965,10|8|8|8,0:2|0:2|0:2|0:2,0:0:0:0:
494,356,136264,6,0,P|441:342|356:360,1,129.525003952789,2|0,3:2|0:2,0:0:0:0:
343,331,136544,1,14,0:2:0:0:
217,351,136684,2,0,P|159:345|122:335,1,86.350002635193,2|0,0:2|3:2,0:0:0:0:
311,232,136965,2,0,P|369:238|406:248,1,86.350002635193,2|8,0:2|0:2,0:0:0:0:
229,161,137245,1,2,3:2:0:0:
229,161,137315,1,0,3:2:0:0:
229,161,137385,2,0,P|167:173|134:172,1,86.350002635193,0|0,3:2|0:2,0:0:0:0:
298,73,137666,6,0,L|404:92,1,86.350002635193,10|0,0:2|0:2,0:0:0:0:
145,172,137946,2,0,L|39:153,1,86.350002635193,2|0,3:2|0:0,0:0:0:0:
179,285,138226,2,0,P|247:322|308:306,1,129.525003952789,10|8,0:2|0:2,0:0:0:0:
327,302,138507,6,0,L|323:201,1,86.350002635193,2|0,3:2|0:2,0:0:0:0:
409,128,138787,1,10,0:2:0:0:
298,51,138927,2,0,P|250:52|206:29,1,86.350002635193,2|0,2:2|3:2,0:0:0:0:
409,128,139207,2,0,L|510:113,1,86.350002635193,2|8,0:2|0:2,0:0:0:0:
298,223,139488,1,2,3:2:0:0:
298,223,139558,1,0,3:2:0:0:
298,223,139628,2,0,L|286:311,1,86.350002635193,0|0,3:2|0:2,0:0:0:0:
90,363,139909,6,0,P|88:320|107:263,1,86.350002635193,10|0,0:2|0:0,0:0:0:0:
187,116,140189,2,0,P|194:168|174:219,1,86.350002635193,2|0,3:2|0:2,0:0:0:0:
120,33,140469,1,10,0:2:0:0:
158,12,140539,1,8,0:2:0:0:
201,8,140609,1,8,0:2:0:0:
242,22,140679,1,8,0:2:0:0:
274,50,140750,2,0,P|325:78|407:49,1,129.525003952789,6|0,3:2|0:2,0:0:0:0:
419,37,141030,6,0,P|412:88|426:128,1,86.350002635193,10|0,0:2|3:2,0:0:0:0:
357,311,141310,2,0,P|364:260|350:220,1,86.350002635193,2|0,3:2|0:2,0:0:0:0:
164,258,141591,2,0,L|283:269,1,86.350002635193,10|0,0:2|0:2,0:0:0:0:
441,235,141871,2,0,L|322:224,1,86.350002635193,0|0,3:2|3:2,0:0:0:0:
103,103,142152,6,0,L|189:114,1,86.350002635193,10|0,0:2|3:2,0:0:0:0:
433,78,142432,2,0,B|393:76|393:76|349:87,1,86.350002635193,2|0,3:2|0:0,0:0:0:0:
189,114,142712,2,0,P|184:71|196:30,1,86.350002635193,10|0,0:2|0:2,0:0:0:0:
264,79,142922,5,8,0:2:0:0:
264,79,142993,1,14,2:2:0:0:
232,201,143133,2,0,P|164:191|44:178,2,172.700005270386,0|14|0,3:2|0:2|3:2,0:0:0:0:
328,274,143834,2,0,L|432:264,1,86.350002635193,14|0,0:2|3:2,0:0:0:0:
413,265,144044,1,8,2:2:0:0:
413,265,144114,2,0,P|429:220|416:173,1,86.350002635193,0|2,3:2|3:2,0:0:0:0:
347,51,144395,1,8,0:2:0:0:
321,32,144465,1,8,0:2:0:0:
290,24,144535,1,0,3:2:0:0:
258,27,144605,1,0,3:2:0:0:
229,41,144675,6,0,L|221:113,3,43.1750013175965,10|8|8|8,0:2|0:2|0:0|0:0,0:0:0:0:
137,89,144955,2,0,L|141:132,1,43.1750013175965,10|8,0:2|0:2,0:0:0:0:
48,97,145095,2,0,L|52:54,1,43.1750013175965,8|8,0:2|0:2,0:0:0:0:
6,231,145236,6,0,B|73:249|73:249|113:228|113:228|170:243,1,172.700005270386,2|14,3:2|0:2,0:0:0:0:
241,328,145656,2,0,P|166:366|89:334,1,172.700005270386,0|0,0:0|0:2,0:0:0:0:
346,294,146077,2,0,P|335:347|333:393,1,86.350002635193,10|2,0:2|0:2,0:0:0:0:
282,145,146357,2,0,P|278:188|269:231,1,86.350002635193,0|0,3:2|3:2,0:0:0:0:
101,190,146638,6,0,L|197:177,1,86.350002635193,10|0,0:2|0:2,0:0:0:0:
354,219,146848,1,0,3:0:0:0:
354,219,146918,2,0,L|258:232,1,86.350002635193,2|0,3:2|0:2,0:0:0:0:
124,290,147198,2,0,P|181:308|228:300,1,86.350002635193,10|0,0:2|0:2,0:0:0:0:
226,73,147479,6,0,B|137:50|144:116|39:84,1,172.700005270386,6|8,3:2|0:2,0:0:0:0:
131,175,147899,2,0,B|160:168|185:158|185:158|224:235|164:301,1,172.700005270386,2|0,3:2|3:2,0:0:0:0:
83,356,148320,2,0,P|83:306|101:249,1,86.350002635193,10|0,0:2|0:2,0:0:0:0:
120,87,148600,6,0,L|114:25,2,57.566668423462,8|8|8,0:0|0:0|0:0,0:0:0:0:
208,58,148881,2,0,L|202:-4,2,57.566668423462,10|8|8,0:0|0:0|0:0,0:0:0:0:
291,113,149161,1,10,0:2:0:0:
291,113,149254,2,0,P|334:101|364:98,1,57.566668423462,8|8,0:2|0:2,0:0:0:0:
400,179,149441,1,10,0:2:0:0:
400,179,149534,2,0,P|357:191|327:194,1,57.566668423462,8|8,0:2|0:2,0:0:0:0:
398,299,149722,6,0,P|313:277|217:310,2,176.625006737709,14|0|14,0:2|3:2|0:2,0:0:0:0:
212,282,150703,2,0,P|172:290|88:267,2,117.750004491806,2|0|0,3:2|3:2|3:2,0:0:0:0:
302,188,151404,1,10,0:2:0:0:
316,170,151497,2,0,L|308:119,1,39.2500014972687,8|8,0:2|0:2,0:0:0:0:
391,222,151684,1,10,0:2:0:0:
405,204,151777,2,0,L|397:153,1,39.2500014972687,8|8,0:2|0:2,0:0:0:0:
476,272,151965,5,14,0:2:0:0:
404,346,152105,2,0,P|345:354|269:345,2,117.750004491806,2|0|0,3:2|3:2|3:2,0:0:0:0:
498,374,152806,1,14,0:2:0:0:
451,262,152946,2,0,L|463:130,1,117.750004491806,0|0,3:2|3:2,0:0:0:0:
394,73,153367,2,0,L|385:3,1,58.8750022459031,0|0,0:0|3:2,0:0:0:0:
305,95,153647,2,0,L|300:145,2,39.2500014972687,8|8|8,0:2|0:3|0:3,0:0:0:0:
220,48,153927,2,0,L|225:-2,2,39.2500014972687,4|4|4,0:3|0:3|0:3,0:0:0:0:
137,108,154207,5,0,0:2:0:0:
256,192,158693,12,0,162759,0:0:0:0:
51,290,162899,5,10,2:2:0:0:
139,232,163039,2,0,B|191:213|247:250|247:250|301:238|301:238|340:259|392:239,1,259.050007905579,6|8,3:1|0:2,0:0:0:0:
349,158,163600,1,0,3:2:0:0:
179,320,163740,6,0,P|74:336|-3:332,1,172.700005270386,2|8,3:1|0:2,0:0:0:0:
273,371,164161,2,0,P|336:368|377:373,1,86.350002635193,2|0,3:2|0:0,0:0:0:0:
466,320,164441,1,2,0:2:0:0:
466,320,164581,2,0,P|475:275|457:227,1,86.350002635193,10|0,0:2|0:2,0:0:0:0:
324,92,164862,5,0,3:2:0:0:
350,198,165002,1,0,0:2:0:0:
426,123,165142,1,10,0:1:0:0:
244,164,165282,6,0,B|143:150|182:227|77:213,1,172.700005270386,2|0,3:1|3:2,0:0:0:0:
192,72,165703,2,0,B|237:64|237:64|294:77,1,86.350002635193,8|0,0:2|0:2,0:0:0:0:
423,137,165983,2,0,B|378:145|378:145|321:132,1,86.350002635193,0|0,3:2|0:0,0:0:0:0:
225,316,166263,1,10,0:1:0:0:
293,245,166404,6,0,B|348:236|348:236|384:263|384:263|476:250,1,172.700005270386,2|0,3:1|0:0,0:0:0:0:
247,329,166824,2,0,P|192:321|152:316,1,86.350002635193,8|0,0:0|3:2,0:0:0:0:
161,317,167034,1,8,0:2:0:0:
161,317,167105,1,2,3:1:0:0:
86,354,167245,2,0,L|58:265,1,86.350002635193,2|8,3:1|0:2,0:0:0:0:
73,246,167455,1,0,3:2:0:0:
73,246,167525,6,0,B|63:211|94:160|94:160|97:123|62:62,1,172.700005270386,6|0,3:1|3:2,0:0:0:0:
2,19,167946,2,0,P|46:48|160:4,1,172.700005270386,12|0,0:2|3:2,0:0:0:0:
240,78,168366,1,0,0:2:0:0:
367,17,168506,2,0,P|384:95|386:120,1,86.350002635193,10|2,0:1|0:2,0:0:0:0:
327,204,168787,1,2,3:1:0:0:
409,312,168927,2,0,L|501:298,2,86.350002635193,2|8|0,3:1|0:2|0:0,0:0:0:0:
316,381,169348,2,0,L|222:365,1,86.350002635193,0|0,3:2|3:2,0:0:0:0:
114,336,169628,1,8,0:2:0:0:
269,189,169768,6,0,P|336:222|432:156,1,172.700005270386,2|0,3:1|3:2,0:0:0:0:
253,69,170189,2,0,L|72:85,1,172.700005270386,8|0,0:2|3:2,0:0:0:0:
9,163,170609,1,0,3:2:0:0:
110,232,170749,1,10,2:1:0:0:
59,104,170890,6,0,P|40:181|31:315,1,172.700005270386,2|0,3:1|3:2,0:0:0:0:
198,361,171310,2,0,P|188:310|178:265,1,86.350002635193,8|0,0:2|0:2,0:0:0:0:
215,176,171591,1,0,3:2:0:0:
322,229,171731,1,0,3:2:0:0:
221,154,171871,1,8,0:2:0:0:
411,95,172011,6,0,B|437:155|437:155|418:198|418:198|452:288,1,172.700005270386,6|2,3:1|0:2,0:0:0:0:
324,234,172362,1,2,0:2:0:0:
324,234,172432,2,0,P|331:167|337:133,1,86.350002635193,10|2,0:2|0:2,0:0:0:0:
228,109,172712,1,2,3:2:0:0:
228,109,172782,1,2,0:2:0:0:
228,109,172852,2,0,L|121:100,1,86.350002635193,2|10,0:2|0:2,0:0:0:0:
52,152,173133,1,2,0:0:0:0:
52,152,173203,1,2,0:0:0:0:
52,152,173273,6,0,P|39:193|59:245,1,86.350002635193,2|0,3:2|0:0,0:0:0:0:
73,363,173553,2,0,P|121:345|179:356,1,86.350002635193,10|0,0:2|0:0,0:0:0:0:
155,347,173763,1,2,0:0:0:0:
155,347,173834,2,0,P|208:361|262:342,1,86.350002635193,2|0,3:2|0:0,0:0:0:0:
327,284,174114,1,10,0:2:0:0:
326,262,174184,1,2,0:2:0:0:
326,240,174254,1,10,0:2:0:0:
325,219,174324,1,2,0:2:0:0:
325,196,174394,6,0,B|390:173|390:173|459:199,2,129.525003952789,2|2|2,3:1|0:1|0:1,0:0:0:0:
234,118,174955,2,0,P|180:137|89:90,2,129.525003952789,2|2|2,3:1|0:1|0:1,0:0:0:0:
178,39,175516,1,2,3:1:0:0:
109,217,175656,1,0,3:1:0:0:
35,153,175796,1,8,0:1:0:0:
16,300,175936,6,0,P|80:270|246:352,1,259.050007905579,2|8,3:1|0:2,0:0:0:0:
339,271,176497,1,2,3:1:0:0:
339,271,176567,1,0,3:2:0:0:
339,271,176637,6,0,P|346:220|356:160,1,86.350002635193,2|0,3:1|3:1,0:0:0:0:
441,270,176918,2,0,P|448:313|454:356,1,86.350002635193,10|2,2:1|0:2,0:0:0:0:
257,193,177198,2,0,P|251:152|242:90,1,86.350002635193,2|0,3:1|3:2,0:0:0:0:
142,297,177478,2,0,P|148:338|157:400,1,86.350002635193,10|0,2:1|3:2,0:0:0:0:
20,255,177759,5,2,3:1:0:0:
8,228,177852,1,2,0:2:0:0:
9,198,177946,1,2,0:2:0:0:
72,145,178039,1,10,0:1:0:0:
73,115,178133,1,2,0:2:0:0:
61,88,178226,1,2,0:2:0:0:
19,21,178320,6,0,P|81:62|184:34,1,172.700005270386,2|10,3:1|0:2,0:0:0:0:
261,106,178740,1,0,3:2:0:0:
261,106,178810,1,0,3:2:0:0:
261,106,178880,2,0,P|324:87|369:79,1,86.350002635193,2|2,3:1|3:2,0:0:0:0:
191,192,179161,2,0,P|148:182|107:168,1,86.350002635193,10|0,0:1|3:2,0:0:0:0:
265,276,179441,1,2,3:1:0:0:
350,235,179581,1,0,0:0:0:0:
428,288,179721,1,10,0:2:0:0:
346,327,179862,6,0,L|323:141,1,172.700005270386,2|0,3:1|3:2,0:0:0:0:
229,78,180282,2,0,P|223:163|215:192,1,86.350002635193,10|2,0:1|3:1,0:0:0:0:
64,241,180563,6,0,L|5:235,1,43.1750013175965,8|8,0:2|0:2,0:0:0:0:
142,311,180703,2,0,L|201:317,1,43.1750013175965,8|8,0:2|0:2,0:0:0:0:
279,264,180843,1,8,0:2:0:0:
307,249,180913,1,8,0:2:0:0:
339,249,180983,1,8,0:2:0:0:
368,264,181053,1,8,0:2:0:0:
387,290,181123,6,0,L|385:169,1,86.350002635193,6|0,3:2|3:2,0:0:0:0:
460,28,181404,2,0,L|462:149,1,86.350002635193,10|0,0:2|3:2,0:0:0:0:
365,310,181684,2,0,L|363:189,1,86.350002635193,10|0,0:2|3:2,0:0:0:0:
295,158,181964,1,10,0:2:0:0:
151,264,182105,6,0,P|93:287|-5:246,1,172.700005270386,6|0,3:2|3:2,0:0:0:0:
72,91,182525,2,0,L|80:187,1,86.350002635193,10|0,0:2|3:2,0:0:0:0:
253,319,182806,1,10,0:0:0:0:
253,319,182946,1,8,0:0:0:0:
333,176,183086,1,10,0:0:0:0:
333,176,183226,1,8,0:0:0:0:
397,252,183366,6,0,P|453:238|495:255,1,86.350002635193,14|0,0:2|3:2,0:0:0:0:
253,319,183647,2,0,P|196:332|154:315,1,86.350002635193,10|0,0:2|3:2,0:0:0:0:
36,213,183927,2,0,B|86:207|86:207|120:236|120:236|223:223,1,172.700005270386,10|8,0:2|0:2,0:0:0:0:
437,52,184348,6,0,B|355:31|355:31|263:68,1,172.700005270386,6|0,3:2|3:2,0:0:0:0:
373,235,184768,2,0,L|364:140,1,86.350002635193,10|0,0:2|3:2,0:0:0:0:
159,26,185048,2,0,L|168:121,1,86.350002635193,10|0,0:2|3:2,0:0:0:0:
82,177,185329,2,0,L|73:91,1,86.350002635193,8|0,0:2|3:2,0:0:0:0:
54,296,185609,6,0,P|109:279|160:294,1,86.350002635193,14|0,0:2|3:2,0:0:0:0:
326,314,185890,2,0,P|270:330|219:315,1,86.350002635193,10|0,0:2|3:2,0:0:0:0:
413,257,186170,2,0,P|428:296|425:339,1,86.350002635193,10|0,0:2|3:2,0:0:0:0:
270,233,186450,1,10,0:2:0:0:
412,151,186591,6,0,B|535:140|535:140|498:183,1,172.700005270386,6|0,3:2|3:2,0:0:0:0:
348,71,187011,2,0,L|251:79,1,86.350002635193,10|0,0:2|3:2,0:0:0:0:
149,50,187291,1,10,0:2:0:0:
143,70,187361,1,8,0:2:0:0:
141,92,187431,1,8,0:2:0:0:
140,113,187501,1,8,0:2:0:0:
144,138,187572,2,0,P|150:193|138:232,1,86.350002635193,10|8,0:2|0:2,0:0:0:0:
0,304,187852,6,0,P|55:298|94:310,1,86.350002635193,14|0,2:2|3:2,0:0:0:0:
263,363,188133,2,0,P|208:369|169:357,1,86.350002635193,10|0,0:2|3:2,0:0:0:0:
346,292,188413,2,0,L|360:390,1,86.350002635193,10|0,0:2|3:2,0:0:0:0:
253,268,188693,1,10,0:2:0:0:
333,130,188834,6,0,B|361:107|386:109|386:109|430:169|495:155,1,172.700005270386,6|0,3:2|3:2,0:0:0:0:
247,177,189254,2,0,P|204:179|163:165,1,86.350002635193,10|0,0:2|3:2,0:0:0:0:
46,88,189534,1,10,0:2:0:0:
55,107,189604,1,8,0:2:0:0:
61,128,189674,1,0,3:2:0:0:
65,149,189744,1,0,3:2:0:0:
66,174,189815,2,0,B|25:192|25:192|-28:185,1,86.350002635193,4|4,0:3|0:3,0:0:0:0:
218,86,190095,6,0,L|210:-27,1,86.350002635193,6|0,3:2|3:2,0:0:0:0:
97,261,190376,2,0,L|105:374,1,86.350002635193,10|0,0:2|3:2,0:0:0:0:
243,98,190656,2,0,L|235:-15,1,86.350002635193,10|0,0:2|3:2,0:0:0:0:
137,70,190936,1,10,0:2:0:0:
176,185,191077,6,0,P|261:208|345:147,1,172.700005270386,6|0,3:2|3:2,0:0:0:0:
84,238,191497,2,0,P|70:278|71:321,1,86.350002635193,10|0,0:2|3:2,0:0:0:0:
19,152,191777,1,10,0:0:0:0:
19,152,191918,1,8,0:0:0:0:
91,76,192058,1,10,0:0:0:0:
91,76,192198,1,8,0:0:0:0:
262,229,192338,6,0,B|219:217|219:217|155:239,1,86.350002635193,14|0,0:2|3:2,0:0:0:0:
55,156,192619,2,0,B|98:168|98:168|162:146,1,86.350002635193,10|0,0:2|3:2,0:0:0:0:
11,72,192899,2,0,L|26:271,1,172.700005270386,10|10,0:2|0:2,0:0:0:0:
9,364,193320,6,0,B|92:327|92:406|200:361,1,172.700005270386,6|0,3:2|3:2,0:0:0:0:
303,239,193740,2,0,P|308:307|326:336,1,86.350002635193,10|0,0:2|3:2,0:0:0:0:
150,269,194020,2,0,P|144:200|126:171,1,86.350002635193,10|8,0:2|0:2,0:0:0:0:
50,241,194301,1,8,0:2:0:0:
241,153,194441,1,8,0:2:0:0:
47,42,194581,6,0,L|38:227,1,172.700005270386,6|8,3:2|0:2,0:0:0:0:
179,371,195002,2,0,L|169:271,2,86.350002635193,2|8|0,3:2|0:2|0:0,0:0:0:0:
72,337,195422,1,0,3:2:0:0:
239,179,195563,2,0,B|344:158|296:232|426:213,1,172.700005270386,10|0,0:2|0:0,0:0:0:0:
180,101,195983,6,0,L|85:110,1,86.350002635193,14|0,0:2|3:2,0:0:0:0:
261,34,196263,1,10,0:2:0:0:
239,179,196404,1,8,0:2:0:0:
94,109,196544,1,10,0:2:0:0:
72,254,196685,1,8,0:2:0:0:
142,192,196824,5,10,2:2:0:0:
189,277,196964,2,0,L|288:265,1,86.350002635193,0|0,3:2|0:2,0:0:0:0:
132,357,197245,5,8,0:2:0:0:
274,266,197385,2,0,L|373:278,1,86.350002635193,0|0,3:2|0:2,0:0:0:0:
230,172,197665,5,8,0:2:0:0:
441,331,197806,2,0,P|454:276|443:233,1,86.350002635193,0|0,3:2|0:0,0:0:0:0:
237,88,198086,2,0,P|224:143|235:186,1,86.350002635193,8|0,2:2|0:0,0:0:0:0:
336,138,198366,2,0,L|325:5,1,117.750004491806,8|0,0:2|3:2,0:0:0:0:
326,20,198717,1,0,3:2:0:0:
326,20,198787,1,10,0:2:0:0:
196,340,199067,5,6,3:2:0:0:
46,120,208039,6,0,L|38:205,1,58.8750022459031,2|0,3:2|0:2,0:0:0:0:
136,168,208320,2,0,L|128:253,1,58.8750022459031,8|2,0:2|0:2,0:0:0:0:
51,61,208600,2,0,L|43:146,1,58.8750022459031,0|0,3:2|0:2,0:0:0:0:
141,109,208881,2,0,L|133:194,1,58.8750022459031,10|0,0:2|0:0,0:0:0:0:
231,157,209161,2,0,L|223:242,1,58.8750022459031,0|2,3:2|0:2,0:0:0:0:
305,273,209441,6,0,P|350:281|379:273,1,58.8750022459031,8|0,0:2|0:2,0:0:0:0:
222,334,209721,2,0,P|177:326|148:334,1,58.8750022459031,2|0,3:2|0:2,0:0:0:0:
362,278,210002,2,0,P|370:233|362:204,1,58.8750022459031,10|0,0:2|0:0,0:0:0:0:
282,66,210282,6,0,L|289:198,1,117.750004491806,6|8,3:2|0:2,0:0:0:0:
192,129,210703,2,0,L|186:12,1,117.750004491806,2|0,0:2|0:2,0:0:0:0:
104,116,211123,2,0,L|107:174,1,58.8750022459031,10|0,0:2|0:2,0:0:0:0:
15,167,211404,2,0,L|18:225,1,58.8750022459031,0|0,3:2|0:2,0:0:0:0:
147,340,211684,6,0,B|179:342|179:342|223:330,1,58.8750022459031,10|0,0:2|0:2,0:0:0:0:
346,281,211964,2,0,B|314:279|314:279|270:291,1,58.8750022459031,2|0,3:2|0:2,0:0:0:0:
170,246,212245,2,0,L|162:138,1,88.3125033688546,10|0,0:2|0:0,0:0:0:0:
162,130,212525,5,2,2:2:0:0:
162,130,213647,1,2,0:2:0:0:
162,130,214488,2,0,B|209:120|209:120|269:138,1,94.1999971252442,2|8,0:2|0:2,0:0:0:0:
282,146,214838,1,8,0:2:0:0:
282,146,214908,6,0,L|366:138,1,78.5,8|4,0:3|0:3,0:0:0:0:
328,229,215119,1,0,3:0:0:0:
328,229,215189,2,0,L|249:236,1,78.5,8|8,0:2|0:3,0:0:0:0:
171,298,215469,1,4,0:3:0:0:
171,298,215539,1,4,0:3:0:0:
171,298,215609,2,0,P|161:355|163:391,1,78.5,8|0,0:2|3:3,0:0:0:0:
93,232,215890,5,8,0:2:0:0:
90,202,215960,1,8,0:2:0:0:
87,173,216030,1,0,3:2:0:0:
84,144,216100,1,0,3:2:0:0:
82,114,216170,6,0,P|41:102|28:102,3,39.25,10|0|0|0,0:2|3:2|3:2|3:2,0:0:0:0:
166,69,216450,2,0,P|185:65|203:57,3,39.25,10|8|8|8,0:2|0:2|0:2|0:2,0:0:0:0:
283,112,216731,1,10,0:2:0:0:
318,128,216801,1,8,0:2:0:0:
357,129,216871,1,8,0:2:0:0:
394,117,216941,1,8,0:2:0:0:
424,92,217011,6,0,L|420:214,1,117.75,2|0,3:2|0:2,0:0:0:0:
387,228,217291,6,0,P|408:274|338:359,1,172.700005270386,14|0,0:2|3:2,0:0:0:0:
183,286,217712,2,0,B|226:275|226:275|288:285,1,86.350002635193,2|8,0:2|0:2,0:0:0:0:
94,341,217992,1,2,3:2:0:0:
94,341,218063,1,0,3:2:0:0:
94,341,218133,2,0,B|51:352|51:352|-11:342,1,86.350002635193,0|0,3:2|0:2,0:0:0:0:
89,143,218413,6,0,L|99:265,1,86.350002635193,10|0,0:2|0:2,0:0:0:0:
200,111,218693,2,0,L|193:25,1,86.350002635193,2|0,3:2|0:2,0:0:0:0:
310,158,218974,2,0,P|364:171|412:151,1,86.350002635193,10|0,0:2|3:2,0:0:0:0:
392,163,219184,1,8,0:2:0:0:
392,163,219254,6,0,P|428:261|390:339,1,172.700005270386,2|10,3:2|0:2,0:0:0:0:
303,151,219675,2,0,L|314:48,1,86.350002635193,2|0,0:2|3:2,0:0:0:0:
136,200,219955,2,0,P|206:213|246:190,1,86.350002635193,2|8,0:2|0:2,0:0:0:0:
108,98,220235,1,2,3:2:0:0:
108,98,220306,1,0,3:2:0:0:
108,98,220376,2,0,P|38:85|-2:108,1,86.350002635193,0|0,3:2|0:2,0:0:0:0:
116,319,220656,6,0,L|279:314,1,129.525003952789,10|0,0:2|0:0,0:0:0:0:
273,332,220936,2,0,P|332:345|370:329,1,86.350002635193,2|0,3:2|3:2,0:0:0:0:
453,232,221217,1,10,0:2:0:0:
431,195,221287,1,8,0:2:0:0:
424,152,221357,1,8,0:2:0:0:
435,111,221427,1,8,0:2:0:0:
460,76,221497,2,0,P|413:100|316:70,1,129.525003952789,6|0,3:2|0:2,0:0:0:0:
311,73,221777,6,0,L|302:176,1,86.350002635193,10|0,0:2|0:2,0:0:0:0:
169,87,222058,2,0,L|176:0,1,86.350002635193,2|0,3:2|0:2,0:0:0:0:
46,134,222338,1,10,0:2:0:0:
46,134,222408,1,0,3:0:0:0:
46,134,222478,2,0,B|28:192|28:192|77:313,1,172.700005270386,0|0,3:0|0:2,0:0:0:0:
217,193,222899,6,0,P|166:181|108:202,1,86.350002635193,10|0,0:2|0:2,0:0:0:0:
307,297,223179,2,0,L|454:276,1,129.525003952789,2|0,3:2|0:2,0:0:0:0:
294,333,223460,2,0,L|206:323,1,86.350002635193,10|0,0:2|0:2,0:0:0:0:
208,323,223670,1,8,0:2:0:0:
208,323,223740,6,0,B|152:339|152:339|91:294|128:224,1,172.700005270386,14|0,0:2|3:2,0:0:0:0:
195,45,224161,2,0,B|234:85|234:85|215:217,1,172.700005270386,14|0,0:2|3:2,0:0:0:0:
136,122,224581,1,14,0:2:0:0:
299,20,224721,2,0,L|398:13,2,86.350002635193,0|0|2,3:2|3:2|3:2,0:0:0:0:
360,158,225142,5,8,2:2:0:0:
399,174,225212,1,0,3:2:0:0:
441,167,225282,1,0,3:2:0:0:
474,140,225352,1,0,3:2:0:0:
487,100,225422,2,0,L|481:43,3,43.1750013175965,10|8|8|8,0:2|0:2|0:2|0:2,0:0:0:0:
471,181,225703,2,0,L|477:224,3,43.1750013175965,10|8|8|8,0:2|0:2|0:2|0:2,0:0:0:0:
504,335,225983,6,0,P|430:306|326:335,1,172.700005270386,2|8,3:2|0:2,0:0:0:0:
200,276,226404,2,0,P|131:298|32:258,1,172.700005270386,2|0,3:2|0:2,0:0:0:0:
120,116,226824,2,0,P|125:160|129:228,1,86.350002635193,10|0,0:2|0:0,0:0:0:0:
310,325,227105,2,0,P|304:280|301:213,1,86.350002635193,0|0,3:2|0:2,0:0:0:0:
363,15,227385,6,0,B|379:58|379:58|371:109,1,86.350002635193,10|0,0:2|3:2,0:0:0:0:
285,213,227595,1,8,0:2:0:0:
285,213,227665,2,0,B|269:170|269:170|277:119,1,86.350002635193,2|0,3:2|0:2,0:0:0:0:
184,62,227946,2,0,L|88:58,1,86.350002635193,10|0,0:2|0:2,0:0:0:0:
217,294,228226,6,0,P|296:326|373:281,1,172.700005270386,6|8,3:2|0:2,0:0:0:0:
160,210,228647,2,0,B|39:222|121:264|-25:283,1,172.700005270386,2|0,0:2|3:2,0:0:0:0:
169,106,229067,2,0,P|226:119|265:124,1,86.350002635193,10|0,0:2|0:2,0:0:0:0:
436,53,229348,5,10,0:2:0:0:
424,72,229441,2,0,P|413:116|413:130,1,57.566668423462,8|8,0:2|0:2,0:0:0:0:
330,186,229628,1,10,0:2:0:0:
342,205,229721,2,0,P|353:249|353:263,1,57.566668423462,8|8,0:2|0:2,0:0:0:0:
281,338,229908,2,0,L|219:330,2,57.566668423462,10|8|8,0:2|0:2|0:2,0:0:0:0:
201,232,230189,2,0,L|263:240,2,57.566668423462,10|8|8,0:2|0:0|0:2,0:0:0:0:
130,160,230469,5,2,3:2:0:0:
50,230,230609,2,0,P|27:270|39:351,2,117.750004491806,2|0|0,3:2|3:2|3:2,0:0:0:0:
13,53,231310,1,14,0:2:0:0:
112,117,231450,2,0,P|173:111|240:106,2,117.750004491806,0|0|0,3:2|3:2|3:2,0:0:0:0:
312,46,232151,5,10,0:2:0:0:
317,57,232244,1,8,0:2:0:0:
322,69,232337,1,8,0:0:0:0:
326,82,232431,1,10,0:2:0:0:
328,95,232524,1,8,0:0:0:0:
329,108,232618,1,8,0:0:0:0:
331,124,232712,6,0,B|326:150|312:175|312:175|345:219|345:219|311:258|312:306,2,176.625006737709,10|0|14,0:2|3:2|0:2,0:0:0:0:
202,210,233693,2,0,L|214:339,1,117.750004491806,0|2,3:2|3:2,0:0:0:0:
106,213,234114,2,0,L|113:147,1,58.8750022459031,2|0,0:0|3:2,0:0:0:0:
59,69,234394,1,10,0:2:0:0:
44,56,234488,2,0,P|9:52|-13:52,1,52.3333333333333,8|8,0:2|0:2,0:0:0:0:
138,11,234675,1,4,0:3:0:0:
153,24,234769,2,0,P|188:28|210:28,1,52.3333333333333,4|4,0:3|0:3,0:0:0:0:
308,103,234955,6,0,B|362:94|362:94|397:121|397:121|484:106,1,172.700005270386,6|10,3:2|0:2,0:0:0:0:
278,238,235376,2,0,L|183:230,1,86.350002635193,0|8,3:2|0:2,0:0:0:0:
174,243,235586,1,0,3:0:0:0:
174,243,235656,2,0,L|79:235,1,86.350002635193,0|14,3:0|0:2,0:0:0:0:
298,353,235936,2,0,P|383:370|475:298,1,172.700005270386,2|0,3:2|3:2,0:0:0:0:
392,120,236357,5,10,0:2:0:0:
365,268,236497,1,8,0:2:0:0:
238,177,236637,1,8,0:2:0:0:
222,166,236731,2,0,L|145:174,1,57.566668423462,8|0,0:2|0:0,0:0:0:0:
100,233,236918,1,4,0:3:0:0:
84,222,237012,2,0,L|7:230,1,57.566668423462,4|4,0:3|0:3,0:0:0:0:
186,78,237198,6,0,B|276:52|262:124|382:85,1,172.700005270386,6|10,3:2|0:2,0:0:0:0:
483,27,237619,1,10,0:2:0:0:
458,8,237759,1,8,0:2:0:0:
471,186,237899,1,10,0:2:0:0:
496,167,238039,1,8,0:2:0:0:
353,92,238179,6,0,B|334:143|334:143|351:184|351:184|313:287,1,172.700005270386,6|0,3:2|3:2,0:0:0:0:
205,343,238600,2,0,P|268:334|297:350,1,86.350002635193,10|8,0:2|0:2,0:0:0:0:
287,343,238810,1,8,0:2:0:0:
287,343,238880,2,0,P|328:353|371:339,1,86.350002635193,2|0,3:2|0:0,0:0:0:0:
220,223,239161,2,0,L|117:230,1,86.350002635193,10|0,0:2|0:2,0:0:0:0:
353,92,239441,6,0,L|456:85,1,86.350002635193,14|0,0:2|3:2,0:0:0:0:
439,86,239651,1,0,3:2:0:0:
439,86,239721,1,8,0:2:0:0:
254,50,239862,2,0,P|247:115|277:161,1,86.350002635193,10|0,0:2|3:2,0:0:0:0:
254,133,240072,1,0,3:2:0:0:
254,133,240142,1,8,0:2:0:0:
145,337,240282,6,0,P|151:271|121:225,1,86.350002635193,6|0,3:2|3:2,0:0:0:0:
144,253,240492,1,0,3:2:0:0:
144,253,240563,2,0,P|78:246|32:276,1,86.350002635193,8|8,0:2|0:2,0:0:0:0:
264,339,240843,2,0,P|329:345|375:315,1,86.350002635193,10|8,0:2|0:2,0:0:0:0:
443,241,241123,1,10,0:2:0:0:
439,208,241193,1,8,0:2:0:0:
436,176,241263,1,8,0:2:0:0:
432,144,241333,1,8,0:2:0:0:
429,112,241404,2,0,L|441:51,3,43.1750013175965,10|8|8|8,0:2|0:2|0:2|0:2,0:0:0:0:
369,6,241684,5,2,3:2:0:0:
244,95,241824,2,0,B|190:88|190:88|155:111|155:111|68:100,2,172.700005270386,10|10|10,0:2|0:2|0:2,0:0:0:0:
131,19,242525,1,0,0:2:0:0:
181,190,242665,2,0,P|248:209|341:153,1,172.700005270386,10|2,0:2|0:2,0:0:0:0:
406,239,243086,2,0,L|414:352,1,86.350002635193,2|10,0:2|0:2,0:0:0:0:
493,187,243366,2,0,B|472:137|472:137|487:96|487:96|455:26,1,172.700005270386,0|10,0:0|0:2,0:0:0:0:
25,329,243927,6,0,P|69:341|116:329,1,78.5,6|0,3:2|0:0,0:0:0:0:
212,240,244207,1,10,0:2:0:0:
95,176,244348,1,2,3:2:0:0:
220,360,244488,2,0,L|298:353,1,78.5,2|0,3:2|0:2,0:0:0:0:
107,201,244768,2,0,L|28:207,1,78.5,8|2,0:2|0:2,0:0:0:0:
175,119,245048,6,0,P|211:180|178:290,1,157,0|10,3:2|0:2,0:0:0:0:
89,53,245469,1,0,0:2:0:0:
184,5,245609,2,0,L|285:14,1,78.5,2|0,3:2|0:0,0:0:0:0:
426,74,245890,2,0,L|348:68,1,78.5,10|0,0:2|3:2,0:0:0:0:
348,68,246100,1,0,3:2:0:0:
348,68,246170,6,0,B|315:145|369:132|329:224,1,157,2|10,3:2|0:2,0:0:0:0:
467,338,246591,2,0,P|449:296|443:250,1,78.5,2|2,3:2|3:2,0:0:0:0:
215,211,246871,1,0,0:2:0:0:
215,211,247011,2,0,P|233:253|239:299,1,78.5,10|0,0:2|0:2,0:0:0:0:
110,270,247291,6,0,L|117:113,1,157,2|10,3:2|0:2,0:0:0:0:
57,349,247712,1,0,3:2:0:0:
57,349,247782,1,8,0:2:0:0:
57,349,247852,2,0,P|115:363|161:348,1,78.5,8|0,0:2|3:2,0:0:0:0:
235,308,248133,1,8,0:2:0:0:
252,299,248203,1,8,0:2:0:0:
271,294,248273,1,8,0:2:0:0:
291,293,248343,1,8,0:2:0:0:
312,299,248413,6,0,P|372:318|472:282,1,157,2|10,3:2|0:2,0:0:0:0:
383,130,248834,1,2,3:2:0:0:
383,130,248974,2,0,P|382:178|390:235,1,78.5,2|0,3:2|0:2,0:0:0:0:
483,148,249254,2,0,P|484:100|476:43,1,78.5,10|0,0:2|0:2,0:0:0:0:
279,137,249534,6,0,B|180:141|238:195|114:199,1,157,2|10,3:2|0:2,0:0:0:0:
141,103,249955,1,0,0:2:0:0:
201,283,250095,2,0,P|126:301|58:265,1,157,2|10,3:2|0:2,0:0:0:0:
277,359,250516,1,0,3:2:0:0:
277,359,250586,1,8,0:2:0:0:
277,359,250656,6,0,B|333:335|333:335|434:362,1,157,6|2,3:2|3:2,0:0:0:0:
503,199,251077,2,0,P|450:223|358:168,1,157,14|2,0:2|3:2,0:0:0:0:
148,259,251497,5,14,0:2:0:0:
207,187,251637,1,0,3:2:0:0:
244,272,251777,1,0,3:2:0:0:
110,147,251918,5,14,0:2:0:0:
85,59,252058,1,8,2:2:0:0:
12,119,252198,1,8,2:2:0:0:
187,80,252338,5,10,0:2:0:0:
184,58,252478,1,0,3:2:0:0:
37,203,252619,1,10,0:2:0:0:
40,225,252759,1,0,3:2:0:0:
109,288,252899,6,0,L|107:357,1,58.875,2|0,3:2|0:2,0:0:0:0:
90,371,253179,6,0,P|152:341|246:387,1,157,14|2,0:2|3:2,0:0:0:0:
348,288,253600,1,0,0:2:0:0:
250,159,253740,2,0,B|242:198|242:198|256:268,1,78.5,10|0,0:2|0:2,0:0:0:0:
441,331,254020,2,0,B|449:292|449:292|435:222,1,78.5,2|0,3:2|0:2,0:0:0:0:
250,159,254301,2,0,P|199:192|97:166,2,157,10|2|8,0:2|3:2|0:2,0:0:0:0:
183,20,255002,1,8,0:2:0:0:
183,20,255072,1,8,0:2:0:0:
183,20,255142,6,0,P|175:74|179:110,1,78.5,2|0,3:2|0:0,0:0:0:0:
337,236,255422,2,0,P|349:176|336:79,1,157,8|2,0:2|3:2,0:0:0:0:
406,4,255843,1,0,0:2:0:0:
316,70,255983,1,8,0:2:0:0:
454,137,256123,6,0,L|466:315,1,157,2|0,3:2|3:2,0:0:0:0:
346,361,256544,2,0,P|307:353|271:367,1,78.5,10|0,0:2|3:2,0:0:0:0:
202,321,256754,1,8,0:2:0:0:
202,321,256824,2,0,P|151:334|110:315,1,78.5,8|2,0:2|3:2,0:0:0:0:
30,360,257105,1,8,0:2:0:0:
27,330,257175,1,8,0:2:0:0:
25,301,257245,1,8,0:2:0:0:
22,271,257315,1,8,0:2:0:0:
20,242,257385,6,0,L|32:79,1,157,2|10,3:2|0:2,0:0:0:0:
3,0,257806,1,2,3:2:0:0:
116,146,257946,2,0,P|157:151|214:129,1,78.5,2|0,3:2|0:2,0:0:0:0:
364,88,258226,2,0,P|323:83|266:105,1,78.5,10|0,0:2|0:2,0:0:0:0:
154,259,258506,6,0,B|186:283|221:281|221:281|260:249|332:264,1,157,2|8,3:2|0:2,0:0:0:0:
424,318,258927,2,0,P|413:267|407:235,1,78.5,2|0,3:2|0:2,0:0:0:0:
469,153,259207,1,2,0:2:0:0:
384,76,259348,1,10,0:2:0:0:
356,64,259418,1,0,3:2:0:0:
327,65,259488,1,2,3:2:0:0:
300,76,259558,1,0,3:2:0:0:
280,97,259628,6,0,P|214:138|128:95,1,157,14|0,2:2|3:2,0:0:0:0:
41,312,260048,2,0,P|97:288|206:284,1,157,14|0,0:2|3:2,0:0:0:0:
473,355,260469,5,14,0:2:0:0:
396,267,260609,2,0,L|380:161,1,78.5,0|0,3:2|3:2,0:0:0:0:
349,0,260890,5,10,0:2:0:0:
493,164,261030,1,8,0:2:0:0:
267,197,261170,1,8,0:2:0:0:
311,109,261310,5,10,0:2:0:0:
331,282,261450,1,0,3:2:0:0:
331,282,261520,1,0,3:2:0:0:
331,282,261591,2,0,B|280:286|280:286|260:309|260:309|165:320,1,157,14|2,0:2|0:2,0:0:0:0:
