osu file format v14

[General]
AudioFilename: audio.mp3
AudioLeadIn: 0
PreviewTime: 54605
Countdown: 0
SampleSet: Soft
StackLeniency: 0.7
Mode: 0
LetterboxInBreaks: 0
WidescreenStoryboard: 1

[Editor]
Bookmarks: 8553,12899,19628,28600,30002,37572,46544,51030,55516,64488,73460,82432,91404,100376,109348,118320,127291,136263,145235,154207,163179,181123,199067,208039,217011,225983,234955,243927,252899,261871,279815
DistanceSpacing: 1.7
BeatDivisor: 6
GridSize: 8
TimelineZoom: 2.4

[Metadata]
Title:Shiroki Yume wa Madara ni
TitleUnicode:白き夢は斑に
Artist:ELFENSJoN
ArtistUnicode:ELFENSJóN
Creator:Nao Tomori
Version:Hard
Source:
Tags:ash of rouge side elisia asriel uroboros japanese rock jrock the mottled white dream mura 黒瀬 圭亮 Keisuke Kurose okogeeechann 藤田 和哉 Fujita Kazuya 戎屋 聖一郎 Seiichiro Ebisuya みゅー YUU ORYO icekalt
BeatmapID:2287174
BeatmapSetID:1083468

[Difficulty]
HPDrainRate:4.5
CircleSize:3.3
OverallDifficulty:6
ApproachRate:8
SliderMultiplier:1.27
SliderTickRate:1

[Events]
//Background and Video events
0,0,"criin bird bg.jpg",0,0
//Break Periods
2,109547,114766
2,154407,162149
2,199266,207289
//Storyboard Layer 0 (Background)
//Storyboard Layer 1 (Fail)
//Storyboard Layer 2 (Pass)
//Storyboard Layer 3 (Foreground)
//Storyboard Layer 4 (Overlay)
//Storyboard Sound Samples

[TimingPoints]
2806,280.373831775701,4,2,1,23,1,0
2806,-100,4,2,1,23,0,0
4488,-100,4,2,1,23,0,0
5609,-100,4,2,1,23,0,0
6030,-100,4,2,1,23,0,0
7291,-133.333333333333,4,2,1,33,0,0
12198,-133.333333333333,4,2,1,57,0,0
12478,-100,4,2,1,57,0,0
13880,-100,4,2,1,57,0,0
14862,-100,4,2,1,57,0,0
15142,-100,4,2,1,57,0,0
16123,-100,4,2,1,60,0,0
16824,-100,4,2,1,60,0,0
19628,-100,4,2,1,70,0,0
28600,-117.647058823529,4,2,1,55,0,0
35469,-100,4,2,1,60,0,0
36030,-100,4,2,1,55,0,0
36871,-100,4,2,1,55,0,0
42058,-100,4,2,1,55,0,0
42338,-100,4,2,1,55,0,0
46544,-100,4,2,1,55,0,0
51030,-250,4,2,1,35,0,0
51100,-250,4,2,1,25,0,0
52712,-250,4,2,1,55,0,0
52852,-100,4,2,1,55,0,0
52992,-100,4,2,1,55,0,0
54254,-133.333333333333,4,2,1,55,0,0
55516,-90.9090909090909,4,2,1,75,0,1
63226,-90.9090909090909,4,2,1,75,0,1
64488,-90.9090909090909,4,2,1,75,0,1
64768,-90.9090909090909,4,2,1,75,0,1
71217,-90.9090909090909,4,2,1,75,0,1
72198,-90.9090909090909,4,2,1,75,0,1
73460,-90.9090909090909,4,2,1,75,0,1
77946,-90.9090909090909,4,2,1,75,0,1
78226,-90.9090909090909,4,2,1,75,0,1
80189,-90.9090909090909,4,2,1,75,0,1
81030,-90.9090909090909,4,2,1,75,0,1
82432,-90.9090909090909,4,2,1,75,0,1
82852,-90.9090909090909,4,2,1,75,0,1
84675,-90.9090909090909,4,2,1,75,0,1
86918,-133.333333333333,4,2,1,75,0,1
91404,-100,4,2,1,55,0,0
91684,-100,4,2,1,55,0,0
99955,-100,4,2,1,55,0,0
100656,-100,4,2,1,55,0,0
104721,-100,4,2,1,55,0,0
105142,-100,4,2,1,55,0,0
109348,-100,4,2,1,25,0,0
115516,-200,4,2,1,25,0,0
116077,-200,4,2,1,60,0,0
116217,-100,4,2,1,60,0,0
116637,-100,4,2,1,60,0,0
117619,-100,4,2,1,60,0,0
117689,-100,4,2,1,20,0,0
118320,-90.9090909090909,4,2,1,75,0,1
127291,-90.9090909090909,4,2,1,75,0,1
127572,-90.9090909090909,4,2,1,75,0,1
135703,-90.9090909090909,4,2,1,75,0,1
135983,-90.9090909090909,4,2,1,75,0,1
136263,-90.9090909090909,4,2,1,75,0,1
136684,-90.9090909090909,4,2,1,75,0,1
145235,-90.9090909090909,4,2,1,75,0,1
145516,-90.9090909090909,4,2,1,75,0,1
146637,-90.9090909090909,4,2,1,75,0,1
149721,-133.333333333333,4,2,1,75,0,1
154207,-100,4,2,1,20,0,0
158693,-100,4,2,1,20,0,0
162899,-100,4,2,1,60,0,0
163039,-90.9090909090909,4,2,1,73,0,1
163740,-90.9090909090909,4,2,1,73,0,1
164161,-90.9090909090909,4,2,1,73,0,1
165282,-90.9090909090909,4,2,1,73,0,1
165703,-90.9090909090909,4,2,1,73,0,1
166404,-90.9090909090909,4,2,1,73,0,1
168927,-90.9090909090909,4,2,1,73,0,1
169768,-90.9090909090909,4,2,1,73,0,1
171310,-90.9090909090909,4,2,1,73,0,1
172011,-90.9090909090909,4,2,1,73,0,1
172432,-90.9090909090909,4,2,1,73,0,1
175936,-90.9090909090909,4,2,1,73,0,1
181123,-90.9090909090909,4,2,1,73,0,1
196964,-90.9090909090909,4,2,1,73,0,1
197385,-90.9090909090909,4,2,1,73,0,1
198366,-133.333333333333,4,2,1,73,0,1
198927,-133.333333333333,4,2,1,40,0,1
199067,-100,4,2,1,40,0,0
208039,-133.333333333333,4,2,1,50,0,0
212525,-133.333333333333,4,2,1,35,0,0
214488,-100,4,2,1,35,0,0
214768,-100,4,2,1,60,0,0
214908,-100,4,2,1,60,0,0
217011,-100,4,2,1,75,0,1
217291,-90.9090909090909,4,2,1,75,0,1
223179,-90.9090909090909,4,2,1,75,0,1
223460,-90.9090909090909,4,2,1,75,0,1
225983,-90.9090909090909,4,2,1,75,0,1
230469,-133.333333333333,4,2,1,75,0,1
230609,-133.333333333333,4,2,1,75,0,1
232151,-100,4,2,1,75,0,1
232712,-133.333333333333,4,2,1,75,0,1
234394,-100,4,2,1,75,0,1
234955,-90.9090909090909,4,2,1,75,0,1
239441,-90.9090909090909,4,2,1,75,0,1
241824,-90.9090909090909,4,2,1,75,0,1
242665,-90.9090909090909,4,2,1,75,0,1
243927,-100,4,2,1,70,0,0
251497,-100,4,2,1,70,0,0
252899,-100,4,2,1,70,0,0
253179,-100,4,2,1,70,0,0
261871,-100,4,2,1,35,0,0

[Colours]
Combo1 : 217,183,251
Combo2 : 242,150,145
Combo3 : 157,191,247
Combo4 : 242,143,23

[HitObjects]
78,81,7291,6,0,P|57:130|73:179,1,95.2500036334992,2|0,2:2|2:2,0:0:0:0:
118,238,7712,2,0,P|166:223|225:239,1,95.2500036334992,2|0,2:2|2:2,0:0:0:0:
281,183,8133,2,0,P|329:198|388:182,1,95.2500036334992,2|0,2:2|2:2,0:0:0:0:
443,238,8553,2,0,L|454:340,1,95.2500036334992,2|0,2:2|0:0,0:0:0:0:
382,381,8974,1,2,2:2:0:0:
246,310,9254,1,2,2:2:0:0:
105,367,9534,6,0,P|64:354|2:364,1,95.2500036334992,2|0,2:2|2:2,0:0:0:0:
20,273,9955,2,0,P|33:232|23:170,1,95.2500036334992,2|0,2:2|2:2,0:0:0:0:
113,183,10376,2,0,P|154:196|216:186,1,95.2500036334992,2|0,2:2|2:2,0:0:0:0:
198,277,10797,2,0,P|185:318|195:380,1,95.2500036334992,2|0,2:2|2:2,0:0:0:0:
268,333,11217,1,2,2:2:0:0:
416,372,11497,1,2,2:2:0:0:
423,220,11777,5,2,2:2:0:0:
489,105,12198,5,0,3:2:0:0:
489,105,12268,1,0,3:2:0:0:
489,105,12338,1,8,2:2:0:0:
417,55,12478,2,0,P|369:59|290:69,1,127,2|0,3:2|3:2,0:0:0:0:
215,14,12899,6,0,P|183:46|30:22,1,190.5,6|0,3:2|3:2,0:0:0:0:
5,120,13460,2,0,B|-11:161|-11:161|29:193|25:261,1,127,8|4,0:2|0:3,0:0:0:0:
11,325,13880,2,0,B|82:309|82:309|123:344|123:344|254:317,1,254,6|0,3:2|0:2,0:0:0:0:
340,268,14581,2,0,L|399:274,2,42.3333333333333,8|8|8,0:2|0:2|0:2,0:0:0:0:
280,200,14862,1,4,0:3:0:0:
61,206,15142,6,0,P|39:167|81:84,1,127,6|10,3:2|0:2,0:0:0:0:
85,12,15563,2,0,L|148:14,1,63.5,10|8,0:2|0:2,0:0:0:0:
219,70,15843,2,0,L|283:73,1,63.5,10|8,0:2|0:2,0:0:0:0:
349,16,16123,2,0,B|408:36|408:36|480:16,1,127,6|0,3:2|3:2,0:0:0:0:
470,18,16474,1,0,3:2:0:0:
470,18,16544,2,0,P|493:65|490:100,1,63.5,0|8,3:2|0:2,0:0:0:0:
438,155,16824,2,0,L|446:300,1,127,2|10,3:2|0:2,0:0:0:0:
221,361,17385,6,0,P|180:358|156:362,1,63.5,10|8,0:2|0:2,0:0:0:0:
158,361,17595,1,8,0:2:0:0:
158,361,17665,1,8,0:2:0:0:
86,308,17806,2,0,L|76:223,2,63.5,2|8|8,3:2|0:2|0:2,0:0:0:0:
170,256,18226,2,0,L|172:181,1,63.5,2|8,3:2|0:2,0:0:0:0:
171,192,18436,1,8,0:2:0:0:
171,192,18506,1,8,0:2:0:0:
117,126,18647,2,0,P|74:119|44:128,2,63.5,10|8|8,0:2|0:2|0:2,0:0:0:0:
185,50,19067,2,0,B|295:25|251:105|375:86,1,190.5,10|8,0:2|0:2,0:0:0:0:
468,37,19628,6,0,P|460:90|458:182,1,127,2|14,3:2|0:2,0:0:0:0:
473,265,20048,1,10,0:2:0:0:
401,338,20189,2,0,P|351:339|316:333,1,63.5,0|0,3:2|3:2,0:0:0:0:
258,276,20469,2,0,P|226:273|194:275,1,63.5,8|0,0:2|0:2,0:0:0:0:
126,203,20749,6,0,P|150:149|210:152,1,127,0|8,3:2|0:2,0:0:0:0:
298,96,21170,1,0,0:2:0:0:
218,29,21310,2,0,L|142:37,1,63.5,0|0,3:2|3:2,0:0:0:0:
68,0,21591,1,8,0:2:0:0:
64,163,21871,6,0,B|82:215|82:215|64:295,1,127,2|10,3:2|0:2,0:0:0:0:
132,359,22291,2,0,P|174:337|254:357,1,127,2|0,0:2|3:2,0:0:0:0:
331,305,22712,2,0,P|393:296|418:292,1,63.5,10|0,0:2|0:0,0:0:0:0:
494,317,22992,6,0,P|485:255|481:230,1,63.5,0|0,3:2|0:2,0:0:0:0:
407,181,23273,2,0,P|416:119|420:94,1,63.5,8|0,0:2|3:2,0:0:0:0:
416,118,23483,1,0,3:2:0:0:
416,118,23553,2,0,P|407:69|381:41,1,63.5,0|0,3:2|3:2,0:0:0:0:
303,40,23834,2,0,L|293:5,3,31.75,8|8|8|8,0:2|0:0|0:0|0:0,0:0:0:0:
274,3,24114,6,0,P|236:1|140:11,1,127,6|10,3:2|0:2,0:0:0:0:
87,83,24534,1,2,0:2:0:0:
154,155,24675,2,0,P|199:148|233:144,1,63.5,2|0,3:2|0:2,0:0:0:0:
293,205,24955,2,0,P|324:201|356:195,1,63.5,10|0,0:2|0:2,0:0:0:0:
444,250,25235,6,0,B|478:284|478:284|460:371,1,127,2|10,3:2|0:2,0:0:0:0:
372,323,25656,1,0,0:2:0:0:
282,367,25796,2,0,P|226:367|207:363,1,63.5,2|0,3:2|3:2,0:0:0:0:
136,313,26077,2,0,L|125:238,1,63.5,10|0,0:2|0:2,0:0:0:0:
55,158,26357,6,0,L|68:80,2,63.5,14|0|0,0:2|3:2|3:2,0:0:0:0:
157,117,26777,2,0,L|170:39,2,63.5,14|0|0,3:2|3:2|3:2,0:0:0:0:
239,171,27198,1,8,0:2:0:0:
312,110,27338,2,0,B|365:101|365:101|388:129|438:127,1,127,6|8,3:2|0:2,0:0:0:0:
508,86,27759,6,0,P|509:128|520:159,1,63.5,10|8,0:2|0:2,0:0:0:0:
512,290,28039,2,0,P|482:235|419:214,1,127,10|10,0:2|0:2,0:0:0:0:
208,323,28600,6,0,B|90:315,2,107.950002058983,2|0|2,3:2|3:2|0:2,0:0:0:0:
137,179,29441,1,0,0:2:0:0:
137,179,29581,2,0,P|87:187|15:171,1,107.950002058983,2|0,0:2|0:2,0:0:0:0:
25,82,30002,2,0,P|78:73|132:81,2,107.950002058983,2|0|10,3:2|0:0|0:2,0:0:0:0:
214,122,30843,5,2,3:2:0:0:
371,66,31123,1,2,3:2:0:0:
512,152,31404,1,2,0:2:0:0:
355,208,31684,1,10,0:2:0:0:
372,193,31824,2,0,P|377:229|384:313,1,107.950002058983,2|8,0:2|0:2,0:0:0:0:
321,372,32245,6,0,P|285:365|262:364,1,53.9750010294914,2|8,3:2|0:2,0:0:0:0:
200,304,32525,2,0,P|164:311|141:312,1,53.9750010294914,2|8,3:2|0:2,0:0:0:0:
67,345,32806,2,0,P|58:303|51:282,1,53.9750010294914,10|8,0:2|0:2,0:0:0:0:
6,214,33086,6,0,P|15:169|36:101,1,107.950002058983,6|0,3:2|3:2,0:0:0:0:
113,48,33506,2,0,P|158:57|226:78,1,107.950002058983,2|0,0:2|0:2,0:0:0:0:
302,122,33927,2,0,B|425:89|387:184|529:133,1,215.900004117966,10|0,0:2|3:2,0:0:0:0:
345,252,34768,1,0,3:2:0:0:
345,252,35048,2,0,P|292:266|233:255,1,107.950002058983,8|0,0:2|3:2,0:0:0:0:
169,318,35469,6,0,B|110:310|110:310|70:332|70:332|-34:345,2,190.5,14|0|0,0:2|0:2|0:2,0:0:0:0:
315,354,36450,6,0,P|283:357|253:366,2,63.5,10|0|0,0:2|3:2|3:2,0:0:0:0:
397,300,36871,2,0,P|440:312|472:313,2,63.5,14|8|0,0:2|0:2|3:2,0:0:0:0:
326,231,37291,2,0,L|320:165,1,63.5,14|0,0:2|3:2,0:0:0:0:
252,94,37572,6,0,P|200:74|119:120,1,127,2|14,3:2|0:2,0:0:0:0:
31,98,37992,2,0,P|54:155|34:214,1,127,2|0,3:2|0:2,0:0:0:0:
98,283,38413,1,10,0:2:0:0:
98,283,38553,2,0,B|148:276|148:276|182:295|182:295|285:281,1,190.5,2|8,0:2|0:2,0:0:0:0:
369,316,39114,1,0,3:2:0:0:
369,316,39184,1,8,0:2:0:0:
369,316,39254,2,0,P|411:321|446:316,1,63.5,0|0,3:2|0:0,0:0:0:0:
507,247,39534,2,0,P|512:205|507:170,1,63.5,10|0,0:2|0:2,0:0:0:0:
448,101,39815,6,0,P|428:60|482:-12,2,127,2|10|2,3:2|0:2|3:2,0:0:0:0:
316,196,40656,1,10,0:2:0:0:
316,196,40796,2,0,P|271:188|163:185,1,127,2|0,3:2|0:2,0:0:0:0:
123,253,41217,2,0,P|79:258|44:259,1,63.5,10|0,0:2|0:2,0:0:0:0:
5,188,41497,2,0,P|0:144|-1:109,1,63.5,10|8,0:2|0:2,0:0:0:0:
70,70,41777,2,0,P|114:65|149:64,1,63.5,10|0,0:2|3:2,0:0:0:0:
208,4,42058,6,0,P|234:30|337:22,1,127,2|14,0:2|0:2,0:0:0:0:
417,80,42478,2,0,P|451:106|447:202,1,127,0|0,0:2|0:2,0:0:0:0:
390,251,42899,2,0,P|347:247|319:249,1,63.5,10|0,0:2|0:2,0:0:0:0:
256,309,43179,2,0,P|213:313|185:311,1,63.5,0|0,3:2|0:2,0:0:0:0:
66,245,43460,6,0,P|112:243|147:241,1,63.5,10|0,0:2|3:2,0:0:0:0:
174,157,43740,2,0,P|152:116|136:84,1,63.5,10|0,0:2|3:2,0:0:0:0:
53,97,44020,2,0,P|31:137|15:169,1,63.5,10|8,0:2|0:2,0:0:0:0:
66,245,44301,6,0,P|80:287|103:370,1,127,6|8,3:2|0:2,0:0:0:0:
181,306,44721,2,0,B|251:288|233:337|316:320,1,127,10|8,2:2|0:2,0:0:0:0:
383,267,45142,2,0,L|388:190,1,63.5,8|0,0:2|3:2,0:0:0:0:
387,203,45352,1,0,3:2:0:0:
387,203,45422,6,0,P|379:154|373:143,1,63.5,8|8,2:2|0:2,0:0:0:0:
310,72,45703,2,0,P|311:46|414:19,2,127,2|10|4,3:2|0:2|0:3,0:0:0:0:
93,110,46544,6,0,P|94:156|92:243,1,127,6|2,3:2|3:2,0:0:0:0:
46,320,46964,2,0,P|95:332|125:328,1,63.5,14|0,0:2|3:2,0:0:0:0:
191,281,47245,2,0,P|220:270|252:269,1,63.5,2|14,3:2|0:2,0:0:0:0:
336,325,47525,2,0,P|381:342|471:312,1,127,2|8,3:2|0:2,0:0:0:0:
498,239,47946,6,0,L|487:159,1,63.5,2|0,3:2|0:2,0:0:0:0:
395,68,48226,2,0,L|404:131,1,63.5,10|8,0:2|0:3,0:0:0:0:
343,197,48506,2,0,P|307:207|268:202,1,63.5,8|4,0:3|0:3,0:0:0:0:
201,156,48787,6,0,B|147:145|147:145|64:170,1,127,6|2,3:2|3:2,0:0:0:0:
3,100,49207,2,0,P|-9:59|0:27,1,63.5,14|0,0:2|0:0,0:0:0:0:
88,57,49488,2,0,P|117:45|148:48,1,63.5,2|14,3:2|0:2,0:0:0:0:
236,6,49768,2,0,P|303:36|374:5,1,127,0|14,3:2|0:2,0:0:0:0:
436,61,50189,2,0,L|445:134,1,63.5,0|0,3:2|3:2,0:0:0:0:
504,209,50469,5,2,3:2:0:0:
504,209,50609,1,8,0:3:0:0:
439,273,50749,1,4,2:3:0:0:
439,273,50890,1,4,0:3:0:0:
497,347,51030,6,0,P|447:329|249:371,1,254,6|2,3:2|0:2,0:0:0:0:
45,316,52712,5,10,0:2:0:0:
104,250,52852,1,2,3:2:0:0:
104,250,52922,1,0,3:2:0:0:
104,250,52992,2,0,L|100:158,1,63.5,12|0,0:2|0:2,0:0:0:0:
38,117,53273,5,8,0:2:0:0:
89,42,53413,1,8,0:2:0:0:
184,52,53553,1,8,2:2:0:0:
228,138,53693,6,0,P|276:146|306:146,1,63.5,2|0,3:2|0:0,0:0:0:0:
320,0,53974,2,0,P|289:37|274:63,1,63.5,2|0,3:2|0:0,0:0:0:0:
369,86,54254,2,0,B|414:74|414:74|451:111|516:94,1,142.875005450249,6|0,3:2|0:2,0:0:0:0:
479,12,55516,6,0,P|452:48|471:152,1,139.700004263306,6|10,3:2|0:2,0:0:0:0:
399,217,55936,2,0,P|413:252|419:293,1,69.8500021316529,2|0,0:2|3:2,0:0:0:0:
322,309,56217,2,0,P|308:274|302:233,1,69.8500021316529,2|8,0:2|0:2,0:0:0:0:
220,192,56497,2,0,B|171:183|171:183|143:235|71:228,1,139.700004263306,2|0,3:2|0:2,0:0:0:0:
21,139,56918,6,0,B|55:128|55:128|103:142,1,69.8500021316529,10|0,0:2|0:2,0:0:0:0:
160,78,57198,2,0,L|248:65,1,69.8500021316529,2|0,3:2|0:2,0:0:0:0:
303,126,57478,2,0,L|391:139,1,69.8500021316529,10|0,0:2|0:2,0:0:0:0:
449,75,57759,6,0,B|472:116|472:116|448:227,1,139.700004263306,6|10,3:2|0:2,0:0:0:0:
374,270,58179,2,0,P|332:262|294:261,1,69.8500021316529,2|0,0:2|3:2,0:0:0:0:
230,342,58460,2,0,P|264:349|299:351,1,69.8500021316529,2|8,0:2|0:2,0:0:0:0:
176,261,58740,2,0,P|133:327|145:391,1,139.700004263306,2|0,3:2|0:2,0:0:0:0:
219,179,59161,6,0,L|209:96,1,69.8500021316529,10|0,0:2|0:2,0:0:0:0:
109,29,59441,2,0,L|119:112,1,69.8500021316529,2|0,3:2|3:2,0:0:0:0:
57,161,59721,2,0,L|3:149,3,34.9250010658265,8|8|8|8,0:2|0:2|0:2|0:2,0:0:0:0:
3,173,60002,2,0,P|-5:211|9:259,1,69.8500021316529,6|0,3:2|0:2,0:0:0:0:
70,326,60282,6,0,P|114:305|153:306,1,69.8500021316529,10|0,0:2|0:2,0:0:0:0:
228,342,60563,2,0,L|322:348,1,69.8500021316529,2|0,3:2|3:2,0:0:0:0:
384,302,60843,2,0,B|433:292|433:292|463:312|463:312|532:299,1,139.700004263306,10|0,0:2|3:2,0:0:0:0:
461,102,61404,6,0,P|411:95|387:103,1,69.8500021316529,10|0,0:2|0:2,0:0:0:0:
308,155,61684,2,0,B|274:169|274:169|208:163,1,69.8500021316529,2|0,3:2|0:2,0:0:0:0:
141,183,61964,2,0,L|129:262,1,69.8500021316529,10|0,0:2|0:2,0:0:0:0:
63,118,62245,6,0,L|52:41,2,69.8500021316529,14|0|0,2:2|3:2|3:2,0:0:0:0:
159,70,62665,2,0,L|148:-7,2,69.8500021316529,14|0|0,0:2|3:2|3:2,0:0:0:0:
244,120,63086,1,10,0:2:0:0:
328,60,63226,2,0,P|379:42|451:94,1,139.700004263306,0|2,3:2|3:2,0:0:0:0:
404,171,63647,2,0,P|396:209|399:240,1,69.8500021316529,8|8,0:2|0:2,0:0:0:0:
461,319,63927,2,0,L|515:314,3,34.9250010658265,10|8|8|8,0:2|0:2|0:2|0:2,0:0:0:0:
441,348,64207,2,0,L|406:351,3,34.9250010658265,10|8|8|8,0:2|0:2|0:2|0:2,0:0:0:0:
366,339,64488,6,0,P|324:327|254:368,1,104.775003197479,2|0,3:2|0:2,0:0:0:0:
232,340,64768,2,0,L|214:187,1,139.700004263306,14|2,0:2|3:2,0:0:0:0:
204,105,65189,1,0,0:2:0:0:
119,56,65329,2,0,P|74:41|-9:78,1,139.700004263306,10|0,0:2|3:2,0:0:0:0:
304,147,65890,6,0,P|358:138|383:129,1,69.8500021316529,10|0,0:2|0:2,0:0:0:0:
442,212,66170,2,0,P|422:263|418:289,1,69.8500021316529,2|0,3:2|0:2,0:0:0:0:
316,299,66450,2,0,P|281:256|260:239,1,69.8500021316529,10|0,3:2|3:2,0:0:0:0:
77,326,66731,6,0,B|104:341|130:342|130:342|160:318|220:321,1,139.700004263306,6|8,3:2|0:2,0:0:0:0:
124,244,67151,2,0,P|74:232|39:240,2,69.8500021316529,2|0|0,0:2|0:0|3:2,0:0:0:0:
176,158,67572,2,0,P|146:126|40:129,1,139.700004263306,10|0,0:2|3:2,0:0:0:0:
273,27,68133,6,0,P|284:78|280:110,1,69.8500021316529,10|0,0:2|0:2,0:0:0:0:
377,95,68413,2,0,P|361:144|342:170,1,69.8500021316529,2|0,3:2|0:2,0:0:0:0:
434,204,68693,2,0,P|396:240|367:253,1,69.8500021316529,14|0,0:2|0:0,0:0:0:0:
437,342,68974,6,0,P|385:333|305:363,1,139.700004263306,2|8,3:2|0:2,0:0:0:0:
248,284,69394,2,0,P|196:293|116:263,1,139.700004263306,6|0,3:2|3:2,0:0:0:0:
36,315,69815,2,0,P|29:277|22:223,1,69.8500021316529,10|0,0:2|0:2,0:0:0:0:
80,45,70095,6,0,B|112:91|112:91|84:181,1,139.700004263306,2|8,3:2|0:2,0:0:0:0:
190,165,70516,2,0,B|242:155|242:155|266:175|266:175|327:162,1,139.700004263306,6|0,3:2|3:2,0:0:0:0:
406,196,70936,2,0,P|427:238|428:270,1,69.8500021316529,10|0,0:2|0:2,0:0:0:0:
467,124,71217,5,10,3:2:0:0:
467,124,71357,2,0,P|449:76|475:-9,2,139.700004263306,0|14|0,3:0|0:2|3:2,0:0:0:0:
361,101,72058,1,14,0:2:0:0:
361,101,72198,2,0,P|310:94|210:84,1,139.700004263306,0|0,3:2|3:2,0:0:0:0:
153,140,72619,2,0,L|92:142,3,34.9250010658265,10|8|8|8,0:2|0:2|0:2|0:2,0:0:0:0:
181,181,72899,2,0,L|216:180,3,34.9250010658265,10|8|8|8,0:2|0:2|0:2|0:2,0:0:0:0:
155,215,73179,2,0,P|148:258|152:298,1,69.8500021316529,10|8,0:2|0:2,0:0:0:0:
229,361,73460,6,0,B|289:331|302:386|376:351,1,139.700004263306,2|14,3:2|0:2,0:0:0:0:
438,274,73880,2,0,P|439:240|428:189,1,69.8500021316529,2|0,0:2|3:2,0:0:0:0:
345,151,74161,2,0,P|340:116|341:82,1,69.8500021316529,2|8,0:2|0:2,0:0:0:0:
396,10,74441,2,0,P|341:38|246:6,1,139.700004263306,2|0,3:2|0:2,0:0:0:0:
187,90,74862,6,0,L|99:94,1,69.8500021316529,10|0,0:2|0:2,0:0:0:0:
142,179,75142,2,0,L|54:183,1,69.8500021316529,2|0,3:2|0:2,0:0:0:0:
120,271,75422,2,0,L|190:268,1,69.8500021316529,10|0,0:2|0:2,0:0:0:0:
279,330,75703,6,0,P|317:308|429:335,1,139.700004263306,6|10,3:2|0:2,0:0:0:0:
501,263,76123,2,0,P|511:214|496:174,1,69.8500021316529,2|0,0:2|3:2,0:0:0:0:
449,116,76404,2,0,P|400:106|360:121,1,69.8500021316529,2|8,0:2|0:2,0:0:0:0:
313,171,76684,2,0,P|258:207|161:186,1,139.700004263306,2|0,3:2|0:2,0:0:0:0:
139,111,77105,6,0,L|134:16,1,69.8500021316529,10|0,0:2|0:2,0:0:0:0:
229,50,77385,2,0,L|232:119,1,69.8500021316529,2|0,3:2|0:2,0:0:0:0:
320,77,77665,2,0,L|374:62,3,34.9250010658265,10|8|8|8,0:2|0:2|0:2|0:2,0:0:0:0:
382,83,77946,2,0,P|425:117|423:186,1,104.775003197479,6|0,3:2|2:2,0:0:0:0:
414,198,78226,6,0,P|401:235|418:288,1,69.8500021316529,10|0,0:2|0:2,0:0:0:0:
317,315,78506,2,0,P|291:285|237:273,1,69.8500021316529,2|0,3:2|0:2,0:0:0:0:
172,321,78787,2,0,P|142:338|23:309,1,139.700004263306,10|0,0:2|3:2,0:0:0:0:
86,37,79348,6,0,L|94:106,1,69.8500021316529,10|0,2:2|0:2,0:0:0:0:
195,209,79628,2,0,L|186:139,1,69.8500021316529,2|0,3:2|0:2,0:0:0:0:
251,74,79908,2,0,P|291:62|335:64,1,69.8500021316529,10|0,2:2|0:0,0:0:0:0:
413,110,80189,5,14,0:2:0:0:
413,110,80329,2,0,L|422:200,1,69.8500021316529,0|0,3:2|3:2,0:0:0:0:
340,241,80609,1,14,0:2:0:0:
340,241,80749,2,0,L|349:331,1,69.8500021316529,0|0,3:2|3:2,0:0:0:0:
269,367,81030,1,14,0:2:0:0:
269,367,81170,2,0,P|216:340|125:355,1,139.700004263306,0|2,3:2|3:2,0:0:0:0:
48,293,81591,2,0,P|35:245|41:217,1,69.8500021316529,8|8,0:2|0:2,0:0:0:0:
115,157,81871,5,10,0:2:0:0:
70,75,82011,1,0,3:2:0:0:
70,75,82081,1,0,3:2:0:0:
70,75,82151,2,0,L|-11:59,1,69.8500021316529,10|8,0:2|0:2,0:0:0:0:
150,3,82432,6,0,B|198:1|195:2|195:2|222:42|286:25,1,139.700004263306,2|14,3:2|0:2,0:0:0:0:
367,75,82852,2,0,P|396:115|374:209,1,139.700004263306,2|0,3:2|0:2,0:0:0:0:
370,296,83273,2,0,P|320:283|203:296,1,139.700004263306,10|0,0:2|3:2,0:0:0:0:
143,329,83693,1,0,3:2:0:0:
55,281,83834,6,0,P|41:235|29:202,1,69.8500021316529,10|0,0:2|0:2,0:0:0:0:
139,194,84114,2,0,P|148:160|160:127,1,69.8500021316529,2|0,3:2|0:2,0:0:0:0:
248,194,84394,2,0,P|260:227|270:261,1,69.8500021316529,10|0,0:2|0:2,0:0:0:0:
252,372,84675,6,0,P|319:357|391:383,1,139.700004263306,6|8,3:2|0:2,0:0:0:0:
461,333,85095,2,0,B|472:315|472:280|472:280|435:236|448:195,1,139.700004263306,2|0,3:2|2:2,0:0:0:0:
501,129,85516,2,0,P|507:90|498:56,1,69.8500021316529,10|0,0:2|0:2,0:0:0:0:
410,14,85796,2,0,L|358:10,2,46.5666680877686,8|8|8,0:2|0:2|0:2,0:0:0:0:
369,96,86077,2,0,L|317:100,2,46.5666680877686,10|8|8,0:2|0:2|0:2,0:0:0:0:
276,28,86357,2,0,L|224:32,2,46.5666680877686,10|8|8,0:2|0:2|0:2,0:0:0:0:
237,118,86637,2,0,L|185:114,2,46.5666680877686,10|8|8,0:2|0:2|0:2,0:0:0:0:
212,208,86918,6,0,P|171:245|50:146,1,238.125009083748,6|0,3:2|3:2,0:0:0:0:
116,63,87759,1,8,0:2:0:0:
116,63,87899,2,0,P|131:109|137:167,2,95.2500036334993,6|0|0,3:2|3:2|3:2,0:0:0:0:
209,35,88600,2,0,L|212:-3,2,31.7500012111664,10|8|8,0:2|0:2|0:2,0:0:0:0:
290,94,88880,2,0,L|293:126,2,31.7500012111664,8|8|8,0:2|0:2|0:2,0:0:0:0:
366,31,89161,5,14,2:2:0:0:
366,31,89301,2,0,P|404:13|457:39,2,95.2500036334993,0|2|0,3:2|3:2|3:2,0:0:0:0:
404,117,90002,1,14,0:2:0:0:
404,117,90142,2,0,P|445:112|510:102,2,95.2500036334993,0|0|0,3:2|3:2|0:2,0:0:0:0:
337,184,90843,2,0,L|293:179,2,31.7500012111664,8|0|0,0:2|3:2|3:2,0:0:0:0:
407,246,91123,2,0,L|451:241,2,31.7500012111664,8|4|4,0:3|0:3|0:3,0:0:0:0:
336,309,91404,6,0,L|325:387,1,63.5,2|0,3:2|0:0,0:0:0:0:
235,323,91684,2,0,P|226:262|210:179,2,127,14|2|8,0:2|3:2|0:2,0:0:0:0:
157,377,92385,2,0,P|116:360|97:354,2,63.5,2|0|0,0:2|0:0|3:2,0:0:0:0:
123,264,92806,2,0,P|71:271|48:278,1,63.5,10|0,0:2|0:2,0:0:0:0:
63,178,93086,2,0,P|29:189|-14:214,1,63.5,2|0,3:2|3:2,0:0:0:0:
115,92,93366,2,0,P|128:44|132:16,1,63.5,10|0,0:2|0:2,0:0:0:0:
225,79,93647,6,0,P|235:140|247:218,1,127,2|14,3:2|0:2,0:0:0:0:
326,271,94067,2,0,P|369:258|398:250,1,63.5,2|0,0:2|0:0,0:0:0:0:
265,351,94348,2,0,P|221:335|136:315,1,127,2|2,3:2|0:2,0:0:0:0:
63,346,94768,2,0,P|34:301|45:223,1,127,14|0,0:2|0:2,0:0:0:0:
113,160,95189,1,0,3:2:0:0:
113,160,95259,1,0,3:2:0:0:
113,160,95329,6,0,P|120:122|116:95,1,63.5,14|0,0:2|0:2,0:0:0:0:
217,117,95609,2,0,P|210:155|214:182,2,63.5,14|0|2,0:2|0:2|3:2,0:0:0:0:
296,59,96030,1,8,0:2:0:0:
380,110,96170,2,0,P|429:110|525:111,1,127,8|8,0:2|0:2,0:0:0:0:
460,197,96591,1,2,0:2:0:0:
460,197,96731,2,0,P|420:201|376:187,1,63.5,8|2,0:2|3:2,0:0:0:0:
321,247,97011,2,0,P|281:243|237:257,1,63.5,0|8,3:2|0:2,0:0:0:0:
187,313,97291,6,0,L|196:390,1,63.5,10|8,0:2|0:2,0:0:0:0:
105,257,97572,2,0,L|98:194,1,63.5,10|8,0:2|0:2,0:0:0:0:
15,218,97852,2,0,L|7:154,1,63.5,2|8,3:2|0:2,0:0:0:0:
7,154,98063,1,8,0:2:0:0:
7,154,98133,2,0,B|21:118|21:118|-15:80|-8:19,1,127,2|0,3:2|3:2,0:0:0:0:
88,42,98553,6,0,P|139:34|168:19,1,63.5,10|0,2:2|3:2,0:0:0:0:
231,94,98834,2,0,P|275:101|312:105,1,63.5,0|10,3:2|0:2,0:0:0:0:
373,45,99114,2,0,L|464:39,1,63.5,0|0,3:2|3:2,0:0:0:0:
500,117,99394,2,0,P|518:155|505:247,1,127,8|0,0:2|3:2,0:0:0:0:
440,308,99815,6,0,P|391:299|354:300,1,63.5,10|2,2:2|3:2,0:0:0:0:
294,342,100095,2,0,P|227:344|208:337,1,63.5,0|0,0:0|3:2,0:0:0:0:
156,282,100376,2,8,P|154:215|153:176,1,95.25,2|0,0:2|3:2,0:0:0:0:
139,177,100656,5,14,0:2:0:0:
215,99,100796,2,0,P|219:67|199:30,1,63.5,2|0,0:2|3:2,0:0:0:0:
123,6,101077,2,0,P|91:2|54:22,1,63.5,2|8,0:2|0:2,0:0:0:0:
11,87,101357,2,0,B|28:128|28:128|7:219,1,127,2|0,3:2|0:2,0:0:0:0:
44,298,101777,6,0,P|32:345|34:370,1,63.5,10|0,0:2|0:0,0:0:0:0:
32,359,101988,1,8,0:2:0:0:
32,359,102058,2,0,L|167:348,1,127,2|10,3:2|3:2,0:0:0:0:
374,373,102619,6,0,P|424:360|506:391,1,127,2|10,3:2|0:2,0:0:0:0:
481,283,103039,2,0,P|470:235|471:192,1,63.5,2|0,3:2|3:2,0:0:0:0:
383,219,103320,2,0,P|397:171|419:135,1,63.5,2|8,3:2|3:2,0:0:0:0:
318,118,103600,2,0,P|308:76|287:-11,1,127,2|0,3:2|0:2,0:0:0:0:
211,47,104020,6,0,P|203:99|196:133,1,63.5,10|0,0:2|0:2,0:0:0:0:
136,179,104301,2,0,P|140:210|146:241,1,63.5,10|8,0:2|0:2,0:0:0:0:
203,320,104581,2,0,P|249:310|374:385,1,190.5,10|0,0:2|0:2,0:0:0:0:
454,313,105142,6,0,B|480:263|480:263|454:180,1,127,14|8,0:2|2:2,0:0:0:0:
414,105,105563,1,0,3:2:0:0:
414,105,105633,1,0,3:0:0:0:
414,105,105703,2,0,P|368:115|337:110,2,63.5,10|0|0,0:2|3:2|0:0,0:0:0:0:
207,187,106263,6,0,P|154:180|136:181,1,63.5,10|0,3:2|3:2,0:0:0:0:
65,240,106544,2,0,P|58:293|59:311,1,63.5,2|0,3:2|0:2,0:0:0:0:
14,159,106824,2,0,P|21:106|20:88,1,63.5,10|0,0:2|0:0,0:0:0:0:
97,29,107105,6,0,P|136:60|202:43,1,95.25,14|0,0:2|3:2,0:0:0:0:
195,49,107385,1,8,0:2:0:0:
269,111,107525,2,0,L|420:104,1,127,10|8,0:2|0:2,0:0:0:0:
468,169,107946,1,8,0:2:0:0:
468,169,108086,1,0,3:2:0:0:
392,233,108226,2,0,P|386:277|395:303,1,63.5,8|8,0:2|0:2,0:0:0:0:
469,353,108506,6,0,P|435:332|391:330,1,63.5,8|8,0:3|0:3,0:0:0:0:
324,375,108787,1,8,2:2:0:0:
324,375,108927,1,4,0:3:0:0:
231,332,109067,2,0,B|212:241|212:241|259:276,1,127,6|2,3:2|0:2,0:0:0:0:
249,335,115516,6,0,P|190:319|124:346,1,127,2|8,0:2|0:2,0:0:0:0:
129,340,116147,1,8,0:2:0:0:
135,348,116217,6,0,L|139:219,1,127,0|8,3:2|0:2,0:0:0:0:
194,138,116637,1,0,3:2:0:0:
128,67,116777,1,0,0:2:0:0:
208,12,116918,2,0,P|256:8|277:14,1,63.5,8|0,0:2|3:2,0:0:0:0:
348,61,117198,2,0,P|392:72|424:69,1,63.5,8|8,0:2|0:2,0:0:0:0:
499,31,117478,1,8,0:2:0:0:
471,156,117619,5,10,0:2:0:0:
33,372,118320,6,0,P|60:336|41:232,1,139.700004263306,6|10,3:2|0:2,0:0:0:0:
113,167,118740,2,0,P|99:132|93:91,1,69.8500021316529,2|0,0:2|3:2,0:0:0:0:
190,75,119021,2,0,P|204:110|210:151,1,69.8500021316529,2|8,0:2|0:2,0:0:0:0:
292,192,119301,2,0,B|341:201|341:201|369:149|441:156,1,139.700004263306,2|0,3:2|0:2,0:0:0:0:
491,245,119722,6,0,B|457:256|457:256|439:246|409:242,1,69.8500021316529,10|0,0:2|3:2,0:0:0:0:
352,306,120002,2,0,P|314:324|264:319,1,69.8500021316529,2|0,3:2|0:2,0:0:0:0:
209,258,120282,2,0,P|168:244|121:245,1,69.8500021316529,10|0,0:2|0:2,0:0:0:0:
63,309,120563,6,0,B|40:268|40:268|64:157,1,139.700004263306,6|10,3:2|0:2,0:0:0:0:
138,114,120983,2,0,P|180:122|218:123,1,69.8500021316529,2|0,0:2|3:2,0:0:0:0:
282,42,121264,2,0,P|248:35|213:33,1,69.8500021316529,2|8,0:2|0:2,0:0:0:0:
336,123,121544,2,0,P|379:57|367:-7,1,139.700004263306,2|0,3:2|0:2,0:0:0:0:
293,205,121965,6,0,L|303:288,1,69.8500021316529,10|0,0:2|0:2,0:0:0:0:
403,355,122245,2,0,L|393:272,2,69.8500021316529,2|0|8,3:2|3:2|0:2,0:0:0:0:
495,289,122665,1,8,0:2:0:0:
495,289,122735,1,8,0:2:0:0:
495,289,122806,2,0,L|499:204,1,69.8500021316529,6|0,3:2|0:2,0:0:0:0:
445,132,123086,6,0,P|401:153|362:152,1,69.8500021316529,10|0,0:2|3:2,0:0:0:0:
299,99,123367,2,0,P|260:88|205:93,1,69.8500021316529,2|0,3:2|0:0,0:0:0:0:
140,58,123647,2,0,B|91:68|91:68|61:48|61:48|-8:61,1,139.700004263306,10|0,0:2|3:2,0:0:0:0:
51,282,124208,6,0,P|101:289|125:281,1,69.8500021316529,10|0,0:2|0:2,0:0:0:0:
204,229,124488,2,0,B|238:215|238:215|304:221,1,69.8500021316529,2|0,3:2|0:2,0:0:0:0:
371,201,124768,2,0,L|383:122,1,69.8500021316529,10|0,0:2|0:0,0:0:0:0:
449,266,125049,6,0,L|460:343,2,69.8500021316529,14|0|0,2:2|3:2|3:2,0:0:0:0:
353,314,125469,2,0,L|364:391,2,69.8500021316529,14|0|0,0:2|3:2|3:2,0:0:0:0:
268,264,125890,1,14,0:2:0:0:
184,324,126030,2,0,P|133:342|61:290,1,139.700004263306,0|2,3:0|3:2,0:0:0:0:
108,213,126451,2,0,P|116:175|113:144,1,69.8500021316529,8|0,0:2|0:0,0:0:0:0:
51,64,126731,2,0,B|-20:46|-20:46,2,69.8500021316529,10|8|10,0:2|0:2|0:2,0:0:0:0:
146,45,127151,1,8,0:2:0:0:
146,45,127221,1,8,0:2:0:0:
146,45,127292,6,0,P|188:57|258:16,1,104.775003197479,2|0,3:2|0:2,0:0:0:0:
280,44,127572,2,0,L|298:197,1,139.700004263306,14|0,0:2|3:2,0:0:0:0:
308,279,127993,1,0,3:2:0:0:
393,328,128133,2,0,P|438:343|521:306,1,139.700004263306,10|0,0:2|3:2,0:0:0:0:
208,237,128694,6,0,P|154:246|129:255,1,69.8500021316529,10|0,2:2|2:2,0:0:0:0:
70,172,128974,2,0,P|90:121|94:95,1,69.8500021316529,2|0,3:2|3:2,0:0:0:0:
196,85,129254,2,0,P|231:128|252:145,1,69.8500021316529,10|0,2:2|2:2,0:0:0:0:
435,58,129535,6,0,B|408:43|382:42|382:42|352:66|292:63,1,139.700004263306,6|8,3:2|0:2,0:0:0:0:
388,140,129955,2,0,P|438:152|473:144,2,69.8500021316529,2|0|0,0:2|0:0|3:2,0:0:0:0:
336,226,130376,2,0,P|366:258|472:255,1,139.700004263306,10|0,0:2|3:2,0:0:0:0:
239,357,130937,6,0,P|228:306|232:274,1,69.8500021316529,10|0,0:2|0:2,0:0:0:0:
135,289,131217,2,0,P|151:240|170:214,1,69.8500021316529,2|0,3:2|3:2,0:0:0:0:
78,180,131497,2,0,P|116:144|145:131,1,69.8500021316529,14|0,3:2|0:0,0:0:0:0:
75,42,131778,6,0,P|127:51|207:21,1,139.700004263306,6|8,3:2|0:2,0:0:0:0:
264,100,132198,2,0,P|316:91|396:121,1,139.700004263306,6|0,0:2|3:2,0:0:0:0:
476,69,132619,2,0,P|483:107|490:161,1,69.8500021316529,10|0,0:2|0:2,0:0:0:0:
432,339,132899,6,0,B|400:293|400:293|428:203,1,139.700004263306,6|8,3:2|0:2,0:0:0:0:
322,219,133320,2,0,B|270:229|270:229|246:209|246:209|185:222,1,139.700004263306,6|0,3:2|3:2,0:0:0:0:
106,188,133740,2,0,P|85:146|84:114,1,69.8500021316529,10|0,0:2|0:2,0:0:0:0:
45,260,134021,5,14,0:2:0:0:
45,260,134161,2,0,B|63:308|49:356|49:356|-1:331,2,139.700004263306,0|14|0,3:2|0:2|3:2,0:0:0:0:
151,283,134862,1,14,0:2:0:0:
151,283,135002,2,0,P|202:290|302:300,1,139.700004263306,0|0,3:2|0:2,0:0:0:0:
359,244,135422,2,0,L|420:242,3,34.9250010658265,2|8|8|8,0:2|0:0|0:0|0:0,0:0:0:0:
331,203,135703,2,0,L|296:204,3,34.9250010658265,10|8|8|8,0:2|0:2|0:2|0:2,0:0:0:0:
357,169,135983,2,0,P|364:126|360:86,1,69.8500021316529,10|8,0:2|0:2,0:0:0:0:
283,23,136264,6,0,B|223:53|210:-2|136:33,1,139.700004263306,2|14,3:2|0:2,0:0:0:0:
74,110,136684,2,0,P|73:144|84:195,1,69.8500021316529,2|0,0:2|3:2,0:0:0:0:
167,233,136965,2,0,P|172:268|171:302,1,69.8500021316529,2|8,0:2|0:2,0:0:0:0:
116,374,137245,2,0,P|171:346|266:378,1,139.700004263306,2|0,3:2|0:2,0:0:0:0:
325,294,137666,6,0,L|413:290,1,69.8500021316529,10|0,0:2|0:2,0:0:0:0:
370,205,137946,2,0,L|458:201,1,69.8500021316529,2|0,3:2|0:0,0:0:0:0:
392,113,138226,2,0,L|322:116,1,69.8500021316529,10|0,0:2|0:2,0:0:0:0:
300,106,138436,1,8,0:2:0:0:
300,106,138507,6,0,P|262:84|150:111,1,139.700004263306,2|10,3:2|0:2,0:0:0:0:
90,56,138927,2,0,P|80:105|95:145,1,69.8500021316529,2|0,2:2|3:2,0:0:0:0:
37,199,139208,2,0,P|86:209|126:194,1,69.8500021316529,2|8,0:2|0:2,0:0:0:0:
138,291,139488,2,0,P|193:255|290:276,1,139.700004263306,2|0,3:2|0:2,0:0:0:0:
352,294,139909,6,0,L|357:389,1,69.8500021316529,10|0,0:2|0:0,0:0:0:0:
267,329,140189,2,0,L|264:260,1,69.8500021316529,2|0,3:2|0:2,0:0:0:0:
162,326,140469,2,0,L|108:341,3,34.9250010658265,10|8|8|8,0:2|0:2|0:2|0:2,0:0:0:0:
130,301,140750,2,0,P|87:267|89:198,1,104.775003197479,6|0,3:2|0:2,0:0:0:0:
98,186,141030,6,0,P|111:149|94:96,1,69.8500021316529,10|0,0:2|3:2,0:0:0:0:
195,69,141310,2,0,P|221:99|275:111,1,69.8500021316529,2|0,3:2|0:2,0:0:0:0:
340,63,141591,2,0,P|370:46|489:75,1,139.700004263306,10|0,0:2|3:2,0:0:0:0:
426,347,142152,6,0,L|418:278,1,69.8500021316529,10|0,0:2|3:2,0:0:0:0:
317,175,142432,2,0,L|326:245,1,69.8500021316529,2|0,3:2|0:0,0:0:0:0:
261,310,142712,2,0,P|221:322|177:320,1,69.8500021316529,10|0,0:2|0:2,0:0:0:0:
169,312,142922,1,8,0:2:0:0:
169,312,142992,6,0,P|121:302|71:312,2,69.8500021316529,14|0|0,2:2|3:2|3:2,0:0:0:0:
197,212,143413,1,14,0:2:0:0:
197,212,143553,2,0,L|188:122,1,69.8500021316529,0|0,3:0|3:2,0:0:0:0:
227,54,143834,1,14,0:2:0:0:
227,54,143974,2,0,P|280:81|371:66,1,139.700004263306,0|2,3:2|3:2,0:0:0:0:
464,91,144395,2,0,P|477:139|471:167,1,69.8500021316529,8|0,0:2|0:0,0:0:0:0:
397,227,144675,6,0,L|315:232,1,69.8500021316529,10|8,0:2|0:2,0:0:0:0:
442,309,144955,2,0,L|523:325,1,69.8500021316529,10|8,0:2|0:2,0:0:0:0:
362,381,145236,2,0,B|314:383|317:382|317:382|290:342|226:359,1,139.700004263306,2|14,3:2|0:2,0:0:0:0:
145,309,145656,2,0,P|116:269|138:175,1,139.700004263306,0|0,0:0|0:2,0:0:0:0:
142,88,146077,2,0,P|192:101|309:88,1,139.700004263306,10|0,0:2|3:2,0:0:0:0:
369,55,146497,1,0,3:2:0:0:
457,103,146638,6,0,P|471:149|483:182,1,69.8500021316529,10|0,0:2|0:2,0:0:0:0:
373,190,146918,2,0,P|364:224|352:257,1,69.8500021316529,2|0,3:2|0:2,0:0:0:0:
264,190,147198,2,0,P|252:157|242:123,1,69.8500021316529,10|0,0:2|0:2,0:0:0:0:
260,12,147479,6,0,P|193:27|121:1,1,139.700004263306,6|8,3:2|0:2,0:0:0:0:
51,51,147899,2,0,B|40:69|40:104|40:104|77:148|64:189,1,139.700004263306,2|0,3:2|3:2,0:0:0:0:
11,255,148320,2,0,P|5:294|14:328,1,69.8500021316529,10|0,0:2|0:2,0:0:0:0:
102,370,148600,2,0,L|154:374,2,46.5666680877686,8|8|8,0:0|0:0|0:0,0:0:0:0:
143,288,148881,2,0,L|195:284,2,46.5666680877686,10|8|8,0:0|0:0|0:0,0:0:0:0:
236,356,149161,2,0,L|288:352,2,46.5666680877686,10|8|8,0:2|0:2|0:2,0:0:0:0:
275,266,149441,2,0,L|327:270,2,46.5666680877686,10|8|8,0:2|0:2|0:2,0:0:0:0:
300,176,149722,6,0,P|341:139|462:238,1,238.125009083748,14|0,0:2|3:2,0:0:0:0:
396,321,150563,1,14,0:2:0:0:
396,321,150703,2,0,P|381:275|375:217,2,95.2500036334993,2|0|0,3:2|3:2|3:2,0:0:0:0:
303,349,151404,2,0,L|300:387,2,31.7500012111664,10|8|8,0:2|0:2|0:2,0:0:0:0:
222,290,151684,2,0,L|219:258,2,31.7500012111664,10|8|8,0:2|0:2|0:2,0:0:0:0:
146,353,151965,5,14,0:2:0:0:
146,353,152105,2,0,P|108:371|55:345,2,95.2500036334993,2|0|0,3:2|3:2|3:2,0:0:0:0:
108,267,152806,1,14,0:2:0:0:
108,267,152946,2,0,P|67:272|2:282,2,95.2500036334993,0|0|0,3:2|3:2|3:2,0:0:0:0:
175,200,153647,2,0,L|219:205,2,31.7500012111664,8|8|8,0:2|0:3|0:3,0:0:0:0:
105,138,153927,2,0,L|61:143,2,31.7500012111664,4|4|4,0:3|0:3|0:3,0:0:0:0:
183,64,154207,5,0,0:2:0:0:
190,260,162899,6,0,L|179:206,1,31.75,10|0,2:2|0:0,0:0:0:0:
156,223,163039,6,0,P|138:281|261:316,1,209.550006394959,6|8,3:1|0:2,0:0:0:0:
339,358,163600,1,0,3:2:0:0:
339,358,163670,1,0,3:2:0:0:
339,358,163740,2,0,P|381:344|478:373,1,139.700004263306,2|8,3:1|0:2,0:0:0:0:
503,275,164161,2,0,B|518:247|508:218|508:218|463:182|481:117,1,139.700004263306,2|0,3:2|0:2,0:0:0:0:
496,53,164581,2,0,P|451:38|423:36,2,69.8500021316529,10|0|0,0:2|0:2|3:2,0:0:0:0:
312,122,165142,5,10,0:1:0:0:
233,76,165282,2,0,P|197:69|103:129,1,139.700004263306,2|0,3:1|3:2,0:0:0:0:
38,169,165703,2,0,P|54:216|64:248,1,69.8500021316529,8|0,0:2|0:2,0:0:0:0:
156,256,165983,2,0,P|151:290|141:356,1,69.8500021316529,0|0,3:2|0:0,0:0:0:0:
237,332,166263,1,10,0:1:0:0:
237,332,166404,6,0,B|291:323|291:323|331:356|331:356|455:337,1,209.550006394959,2|8,3:1|0:0,0:0:0:0:
494,252,166964,1,0,3:2:0:0:
494,252,167034,1,8,0:2:0:0:
494,252,167105,2,0,P|503:211|478:166,1,69.8500021316529,2|2,3:1|3:1,0:0:0:0:
396,77,167385,6,0,L|412:245,1,139.700004263306,8|0,0:2|0:0,0:0:0:0:
332,272,167806,1,0,3:2:0:0:
262,344,167946,2,0,P|224:329|115:356,1,139.700004263306,12|0,0:2|3:2,0:0:0:0:
3,212,168506,6,0,P|-6:174|2:134,1,69.8500021316529,10|2,0:1|0:2,0:0:0:0:
69,79,168787,1,2,3:1:0:0:
155,124,168927,2,0,P|195:110|236:99,2,69.8500021316529,2|8|0,3:1|0:2|0:0,0:0:0:0:
222,200,169348,2,0,P|275:202|388:201,1,139.700004263306,0|8,3:2|0:2,0:0:0:0:
400,282,169768,6,0,P|351:311|272:296,1,139.700004263306,2|0,3:1|3:2,0:0:0:0:
222,200,170189,2,0,P|223:165|237:133,1,69.8500021316529,8|0,0:2|0:2,0:0:0:0:
322,94,170469,2,0,P|372:107|403:106,1,69.8500021316529,0|0,3:2|3:2,0:0:0:0:
473,56,170749,1,10,2:1:0:0:
480,150,170890,6,0,B|495:192|466:237|466:237|468:254|490:280,1,139.700004263306,2|0,3:1|3:2,0:0:0:0:
413,338,171310,2,0,P|378:331|345:339,1,69.8500021316529,8|0,0:2|0:2,0:0:0:0:
261,288,171591,2,0,L|268:218,2,69.8500021316529,0|0|8,3:2|3:2|0:2,0:0:0:0:
173,332,172011,6,0,B|161:310|157:285|157:285|177:241|148:189,1,139.700004263306,6|2,3:1|0:2,0:0:0:0:
152,198,172362,1,2,0:2:0:0:
152,198,172432,2,0,P|100:207|68:201,1,69.8500021316529,10|2,0:2|0:2,0:0:0:0:
78,113,172712,2,0,P|129:103|161:109,1,69.8500021316529,2|2,3:2|0:2,0:0:0:0:
229,149,172992,2,0,L|253:228,1,69.8500021316529,10|0,0:2|0:0,0:0:0:0:
305,304,173273,5,2,3:2:0:0:
360,240,173413,1,2,0:0:0:0:
421,178,173553,2,0,L|514:182,1,69.8500021316529,10|0,0:2|0:0,0:0:0:0:
490,181,173763,1,0,0:0:0:0:
490,181,173834,2,0,P|471:133|469:43,1,139.700004263306,2|10,3:2|0:2,0:0:0:0:
385,8,174254,1,10,0:2:0:0:
385,8,174324,1,2,0:2:0:0:
385,8,174394,6,0,P|328:48|292:41,2,104.775003197479,2|2|2,3:1|0:1|0:1,0:0:0:0:
315,130,174955,2,0,B|253:123|253:123|231:133|200:173,2,104.775003197479,2|2|2,3:1|0:1|0:1,0:0:0:0:
391,188,175516,2,0,P|436:200|470:195,2,69.8500021316529,2|0|8,3:1|3:1|0:1,0:0:0:0:
332,267,175936,2,0,B|199:256|278:321|120:307,1,209.550006394959,2|8,3:1|0:2,0:0:0:0:
13,90,176637,6,0,P|52:75|88:81,1,69.8500021316529,2|0,3:1|3:1,0:0:0:0:
154,149,176918,2,0,P|193:164|229:158,1,69.8500021316529,10|0,2:1|0:2,0:0:0:0:
308,103,177198,2,0,L|315:21,1,69.8500021316529,2|0,3:1|3:2,0:0:0:0:
370,187,177478,2,0,L|363:269,1,69.8500021316529,10|0,2:1|3:2,0:0:0:0:
428,338,177759,6,0,P|464:329|494:327,2,46.5666680877686,2|2|2,3:1|0:2|0:2,0:0:0:0:
338,368,178039,2,0,P|315:364|292:357,2,46.5666680877686,10|2|2,0:1|0:2|0:2,0:0:0:0:
233,291,178320,2,0,P|176:278|93:314,1,139.700004263306,2|10,3:1|0:2,0:0:0:0:
22,247,178740,6,0,B|39:204|39:204|18:103,1,139.700004263306,0|2,3:2|3:2,0:0:0:0:
94,42,179161,2,0,P|150:45|184:47,1,69.8500021316529,10|0,0:1|3:2,0:0:0:0:
178,72,179371,1,0,3:2:0:0:
180,75,179441,2,0,P|230:85|253:82,2,69.8500021316529,2|0|10,3:1|0:0|0:2,0:0:0:0:
320,9,179862,6,0,P|347:59|328:150,1,139.700004263306,0|0,0:0|3:2,0:0:0:0:
278,213,180282,2,0,P|278:260|302:302,1,69.8500021316529,10|2,0:1|3:1,0:0:0:0:
377,337,180563,2,0,L|439:329,3,34.9250010658265,8|8|8|8,0:2|0:2|0:2|0:2,0:0:0:0:
439,353,180843,2,0,L|501:345,3,34.9250010658265,8|8|8|8,0:2|0:2|0:2|0:2,0:0:0:0:
501,324,181123,6,0,P|508:286|502:250,1,69.8500021316529,6|0,3:2|3:2,0:0:0:0:
431,178,181404,2,0,P|424:140|430:104,1,69.8500021316529,10|0,0:2|3:2,0:0:0:0:
478,21,181684,2,0,P|434:64|347:37,1,139.700004263306,10|10,0:2|0:2,0:0:0:0:
273,115,182105,6,0,B|209:101|209:101|122:136,1,139.700004263306,6|0,3:2|3:2,0:0:0:0:
36,112,182525,2,0,P|43:146|51:180,1,69.8500021316529,10|0,0:2|3:2,0:0:0:0:
11,269,182806,1,8,0:2:0:0:
11,269,182946,1,8,0:2:0:0:
80,341,183086,1,8,0:2:0:0:
80,341,183226,1,8,0:2:0:0:
159,296,183366,6,0,P|200:291|249:300,1,69.8500021316529,14|0,0:2|3:2,0:0:0:0:
307,229,183647,2,0,P|339:243|382:242,1,69.8500021316529,10|0,0:2|3:2,0:0:0:0:
457,323,183927,2,0,L|467:176,1,139.700004263306,10|8,0:2|0:2,0:0:0:0:
405,24,184348,6,0,B|381:63|381:63|406:112|373:157,1,139.700004263306,6|0,3:2|3:2,0:0:0:0:
294,103,184768,2,0,P|244:96|217:103,1,69.8500021316529,10|0,0:2|3:2,0:0:0:0:
179,185,185048,2,0,B|100:159|100:159|80:173|45:174,1,139.700004263306,10|8,0:2|0:2,0:0:0:0:
270,308,185609,6,0,P|322:298|370:297,1,69.8500021316529,14|0,0:2|3:2,0:0:0:0:
171,281,185890,2,0,P|136:277|102:269,1,69.8500021316529,10|0,0:2|3:2,0:0:0:0:
45,174,186170,2,0,L|32:20,1,139.700004263306,10|10,0:2|0:2,0:0:0:0:
135,91,186591,6,0,B|205:72|194:120|289:99,1,139.700004263306,6|0,3:2|3:2,0:0:0:0:
365,48,187011,2,0,P|407:46|459:64,1,69.8500021316529,10|0,0:2|3:2,0:0:0:0:
488,147,187291,2,8,P|490:189|472:241,1,69.8500021316529,10|8,0:2|0:2,0:0:0:0:
413,278,187572,1,10,0:2:0:0:
413,278,187712,1,8,0:2:0:0:
327,235,187852,6,0,B|292:230|292:230|246:247,1,69.8500021316529,14|0,2:2|3:2,0:0:0:0:
201,320,188133,2,0,B|166:325|166:325|120:308,1,69.8500021316529,10|0,0:2|3:2,0:0:0:0:
301,331,188413,2,0,L|458:310,1,139.700004263306,10|10,0:2|0:2,0:0:0:0:
505,368,188834,6,0,B|473:320|473:320|491:224,1,139.700004263306,6|0,3:2|3:2,0:0:0:0:
433,149,189254,2,0,P|416:117|418:65,1,69.8500021316529,10|0,0:2|3:2,0:0:0:0:
332,24,189534,1,10,0:2:0:0:
332,24,189605,1,8,0:2:0:0:
332,24,189675,2,0,P|288:24|237:42,2,69.8500021316529,0|4|4,3:2|0:3|0:3,0:0:0:0:
206,113,190095,6,0,P|138:126|76:97,2,139.700004263306,6|10|10,3:2|0:2|0:2,0:0:0:0:
227,272,190936,1,10,0:2:0:0:
209,249,191077,6,0,L|65:238,1,139.700004263306,6|0,3:2|3:2,0:0:0:0:
26,329,191497,2,0,P|80:337|119:330,1,69.8500021316529,10|0,0:2|3:2,0:0:0:0:
185,365,191777,1,10,0:2:0:0:
185,365,191918,1,8,0:2:0:0:
267,328,192058,1,10,0:2:0:0:
267,328,192198,1,8,0:2:0:0:
358,368,192338,6,0,P|405:348|503:368,2,139.700004263306,14|10|10,0:2|0:2|0:2,0:0:0:0:
325,177,193179,1,10,0:2:0:0:
306,196,193320,6,0,B|300:164|284:146|284:146|289:101|356:70,1,139.700004263306,6|0,3:2|3:2,0:0:0:0:
264,12,193740,2,0,P|211:5|182:8,1,69.8500021316529,10|0,0:2|3:2,0:0:0:0:
117,71,194020,2,0,P|64:78|35:75,1,69.8500021316529,10|8,0:2|0:2,0:0:0:0:
191,143,194301,2,0,P|197:177|196:212,1,69.8500021316529,8|8,0:2|0:2,0:0:0:0:
101,310,194581,6,0,P|153:299|237:355,1,139.700004263306,6|8,3:2|0:2,0:0:0:0:
312,290,195002,2,0,L|400:281,2,69.8500021316529,2|8|0,3:2|0:2|0:0,0:0:0:0:
245,214,195422,1,0,3:2:0:0:
245,214,195563,2,0,B|236:169|236:169|246:129|246:129|235:67,1,139.700004263306,10|0,0:2|0:0,0:0:0:0:
307,7,195983,6,0,P|365:-8|401:-5,1,69.8500021316529,14|0,0:2|3:2,0:0:0:0:
467,38,196263,1,10,0:2:0:0:
467,38,196404,1,8,0:2:0:0:
416,127,196544,2,0,L|411:220,1,69.8500021316529,10|8,0:2|0:2,0:0:0:0:
481,274,196824,5,10,2:2:0:0:
404,336,196964,2,0,P|343:315|253:347,2,139.700004263306,0|8|0,3:2|0:2|0:2,0:0:0:0:
481,274,197665,1,8,0:2:0:0:
421,195,197806,5,0,3:2:0:0:
194,286,198086,1,8,2:2:0:0:
376,95,198366,2,0,B|341:99|307:75|307:75|260:154|336:159|298:242,1,238.125009083748,8|6,0:2|3:2,0:0:0:0:
179,238,208039,6,0,P|140:224|85:239,1,95.2500036334993,2|8,3:2|0:2,0:0:0:0:
237,313,208460,2,0,B|282:296|281:329|343:314,1,95.2500036334993,2|0,0:2|0:2,0:0:0:0:
421,352,208880,2,0,B|461:358|461:358|486:337|477:294,1,95.2500036334993,10|0,0:2|3:2,0:0:0:0:
433,225,209301,6,0,L|422:114,1,95.2500036334993,2|0,0:2|0:2,0:0:0:0:
360,61,209721,2,0,P|322:53|305:52,1,47.6250018167496,2|0,3:2|0:2,0:0:0:0:
241,104,210002,2,0,P|203:112|186:113,1,47.6250018167496,10|0,0:2|0:0,0:0:0:0:
102,102,210282,6,0,B|93:134|90:150|90:150|92:172|104:194,1,95.2500036334993,6|8,3:2|0:2,0:0:0:0:
191,248,210703,2,0,P|223:238|300:251,1,95.2500036334993,2|0,0:2|0:2,0:0:0:0:
355,179,211123,2,0,L|460:171,1,95.2500036334993,10|0,0:2|3:2,0:0:0:0:
223,335,211684,6,0,P|190:341|167:339,1,47.6250018167496,10|0,0:2|0:2,0:0:0:0:
108,278,211964,2,0,P|75:272|52:274,1,47.6250018167496,2|0,3:2|0:2,0:0:0:0:
168,204,212245,2,0,L|175:144,1,47.6250018167496,10|0,0:2|0:2,0:0:0:0:
193,62,212525,5,2,2:2:0:0:
193,62,213647,5,2,0:2:0:0:
193,62,214488,5,2,0:2:0:0:
373,131,214768,5,8,0:2:0:0:
373,131,214838,1,8,0:2:0:0:
373,131,214908,2,0,P|423:142|449:142,1,63.5,8|4,0:3|0:3,0:0:0:0:
494,218,215189,5,8,0:2:0:0:
494,218,215259,1,8,0:2:0:0:
494,218,215329,2,0,P|502:259|501:293,1,63.5,8|4,0:3|0:3,0:0:0:0:
449,357,215609,5,8,0:2:0:0:
365,315,215749,1,0,3:3:0:0:
284,355,215890,6,0,L|234:368,3,31.75,8|8|0|0,0:2|0:2|3:2|3:2,0:0:0:0:
221,342,216170,2,0,L|171:355,3,31.75,10|0|0|0,0:2|3:2|3:2|3:2,0:0:0:0:
158,330,216450,2,0,P|137:294|142:230,1,95.25,10|8,0:2|0:2,0:0:0:0:
156,208,216731,2,0,B|183:159|183:159|184:124|145:68,1,127,10|2,0:2|3:2,0:0:0:0:
160,92,217291,6,0,P|209:112|306:73,1,139.700004263306,14|0,0:2|3:2,0:0:0:0:
380,130,217712,2,0,P|401:173|401:211,1,69.8500021316529,2|8,0:2|0:2,0:0:0:0:
351,282,217992,2,0,P|298:271|225:321,1,139.700004263306,2|0,3:2|0:2,0:0:0:0:
130,301,218413,6,0,L|116:213,1,69.8500021316529,10|0,0:2|0:2,0:0:0:0:
28,209,218693,2,0,L|14:121,1,69.8500021316529,2|0,3:2|0:2,0:0:0:0:
82,55,218974,2,0,L|150:44,1,69.8500021316529,10|0,0:2|3:2,0:0:0:0:
174,60,219184,1,8,0:2:0:0:
174,60,219254,6,0,B|228:80|228:80|256:131|220:185,1,139.700004263306,2|10,3:2|0:2,0:0:0:0:
176,240,219675,2,0,P|121:238|96:246,1,69.8500021316529,2|0,0:2|3:2,0:0:0:0:
246,313,219955,2,0,B|304:293|330:331|384:303,1,139.700004263306,2|2,0:2|3:2,0:0:0:0:
472,348,220376,2,0,P|479:300|480:272,1,69.8500021316529,0|0,3:2|0:2,0:0:0:0:
400,222,220656,6,0,P|394:185|395:141,1,69.8500021316529,10|0,0:2|0:2,0:0:0:0:
461,17,220936,2,0,P|473:49|463:98,1,69.8500021316529,2|0,3:2|3:2,0:0:0:0:
372,56,221217,2,0,L|313:38,3,34.9250010658265,10|8|8|8,0:2|0:2|0:2|0:2,0:0:0:0:
324,65,221497,2,0,L|221:75,1,69.8500021316529,6|0,3:2|0:0,0:0:0:0:
167,28,221777,6,0,P|107:18|87:24,1,69.8500021316529,10|0,0:2|0:2,0:0:0:0:
23,92,222058,2,0,P|13:152|19:172,1,69.8500021316529,2|0,3:2|0:2,0:0:0:0:
88,233,222338,2,0,B|161:251|152:207|234:233,1,139.700004263306,10|0,0:2|3:2,0:0:0:0:
431,345,222899,6,0,P|422:296|416:261,1,69.8500021316529,10|0,0:2|0:2,0:0:0:0:
310,170,223179,2,0,P|316:204|323:239,1,69.8500021316529,2|0,3:2|0:0,0:0:0:0:
257,317,223460,2,0,P|219:332|189:329,1,69.8500021316529,10|0,0:2|0:2,0:0:0:0:
164,317,223670,1,8,0:2:0:0:
164,317,223740,6,0,B|115:298|115:298|19:320,1,139.700004263306,14|0,0:2|3:2,0:0:0:0:
48,212,224161,2,0,B|66:196|65:171|65:171|32:118|58:67,1,139.700004263306,14|0,0:2|3:2,0:0:0:0:
127,13,224581,1,14,0:2:0:0:
151,107,224721,2,0,P|210:96|305:77,1,139.700004263306,0|2,3:2|3:2,0:0:0:0:
372,128,225142,1,8,2:2:0:0:
455,80,225282,1,0,3:2:0:0:
455,80,225352,1,0,3:2:0:0:
455,80,225422,2,0,P|483:125|478:164,1,69.8500021316529,10|8,0:2|0:2,0:0:0:0:
427,233,225703,2,0,P|399:278|404:317,1,69.8500021316529,10|8,0:2|0:2,0:0:0:0:
456,377,225983,6,0,P|390:333|316:352,1,139.700004263306,2|8,3:2|0:2,0:0:0:0:
241,297,226404,2,0,B|208:294|184:307|184:307|148:280|153:231,1,139.700004263306,2|0,3:2|0:2,0:0:0:0:
207,142,226824,1,10,0:2:0:0:
207,142,226964,2,0,B|217:94|217:94|196:0,1,139.700004263306,0|0,3:0|0:2,0:0:0:0:
100,37,227385,6,0,P|83:83|100:141,1,104.775003197479,10|8,0:2|0:2,0:0:0:0:
74,159,227665,2,0,L|64:247,1,69.8500021316529,2|0,3:2|0:2,0:0:0:0:
157,307,227946,2,0,L|164:237,1,69.8500021316529,10|0,0:2|0:2,0:0:0:0:
268,290,228226,6,0,B|325:284|325:284|349:296|349:296|416:290,1,139.700004263306,6|8,3:2|0:2,0:0:0:0:
488,214,228647,2,0,P|508:175|460:92,1,139.700004263306,2|0,0:2|3:2,0:0:0:0:
388,37,229067,2,0,P|331:43|306:36,1,69.8500021316529,10|0,0:2|0:2,0:0:0:0:
231,91,229348,6,0,L|226:149,2,46.5666680877686,10|8|8,0:2|0:2|0:2,0:0:0:0:
135,114,229628,2,0,L|130:172,2,46.5666680877686,10|8|8,0:2|0:2|0:2,0:0:0:0:
196,223,229908,2,0,L|191:281,2,46.5666680877686,10|8|8,0:2|0:2|0:2,0:0:0:0:
102,275,230189,2,0,L|97:333,2,46.5666680877686,10|8|4,0:2|2:3|2:3,0:0:0:0:
180,363,230469,6,0,P|227:342|409:382,1,238.125009083748,2|0,3:2|3:2,0:0:0:0:
484,305,231310,1,14,0:2:0:0:
484,305,231450,2,0,P|468:282|468:164,1,142.875005450249,0|0,3:2|0:0,0:0:0:0:
344,48,232151,6,0,L|288:40,2,42.3333333333333,10|8|8,0:2|0:2|0:2,0:0:0:0:
305,133,232432,2,0,L|246:138,2,42.3333333333333,10|8|0,0:2|0:2|3:2,0:0:0:0:
364,202,232712,5,10,0:2:0:0:
364,202,232852,2,0,P|357:249|369:304,2,95.2500036334993,0|0|0,3:2|3:2|3:2,0:0:0:0:
427,128,233553,1,14,0:2:0:0:
427,128,233693,2,0,P|435:81|428:34,2,95.2500036334993,0|2|0,3:2|3:2|3:2,0:0:0:0:
480,211,234394,6,0,L|493:264,2,42.3333333333333,10|8|8,0:2|0:2|0:2,0:0:0:0:
399,259,234675,2,0,L|412:312,2,42.3333333333333,4|4|4,0:3|0:3|0:3,0:0:0:0:
311,299,234955,6,0,B|261:292|261:292|236:310|236:310|167:303,1,139.700004263306,6|10,3:2|0:2,0:0:0:0:
95,238,235376,2,0,B|86:181|86:181|106:93,1,139.700004263306,0|0,3:2|0:0,0:0:0:0:
104,101,235726,1,0,3:0:0:0:
104,101,235796,1,14,0:2:0:0:
201,48,235936,2,0,B|288:25|258:95|350:70,1,139.700004263306,2|0,3:2|3:2,0:0:0:0:
434,105,236357,6,0,P|453:154|452:190,1,69.8500021316529,10|8,0:2|0:2,0:0:0:0:
382,245,236637,2,0,L|380:308,2,46.5666680877686,10|8|8,0:2|0:2|0:2,0:2:0:0:
345,214,236918,2,0,P|306:210|267:219,1,69.8500021316529,4|0,0:3|0:0,0:0:0:0:
145,300,237198,6,0,B|191:293|230:319|230:319|262:321|292:307,1,139.700004263306,6|10,3:2|0:2,0:0:0:0:
401,297,237619,2,0,P|454:312|484:328,1,69.8500021316529,10|8,0:2|0:2,0:0:0:0:
512,221,237899,2,0,P|518:180|500:132,1,69.8500021316529,10|8,0:2|0:2,0:0:0:0:
493,29,238179,2,0,P|449:52|355:31,1,139.700004263306,6|0,3:2|3:2,0:0:0:0:
285,99,238600,6,0,P|243:86|206:85,1,69.8500021316529,10|8,0:2|0:2,0:0:0:0:
193,92,238810,1,8,0:2:0:0:
193,92,238880,2,0,P|139:102|111:101,1,69.8500021316529,2|0,3:2|0:0,0:0:0:0:
27,64,239161,2,0,P|38:113|36:144,1,69.8500021316529,10|0,0:2|0:2,0:0:0:0:
6,235,239441,6,0,P|-2:277|78:335,1,139.700004263306,14|8,0:2|0:2,0:0:0:0:
162,276,239862,2,0,B|216:268|216:268|326:286,1,139.700004263306,10|8,0:2|0:2,0:0:0:0:
408,339,240282,2,0,B|452:327|452:327|473:280|425:220,1,139.700004263306,6|8,3:2|0:2,0:0:0:0:
480,143,240703,5,8,0:2:0:0:
480,143,240773,1,8,0:2:0:0:
480,143,240843,2,0,P|464:102|457:65,1,69.8500021316529,10|8,0:2|0:2,0:0:0:0:
370,13,241123,2,0,P|362:47|349:80,1,69.8500021316529,10|8,0:2|0:2,0:0:0:0:
255,137,241404,2,0,P|217:135|164:136,1,69.8500021316529,10|8,0:2|0:2,0:0:0:0:
103,195,241684,5,2,3:2:0:0:
22,142,241824,2,0,P|3:101|82:29,3,139.700004263306,10|10|10|10,0:2|0:2|0:2|0:2,0:0:0:0:
274,115,242946,5,2,0:2:0:0:
363,78,243086,2,0,L|440:111,1,69.8500021316529,2|10,0:2|0:2,0:0:0:0:
349,172,243366,2,0,L|340:252,1,69.8500021316529,0|0,0:0|3:2,0:0:0:0:
324,261,243577,1,0,3:0:0:0:
324,261,243647,2,0,L|315:341,1,69.8500021316529,10|0,0:2|0:0,0:0:0:0:
222,283,243927,6,0,B|153:281|185:328|91:319,1,127,6|10,3:2|0:2,0:0:0:0:
24,261,244348,1,2,3:2:0:0:
24,261,244488,2,0,P|16:218|20:184,1,63.5,2|0,3:2|0:2,0:0:0:0:
98,130,244768,2,0,P|106:87|102:53,1,63.5,8|2,0:2|0:2,0:0:0:0:
47,0,245048,6,0,P|95:29|165:5,1,127,0|10,3:2|0:2,0:0:0:0:
247,65,245469,2,0,L|263:140,2,63.5,0|2|0,0:2|3:2|0:0,0:0:0:0:
363,6,245890,2,0,L|347:81,1,63.5,10|0,0:2|3:2,0:0:0:0:
364,97,246100,1,0,3:2:0:0:
364,97,246170,6,0,P|407:122|495:84,1,127,2|10,3:2|0:2,0:0:0:0:
512,204,246591,1,2,3:2:0:0:
512,204,246731,2,0,P|500:254|502:288,1,63.5,2|0,3:2|0:2,0:0:0:0:
412,334,247011,2,0,P|362:322|328:324,1,63.5,10|0,0:2|0:2,0:0:0:0:
271,257,247291,6,0,P|227:288|131:281,1,127,2|10,3:2|0:2,0:0:0:0:
73,219,247712,1,0,3:2:0:0:
148,145,247852,2,0,L|145:59,1,63.5,8|0,0:2|3:2,0:0:0:0:
130,52,248063,1,8,0:2:0:0:
130,52,248133,2,0,P|98:32|24:47,1,95.25,8|0,0:2|0:0,0:0:0:0:
13,61,248413,6,0,B|-3:100|-2:101|-2:101|13:122|13:122|-14:196,1,127,2|10,3:2|0:2,0:0:0:0:
66,252,248834,1,2,3:2:0:0:
19,345,248974,2,0,P|68:357|100:353,1,63.5,2|0,3:2|0:2,0:0:0:0:
170,301,249254,2,0,P|219:289|251:293,1,63.5,10|0,0:2|0:2,0:0:0:0:
322,344,249534,6,0,P|382:356|460:312,1,127,2|10,3:2|0:2,0:0:0:0:
510,251,249955,2,0,P|497:192|493:172,1,63.5,2|0,0:2|3:2,0:0:0:0:
509,82,250235,1,0,3:2:0:0:
411,128,250376,2,0,P|370:115|337:110,1,63.5,10|0,0:2|0:2,0:0:0:0:
318,118,250586,1,8,0:2:0:0:
318,118,250656,6,0,P|262:127|240:128,2,63.5,6|0|2,3:2|0:0|3:2,0:0:0:0:
283,225,251077,2,0,B|242:215|227:216|205:215,2,63.5,14|0|2,0:2|0:0|3:2,0:0:0:0:
327,315,251497,2,0,B|286:324|271:324|249:325,2,63.5,14|0|0,0:2|3:2|3:2,0:0:0:0:
422,355,251918,2,0,P|464:353|500:358,2,63.5,14|8|8,0:2|2:2|2:2,0:0:0:0:
440,249,252338,5,10,0:2:0:0:
376,156,252478,1,0,3:2:0:0:
463,106,252619,2,0,L|467:42,2,63.5,10|0|2,0:2|3:2|3:2,0:0:0:0:
463,106,253179,6,0,B|386:93|415:137|324:121,1,127,14|2,0:2|3:2,0:0:0:0:
259,75,253600,1,0,0:2:0:0:
174,123,253740,1,10,0:2:0:0:
174,123,253880,2,0,P|165:164|182:269,1,127,2|0,0:2|0:2,0:0:0:0:
107,326,254301,2,0,P|51:316|24:317,1,63.5,10|0,0:2|0:0,0:0:0:0:
173,247,254581,6,0,P|227:259|302:227,1,127,2|8,3:2|0:2,0:0:0:0:
359,160,255002,1,8,0:2:0:0:
359,160,255072,1,8,0:2:0:0:
359,160,255142,6,0,L|508:142,1,127,2|8,3:2|0:2,0:0:0:0:
418,52,255563,1,2,3:2:0:0:
418,52,255703,2,0,L|292:68,1,127,2|8,3:2|0:2,0:0:0:0:
210,20,256123,1,2,3:2:0:0:
144,89,256263,6,0,P|97:94|64:80,1,63.5,0|0,0:0|3:2,0:0:0:0:
225,143,256544,2,0,P|237:172|238:203,1,63.5,10|0,0:2|3:2,0:0:0:0:
166,269,256824,2,0,P|153:298|152:329,1,63.5,8|2,0:2|3:2,0:0:0:0:
175,357,257034,1,0,3:2:0:0:
175,357,257105,2,0,L|242:364,1,63.5,8|8,0:2|0:2,0:0:0:0:
337,309,257385,6,0,L|481:298,2,127,2|10|2,3:2|0:2|3:2,0:0:0:0:
267,239,258086,1,0,0:2:0:0:
174,278,258226,2,0,P|130:284|96:278,1,63.5,10|0,0:2|0:2,0:0:0:0:
47,203,258506,6,0,P|41:159|47:125,1,63.5,2|0,3:2|3:2,0:0:0:0:
122,76,258787,2,0,L|130:-2,1,63.5,8|2,0:2|3:2,0:0:0:0:
221,78,259067,2,0,L|213:156,1,63.5,0|2,0:2|0:2,0:0:0:0:
294,194,259348,1,10,0:2:0:0:
383,146,259488,1,2,3:2:0:0:
383,146,259558,1,0,3:2:0:0:
383,146,259628,6,0,P|439:139|484:208,1,127,14|0,2:2|3:2,0:0:0:0:
307,217,260048,2,0,B|235:210|258:258|166:243,1,127,14|0,0:2|3:2,0:0:0:0:
364,305,260469,1,14,0:2:0:0:
364,305,260609,2,0,P|427:305|435:304,1,63.5,0|0,3:2|3:2,0:0:0:0:
489,217,260890,5,10,0:2:0:0:
419,142,261030,2,0,P|415:97|420:73,1,63.5,8|8,0:2|0:2,0:0:0:0:
335,21,261310,2,0,P|304:25|273:22,1,63.5,10|0,0:2|3:2,0:0:0:0:
239,44,261520,1,0,3:2:0:0:
239,44,261591,2,0,P|207:39|176:43,1,63.5,14|0,0:2|0:2,0:0:0:0:
91,100,261871,5,2,0:2:0:0:
