osu file format v14

[General]
AudioFilename: audio.mp3
AudioLeadIn: 0
PreviewTime: 54605
Countdown: 0
SampleSet: Soft
StackLeniency: 0.7
Mode: 0
LetterboxInBreaks: 0
WidescreenStoryboard: 0

[Editor]
Bookmarks: 8553,12899,19628,28600,37572,46544,51030,55516,64488,73460,82432,91404,100376,109348,118320,127291,136263,145235,154207,163179,181123,199067,208039,217011,225983,234955,243927,252899,261871,279815
DistanceSpacing: 0.9
BeatDivisor: 4
GridSize: 8
TimelineZoom: 3.799999

[Metadata]
Title:Shiroki Yume wa Madara ni
TitleUnicode:白き夢は斑に
Artist:ELFENSJoN
ArtistUnicode:ELFENSJóN
Creator:Nao Tomori
Version:Extreme
Source:
Tags:ash of rouge side elisia asriel uroboros japanese rock jrock the mottled white dream mura 黒瀬 圭亮 Keisuke Kurose okogeeechann 藤田 和哉 Fujita Kazuya 戎屋 聖一郎 Seiichiro Ebisuya みゅー YUU ORYO icekalt
BeatmapID:2266069
BeatmapSetID:1083468

[Difficulty]
HPDrainRate:6.5
CircleSize:4.3
OverallDifficulty:9.2
ApproachRate:9.6
SliderMultiplier:1.87
SliderTickRate:1

[Events]
//Background and Video events
0,0,"criin bird bg.jpg",0,0
//Break Periods
2,109548,115007
2,154407,158184
2,199267,207530
//Storyboard Layer 0 (Background)
//Storyboard Layer 1 (Fail)
//Storyboard Layer 2 (Pass)
//Storyboard Layer 3 (Foreground)
//Storyboard Layer 4 (Overlay)
//Storyboard Sound Samples

[TimingPoints]
2806,280.373831775701,4,2,1,23,1,0
2806,-200,4,2,1,23,0,0
4488,-333.333333333333,4,2,1,23,0,0
5609,-200,4,2,1,23,0,0
6030,-500,4,2,1,23,0,0
7291,-200,4,2,1,33,0,0
12198,-200,4,2,1,57,0,0
12478,-133.333333333333,4,2,1,57,0,0
13880,-166.666666666667,4,2,1,57,0,0
14862,-76.9230769230769,4,2,1,57,0,0
15142,-100,4,2,1,57,0,0
16123,-133.333333333333,4,2,1,60,0,0
16824,-100,4,2,1,60,0,0
19628,-83.3333333333333,4,2,1,70,0,0
28600,-114.285714285714,4,2,1,55,0,0
35469,-100,4,2,1,60,0,0
36030,-114.285714285714,4,2,1,55,0,0
36871,-100,4,2,1,55,0,0
42058,-133.333333333333,4,2,1,55,0,0
42338,-100,4,2,1,55,0,0
46544,-83.3333333333333,4,2,1,55,0,0
51030,-400,4,2,1,35,0,0
51100,-400,4,2,1,25,0,0
52712,-400,4,2,1,55,0,0
52992,-100,4,2,1,55,0,0
54254,-333.333333333333,4,2,1,55,0,0
55516,-74.0740740740741,4,2,1,75,0,1
63226,-90.9090909090909,4,2,1,75,0,1
64488,-133.333333333333,4,2,1,75,0,1
64768,-83.3333333333333,4,2,1,75,0,1
71217,-76.9230769230769,4,2,1,75,0,1
72198,-86.9565217391304,4,2,1,75,0,1
73460,-133.333333333333,4,2,1,75,0,1
73740,-74.0740740740741,4,2,1,75,0,1
77946,-66.6666666666667,4,2,1,75,0,1
78226,-74.0740740740741,4,2,1,75,0,1
80189,-83.3333333333333,4,2,1,75,0,1
81030,-100,4,2,1,75,0,1
82432,-200,4,2,1,75,0,1
82852,-83.3333333333333,4,2,1,75,0,1
84675,-76.9230769230769,4,2,1,75,0,1
86918,-133.333333333333,4,2,1,75,0,1
91404,-166.666666666667,4,2,1,55,0,0
91684,-114.285714285714,4,2,1,55,0,0
99955,-133.333333333333,4,2,1,55,0,0
100656,-100,4,2,1,55,0,0
104721,-133.333333333333,4,2,1,55,0,0
105142,-100,4,2,1,55,0,0
109348,-100,4,2,1,25,0,0
115516,-200,4,2,1,25,0,0
116077,-200,4,2,1,60,0,0
116217,-100,4,2,1,60,0,0
116637,-76.9230769230769,4,2,1,60,0,0
117619,-500,4,2,1,60,0,0
117689,-500,4,2,1,20,0,0
118320,-74.0740740740741,4,2,1,75,0,1
127291,-181.818181818182,4,2,1,75,0,1
127572,-83.3333333333333,4,2,1,75,0,1
135703,-76.9230769230769,4,2,1,75,0,1
135983,-68.9655172413793,4,2,1,75,0,1
136263,-133.333333333333,4,2,1,75,0,1
136684,-74.0740740740741,4,2,1,75,0,1
145235,-250,4,2,1,75,0,1
145516,-76.9230769230769,4,2,1,75,0,1
146637,-83.3333333333333,4,2,1,75,0,1
149721,-100,4,2,1,75,0,1
154207,-100,4,2,1,10,0,0
158693,-100,4,2,1,20,0,0
162899,-100,4,2,1,60,0,0
163039,-66.6666666666667,4,2,1,73,0,1
163740,-62.5,4,2,1,73,0,1
164161,-76.9230769230769,4,2,1,73,0,1
165282,-71.4285714285714,4,2,1,73,0,1
165703,-76.9230769230769,4,2,1,73,0,1
166404,-66.6666666666667,4,2,1,73,0,1
168927,-83.3333333333333,4,2,1,73,0,1
169768,-71.4285714285714,4,2,1,73,0,1
171310,-76.9230769230769,4,2,1,73,0,1
172011,-58.8235294117647,4,2,1,73,0,1
172432,-76.9230769230769,4,2,1,73,0,1
175936,-76.9230769230769,4,2,1,73,0,1
181123,-74.0740740740741,4,2,1,73,0,1
196964,-133.333333333333,4,2,1,73,0,1
197385,-100,4,2,1,73,0,1
198927,-100,4,2,1,40,0,1
199067,-100,4,2,1,40,0,0
208039,-133.333333333333,4,2,1,50,0,0
212525,-133.333333333333,4,2,1,35,0,0
214488,-294.117647058824,4,2,1,35,0,0
214768,-294.117647058824,4,2,1,60,0,0
214908,-100,4,2,1,60,0,0
217011,-400,4,2,1,75,0,1
217291,-74.0740740740741,4,2,1,75,0,1
223179,-58.8235294117647,4,2,1,75,0,1
223460,-74.0740740740741,4,2,1,75,0,1
225983,-83.3333333333333,4,2,1,75,0,1
230609,-100,4,2,1,75,0,1
234955,-66.6666666666667,4,2,1,75,0,1
239441,-76.9230769230769,4,2,1,75,0,1
241824,-100,4,2,1,75,0,1
242665,-133.333333333333,4,2,1,75,0,1
243927,-83.3333333333333,4,2,1,70,0,0
251497,-76.9230769230769,4,2,1,70,0,0
252899,-250,4,2,1,70,0,0
253179,-83.3333333333333,4,2,1,70,0,0
261871,-357.142857142857,4,2,1,35,0,0

[Colours]
Combo1 : 217,183,251
Combo2 : 242,150,145
Combo3 : 157,191,247
Combo4 : 242,143,23

[HitObjects]
89,127,2806,6,0,P|140:111|193:129,1,93.5,2|0,2:2|2:2,2:2:0:0:
188,264,3366,2,0,P|137:280|84:262,1,93.5,2|0,2:2|2:2,2:2:0:0:
252,191,3787,2,0,B|331:185|301:236|387:237,1,140.25,2|0,2:2|2:2,2:2:0:0:
481,162,4488,2,0,P|469:184|484:274,1,112.199996575928,2|0,2:2|2:2,2:2:0:0:
417,356,5329,5,2,2:2:0:0:
416,340,5609,2,0,P|376:330|315:319,1,93.5,2|0,2:2|2:2,2:2:0:0:
224,296,6030,2,0,P|180:310|129:321,1,93.5,2|2,2:2|2:2,2:2:0:0:
350,110,7291,6,0,P|330:68|311:26,1,93.5,2|0,2:2|2:2,2:2:0:0:
201,153,7712,2,0,P|175:191|148:230,1,93.5,2|0,2:2|2:2,2:2:0:0:
313,260,8133,2,0,P|360:264|407:269,1,93.5,2|0,2:2|2:2,2:2:0:0:
287,177,8553,1,2,2:2:0:0:
34,377,8974,6,0,P|30:345|-3:285,1,93.5,2|2,2:2|2:2,2:2:0:0:
316,271,9534,6,0,B|359:289|359:289|414:282,1,93.5,2|0,2:2|2:2,2:2:0:0:
239,151,9955,2,0,B|192:161|192:161|159:193,1,93.5,2|0,2:2|2:2,2:2:0:0:
371,202,10376,2,0,B|402:166|402:166|410:121,1,93.5,2|0,2:2|2:2,2:2:0:0:
234,239,10796,2,0,B|229:286|229:286|249:327,1,93.5,2|0,2:2|2:2,2:2:0:0:
324,128,11217,2,0,B|299:87|299:87|259:65,1,93.5,2|2,2:2|2:2,2:2:0:0:
297,199,11777,1,2,2:2:0:0:
435,342,12198,5,0,3:2:0:0:
438,324,12268,1,0,3:2:0:0:
443,307,12338,1,8,2:2:0:0:
273,153,12478,2,0,B|315:198|294:255|294:255|280:232|257:214,1,140.250005350113,2|0,3:2|3:2,0:2:0:0:
276,232,12829,1,0,3:2:0:0:
276,232,12899,6,0,B|342:227|342:227|370:249|370:249|498:243,1,210.37500802517,6|0,3:2|3:2,0:2:0:0:
220,294,13460,6,0,P|193:255|187:241,1,35.0625013375283,8|8,0:2|0:2,0:2:0:0:
96,178,13600,2,0,P|76:220|66:232,1,35.0625013375283,8|8,0:3|0:3,0:2:0:0:
59,343,13740,2,0,P|105:339|120:340,1,35.0625013375283,4|4,0:3|0:3,0:2:0:0:
126,270,13880,6,0,B|113:196|84:112|84:112|98:91|121:57,1,224.399993151856,6|0,3:2|0:2,0:2:0:0:
322,111,14581,5,8,0:2:0:0:
302,126,14675,1,8,0:2:0:0:
275,139,14768,1,8,0:2:0:0:
246,147,14862,2,0,B|246:122|265:97|265:97|293:174|244:230,1,182.324991653824,4|0,0:3|0:2,0:2:0:0:
185,304,15142,6,0,P|137:298|-13:280,1,187,6|10,3:2|0:2,0:2:0:0:
256,384,15563,1,10,0:2:0:0:
146,132,15703,1,8,0:2:0:0:
14,384,15843,1,10,0:2:0:0:
325,269,15983,1,8,0:2:0:0:
20,152,16123,6,0,B|60:168|60:168|89:159|145:144,1,105.187504012585,6|0,3:2|0:2,0:2:0:0:
198,195,16404,1,0,3:2:0:0:
198,195,16474,1,0,3:2:0:0:
198,195,16544,2,0,P|242:202|259:206,1,35.0625013375283,0|0,3:2|0:2,0:2:0:0:
324,168,16684,1,8,0:2:0:0:
470,273,16824,6,0,P|487:312|474:372,1,93.5,2|0,3:2|0:2,0:2:0:0:
322,139,17105,2,0,L|333:25,1,93.5,10|0,0:2|0:2,0:2:0:0:
7,208,17385,5,10,0:2:0:0:
29,238,17455,1,8,2:2:0:0:
62,261,17525,1,8,0:2:0:0:
98,271,17595,1,8,0:2:0:0:
137,269,17665,1,8,0:2:0:0:
173,254,17735,1,8,0:2:0:0:
202,229,17806,6,0,L|194:169,1,46.75,2|0,3:2|0:2,0:2:0:0:
319,53,17946,1,8,0:2:0:0:
365,36,18016,1,8,0:2:0:0:
412,53,18086,1,8,0:2:0:0:
438,95,18156,1,8,0:2:0:0:
431,144,18226,6,0,L|430:196,1,46.75,2|0,3:2|0:2,0:2:0:0:
294,328,18366,1,8,0:2:0:0:
268,324,18436,1,8,0:2:0:0:
243,330,18506,1,8,0:2:0:0:
220,342,18576,1,8,0:2:0:0:
205,359,18646,5,10,0:2:0:0:
159,369,18717,1,8,0:2:0:0:
113,363,18787,1,8,0:2:0:0:
73,340,18857,1,8,0:2:0:0:
43,304,18927,1,8,0:2:0:0:
26,260,18997,1,8,0:2:0:0:
28,214,19068,5,10,0:2:0:0:
80,209,19138,1,8,0:2:0:0:
132,204,19208,1,8,0:2:0:0:
185,199,19278,1,8,0:2:0:0:
237,195,19348,1,8,0:2:0:0:
289,190,19418,1,8,0:2:0:0:
342,185,19488,1,8,0:2:0:0:
394,181,19558,1,8,0:2:0:0:
447,176,19628,6,0,B|464:132|464:132|432:55|432:55|409:112,1,168.299994863892,2|0,3:2|0:2,0:2:0:0:
400,261,19908,2,10,P|454:273|525:239,1,112.199996575928,14|10,0:2|0:2,0:2:0:0:
278,360,20189,5,0,3:2:0:0:
87,281,20329,1,0,3:2:0:0:
276,334,20469,2,0,P|284:270|290:187,1,112.199996575928,8|0,0:2|0:2,0:2:0:0:
137,20,20749,6,0,P|141:108|160:223,1,168.299994863892,0|0,3:2|0:2,0:2:0:0:
39,174,21030,2,0,P|48:125|53:47,1,112.199996575928,8|0,0:2|0:2,0:2:0:0:
81,257,21310,5,0,3:2:0:0:
242,149,21450,1,0,3:2:0:0:
359,289,21591,2,0,B|411:275|411:275|483:290,1,112.199996575928,8|0,0:2|0:2,0:2:0:0:
271,61,21871,6,0,L|263:186,1,112.199996575928,2|0,3:2|0:2,0:2:0:0:
139,366,22151,2,0,L|151:240,1,112.199996575928,10|2,0:2|0:2,0:2:0:0:
47,41,22432,5,0,3:2:0:0:
109,139,22572,1,0,3:2:0:0:
269,51,22712,2,0,B|369:27|332:93|436:70,1,168.299994863892,10|0,0:2|0:2,0:2:0:0:
488,22,22992,6,0,P|477:90|507:133,1,112.199996575928,0|0,3:2|0:2,0:2:0:0:
387,280,23273,2,0,P|307:262|245:250,1,112.199996575928,8|0,0:2|3:2,0:2:0:0:
255,329,23483,1,0,3:2:0:0:
255,329,23553,2,0,P|197:350|144:367,1,112.199996575928,0|0,3:2|3:2,0:2:0:0:
41,273,23763,1,8,0:2:0:0:
11,237,23833,1,8,0:2:0:0:
4,191,23903,1,8,0:2:0:0:
23,149,23973,1,8,0:2:0:0:
60,122,24043,1,8,0:2:0:0:
106,119,24114,6,0,B|158:125|158:125|182:150|182:150|281:159,1,168.299994863892,6|0,3:2|0:2,0:2:0:0:
320,104,24394,1,10,0:2:0:0:
194,236,24534,1,2,0:2:0:0:
146,39,24675,6,0,P|87:28|36:52,1,112.199996575928,2|0,3:2|0:2,0:2:0:0:
328,136,24955,2,0,P|386:144|444:117,1,112.199996575928,10|0,0:2|0:2,0:2:0:0:
254,25,25235,5,2,3:2:0:0:
322,265,25376,1,0,0:2:0:0:
375,55,25516,1,10,0:2:0:0:
170,125,25656,1,0,0:2:0:0:
414,232,25796,6,0,P|478:220|534:209,1,112.199996575928,2|0,3:2|3:2,0:2:0:0:
139,235,26077,2,0,P|75:223|7:209,1,112.199996575928,10|0,0:2|0:2,0:2:0:0:
316,364,26357,5,14,0:2:0:0:
241,190,26497,1,0,3:2:0:0:
331,23,26637,1,0,3:2:0:0:
320,339,26777,5,14,3:2:0:0:
264,85,26918,1,0,3:2:0:0:
0,130,27058,1,0,3:2:0:0:
56,384,27199,1,8,0:2:0:0:
172,243,27338,6,0,B|265:211|243:286|340:249,1,168.299994863892,6|0,3:2|0:2,0:2:0:0:
383,190,27619,1,8,0:2:0:0:
156,153,27759,1,10,0:2:0:0:
241,352,27899,1,8,0:2:0:0:
297,119,28039,5,10,0:2:0:0:
327,97,28109,1,0,3:2:0:0:
364,86,28179,1,0,3:2:0:0:
401,87,28249,1,0,3:2:0:0:
436,98,28320,2,0,B|455:149|464:209|464:209|443:230|430:261,1,168.299994863892,10|0,0:2|0:2,0:2:0:0:
387,307,28600,6,0,P|427:304|466:317,1,81.8125007802248,2|0,3:2|0:2,0:2:0:0:
230,368,28880,2,0,P|270:370|309:357,1,81.8125007802248,0|0,3:2|0:2,0:2:0:0:
255,285,29161,1,2,0:2:0:0:
175,222,29301,2,0,P|168:279|164:311,1,81.8125007802248,2|0,0:2|0:2,0:2:0:0:
270,95,29581,5,2,0:2:0:0:
270,95,29721,2,0,P|275:135|280:176,1,81.8125007802248,0|0,3:2|0:2,0:2:0:0:
337,24,30002,1,2,3:2:0:0:
337,24,30142,2,0,B|263:4|263:4|175:40,1,163.62500156045,2|0,0:2|0:2,0:2:0:0:
391,97,30563,2,0,L|480:83,1,81.8125007802248,10|0,0:2|0:2,0:2:0:0:
369,271,30843,6,0,P|312:304|199:280,2,163.62500156045,2|2|2,3:2|3:2|0:2,2:2:0:0:
286,219,31544,1,0,0:2:0:0:
388,369,31684,1,10,0:2:0:0:
446,218,31824,2,0,L|427:100,2,81.8125007802248,2|0|8,0:2|3:2|0:2,0:2:0:0:
293,121,32245,6,0,P|290:177|284:221,1,81.8125007802248,2|8,3:2|0:2,0:2:0:0:
93,285,32525,2,0,P|142:259|184:242,1,81.8125007802248,2|8,3:2|0:2,0:2:0:0:
337,377,32806,2,0,P|290:346|254:319,1,81.8125007802248,10|8,0:2|0:2,0:2:0:0:
186,69,33086,6,0,P|175:142|149:251,1,163.62500156045,6|0,3:2|3:2,0:2:0:0:
71,368,33506,2,0,P|52:288|40:207,1,163.62500156045,2|0,0:2|0:2,0:2:0:0:
74,39,33927,2,0,P|83:90|91:139,1,81.8125007802248,10|0,0:2|0:2,0:2:0:0:
255,257,34207,6,0,B|308:265|308:265|327:290|327:290|415:306,1,163.62500156045,0|0,3:2|3:2,0:2:0:0:
486,247,34628,1,0,0:2:0:0:
486,247,34768,2,0,P|503:195|493:152,1,81.8125007802248,0|0,3:2|0:2,0:2:0:0:
240,272,35048,2,0,P|223:324|233:367,1,81.8125007802248,8|0,0:2|0:2,0:2:0:0:
334,202,35329,5,0,3:2:0:0:
135,357,35469,2,0,B|57:406|-6:339|-6:339|53:274|18:203,1,280.5,14|0,0:2|0:2,0:2:0:0:
99,68,36030,2,0,P|94:109|93:150,2,81.8125007802248,2|0|0,0:2|0:2|0:2,0:2:0:0:
323,131,36450,5,10,0:2:0:0:
241,177,36591,1,0,3:2:0:0:
237,90,36731,1,0,3:2:0:0:
363,255,36871,6,0,B|376:302|376:302|354:362,1,93.5,14|8,0:2|0:2,0:2:0:0:
285,297,37151,1,0,3:2:0:0:
433,98,37291,2,0,L|434:211,1,93.5,14|0,0:2|3:2,0:2:0:0:
187,340,37572,6,0,P|142:324|78:344,1,93.5,2|0,3:2|0:2,0:2:0:0:
14,235,37852,1,14,0:2:0:0:
105,27,37992,2,0,L|119:220,1,187,2|0,3:2|0:2,0:2:0:0:
200,84,38413,1,10,0:2:0:0:
15,124,38553,1,2,0:2:0:0:
214,184,38693,6,0,P|263:188|313:177,1,93.5,0|0,3:2|0:2,0:2:0:0:
512,125,38974,2,0,P|463:121|413:132,1,93.5,8|0,0:2|3:2,0:2:0:0:
403,148,39184,1,8,0:2:0:0:
403,148,39254,2,0,L|414:293,1,140.25,0|0,3:2|0:2,0:2:0:0:
333,349,39534,2,0,L|325:235,1,93.5,10|0,0:2|0:2,0:2:0:0:
70,200,39815,6,0,P|75:247|79:294,1,93.5,2|0,3:2|0:2,0:2:0:0:
145,84,40095,2,0,P|102:64|60:44,1,93.5,10|0,0:2|0:2,0:2:0:0:
210,208,40376,2,0,P|248:180|286:154,1,93.5,2|0,3:2|0:2,0:2:0:0:
141,163,40656,1,10,0:2:0:0:
301,253,40796,6,0,B|400:229|376:308|483:278,1,187,2|0,3:2|0:2,0:2:0:0:
243,331,41217,2,0,P|183:348|133:323,1,93.5,10|0,0:2|0:2,0:2:0:0:
5,170,41497,1,10,0:2:0:0:
45,147,41567,1,8,0:2:0:0:
90,153,41637,1,8,0:2:0:0:
124,185,41707,1,8,0:2:0:0:
132,230,41777,2,0,B|88:249|88:249|35:241,1,93.5,10|0,0:2|3:2,0:2:0:0:
211,111,42058,6,0,B|253:116|253:116|264:128|264:128|336:137,1,105.187504012585,2|0,0:2|0:2,0:2:0:0:
380,100,42338,2,0,P|357:144|386:209,1,93.5,14|0,0:2|0:2,0:2:0:0:
498,210,42619,2,0,P|521:166|492:101,1,93.5,2|0,3:2|0:2,0:2:0:0:
423,257,42899,2,0,L|437:360,1,93.5,10|0,0:2|0:2,0:2:0:0:
264,302,43179,2,0,L|276:209,1,93.5,0|0,3:2|0:2,0:2:0:0:
51,217,43460,5,10,0:2:0:0:
153,236,43600,1,0,3:2:0:0:
112,51,43740,5,10,0:2:0:0:
124,139,43880,1,0,3:2:0:0:
240,303,44020,5,10,0:2:0:0:
252,215,44160,1,8,0:2:0:0:
386,53,44301,6,0,P|438:42|478:53,1,93.5,6|0,3:2|3:2,0:2:0:0:
491,65,44511,1,0,3:2:0:0:
501,83,44581,1,8,0:2:0:0:
301,132,44721,2,0,L|178:117,1,93.5,10|0,2:2|3:2,0:2:0:0:
190,130,44932,1,0,3:2:0:0:
173,140,45002,1,8,0:2:0:0:
416,351,45142,6,0,B|425:319|425:319|401:297|404:259,1,93.5,8|0,0:2|3:2,0:2:0:0:
417,248,45352,1,0,3:2:0:0:
434,238,45422,1,8,2:2:0:0:
278,329,45563,1,8,0:2:0:0:
262,326,45633,1,8,0:2:0:0:
247,323,45703,1,2,3:2:0:0:
231,320,45773,1,0,3:2:0:0:
216,317,45843,1,0,3:2:0:0:
201,315,45913,1,0,3:2:0:0:
184,310,45983,5,10,0:2:0:0:
165,267,46076,1,8,2:2:0:0:
146,224,46169,1,8,0:2:0:0:
132,183,46263,5,4,0:3:0:0:
85,177,46356,1,4,0:3:0:0:
38,172,46449,1,4,0:3:0:0:
5,238,46544,6,0,P|20:178|-35:83,1,168.299994863892,6|0,3:2|0:2,0:2:0:0:
34,25,46824,1,2,3:2:0:0:
204,137,46964,1,14,0:2:0:0:
372,37,47105,1,0,3:2:0:0:
254,14,47245,1,2,3:2:0:0:
337,159,47385,1,14,0:2:0:0:
180,264,47525,1,2,3:2:0:0:
162,261,47595,1,0,3:2:0:0:
144,259,47665,2,0,B|108:252|108:252|88:261|88:261|25:262,1,112.199996575928,0|8,3:2|0:2,0:2:0:0:
240,353,47946,6,0,P|294:364|356:341,1,112.199996575928,2|0,3:2|0:2,0:2:0:0:
452,218,48226,1,10,0:2:0:0:
302,150,48366,1,8,0:3:0:0:
352,243,48506,1,8,0:3:0:0:
406,41,48647,1,4,0:3:0:0:
124,144,48787,6,0,B|213:121|192:202|296:174,1,168.299994863892,6|0,3:2|0:2,0:2:0:0:
361,137,49067,1,2,3:2:0:0:
140,240,49207,2,0,B|60:254|6:264|6:264|35:276|53:296,1,168.299994863892,14|0,0:2|0:2,0:2:0:0:
26,355,49488,1,2,3:2:0:0:
128,134,49628,6,0,P|136:70|137:19,1,112.199996575928,14|0,0:2|3:2,0:2:0:0:
38,55,49908,1,2,3:2:0:0:
242,234,50048,2,0,B|276:235|300:216|300:216|341:216|386:235,1,112.199996575928,14|0,0:2|3:2,0:2:0:0:
427,271,50329,1,0,3:2:0:0:
313,100,50469,5,2,3:2:0:0:
283,324,50609,1,8,0:3:0:0:
110,191,50749,1,4,2:3:0:0:
249,219,50890,1,4,0:3:0:0:
132,329,51030,6,0,B|51:312|81:371|-5:357,1,140.25,6|2,3:2|0:2,0:2:0:0:
158,328,52432,5,2,0:2:0:0:
88,25,52712,5,10,0:2:0:0:
13,232,52852,1,2,3:2:0:0:
35,199,52922,1,0,3:2:0:0:
58,164,52992,2,0,B|105:154|105:154|146:173,1,93.5,12|0,0:2|0:2,0:2:0:0:
483,292,53273,5,8,0:2:0:0:
371,22,53413,1,8,0:2:0:0:
256,369,53553,1,8,2:2:0:0:
446,210,53693,5,2,3:2:0:0:
96,35,53974,1,2,3:2:0:0:
446,210,54254,2,0,B|457:232|457:249|457:249|446:272|447:296,1,84.1499974319459,6|0,3:2|0:2,0:2:0:0:
24,114,55516,6,0,B|87:123|87:123|115:153|115:153|217:164,1,189.337500722265,6|0,3:2|0:2,0:2:0:0:
284,106,55796,1,10,0:2:0:0:
481,248,55936,2,0,B|485:291|464:312|464:312|457:341|481:372,1,126.22500048151,2|0,0:2|3:2,0:2:0:0:
292,125,56217,2,0,L|304:-13,1,126.22500048151,2|8,0:2|0:2,0:2:0:0:
102,211,56497,1,2,3:2:0:0:
102,211,56567,1,0,3:2:0:0:
102,211,56637,2,0,P|173:193|237:208,1,126.22500048151,0|0,3:2|0:2,0:2:0:0:
512,87,56918,6,0,B|456:99|456:99|377:80,1,126.22500048151,10|0,0:2|0:2,0:2:0:0:
120,300,57198,2,0,B|176:288|176:288|201:315|255:307,1,126.22500048151,2|0,3:2|0:2,0:2:0:0:
471,207,57478,2,0,B|509:197|534:226|534:226|509:233|489:262,1,126.22500048151,10|0,0:2|0:2,0:2:0:0:
293,172,57759,6,0,B|306:27|306:27|338:85,1,189.337500722265,6|0,3:2|0:2,0:2:0:0:
372,141,58039,1,10,0:2:0:0:
152,76,58179,2,0,P|86:64|18:93,1,126.22500048151,2|0,0:2|3:2,0:2:0:0:
370,289,58460,2,0,B|439:299|439:299|504:272,1,126.22500048151,2|8,0:2|0:2,0:2:0:0:
191,357,58740,1,2,3:2:0:0:
191,357,58810,1,0,3:2:0:0:
191,357,58880,2,0,B|120:343|139:384|39:364,1,126.22500048151,0|0,3:2|0:2,0:2:0:0:
166,65,59161,6,0,P|174:157|181:220,1,126.22500048151,10|0,0:2|0:2,0:2:0:0:
316,100,59441,1,2,3:2:0:0:
40,136,59581,1,0,3:2:0:0:
199,333,59721,1,8,0:2:0:0:
237,305,59791,1,8,0:2:0:0:
283,295,59861,1,8,0:2:0:0:
329,302,59931,1,8,0:2:0:0:
370,327,60002,6,0,P|446:316|525:306,1,126.22500048151,6|0,3:2|0:2,0:2:0:0:
272,155,60282,2,0,B|215:135|215:135|120:166,1,126.22500048151,10|0,0:2|0:2,0:2:0:0:
370,97,60563,1,2,3:2:0:0:
273,53,60703,1,0,3:2:0:0:
370,327,60843,2,0,P|434:355|503:329,1,126.22500048151,10|0,0:2|0:2,0:2:0:0:
284,384,61123,5,0,3:2:0:0:
189,266,61263,1,0,3:2:0:0:
0,328,61404,2,0,B|43:340|69:314|69:314|123:315|141:363,1,126.22500048151,10|0,0:2|0:2,0:2:0:0:
135,99,61684,2,0,B|114:84|90:55|90:55|82:103|50:133,1,126.22500048151,2|0,3:2|0:2,0:2:0:0:
384,238,61964,2,0,B|396:220|392:201|392:201|348:174|306:219,1,126.22500048151,10|0,0:2|0:2,0:2:0:0:
492,357,62245,5,14,2:2:0:0:
402,77,62385,1,0,3:2:0:0:
195,287,62525,1,0,3:2:0:0:
384,238,62665,5,14,0:2:0:0:
249,175,62806,1,0,3:2:0:0:
97,207,62946,1,0,3:2:0:0:
235,286,63086,1,10,0:2:0:0:
193,68,63226,6,0,P|204:157|221:319,1,205.700006277466,0|2,3:2|3:2,0:2:0:0:
312,138,63647,5,8,0:2:0:0:
314,120,63717,1,8,0:2:0:0:
316,103,63787,1,8,0:2:0:0:
318,86,63857,1,8,0:2:0:0:
320,67,63927,6,0,L|375:47,1,51.4250015693665,10|8,0:2|0:2,0:2:0:0:
496,75,64067,2,0,L|447:92,1,51.4250015693665,8|8,0:2|0:2,0:2:0:0:
329,225,64207,5,10,0:2:0:0:
364,211,64277,1,8,0:2:0:0:
403,212,64347,1,8,0:2:0:0:
437,228,64417,1,8,0:2:0:0:
463,256,64488,6,0,B|452:287|452:287|462:314|462:314|445:368,1,105.187504012585,2|0,3:2|0:2,0:2:0:0:
372,316,64768,6,0,L|347:105,1,168.299994863892,14|0,0:2|0:2,0:2:0:0:
275,105,65048,2,0,B|222:91|222:91|156:116,1,112.199996575928,2|0,3:2|0:2,0:2:0:0:
446,169,65329,2,0,B|494:116|459:12|459:12|461:53|415:104,1,224.399993151856,10|0,0:2|3:2,0:2:0:0:
112,198,65749,5,0,3:2:0:0:
112,198,65820,1,0,3:2:0:0:
112,198,65890,2,0,P|174:210|232:182,1,112.199996575928,10|0,0:2|0:2,0:2:0:0:
405,330,66170,2,0,P|384:270|331:234,1,112.199996575928,2|0,3:2|0:2,3:2:0:0:
373,11,66450,2,0,P|331:58|326:122,1,112.199996575928,10|0,3:2|3:2,3:2:0:0:
230,280,66731,6,0,B|156:273|156:273|106:305|106:305|12:297,1,224.399993151856,6|8,3:2|0:2,0:2:0:0:
328,225,67151,2,0,B|398:279|394:369|330:409|298:332,1,224.399993151856,2|0,0:2|3:2,0:2:0:0:
166,169,67572,2,0,B|163:147|141:116|141:116|140:95|155:60,1,112.199996575928,10|0,0:2|0:2,0:2:0:0:
305,15,67852,2,0,B|323:42|325:63|325:63|310:86|314:122,1,112.199996575928,0|0,3:2|0:2,3:2:0:0:
174,197,68133,6,0,P|98:187|51:179,1,112.199996575928,10|0,0:2|0:2,0:2:0:0:
333,144,68413,2,0,P|395:131|456:162,1,112.199996575928,2|0,3:2|0:2,0:2:0:0:
208,322,68693,2,0,B|119:308|145:376|32:354,1,168.299994863892,14|0,0:2|0:2,0:2:0:0:
306,339,68974,6,0,B|380:348|434:307|434:307|485:338|474:403,1,224.399993151856,2|8,3:2|0:2,0:2:0:0:
318,160,69394,2,0,B|344:127|339:95|339:95|399:153|300:186|360:255,1,224.399993151856,6|0,3:2|3:2,0:2:0:0:
273,21,69815,2,0,P|349:-1|401:19,1,112.199996575928,10|0,0:2|0:2,0:2:0:0:
217,228,70095,5,2,3:2:0:0:
126,182,70235,2,0,P|39:174|4:172,1,112.199996575928,0|8,3:2|0:2,0:2:0:0:
213,127,70516,2,0,P|329:110|439:94,1,224.399993151856,6|0,3:2|3:2,0:2:0:0:
130,75,70936,2,0,P|112:128|128:186,1,112.199996575928,10|0,0:2|0:2,0:2:0:0:
474,254,71217,6,0,B|405:269|405:269|382:319|382:319|239:350,1,243.099988871766,10|0,3:2|3:2,3:2:0:0:
2,227,71637,2,0,B|65:170|148:204|148:204|141:255|158:291,1,243.099988871766,14|0,0:2|3:2,0:2:0:0:
345,116,72058,1,14,0:2:0:0:
225,18,72198,2,0,L|248:259,1,215.050004101753,0|0,3:2|3:2,0:2:0:0:
467,360,72619,5,10,0:2:0:0:
440,330,72689,1,8,0:2:0:0:
404,312,72759,1,8,0:2:0:0:
364,310,72829,1,8,0:2:0:0:
326,323,72899,5,10,0:2:0:0:
277,345,72969,1,8,0:2:0:0:
224,345,73039,1,8,0:2:0:0:
175,324,73109,1,8,0:2:0:0:
139,285,73179,6,0,P|132:251|133:204,1,53.7625010254383,10|8,0:2|0:2,0:2:0:0:
18,82,73320,2,0,P|25:111|29:166,1,53.7625010254383,8|8,0:2|0:2,0:2:0:0:
109,100,73460,6,0,B|128:118|161:118|161:118|178:101|216:99,1,105.187504012585,2|0,3:2|0:2,0:2:0:0:
218,104,73740,1,14,0:2:0:0:
65,24,73880,6,0,P|24:86|52:170,1,126.22500048151,2|0,0:2|3:2,0:2:0:0:
314,223,74161,2,0,L|455:211,1,126.22500048151,2|8,0:2|0:2,0:2:0:0:
169,369,74441,1,2,3:2:0:0:
169,369,74511,1,0,3:2:0:0:
169,369,74581,2,0,B|143:353|116:355|116:355|90:386|27:377,1,126.22500048151,0|0,3:2|0:2,0:2:0:0:
225,141,74862,6,0,P|217:239|213:318,1,126.22500048151,10|0,0:2|0:2,0:2:0:0:
105,24,75142,2,0,P|117:102|126:180,1,126.22500048151,2|0,3:2|0:2,0:2:0:0:
305,348,75422,2,0,P|316:270|325:212,1,126.22500048151,10|0,0:2|0:2,0:2:0:0:
444,14,75703,6,0,B|456:74|456:74|439:118|439:118|462:233,1,189.337500722265,6|0,3:2|0:2,0:2:0:0:
487,292,75983,1,10,0:2:0:0:
182,167,76123,6,0,B|144:145|96:161|96:161|98:186|129:227,1,126.22500048151,2|0,0:2|3:2,0:2:0:0:
383,368,76404,2,0,B|406:361|421:349|421:349|452:381|501:373|501:373,1,126.22500048151,2|8,0:2|0:2,0:2:0:0:
338,67,76684,1,2,3:2:0:0:
338,67,76754,1,0,3:2:0:0:
338,67,76824,2,0,P|332:155|326:238,1,126.22500048151,0|0,3:2|0:2,0:2:0:0:
49,353,77105,6,0,B|28:292|28:292|49:226,1,126.22500048151,10|0,0:2|0:2,0:2:0:0:
186,0,77385,2,0,P|193:89|191:140,1,126.22500048151,2|0,3:2|0:2,0:2:0:0:
322,298,77665,1,10,0:2:0:0:
364,278,77735,1,8,0:2:0:0:
411,279,77805,1,8,0:2:0:0:
454,299,77875,1,8,0:2:0:0:
484,335,77946,6,0,B|454:344|443:360|443:360|372:286|446:164,1,210.37500802517,6|0,3:2|2:2,2:2:0:0:
498,41,78226,2,0,B|491:75|514:104|514:104|521:137|488:169,1,126.22500048151,10|0,0:2|0:2,0:2:0:0:
287,252,78506,2,0,P|215:234|150:267,1,126.22500048151,2|0,3:2|0:2,0:2:0:0:
266,136,78787,1,10,0:2:0:0:
229,344,78927,1,0,0:2:0:0:
79,206,79067,1,0,3:2:0:0:
287,252,79207,1,0,0:2:0:0:
22,138,79348,6,0,B|-8:188|-8:188|10:274,1,126.22500048151,10|0,2:2|0:2,0:2:0:0:
241,126,79628,2,0,L|221:-6,1,126.22500048151,2|0,3:2|0:2,0:2:0:0:
496,211,79908,2,0,B|464:192|434:197|434:197|388:252|295:230,1,189.337500722265,10|0,2:2|0:2,0:2:0:0:
142,184,80189,5,14,0:2:0:0:
348,121,80329,1,0,3:2:0:0:
324,352,80469,1,0,3:2:0:0:
193,92,80609,5,14,0:2:0:0:
419,285,80749,1,0,3:2:0:0:
161,377,80890,1,0,3:2:0:0:
203,249,81030,5,14,0:2:0:0:
299,344,81170,2,0,B|398:305|377:390|491:346,1,187,0|2,3:2|3:2,3:2:0:0:
398,0,81591,5,8,0:2:0:0:
393,58,81661,1,8,0:2:0:0:
389,116,81731,1,8,0:2:0:0:
385,174,81801,1,8,0:2:0:0:
381,233,81871,5,10,0:2:0:0:
342,245,81941,1,8,0:2:0:0:
302,249,82011,1,0,3:2:0:0:
262,240,82081,1,0,3:2:0:0:
226,221,82151,1,10,0:2:0:0:
189,204,82221,1,8,0:2:0:0:
149,198,82291,1,8,0:2:0:0:
108,204,82361,1,8,0:2:0:0:
69,217,82432,6,0,B|60:238|61:255|61:255|79:280|75:322,1,93.5,2|14,3:2|0:2,0:2:0:0:
39,131,82852,6,0,B|102:122|102:122|148:164|148:164|261:146,1,224.399993151856,2|0,3:2|0:2,0:2:0:0:
445,189,83273,2,0,B|393:178|358:119|358:119|364:195|310:253,1,224.399993151856,10|0,0:2|3:2,0:2:0:0:
460,90,83693,1,0,3:2:0:0:
266,296,83834,6,0,P|332:323|396:297,1,112.199996575928,10|0,0:2|0:2,0:2:0:0:
47,323,84114,2,0,P|96:297|150:304,1,112.199996575928,2|0,3:2|0:2,0:2:0:0:
197,80,84394,2,0,L|206:191,1,112.199996575928,10|0,0:2|0:2,0:2:0:0:
359,360,84675,6,0,B|404:314|390:225|348:180|348:180|330:220|361:259,1,243.099988871766,6|8,3:2|0:2,0:2:0:0:
469,166,85095,1,2,3:2:0:0:
267,302,85235,2,0,B|229:286|209:289|209:289|172:316|93:294,1,121.549994435883,0|0,3:2|2:2,0:2:0:0:
20,152,85516,2,0,B|38:124|43:97|43:97|75:141|120:165,1,121.549994435883,10|0,0:2|0:2,0:2:0:0:
344,207,85796,5,8,0:2:0:0:
379,190,85890,2,0,P|393:149|377:91,1,81.0333296239219,8|8,0:2|0:2,0:2:0:0:
230,27,86077,5,10,0:2:0:0:
195,43,86171,2,0,P|180:83|196:141,1,81.0333296239219,8|8,0:2|0:2,0:2:0:0:
277,366,86357,5,10,0:2:0:0:
288,326,86450,1,8,0:2:0:0:
283,285,86543,1,8,0:2:0:0:
239,218,86637,5,10,0:2:0:0:
234,197,86730,1,8,0:2:0:0:
242,178,86824,1,8,0:2:0:0:
279,106,86918,6,0,B|330:110|330:110|347:135|347:135|416:142,1,140.250005350113,6|0,3:2|0:2,3:2:0:0:
485,274,87338,2,0,B|468:299|445:301|445:301|394:270|342:285,1,140.250005350113,2|0,0:2|3:2,3:2:0:0:
278,342,87759,1,8,0:2:0:0:
125,291,87899,6,0,P|107:163|102:136,2,140.250005350113,6|0|0,3:2|3:2|3:2,0:2:0:0:
167,78,88600,1,10,0:2:0:0:
173,58,88693,2,0,P|164:29|153:5,1,46.750001783371,8|8,0:2|0:2,0:2:0:0:
66,1,88880,1,8,0:2:0:0:
60,21,88973,2,0,P|69:50|80:74,1,46.750001783371,8|8,0:2|0:2,0:2:0:0:
0,115,89160,5,14,2:2:0:0:
217,176,89301,2,0,P|300:168|376:160,2,140.250005350113,0|2|0,3:2|3:2|3:2,0:2:0:0:
155,253,90002,1,14,0:2:0:0:
184,83,90142,2,0,B|258:60|253:115|337:77,1,140.250005350113,0|0,3:2|3:2,0:2:0:0:
415,12,90563,6,0,P|403:69|412:100,1,70.1250026750566,2|0,3:2|0:2,0:2:0:0:
473,148,90843,1,8,0:2:0:0:
484,163,90936,2,0,P|497:204|497:223,1,46.750001783371,0|0,3:2|3:2,0:2:0:0:
428,291,91123,1,8,0:3:0:0:
417,305,91216,2,0,P|407:327|403:350,1,46.750001783371,4|4,0:3|0:3,0:2:0:0:
299,380,91404,6,0,P|262:367|200:374,1,84.1499974319459,2|0,3:2|0:2,0:2:0:0:
241,332,91684,6,0,P|179:355|69:358,1,163.62500156045,14|2,0:2|3:2,0:2:0:0:
8,304,92105,1,0,3:2:0:0:
84,268,92245,1,8,0:2:0:0:
0,158,92385,6,0,B|93:200|67:142|170:172,1,163.62500156045,2|0,0:2|3:2,0:2:0:0:
274,90,92806,2,0,P|258:142|263:174,1,81.8125007802248,10|0,0:2|0:2,0:2:0:0:
439,197,93086,2,0,P|455:145|450:113,1,81.8125007802248,2|0,3:2|3:2,0:2:0:0:
350,214,93366,2,0,L|364:316,1,81.8125007802248,10|0,0:2|0:2,0:2:0:0:
365,96,93647,6,0,L|351:-6,1,81.8125007802248,2|0,3:2|3:2,0:2:0:0:
451,33,93927,1,14,0:2:0:0:
274,68,94067,2,0,B|176:70|222:127|126:122,1,163.62500156045,2|2,0:2|3:2,0:2:0:0:
47,76,94488,1,0,3:2:0:0:
119,32,94628,1,2,0:2:0:0:
198,205,94768,6,0,B|276:179|276:179|371:194,1,163.62500156045,14|0,0:2|0:2,0:2:0:0:
508,220,95189,1,0,3:2:0:0:
502,212,95259,1,0,3:2:0:0:
493,206,95329,2,0,P|474:255|482:305,1,81.8125007802248,14|0,0:2|0:2,0:2:0:0:
426,130,95609,2,0,L|413:28,1,81.8125007802248,14|0,0:2|0:2,0:2:0:0:
276,179,95890,5,2,3:2:0:0:
356,191,96030,1,8,0:2:0:0:
277,26,96170,1,8,0:2:0:0:
201,67,96310,2,0,P|161:74|121:64,1,81.8125007802248,2|8,0:2|0:2,0:2:0:0:
337,87,96591,2,0,P|376:79|416:89,1,81.8125007802248,2|8,0:2|0:2,0:2:0:0:
249,229,96871,2,0,L|258:138,2,81.8125007802248,2|0|8,3:2|3:2|0:2,0:2:0:0:
134,299,97291,6,0,P|85:285|31:290,1,81.8125007802248,10|8,0:2|0:2,0:2:0:0:
247,243,97572,1,10,0:2:0:0:
334,348,97712,1,8,0:2:0:0:
444,258,97852,2,0,B|450:218|450:218|430:165,1,81.8125007802248,2|8,3:2|0:2,0:2:0:0:
430,170,98063,1,8,0:2:0:0:
424,161,98133,6,0,L|432:69,2,81.8125007802248,2|0|0,3:2|3:2|3:2,0:2:0:0:
337,252,98553,2,0,L|344:333,2,81.8125007802248,10|0|0,2:2|3:2|3:2,0:2:0:0:
249,138,98974,2,0,P|181:124|154:136,2,81.8125007802248,10|0|0,0:2|3:2|3:2,0:2:0:0:
6,185,99394,2,0,P|74:199|101:187,2,81.8125007802248,8|0|0,0:2|3:2|3:2,0:2:0:0:
59,109,99815,1,10,2:2:0:0:
200,213,99955,2,0,L|224:355,1,140.250005350113,2|0,3:2|3:2,0:2:0:0:
320,310,100376,6,0,B|331:256|331:256|294:198,1,105.187504012585,2|0,0:2|3:2,0:2:0:0:
287,197,100656,5,14,0:2:0:0:
418,300,100796,2,0,P|482:309|524:285,1,93.5,2|0,0:2|3:2,0:2:0:0:
271,181,101077,2,0,P|207:172|165:196,1,93.5,2|8,0:2|0:2,0:2:0:0:
398,161,101357,2,0,B|420:22|420:22|387:70,1,187,2|0,3:2|0:2,0:2:0:0:
336,252,101777,6,0,P|397:272|475:239,1,140.25,10|8,0:2|0:2,0:2:0:0:
483,233,102058,2,0,P|475:286|487:328,1,93.5,2|0,3:2|0:2,0:2:0:0:
334,233,102338,2,0,B|326:197|326:197|330:180|330:180|321:127,1,93.5,10|0,3:2|0:2,0:2:0:0:
194,318,102619,6,0,B|82:297|130:369|-2:337,1,187,2|10,3:2|0:2,0:2:0:0:
255,258,103039,2,0,P|279:304|274:356,1,93.5,2|0,3:2|3:2,3:2:0:0:
53,258,103320,2,0,P|53:211|55:155,1,93.5,2|8,3:2|3:2,3:2:0:0:
132,25,103600,2,0,B|131:97|131:97|150:126|150:126|148:241,1,187,2|0,3:2|0:2,0:2:0:0:
399,294,104020,6,0,L|501:286,1,93.5,10|0,0:2|0:2,0:2:0:0:
342,221,104301,1,10,0:2:0:0:
322,249,104371,1,8,0:2:0:0:
312,283,104441,1,8,0:2:0:0:
315,318,104511,1,8,0:2:0:0:
329,350,104581,1,10,0:2:0:0:
232,247,104721,2,0,P|187:223|103:291,1,140.250005350113,0|0,3:2|0:2,0:2:0:0:
130,203,105142,6,0,P|125:136|110:9,1,187,14|8,0:2|2:2,0:2:0:0:
32,122,105563,1,0,3:2:0:0:
227,91,105703,1,10,0:2:0:0:
32,122,105843,2,0,B|27:164|21:182|21:182|40:222|40:222|23:268|19:323,1,187,0|0,3:2|0:2,0:2:0:0:
152,278,106263,6,0,B|197:270|197:270|258:289,1,93.5,10|0,3:2|3:2,3:2:0:0:
236,376,106544,2,0,B|190:383|190:383|129:364,1,93.5,2|0,3:2|0:2,0:2:0:0:
320,337,106824,2,0,B|400:323|376:370|474:354,1,140.25,10|0,0:2|0:2,0:2:0:0:
405,264,107105,6,0,P|400:200|396:145,1,93.5,14|0,0:2|3:2,0:2:0:0:
410,146,107315,1,0,3:2:0:0:
410,146,107385,1,8,0:2:0:0:
284,42,107525,2,0,P|289:106|293:161,1,93.5,10|0,0:2|3:2,0:2:0:0:
277,162,107735,1,0,3:2:0:0:
276,162,107806,1,8,0:2:0:0:
139,77,107946,5,8,0:2:0:0:
101,58,108016,1,0,3:2:0:0:
60,59,108086,1,0,3:2:0:0:
25,79,108156,1,0,3:2:0:0:
3,114,108226,5,8,0:2:0:0:
19,130,108296,1,8,0:2:0:0:
40,141,108366,1,8,0:2:0:0:
62,147,108436,1,8,0:2:0:0:
85,148,108506,6,0,P|93:183|91:227,2,62.3333333333333,8|8|8,0:3|0:3|0:3,0:2:0:0:
138,265,108787,2,0,P|138:299|147:337,2,62.3333333333333,8|4|4,2:2|0:3|0:3,0:2:0:0:
225,238,109067,6,0,B|274:244|274:244|297:268|297:268|384:279,1,140.25,6|0,3:2|2:2,2:2:0:0:
456,285,109348,5,2,0:2:0:0:
442,297,115516,6,0,B|365:283|391:346|308:342,1,140.25,2|0,0:2|0:2,0:2:0:0:
78,263,116077,5,8,0:2:0:0:
89,270,116147,1,8,0:2:0:0:
96,280,116217,2,0,P|81:219|86:167,1,93.5,0|0,3:2|2:2,2:2:0:0:
248,16,116497,5,8,0:2:0:0:
270,44,116567,1,8,0:2:0:0:
280,76,116637,2,0,B|329:70|329:70|347:82|347:82|422:73,1,121.549994435883,0|0,3:2|0:2,0:2:0:0:
497,246,116918,5,8,0:2:0:0:
455,227,116988,1,8,0:2:0:0:
410,230,117058,1,0,3:2:0:0:
371,254,117128,1,0,3:2:0:0:
348,292,117198,2,0,P|355:323|362:358,1,60.7749972179414,8|0,0:2|0:2,0:2:0:0:
239,247,117338,5,8,0:2:0:0:
155,28,117478,1,8,0:2:0:0:
94,384,117619,2,0,B|80:369|60:366|60:366|39:383|16:385,1,84.15,10|0,0:2|0:2,0:2:0:0:
12,380,118320,6,0,B|16:331|-9:290|-9:290|7:248|7:248|-5:213|-5:166,1,189.337500722265,6|0,3:2|0:2,0:2:0:0:
20,78,118600,1,10,0:2:0:0:
172,219,118740,2,0,P|168:283|161:371,1,126.22500048151,2|0,0:2|3:2,0:2:0:0:
384,145,119020,2,0,B|393:115|396:84|396:84|384:55|377:18,1,126.22500048151,2|8,0:2|0:2,0:2:0:0:
507,270,119301,1,2,3:2:0:0:
507,270,119371,1,0,3:2:0:0:
507,270,119441,2,0,B|433:253|452:296|369:280,1,126.22500048151,0|0,3:2|0:2,0:2:0:0:
86,165,119721,5,10,0:2:0:0:
302,186,119862,1,0,3:2:0:0:
16,103,120002,2,0,P|-6:161|4:223,1,126.22500048151,2|0,3:2|0:2,0:2:0:0:
215,125,120282,2,0,L|226:0,1,126.22500048151,10|0,0:2|0:2,0:2:0:0:
481,225,120563,6,0,B|415:217|415:217|375:239|375:239|278:228,1,189.337500722265,6|0,3:2|0:2,0:2:0:0:
158,209,120843,1,10,0:2:0:0:
386,58,120983,2,0,B|404:60|429:48|429:48|467:77|440:133,1,126.22500048151,2|0,0:2|3:2,0:2:0:0:
205,367,121263,2,0,B|190:351|206:311|206:311|239:305|271:324,1,126.22500048151,2|8,0:2|0:2,0:2:0:0:
109,77,121544,1,2,3:2:0:0:
109,77,121614,1,0,3:2:0:0:
109,77,121684,2,0,B|48:59|48:59|-2:99,1,126.22500048151,0|0,3:2|0:2,0:2:0:0:
264,203,121964,6,0,P|311:195|411:181,1,126.22500048151,10|0,0:2|0:2,0:2:0:0:
187,143,122245,1,2,3:2:0:0:
162,184,122315,1,0,3:2:0:0:
163,233,122385,1,0,3:2:0:0:
188,274,122455,1,0,3:2:0:0:
230,297,122525,5,8,0:2:0:0:
270,272,122595,1,8,0:2:0:0:
316,265,122665,1,8,0:2:0:0:
362,275,122735,1,8,0:2:0:0:
401,302,122806,6,0,B|407:322|403:348|403:348|430:322|441:271,1,126.22500048151,6|0,3:2|0:2,0:2:0:0:
328,14,123086,1,10,0:2:0:0:
380,172,123226,1,0,3:2:0:0:
467,52,123366,1,2,3:2:0:0:
244,138,123506,1,0,3:2:0:0:
244,138,123577,1,0,3:2:0:0:
244,138,123647,2,0,B|203:110|165:123|165:123|125:175|46:150,1,189.337500722265,10|0,0:2|0:2,0:2:0:0:
87,57,123927,5,0,3:2:0:0:
194,229,124067,1,0,0:2:0:0:
335,68,124207,2,0,B|373:50|410:64|410:64|377:71|341:131,1,126.22500048151,10|0,0:2|0:2,0:2:0:0:
75,179,124488,2,0,B|-24:171|-24:171|0:181|24:199,1,126.22500048151,2|0,3:2|0:2,0:2:0:0:
262,308,124768,2,0,B|357:286|357:286|457:335,1,189.337500722265,10|0,0:2|0:2,0:2:0:0:
440,222,125048,5,14,2:2:0:0:
218,383,125189,1,0,3:2:0:0:
167,127,125329,1,0,3:2:0:0:
286,210,125469,5,14,0:2:0:0:
23,115,125609,1,0,3:2:0:0:
62,368,125749,1,0,3:2:0:0:
291,86,125890,5,14,0:2:0:0:
291,86,125960,2,0,B|389:54|375:133|480:98,1,189.337500722265,8|0,0:2|3:2,0:2:0:0:
238,6,126310,1,2,3:2:0:0:
332,174,126450,1,8,0:2:0:0:
336,207,126520,1,8,0:2:0:0:
341,241,126590,1,8,0:2:0:0:
345,274,126660,1,8,0:2:0:0:
350,307,126731,5,10,0:2:0:0:
307,280,126801,1,8,0:2:0:0:
258,269,126871,1,8,0:2:0:0:
209,277,126941,1,8,0:2:0:0:
164,300,127011,5,10,0:2:0:0:
161,317,127081,1,8,0:2:0:0:
158,333,127151,1,8,0:2:0:0:
155,350,127221,1,8,0:2:0:0:
152,366,127291,6,0,B|122:358|108:361|108:361|92:372|58:376,1,77.1375023540498,2|0,3:2|0:2,0:2:0:0:
5,327,127572,6,0,B|10:292|-13:260|-13:260|34:207|34:207|6:163|4:96,1,224.399993151856,14|0,0:2|3:2,0:2:0:0:
90,30,127992,1,0,3:2:0:0:
246,121,128133,2,0,B|370:96|370:96|419:132|398:191,1,224.399993151856,10|0,0:2|3:2,0:2:0:0:
184,328,128553,5,2,3:2:0:0:
184,328,128623,1,0,3:2:0:0:
184,328,128693,2,0,B|133:315|133:315|64:351,1,112.199996575928,10|0,2:2|2:2,2:2:0:0:
155,132,128974,2,0,B|169:182|169:182|235:223,1,112.199996575928,2|0,3:2|3:2,3:2:0:0:
1,253,129254,2,0,B|36:215|36:215|40:137,1,112.199996575928,10|0,2:2|2:2,2:2:0:0:
281,286,129534,6,0,B|410:252|352:367|518:325,1,224.399993151856,6|8,3:2|0:2,0:2:0:0:
310,162,129955,2,0,B|234:157|183:206|183:206|133:183|150:125,1,224.399993151856,2|0,0:2|3:2,0:2:0:0:
377,90,130376,2,0,P|408:143|385:224,1,112.199996575928,10|0,0:2|0:2,0:2:0:0:
257,316,130656,2,0,B|270:286|270:263|270:263|287:293|330:310,1,112.199996575928,0|0,3:2|0:2,0:2:0:0:
157,357,130936,6,0,P|94:343|34:360,1,112.199996575928,10|0,0:2|0:2,0:2:0:0:
106,123,131217,2,0,B|136:116|158:119|158:119|179:133|225:124,1,112.199996575928,2|0,3:2|3:2,0:2:0:0:
245,131,131427,1,0,3:2:0:0:
245,131,131497,2,0,B|262:166|251:200|251:200|263:223|263:223|239:262|263:313,1,168.299994863892,14|0,3:2|3:2,3:2:0:0:
343,283,131777,6,0,L|333:58,1,224.399993151856,6|8,3:2|0:2,0:2:0:0:
235,314,132198,2,0,P|279:368|440:349,1,224.399993151856,6|0,0:2|3:2,0:2:0:0:
144,250,132619,2,0,B|109:255|91:237|91:237|66:231|20:250,1,112.199996575928,10|0,0:2|0:2,0:2:0:0:
178,150,132899,5,6,3:2:0:0:
66,343,133039,1,0,3:2:0:0:
0,145,133179,1,8,0:2:0:0:
144,250,133320,6,0,P|232:238|414:261,1,224.399993151856,6|0,3:2|3:2,0:2:0:0:
500,133,133740,2,0,P|422:142|374:127,1,112.199996575928,10|0,0:2|0:2,0:2:0:0:
175,12,134020,5,14,0:2:0:0:
344,38,134161,1,0,3:2:0:0:
235,150,134301,1,0,3:2:0:0:
460,282,134441,5,14,0:2:0:0:
382,224,134581,1,0,3:2:0:0:
354,316,134721,1,0,3:2:0:0:
130,247,134862,5,14,0:2:0:0:
39,308,135002,2,0,B|32:270|49:245|49:245|24:187|24:187|55:137|37:72,1,224.399993151856,0|0,3:2|0:2,0:2:0:0:
202,23,135422,5,10,0:2:0:0:
230,53,135492,1,8,0:2:0:0:
268,69,135562,1,8,0:2:0:0:
310,67,135632,1,8,0:2:0:0:
347,47,135703,5,10,0:2:0:0:
390,61,135773,1,8,0:2:0:0:
423,91,135843,1,8,0:2:0:0:
440,133,135913,1,8,0:2:0:0:
437,178,135983,5,10,0:2:0:0:
411,222,136053,1,8,0:2:0:0:
405,272,136123,1,8,0:2:0:0:
419,320,136193,1,8,0:2:0:0:
452,359,136263,6,0,B|486:347|522:356|522:356|502:347|487:325,1,105.187504012585,2|0,3:2|0:2,0:2:0:0:
507,257,136544,1,14,0:2:0:0:
286,368,136684,6,0,P|245:355|137:382,1,126.22500048151,2|0,0:2|3:2,0:2:0:0:
13,169,136964,2,0,B|41:170|61:185|61:185|98:152|158:155,1,126.22500048151,2|8,0:2|0:2,0:2:0:0:
361,73,137245,1,2,3:2:0:0:
361,73,137315,1,0,3:2:0:0:
361,73,137385,2,0,B|318:75|298:54|298:54|254:56|243:84,1,126.22500048151,0|0,0:2|0:2,3:2:0:0:
493,275,137665,6,0,P|512:209|479:149,1,126.22500048151,10|0,0:2|0:2,0:2:0:0:
235,187,137946,2,0,B|339:164|307:249|437:214,1,189.337500722265,2|0,3:2|0:2,0:2:0:0:
149,147,138226,2,0,B|138:164|133:207|133:207|160:229|163:273,1,126.22500048151,10|0,0:2|0:2,0:2:0:0:
107,334,138436,1,8,0:2:0:0:
107,334,138506,6,0,B|31:323|60:368|-30:347,1,126.22500048151,2|0,3:2|0:2,0:2:0:0:
236,371,138787,1,10,0:2:0:0:
134,126,138927,2,0,P|136:214|139:270,1,126.22500048151,2|0,2:2|3:2,0:2:0:0:
275,126,139207,2,0,P|277:62|278:0,1,126.22500048151,2|8,0:2|0:2,0:2:0:0:
474,191,139488,1,2,3:2:0:0:
474,191,139558,1,0,3:2:0:0:
474,191,139628,2,0,P|400:174|349:202,1,126.22500048151,0|0,3:2|0:2,0:2:0:0:
420,317,139908,5,10,0:2:0:0:
450,94,140048,1,0,3:2:0:0:
198,214,140189,2,0,B|153:210|153:210|133:187|133:187|72:179,1,126.22500048151,2|0,3:2|0:2,0:2:0:0:
228,40,140469,1,10,0:2:0:0:
281,7,140539,1,8,0:2:0:0:
343,5,140609,1,8,0:2:0:0:
399,33,140679,1,8,0:2:0:0:
435,84,140749,6,0,P|431:163|418:315,1,189.337500722265,6|0,3:2|0:2,0:2:0:0:
467,353,141030,1,10,0:2:0:0:
347,175,141170,1,0,3:2:0:0:
347,175,141240,1,0,3:2:0:0:
347,175,141310,2,0,B|312:159|282:163|282:163|259:189|220:190,1,126.22500048151,2|0,3:2|0:2,0:2:0:0:
85,110,141591,2,0,B|115:130|150:122|150:122|171:94|212:95,1,126.22500048151,10|0,0:2|0:2,0:2:0:0:
66,17,141871,5,0,3:2:0:0:
175,233,142011,1,0,3:2:0:0:
251,19,142151,2,0,B|280:7|319:8|319:8|293:33|276:93,1,126.22500048151,10|0,0:2|3:2,0:2:0:0:
402,252,142432,2,0,B|427:278|434:305|434:305|498:250|464:175,1,189.337500722265,2|0,3:2|0:2,0:2:0:0:
395,57,142712,2,0,B|370:72|359:97|359:97|387:132|389:174,1,126.22500048151,10|0,0:2|0:2,0:2:0:0:
352,326,142922,1,8,0:2:0:0:
352,326,142992,6,0,P|288:313|225:361,2,126.22500048151,14|0|0,2:2|3:2|3:2,0:2:0:0:
32,204,143413,2,0,P|99:244|246:166,1,252.45000096302,14|0,0:2|3:2,0:2:0:0:
137,7,143834,1,14,0:2:0:0:
139,147,143974,1,0,3:2:0:0:
139,147,144044,1,8,2:2:0:0:
139,147,144114,1,0,3:2:0:0:
257,68,144254,1,2,3:2:0:0:
419,185,144394,5,8,0:2:0:0:
424,216,144464,1,8,0:2:0:0:
429,247,144534,1,0,3:2:0:0:
434,278,144604,1,0,3:2:0:0:
440,309,144675,5,10,0:2:0:0:
393,351,144745,1,8,0:2:0:0:
333,367,144815,1,8,0:2:0:0:
271,354,144885,1,8,0:2:0:0:
222,315,144955,5,10,0:2:0:0:
175,273,145025,1,8,0:2:0:0:
115,257,145095,1,8,0:2:0:0:
53,269,145165,1,8,0:2:0:0:
4,308,145235,6,0,L|14:370,1,56.1,2|0,3:2|0:2,0:2:0:0:
99,374,145516,6,0,L|56:127,1,243.099988871766,14|0,0:2|3:2,0:2:0:0:
132,35,145936,1,0,0:2:0:0:
274,108,146077,1,10,0:2:0:0:
442,80,146217,2,0,B|443:53|414:26|414:26|385:42|362:102,1,121.549994435883,2|0,0:2|3:2,0:2:0:0:
501,266,146497,1,0,3:2:0:0:
501,266,146567,1,0,3:2:0:0:
501,266,146637,6,0,B|515:243|510:210|510:210|498:189|495:156,1,112.199996575928,10|0,0:2|0:2,0:2:0:0:
349,250,146918,2,0,B|345:363,1,112.199996575928,2|0,3:2|0:2,0:2:0:0:
255,118,147198,2,0,B|259:5,1,112.199996575928,10|0,0:2|0:2,0:2:0:0:
19,270,147478,6,0,B|-1:246|-31:230|-31:230|141:244,1,224.399993151856,6|8,3:2|0:2,3:2:0:0:
375,252,147899,1,2,3:2:0:0:
260,127,148039,1,0,3:2:0:0:
202,363,148180,1,0,3:2:0:0:
260,127,148320,2,0,P|247:11|247:11,1,112.199996575928,10|0,0:2|0:2,0:2:0:0:
435,80,148600,5,8,0:0:0:0:
458,118,148693,1,8,0:0:0:0:
460,162,148786,1,8,0:0:0:0:
438,252,148880,5,10,0:0:0:0:
406,231,148973,1,8,0:0:0:0:
370,230,149067,1,8,0:0:0:0:
296,192,149161,5,10,0:2:0:0:
271,212,149254,2,0,B|234:201|234:201|170:215,1,74.7999977172852,8|8,0:2|0:2,0:2:0:0:
105,312,149441,5,10,0:2:0:0:
72,326,149534,2,0,B|35:337|35:337|-29:323,1,74.7999977172852,8|8,0:2|0:2,0:2:0:0:
116,238,149721,5,14,0:2:0:0:
195,354,149862,2,0,B|260:344|260:344|301:369|301:369|395:355,2,187,0|0|0,3:2|3:2|3:2,0:2:0:0:
328,264,150563,1,14,0:2:0:0:
242,41,150703,6,0,L|231:236,2,187,2|0|0,3:2|3:2|3:2,0:2:0:0:
62,111,151404,1,10,0:2:0:0:
77,124,151497,2,0,P|126:140|161:134,1,62.3333333333333,8|8,0:2|0:2,0:2:0:0:
408,174,151684,1,10,0:2:0:0:
388,170,151777,2,0,P|337:180|310:203,1,62.3333333333333,8|8,0:2|0:2,0:2:0:0:
223,328,151964,5,14,0:2:0:0:
302,371,152105,2,0,B|396:338|396:413|500:379,2,187,2|0|0,3:2|3:2|3:2,0:2:0:0:
316,125,152806,1,14,0:2:0:0:
238,185,152946,2,0,B|182:180|182:180|145:208|145:208|20:195,2,187,0|0|0,3:2|3:2|3:2,0:2:0:0:
431,86,153647,5,8,0:2:0:0:
447,112,153740,1,8,0:3:0:0:
453,140,153834,1,8,0:3:0:0:
425,206,153927,5,4,0:3:0:0:
423,216,154020,1,4,0:3:0:0:
421,227,154114,2,0,L|432:307,1,62.3333333333333,4|0,0:3|0:2,0:2:0:0:
256,192,158693,12,0,162829,0:2:0:0:
421,341,162899,37,10,2:2:0:0:
101,164,163039,22,0,B|35:100|160:17|217:124|226:204|143:272|78:243|78:243|44:227|-16:254,1,420.750016050339,6|8,3:1|0:2,0:2:0:0:
297,343,163600,1,0,3:2:0:0:
297,343,163670,1,0,3:2:0:0:
297,343,163740,2,0,B|358:344|398:297|398:297|420:323|434:352|434:352|479:330|525:336|525:336|499:379,1,299.2,2|8,3:1|0:2,0:2:0:0:
311,243,164161,2,0,B|357:198|343:135|343:135|381:217|477:186,1,243.099988871766,2|0,3:2|0:2,0:2:0:0:
470,21,164581,2,0,P|417:69|446:111,1,121.549994435883,10|0,0:2|0:2,0:2:0:0:
252,170,164862,2,0,B|225:151|195:150|195:150|177:170|131:167,1,121.549994435883,0|0,3:2|0:2,0:2:0:0:
259,56,165142,5,10,0:1:0:0:
29,171,165282,2,0,B|85:185|123:146|123:146|155:193|155:193|200:154|287:177,1,261.799992010498,2|0,3:1|3:2,0:2:0:0:
413,75,165703,2,0,B|440:56|462:51|462:51|413:12|350:34,1,121.549994435883,8|0,0:2|0:2,0:2:0:0:
442,269,165983,2,0,B|496:212|456:146|456:146|422:168|376:147,1,182.324991653824,0|0,3:2|0:2,0:2:0:0:
333,113,166263,1,10,0:1:0:0:
387,336,166404,6,0,B|428:361|476:345|476:345|370:382|306:331|306:331|260:335|219:363|219:363|245:339|246:301,1,420.750016050339,2|8,3:1|0:2,0:2:0:0:
83,121,166964,1,0,3:2:0:0:
83,121,167034,1,8,0:2:0:0:
83,121,167105,1,2,3:1:0:0:
37,339,167245,1,2,3:1:0:0:
245,166,167385,2,0,B|281:156|281:156|340:172,1,70.1250026750566,8|0,0:2|0:2,0:2:0:0:
409,189,167525,6,0,B|386:224|328:225|328:225|226:148|129:194,1,280.500010700226,6|0,3:1|3:2,0:2:0:0:
0,257,167946,2,0,B|77:279|77:279|99:314|99:314|192:342,1,210.37500802517,12|0,0:2|0:2,0:2:0:0:
289,360,168226,2,0,B|306:330|338:315|338:315|305:310|274:285,1,140.250005350113,0|0,3:2|0:2,0:2:0:0:
322,49,168506,5,10,0:1:0:0:
346,223,168647,1,2,0:2:0:0:
187,143,168787,1,2,3:1:0:0:
480,90,168927,1,2,3:1:0:0:
480,90,168997,1,0,3:2:0:0:
480,90,169067,2,0,B|405:112|405:112|350:88|350:88|243:115,1,224.399993151856,8|0,0:2|3:2,0:2:0:0:
116,273,169488,1,0,3:2:0:0:
24,86,169628,1,8,0:2:0:0:
289,265,169768,6,0,B|332:268|364:244|364:244|411:279|411:279|453:266|503:272|503:272|476:279|446:295,1,261.799992010498,2|0,3:1|3:2,0:2:0:0:
233,190,170189,2,0,B|251:165|250:129|250:129|270:164|322:177,1,130.899996005249,8|0,0:2|0:2,0:2:0:0:
320,345,170469,1,0,3:2:0:0:
162,133,170609,1,0,3:2:0:0:
390,162,170749,1,10,2:1:0:0:
80,355,170890,6,0,B|79:324|46:295|46:295|35:233|85:193|85:193|117:238|181:225,1,261.799992010498,2|0,3:1|3:2,0:2:0:0:
427,277,171310,2,0,B|428:295|413:314|413:314|373:291|335:300,1,121.549994435883,8|0,0:2|0:2,0:2:0:0:
375,196,171591,1,0,3:2:0:0:
414,181,171661,1,0,3:2:0:0:
456,186,171731,1,0,3:2:0:0:
491,210,171801,1,0,3:2:0:0:
512,246,171871,1,8,0:2:0:0:
284,129,172011,6,0,B|227:137|227:137|207:163|207:163|125:180,1,158.950003031731,6|0,3:1|0:2,0:2:0:0:
98,153,172221,1,2,0:2:0:0:
88,106,172291,1,2,0:2:0:0:
111,63,172362,1,2,0:2:0:0:
151,41,172432,6,0,P|181:39|210:47,1,60.7749972179414,10|0,0:2|0:2,0:2:0:0:
420,151,172572,2,0,B|390:158|360:157|360:157,1,60.7749972179414,2|0,0:2|0:2,0:2:0:0:
205,255,172712,1,2,3:2:0:0:
197,284,172782,1,2,0:2:0:0:
194,314,172852,1,2,0:2:0:0:
195,344,172922,1,2,0:2:0:0:
201,374,172992,6,0,P|261:352|307:360,2,81.0333296239219,10|2|2,0:2|0:2|0:2,0:2:0:0:
81,250,173273,2,0,P|40:246|5:227,2,81.0333296239219,2|2|2,3:2|0:2|0:2,0:2:0:0:
207,145,173553,5,10,0:2:0:0:
255,122,173646,1,2,0:2:0:0:
309,126,173739,1,2,0:2:0:0:
354,154,173833,5,2,3:2:0:0:
398,173,173927,1,2,0:2:0:0:
452,169,174020,1,2,0:2:0:0:
497,141,174114,6,0,L|478:57,1,60.7749972179414,10|2,0:2|0:2,0:2:0:0:
283,213,174254,2,0,L|302:297,1,60.7749972179414,10|2,0:2|0:2,0:2:0:0:
47,138,174394,6,0,P|40:74|84:29,1,121.549994435883,2|0,3:1|0:2,0:2:0:0:
215,65,174605,2,0,P|222:129|178:174,1,121.549994435883,2|0,0:1|0:2,0:2:0:0:
105,215,174815,2,0,L|88:283,1,60.7749972179414,2|0,0:1|0:2,0:2:0:0:
264,355,174955,6,0,B|292:331|323:334|323:334|347:359|393:358,1,121.549994435883,2|0,3:1|0:2,0:2:0:0:
504,280,175165,2,0,B|448:254|448:254|380:286,1,121.549994435883,2|0,0:1|0:2,0:2:0:0:
307,222,175376,2,0,L|289:143,1,60.7749972179414,2|0,0:1|0:2,0:2:0:0:
254,5,175516,5,2,3:1:0:0:
400,166,175656,1,0,3:1:0:0:
181,239,175796,1,8,0:1:0:0:
277,131,175936,2,0,B|272:177|288:203|288:203|268:251|268:251|306:301|289:379,1,243.099988871766,2|0,3:1|3:2,0:2:0:0:
284,369,176287,1,0,3:2:0:0:
275,372,176357,1,8,0:2:0:0:
455,220,176497,5,2,3:1:0:0:
481,183,176567,1,0,3:2:0:0:
492,139,176637,1,2,3:1:0:0:
486,94,176707,1,0,3:2:0:0:
464,54,176777,1,0,3:1:0:0:
429,25,176847,1,0,3:2:0:0:
386,11,176917,1,10,2:1:0:0:
341,13,176987,1,0,3:2:0:0:
299,32,177058,2,0,L|295:101,1,60.7749972179414,2|0,0:2|0:2,0:2:0:0:
174,316,177198,5,2,3:1:0:0:
131,350,177268,1,0,3:2:0:0:
77,352,177338,1,0,3:2:0:0:
33,320,177408,1,0,3:2:0:0:
17,268,177478,5,10,2:1:0:0:
49,224,177548,1,0,3:2:0:0:
61,171,177618,1,0,3:2:0:0:
50,117,177688,1,0,3:2:0:0:
19,71,177759,6,0,L|29:-11,2,81.0333296239219,2|2|2,3:1|0:2|0:2,0:2:0:0:
146,171,178039,2,0,L|136:253,2,81.0333296239219,10|2|2,0:1|0:2|0:2,0:2:0:0:
303,49,178320,1,2,3:1:0:0:
357,30,178390,1,2,0:2:0:0:
410,52,178460,1,2,0:2:0:0:
435,104,178530,1,2,0:2:0:0:
419,160,178600,6,0,B|403:219|403:219|433:302,1,121.549994435883,10|0,0:2|3:2,0:2:0:0:
432,296,178810,1,0,3:2:0:0:
439,315,178880,2,0,P|401:324|360:334,1,60.7749972179414,2|0,3:1|0:2,0:2:0:0:
215,275,179020,2,0,P|253:266|294:256,1,60.7749972179414,2|0,3:2|0:2,0:2:0:0:
101,258,179161,2,0,P|100:288|109:317,1,60.7749972179414,10|0,0:1|0:2,0:2:0:0:
289,166,179301,2,0,P|289:135|280:106,1,60.7749972179414,0|0,3:2|0:2,0:2:0:0:
124,11,179441,5,2,3:1:0:0:
109,46,179534,2,0,P|60:62|27:59,1,81.0333296239219,2|2,0:2|0:2,0:2:0:0:
178,112,179721,2,0,P|177:152|191:189,1,81.0333296239219,10|2,0:2|0:2,0:2:0:0:
129,239,179908,6,0,B|205:230|205:230|236:254|236:254|329:242,1,202.583324059805,2|0,3:1|3:2,0:2:0:0:
342,255,180212,1,0,3:2:0:0:
342,255,180282,1,10,0:1:0:0:
434,167,180422,2,0,P|440:124|448:89,1,60.7749972179414,2|0,3:1|0:2,0:2:0:0:
489,377,180563,5,8,0:2:0:0:
418,366,180633,1,8,0:2:0:0:
348,356,180703,1,8,0:2:0:0:
278,345,180773,1,8,0:2:0:0:
208,335,180843,1,8,0:2:0:0:
138,325,180913,1,8,0:2:0:0:
68,314,180983,2,0,P|61:262|60:251,1,60.7749972179414,8|0,0:2|0:2,0:2:0:0:
156,1,181123,5,6,3:2:0:0:
181,242,181263,1,0,3:2:0:0:
300,32,181404,5,10,0:2:0:0:
251,313,181544,1,0,3:2:0:0:
406,122,181684,6,0,B|447:111|447:111|480:139|534:134,1,126.22500048151,10|0,0:2|3:2,0:2:0:0:
407,251,181964,1,10,0:2:0:0:
193,110,182105,6,0,B|145:114|124:127|124:127|86:107|86:107|42:101|-3:128|-3:128|50:124|74:136,1,252.45000096302,6|0,3:2|3:2,0:2:0:0:
288,137,182525,2,0,B|296:108|322:87|322:87|286:76|258:37,1,126.22500048151,10|0,0:2|3:2,0:2:0:0:
483,148,182806,5,8,0:2:0:0:
505,189,182876,1,0,3:2:0:0:
502,235,182946,1,8,0:2:0:0:
474,273,183016,1,0,3:2:0:0:
431,290,183086,5,8,0:2:0:0:
388,271,183156,1,0,3:2:0:0:
341,269,183226,1,8,0:2:0:0:
297,284,183296,1,0,3:2:0:0:
261,315,183366,5,14,0:2:0:0:
302,95,183506,1,0,3:2:0:0:
208,384,183647,5,10,0:2:0:0:
153,177,183787,1,0,3:2:0:0:
1,307,183927,6,0,B|49:299|49:299|71:314|71:314|149:301,1,126.22500048151,10|0,0:2|3:2,0:2:0:0:
225,280,184207,1,8,0:2:0:0:
65,14,184348,6,0,B|34:66|34:66|99:126|82:208|82:208|69:176|53:154,1,252.45000096302,6|0,3:2|3:2,0:2:0:0:
396,85,184768,5,10,0:2:0:0:
168,116,184908,1,0,3:2:0:0:
467,242,185048,5,10,0:2:0:0:
262,190,185189,1,0,3:2:0:0:
360,310,185329,5,8,0:2:0:0:
331,321,185469,1,0,3:2:0:0:
309,12,185609,5,14,0:2:0:0:
348,227,185749,1,0,3:2:0:0:
280,96,185890,5,10,0:2:0:0:
247,350,186030,1,0,3:2:0:0:
181,41,186170,6,0,B|107:38|130:78|48:72,1,126.22500048151,10|0,0:2|3:2,0:2:0:0:
181,127,186450,1,10,0:2:0:0:
18,304,186591,6,0,B|171:269|110:360|269:331,1,252.45000096302,6|0,3:2|3:2,0:2:0:0:
493,227,187011,2,0,B|463:204|445:182|445:182|438:219|417:249,1,126.22500048151,10|0,0:2|3:2,0:2:0:0:
343,85,187291,1,10,0:2:0:0:
374,50,187361,1,8,0:2:0:0:
418,32,187431,1,8,0:2:0:0:
465,35,187501,1,8,0:2:0:0:
505,58,187572,6,0,L|532:131,1,63.1125002407551,10|0,0:2|0:2,0:2:0:0:
258,86,187712,2,0,L|231:13,1,63.1125002407551,8|0,0:2|0:2,0:2:0:0:
394,79,187852,5,14,2:2:0:0:
121,145,187992,1,0,3:2:0:0:
451,170,188133,5,10,0:2:0:0:
139,152,188273,1,0,3:2:0:0:
351,246,188413,6,0,B|392:238|392:238|427:269|476:256,1,126.22500048151,10|0,0:2|3:2,0:2:0:0:
370,332,188693,1,10,0:2:0:0:
156,159,188834,6,0,B|74:146|74:146|3:217|57:305,1,252.45000096302,6|0,3:2|3:2,0:2:0:0:
250,239,189254,2,0,B|275:186|275:186|253:104,1,126.22500048151,10|0,0:2|3:2,0:2:0:0:
404,89,189534,5,10,0:2:0:0:
398,137,189604,1,8,0:2:0:0:
393,187,189674,1,0,3:2:0:0:
388,236,189744,1,0,3:2:0:0:
383,285,189815,2,0,B|401:304|434:302|434:302|457:279|500:286,1,126.22500048151,4|4,0:3|0:3,0:2:0:0:
268,109,190095,5,6,3:2:0:0:
499,174,190235,1,0,3:2:0:0:
205,175,190376,5,10,0:2:0:0:
484,153,190516,1,0,3:2:0:0:
211,259,190656,6,0,B|174:264|143:241|143:241|78:258,1,126.22500048151,10|0,0:2|3:2,0:2:0:0:
137,337,190936,1,10,0:2:0:0:
463,288,191077,6,0,B|383:295|383:295|356:342|356:342|218:353,1,252.45000096302,6|0,3:2|3:2,0:2:0:0:
42,154,191497,5,10,0:2:0:0:
195,200,191637,1,0,3:2:0:0:
136,93,191777,5,10,0:2:0:0:
128,139,191847,1,8,0:2:0:0:
120,186,191917,1,8,0:2:0:0:
113,233,191987,1,8,0:2:0:0:
106,280,192058,6,0,P|190:286|221:292,1,63.1125002407551,10|0,0:2|0:2,0:2:0:0:
441,137,192198,2,0,P|351:130|325:126,1,63.1125002407551,8|0,0:2|0:2,0:2:0:0:
285,12,192338,5,14,0:2:0:0:
335,309,192478,1,0,3:2:0:0:
224,119,192619,5,10,0:2:0:0:
331,335,192759,1,0,3:2:0:0:
167,219,192899,6,10,P|98:214|15:205,1,126.22500048151,10|0,0:2|3:2,0:2:0:0:
100,309,193179,1,10,0:2:0:0:
237,102,193320,6,0,B|380:73|331:183|497:140,1,252.45000096302,6|0,3:2|3:2,0:2:0:0:
202,8,193740,5,10,0:2:0:0:
278,197,193880,1,0,3:2:0:0:
439,25,194020,5,10,0:2:0:0:
147,174,194161,1,8,0:2:0:0:
425,352,194301,1,8,0:2:0:0:
371,221,194441,1,8,0:2:0:0:
13,304,194581,6,0,B|73:249|167:270|167:270|192:226|142:168,1,252.45000096302,6|8,3:2|0:2,0:2:0:0:
36,84,195002,1,2,3:2:0:0:
107,365,195142,2,0,B|201:344|201:344|242:371|242:371|363:346,1,252.45000096302,8|0,0:2|3:2,0:2:0:0:
489,95,195563,5,10,0:2:0:0:
418,160,195703,2,0,P|340:180|232:80,1,189.337500722265,6|0,3:2|0:2,0:2:0:0:
147,76,195983,6,0,B|162:96|172:124|172:124|142:154|143:211,1,126.22500048151,14|0,0:2|3:2,0:2:0:0:
348,79,196263,1,10,0:0:0:0:
143,188,196404,1,8,0:0:0:0:
302,332,196544,1,10,0:2:0:0:
147,76,196684,1,8,0:2:0:0:
5,299,196824,5,10,2:2:0:0:
89,257,196964,2,0,L|187:269,1,70.1250026750566,0|0,3:2|0:2,0:2:0:0:
27,147,197245,5,8,0:2:0:0:
245,318,197385,2,0,L|356:304,1,93.5,0|0,3:2|0:2,0:2:0:0:
148,377,197665,5,8,0:2:0:0:
417,257,197806,1,0,3:2:0:0:
442,268,198086,1,8,2:2:0:0:
468,276,198366,1,8,0:2:0:0:
496,287,198647,2,0,L|486:241,1,46.75,0|0,3:2|3:2,0:2:0:0:
414,62,198787,6,0,L|403:184,1,93.5,10|0,0:2|3:2,0:2:0:0:
397,160,198997,1,0,3:2:0:0:
388,166,199067,1,6,3:2:0:0:
50,258,208039,6,0,P|37:214|43:171,1,70.1250026750566,2|0,3:2|0:2,0:2:0:0:
188,162,208320,1,8,0:2:0:0:
188,162,208460,2,0,P|201:205|195:249,1,70.1250026750566,2|0,0:2|3:2,0:2:0:0:
120,209,208740,1,0,0:2:0:0:
120,209,208880,2,0,L|91:52,1,140.250005350113,10|0,0:2|3:2,0:2:0:0:
270,193,209301,6,0,L|260:282,1,70.1250026750566,2|8,0:2|0:2,0:2:0:0:
355,341,209581,1,0,0:2:0:0:
355,341,209651,1,0,0:2:0:0:
355,341,209721,2,0,L|365:252,1,70.1250026750566,2|0,3:2|0:2,0:2:0:0:
450,83,210002,2,0,B|500:106|500:106|500:178,1,105.187504012585,10|0,0:2|0:2,0:2:0:0:
423,160,210282,6,0,L|398:8,1,140.250005350113,6|8,3:2|0:2,0:2:0:0:
239,124,210703,2,0,L|264:276,1,140.250005350113,2|0,0:2|0:2,0:2:0:0:
191,341,211123,2,0,P|148:322|94:314,1,70.1250026750566,10|0,0:2|0:2,0:2:0:0:
343,332,211404,2,0,P|376:322|408:307,1,70.1250026750566,0|0,3:2|0:2,0:2:0:0:
261,262,211684,6,0,P|250:205|246:166,1,70.1250026750566,10|0,0:2|0:2,0:2:0:0:
174,3,211964,2,0,P|228:22|264:38,1,70.1250026750566,2|0,3:2|0:2,0:2:0:0:
442,57,212245,2,0,P|397:94|366:117,1,70.1250026750566,10|0,0:2|0:2,0:2:0:0:
292,107,212525,5,2,2:2:0:0:
148,200,213647,1,2,0:2:0:0:
300,271,214488,2,0,P|352:262|359:260,1,47.6850002910461,2|0,0:2|0:2,0:2:0:0:
444,304,214768,5,8,0:2:0:0:
471,273,214838,1,8,0:2:0:0:
500,239,214908,2,0,B|497:217|491:190|491:190|495:155|512:118,1,93.5,8|4,0:3|0:3,0:2:0:0:
326,22,215189,5,8,0:2:0:0:
344,63,215259,1,8,0:2:0:0:
347,110,215329,2,0,P|302:122|281:124,1,46.75,8|8,0:3|0:3,0:2:0:0:
170,66,215469,2,0,P|192:70|215:78,1,46.75,4|4,0:3|0:3,0:2:0:0:
219,172,215609,1,8,0:2:0:0:
216,195,215679,1,8,0:2:0:0:
213,218,215749,1,0,3:3:0:0:
211,241,215819,1,0,3:3:0:0:
208,262,215890,5,8,0:2:0:0:
157,290,215960,1,8,0:2:0:0:
99,294,216030,1,0,3:2:0:0:
46,271,216100,1,0,3:2:0:0:
9,226,216170,5,10,0:2:0:0:
13,216,216240,1,0,3:2:0:0:
17,205,216310,1,0,3:2:0:0:
21,194,216380,1,0,3:2:0:0:
28,184,216450,5,10,0:2:0:0:
44,140,216520,1,8,0:2:0:0:
44,93,216590,1,8,0:2:0:0:
27,50,216660,1,8,0:2:0:0:
0,14,216730,5,10,0:2:0:0:
50,48,216801,1,8,0:2:0:0:
107,61,216871,1,8,0:2:0:0:
165,53,216941,1,8,0:2:0:0:
217,27,217011,6,0,L|259:20,1,35.0625,2|0,3:2|0:2,0:2:0:0:
254,53,217291,6,0,B|335:63|335:63|372:105|372:105|519:126,1,252.45000096302,14|0,0:2|3:2,0:2:0:0:
157,219,217712,2,0,B|118:204|65:201|65:201|118:184,1,126.22500048151,2|8,0:2|0:2,0:2:0:0:
359,299,217992,1,2,3:2:0:0:
359,299,218063,1,0,3:2:0:0:
359,299,218133,2,0,B|407:311|422:348|422:348|391:367|372:361,1,126.22500048151,0|0,3:2|0:2,0:2:0:0:
297,137,218413,6,0,P|302:66|307:-3,1,126.22500048151,10|0,0:2|0:2,0:2:0:0:
95,191,218693,2,0,B|74:221|83:250|83:250|120:291|74:334,1,126.22500048151,2|0,3:2|0:2,0:2:0:0:
27,49,218974,2,0,B|93:32|93:32|163:65,1,126.22500048151,10|0,0:2|3:2,0:2:0:0:
217,98,219184,1,8,0:2:0:0:
217,98,219254,6,0,B|267:101|297:69|297:69|361:64|406:117,1,189.337500722265,2|0,3:2|0:2,0:2:0:0:
474,70,219534,1,10,0:2:0:0:
267,238,219675,2,0,B|239:221|215:223|215:223|180:250|113:227,1,126.22500048151,2|0,0:2|3:2,0:2:0:0:
432,352,219955,2,0,B|460:331|501:326|501:326|476:301|432:307,1,126.22500048151,2|8,0:2|0:2,0:2:0:0:
102,159,220235,1,2,3:2:0:0:
102,159,220306,1,0,3:2:0:0:
102,159,220376,2,0,P|57:220|69:280,1,126.22500048151,0|0,3:2|0:2,0:2:0:0:
318,211,220656,6,0,L|302:73,1,126.22500048151,10|0,0:2|0:2,0:2:0:0:
215,277,220936,1,2,3:2:0:0:
443,170,221077,1,0,3:2:0:0:
230,11,221217,1,10,0:2:0:0:
201,48,221287,1,8,0:2:0:0:
160,71,221357,1,8,0:2:0:0:
114,77,221427,1,8,0:2:0:0:
69,64,221497,6,0,B|59:128|59:128|78:174|78:174|65:270,1,189.337500722265,6|0,3:2|0:2,0:2:0:0:
22,337,221777,6,0,P|81:323|153:371,1,126.22500048151,10|0,0:2|0:2,0:2:0:0:
486,249,222058,2,0,B|457:275|426:271|426:271|400:246|339:243,1,126.22500048151,2|0,3:2|0:2,0:2:0:0:
74,81,222338,2,0,B|128:79|128:79|163:98|163:98|279:96,1,189.337500722265,10|0,0:2|0:2,0:2:0:0:
337,56,222619,2,0,B|399:74|399:74|465:41,1,126.22500048151,0|0,3:2|0:2,0:2:0:0:
199,185,222899,6,0,P|180:251|215:317,1,126.22500048151,10|0,0:2|0:2,0:2:0:0:
501,192,223179,2,0,B|460:208|416:195|416:195|371:233|371:233|325:214|251:243,1,238.425004547596,2|0,3:2|0:2,0:2:0:0:
189,165,223460,2,0,B|155:169|130:144|130:144|92:143|62:171,1,126.22500048151,10|0,0:2|0:2,0:2:0:0:
14,221,223670,1,8,0:2:0:0:
14,221,223740,5,14,0:2:0:0:
190,82,223880,2,0,B|259:62|247:121|344:83,1,126.22500048151,0|0,3:2|3:2,0:2:0:0:
100,13,224161,5,14,0:2:0:0:
364,198,224301,2,0,B|421:188|421:188|440:198|440:198|493:189,1,126.22500048151,0|0,3:2|3:2,0:2:0:0:
428,90,224581,5,14,0:2:0:0:
309,282,224721,2,0,B|268:288|247:266|247:266|203:261|171:310,1,126.22500048151,0|0,3:2|3:2,0:2:0:0:
348,363,225002,5,2,3:2:0:0:
180,197,225142,1,8,2:2:0:0:
159,199,225212,1,0,3:2:0:0:
139,203,225282,1,0,3:2:0:0:
120,209,225352,1,0,3:2:0:0:
99,217,225422,5,10,0:2:0:0:
114,277,225492,1,8,0:2:0:0:
161,318,225562,1,8,0:2:0:0:
222,325,225632,1,8,0:2:0:0:
277,296,225702,5,10,0:2:0:0:
304,280,225773,1,8,0:2:0:0:
335,272,225843,1,8,0:2:0:0:
366,272,225913,1,8,0:2:0:0:
396,281,225983,6,0,B|390:228|429:188|429:188|437:122|396:70,1,224.399993151856,2|8,3:2|0:2,0:2:0:0:
334,359,226404,1,2,3:2:0:0:
334,359,226474,1,0,3:2:0:0:
334,359,226544,2,0,P|402:381|452:364,1,112.199996575928,0|0,3:2|0:2,0:2:0:0:
229,307,226824,2,0,B|159:302|159:302|132:318|132:318|36:312,1,168.299994863892,10|0,0:2|0:2,0:2:0:0:
6,238,227105,2,0,B|28:214|60:211|60:211|79:229|117:229,1,112.199996575928,0|0,3:2|0:2,0:2:0:0:
323,156,227385,5,10,0:2:0:0:
142,79,227525,1,0,3:2:0:0:
126,85,227595,1,8,0:2:0:0:
111,91,227665,2,0,P|37:85|-10:80,1,112.199996575928,2|0,3:2|0:2,0:2:0:0:
292,154,227946,2,0,P|349:137|426:156,1,112.199996575928,10|0,0:2|0:2,0:2:0:0:
191,258,228226,6,0,B|63:237|109:326|-25:315,1,224.399993151856,6|8,3:2|0:2,0:2:0:0:
148,158,228647,1,2,0:2:0:0:
216,344,228787,1,0,3:2:0:0:
148,158,228927,1,0,3:2:0:0:
303,237,229067,2,0,B|332:234|357:219|357:219|392:219|441:249,1,112.199996575928,10|0,0:2|0:2,0:2:0:0:
246,34,229348,5,10,0:2:0:0:
222,55,229441,2,0,P|172:65|134:52,1,74.7999977172852,8|8,0:2|0:2,0:2:0:0:
314,102,229628,5,10,0:2:0:0:
332,126,229721,2,0,B|370:117|370:117|420:129,1,74.7999977172852,8|8,0:2|0:2,0:2:0:0:
216,272,229908,5,10,0:2:0:0:
179,248,230001,1,8,0:2:0:0:
137,238,230094,1,8,0:2:0:0:
94,242,230188,1,10,0:2:0:0:
55,261,230281,1,8,0:2:0:0:
24,292,230375,1,8,0:2:0:0:
6,331,230468,5,2,3:2:0:0:
46,233,230609,2,0,B|32:192|23:170|23:170|28:124|49:32,2,187,2|0|0,3:2|3:2|3:2,0:2:0:0:
127,337,231310,1,14,0:2:0:0:
308,257,231450,2,0,B|365:249|365:249|406:282|406:282|509:268,2,187,0|0|0,3:2|3:2|3:2,0:2:0:0:
174,88,232151,5,10,0:2:0:0:
200,108,232245,2,0,P|256:105|289:100,1,62.3333333333333,8|8,0:2|0:2,0:2:0:0:
351,157,232432,5,10,0:2:0:0:
377,137,232526,2,0,P|433:140|466:145,1,62.3333333333333,8|0,0:2|3:2,0:2:0:0:
322,40,232712,5,10,0:2:0:0:
324,243,232852,2,0,B|384:267|444:232|444:232|487:255|485:295,2,187,0|0|0,3:2|3:2|3:2,0:2:0:0:
233,307,233553,1,14,0:2:0:0:
88,250,233693,2,0,L|73:103,1,140.25,0|0,3:2|0:2,0:2:0:0:
131,44,233974,6,0,B|177:40|211:11|211:11|265:8|316:42,1,187,2|0,3:2|3:2,0:2:0:0:
416,134,234394,2,0,L|494:121,2,62.3333333333333,10|8|8,0:2|0:2|0:2,0:2:0:0:
333,225,234675,2,0,L|255:212,2,62.3333333333333,4|4|4,0:3|0:3|0:3,0:2:0:0:
435,321,234955,6,0,B|358:326|358:326|332:366|332:366|181:379,1,210.37500802517,6|0,3:2|0:2,0:2:0:0:
163,307,235235,5,10,0:2:0:0:
507,382,235376,1,0,3:2:0:0:
359,59,235516,5,8,0:2:0:0:
329,106,235609,1,8,0:3:0:0:
326,161,235703,1,4,0:3:0:0:
347,212,235796,5,14,0:2:0:0:
197,127,235936,2,0,B|155:113|119:132|119:132|59:111|-7:128|-7:128|34:138|71:138,1,280.500010700226,2|0,3:2|3:2,0:2:0:0:
332,36,236357,5,10,0:2:0:0:
159,285,236497,1,8,0:2:0:0:
18,27,236637,5,8,0:2:0:0:
87,30,236730,1,8,0:2:0:0:
153,54,236823,1,8,0:2:0:0:
206,100,236917,5,4,0:3:0:0:
259,145,237010,1,4,0:3:0:0:
325,165,237104,1,4,0:3:0:0:
395,160,237198,6,0,B|423:138|425:95|425:95|414:190|465:247|465:247,1,210.37500802517,6|0,3:2|0:2,0:2:0:0:
498,309,237478,1,10,0:2:0:0:
341,91,237619,1,10,0:2:0:0:
231,341,237759,1,8,0:2:0:0:
347,282,237899,1,10,0:2:0:0:
56,205,238039,1,8,0:2:0:0:
187,62,238179,6,0,B|207:141|207:141|173:193|173:193|215:348,1,280.500010700226,6|0,3:2|3:2,0:2:0:0:
104,105,238600,1,10,0:2:0:0:
275,223,238740,1,8,0:2:0:0:
275,223,238810,1,8,0:2:0:0:
275,223,238880,2,0,B|301:177|369:186|369:186|409:234|488:217,1,210.37500802517,2|0,3:2|0:2,0:2:0:0:
508,101,239161,2,0,B|498:81|474:57|474:57|439:94|445:141,1,140.250005350113,10|0,0:2|0:2,0:2:0:0:
247,342,239441,6,0,B|194:328|194:328|160:362|108:350,1,121.549994435883,14|0,0:2|3:2,0:2:0:0:
119,347,239651,1,0,3:2:0:0:
109,335,239721,1,8,0:2:0:0:
246,157,239862,2,0,L|366:144,1,121.549994435883,10|0,0:2|3:2,0:2:0:0:
386,167,240072,1,0,3:2:0:0:
400,194,240142,1,8,0:2:0:0:
407,224,240212,1,8,0:2:0:0:
405,254,240282,6,0,P|412:288|425:313,1,60.7749972179414,6|0,3:2|0:2,0:2:0:0:
487,124,240422,2,0,P|480:90|467:65,1,60.7749972179414,0|0,3:2|0:2,0:2:0:0:
309,73,240563,5,8,0:2:0:0:
272,49,240633,1,8,0:2:0:0:
229,45,240703,1,8,0:2:0:0:
188,61,240773,1,8,0:2:0:0:
160,94,240843,5,10,0:2:0:0:
121,116,240913,1,8,0:2:0:0:
78,124,240983,1,8,0:2:0:0:
37,113,241053,1,8,0:2:0:0:
5,83,241123,5,10,0:2:0:0:
45,127,241193,1,8,0:2:0:0:
64,184,241263,1,8,0:2:0:0:
56,244,241333,1,8,0:2:0:0:
24,295,241403,5,10,0:2:0:0:
85,251,241474,1,8,0:2:0:0:
160,242,241544,1,8,0:2:0:0:
230,269,241614,1,8,0:2:0:0:
279,326,241684,5,2,3:2:0:0:
331,58,241824,2,0,B|353:45|377:46|377:46|400:67|444:58,1,93.5,10|0,0:2|0:2,0:2:0:0:
253,128,242105,2,0,P|194:141|153:122,1,93.5,10|0,0:2|0:2,0:2:0:0:
341,192,242385,2,0,P|399:178|440:197,1,93.5,10|0,0:2|0:2,0:2:0:0:
385,282,242665,6,0,B|321:307|318:248|229:288,1,140.250005350113,10|2,0:2|0:2,0:2:0:0:
82,342,243086,1,2,0:2:0:0:
169,384,243226,2,0,L|174:229,1,140.250005350113,10|0,0:2|3:2,0:2:0:0:
117,6,243647,2,0,P|96:53|112:110,1,105.187504012585,10|0,0:2|0:2,0:2:0:0:
34,119,243927,6,0,B|117:129|117:129|141:160|141:160|255:175,1,224.399993151856,6|10,3:2|0:2,0:2:0:0:
343,120,244348,1,2,3:2:0:0:
245,54,244488,1,2,3:2:0:0:
340,241,244628,1,0,0:2:0:0:
445,74,244768,1,8,0:2:0:0:
241,173,244908,6,0,B|186:162|186:162|108:183,1,112.199996575928,2|0,0:2|3:2,0:2:0:0:
268,50,245189,1,2,0:2:0:0:
360,234,245329,2,0,L|471:225,1,112.199996575928,10|0,0:2|0:2,0:2:0:0:
266,338,245609,2,0,B|171:323|199:382|81:360,1,168.299994863892,2|0,3:2|0:2,0:2:0:0:
45,289,245890,2,0,B|57:267|61:235|61:235|80:262|103:276,1,112.199996575928,10|0,0:2|3:2,0:2:0:0:
143,190,246100,1,0,3:2:0:0:
143,190,246170,6,0,B|152:130|152:130|126:95|126:95|135:24|135:24|166:94,1,224.399993151856,2|10,3:2|0:2,0:2:0:0:
50,159,246591,1,2,3:2:0:0:
239,213,246731,2,0,P|295:193|359:213,1,112.199996575928,2|0,3:2|0:2,0:2:0:0:
138,357,247011,2,0,P|82:377|18:357,1,112.199996575928,10|0,0:2|0:2,0:2:0:0:
298,379,247291,6,0,B|374:348|374:348|462:380,1,168.299994863892,2|0,3:2|0:2,0:2:0:0:
501,302,247572,2,0,P|512:235|475:179,1,112.199996575928,10|0,0:2|3:2,0:2:0:0:
478,181,247782,1,8,0:2:0:0:
459,170,247852,1,8,0:2:0:0:
313,239,247992,5,0,3:2:0:0:
270,251,248062,1,8,0:2:0:0:
225,250,248132,1,8,0:2:0:0:
184,237,248202,1,8,0:2:0:0:
141,226,248272,1,8,0:2:0:0:
96,227,248342,1,8,0:2:0:0:
53,238,248413,6,0,B|20:181|55:113|55:113|73:137|75:186,1,168.299994863892,2|0,3:2|0:2,0:2:0:0:
116,308,248693,2,0,P|66:332|12:319,1,112.199996575928,10|0,0:2|3:2,0:2:0:0:
220,369,248974,2,0,B|276:350|276:350|351:371,1,112.199996575928,2|0,3:2|0:2,0:2:0:0:
454,297,249254,1,10,0:2:0:0:
350,213,249394,1,2,0:2:0:0:
431,19,249534,6,0,L|435:139,1,112.199996575928,2|0,3:2|0:2,0:2:0:0:
239,260,249815,2,0,L|235:140,1,112.199996575928,10|0,0:2|0:2,0:2:0:0:
75,27,250095,5,2,3:2:0:0:
19,94,250235,1,0,3:2:0:0:
104,156,250376,2,0,B|128:204|128:204|103:288,1,112.199996575928,10|0,0:2|0:2,0:2:0:0:
73,330,250586,1,8,0:2:0:0:
73,330,250656,6,0,P|131:296|237:355,1,168.299994863892,6|0,3:2|0:2,0:2:0:0:
299,284,250936,1,2,3:2:0:0:
483,364,251077,6,0,L|457:179,1,168.299994863892,14|0,0:2|0:2,0:2:0:0:
499,107,251357,1,2,3:2:0:0:
228,21,251497,5,14,0:2:0:0:
347,185,251637,1,0,3:2:0:0:
434,9,251777,1,0,3:2:0:0:
162,188,251918,5,14,0:2:0:0:
456,111,252058,1,8,2:2:0:0:
380,347,252198,1,8,2:2:0:0:
298,91,252338,5,10,0:2:0:0:
201,357,252478,1,0,3:2:0:0:
178,38,252619,5,10,0:2:0:0:
259,279,252759,1,0,3:2:0:0:
131,194,252899,6,0,P|93:192|62:204,1,56.1,2|0,3:2|0:2,0:2:0:0:
14,156,253179,6,0,B|135:199|105:95|251:153,1,224.399993151856,14|2,0:2|3:2,0:2:0:0:
424,212,253600,1,0,0:2:0:0:
511,133,253740,2,0,P|521:78|501:26,1,112.199996575928,10|0,0:2|0:2,0:2:0:0:
436,235,254020,6,0,L|455:345,1,112.199996575928,2|0,3:2|0:2,0:2:0:0:
316,302,254301,2,0,B|227:279|244:369|126:328,1,168.299994863892,10|0,0:2|0:2,0:2:0:0:
108,255,254581,2,0,B|115:222|136:208|136:208|166:227|170:265,1,112.199996575928,2|0,3:2|0:2,0:2:0:0:
39,323,254862,1,8,0:2:0:0:
181,121,255002,1,8,0:2:0:0:
201,141,255072,1,8,0:2:0:0:
220,159,255142,6,0,B|285:150|285:150|333:189|333:189|449:173,1,224.399993151856,2|8,3:2|0:2,0:2:0:0:
503,91,255563,1,2,3:2:0:0:
384,300,255703,2,0,B|352:297|327:311|327:311|301:314|259:293,1,112.199996575928,2|0,3:2|0:2,0:2:0:0:
380,383,255983,1,8,0:2:0:0:
196,242,256123,6,0,B|67:219|121:322|-22:292,1,224.399993151856,2|0,3:2|3:2,0:2:0:0:
65,36,256544,2,0,L|73:159,1,112.199996575928,10|0,0:2|3:2,0:2:0:0:
86,158,256754,1,8,0:2:0:0:
100,169,256824,1,8,0:2:0:0:
228,67,256964,6,0,P|261:56|300:59,1,56.0999982879639,2|0,3:2|0:2,0:2:0:0:
436,165,257105,1,8,0:2:0:0:
394,173,257175,1,8,0:2:0:0:
352,173,257245,1,8,0:2:0:0:
311,165,257315,1,8,0:2:0:0:
272,149,257385,6,0,P|245:225|268:378,1,224.399993151856,2|10,3:2|0:2,0:2:0:0:
331,288,257806,1,2,3:2:0:0:
155,188,257946,2,0,P|77:190|26:192,1,112.199996575928,2|0,3:2|0:2,0:2:0:0:
350,88,258226,2,0,P|428:86|479:84,1,112.199996575928,10|0,0:2|0:2,0:2:0:0:
264,9,258506,5,2,3:2:0:0:
347,183,258647,1,0,3:2:0:0:
395,0,258787,1,8,0:2:0:0:
229,161,258927,6,0,P|215:219|241:278,1,112.199996575928,2|0,3:2|0:2,0:2:0:0:
323,331,259207,1,2,0:2:0:0:
462,283,259348,2,0,P|400:276|378:279,1,56.0999982879639,10|0,0:2|3:2,0:2:0:0:
171,294,259488,2,0,P|198:292|226:286,1,56.0999982879639,2|0,3:2|3:2,0:2:0:0:
307,90,259628,5,14,2:2:0:0:
222,183,259768,2,0,P|168:198|116:182,1,112.199996575928,0|0,3:2|3:2,0:2:0:0:
312,60,260048,5,14,0:2:0:0:
416,179,260189,2,0,P|494:170|538:165,1,112.199996575928,0|0,3:2|3:2,0:2:0:0:
319,34,260469,5,14,0:2:0:0:
328,257,260609,2,0,L|343:374,1,112.199996575928,0|0,3:2|3:2,0:2:0:0:
424,37,260890,5,10,0:2:0:0:
238,347,261030,1,8,0:2:0:0:
58,14,261170,1,8,0:2:0:0:
340,242,261310,6,0,P|445:228|489:224,1,112.199996575928,10|0,0:2|3:2,0:2:0:0:
208,159,261520,1,0,3:2:0:0:
208,159,261591,2,0,P|152:152|96:144,1,112.199996575928,14|0,0:2|0:2,0:2:0:0:
278,96,261871,5,2,0:2:0:0:
