osu file format v14

[General]
AudioFilename: audio.mp3
AudioLeadIn: 0
PreviewTime: 44904
Countdown: 0
SampleSet: Soft
StackLeniency: 0.6
Mode: 0
LetterboxInBreaks: 0
WidescreenStoryboard: 1

[Editor]
Bookmarks: 1058,9711,11607,20838,32706,45893,66992,76222,93365,98640,109189,119739,125014,146112,167211,188310,193585,198860,209409,230508,252926,260178
DistanceSpacing: 0.9
BeatDivisor: 12
GridSize: 8
TimelineZoom: 1.1

[Metadata]
Title:Shinen o Yomu mono
TitleUnicode:深淵を詠む者
Artist:ELFENSJoN
ArtistUnicode:ELFENSJóN
Creator:Mocaotic
Version:Insane
Source:osu!
Tags:featured artist fa mappers' guild mg okogeeechann 戎屋 聖一郎 Seiichiro Ebisu YUU 黒瀬 圭亮 Keisuke Kurose ORYO japanese jrock einherjar female vocals rock full version
BeatmapID:2342058
BeatmapSetID:1115791

[Difficulty]
HPDrainRate:5
CircleSize:3.9
OverallDifficulty:8
ApproachRate:9
SliderMultiplier:1.72
SliderTickRate:1

[Events]
//Background and Video events
0,0,"mocacom.jpg",0,0
//Break Periods
2,69844,71681
//Storyboard Layer 0 (Background)
//Storyboard Layer 1 (Fail)
//Storyboard Layer 2 (Pass)
//Storyboard Layer 3 (Foreground)
//Storyboard Layer 4 (Overlay)
//Storyboard Sound Samples

[TimingPoints]
1073,659.340659340659,4,2,2,30,1,0
1073,-100,4,2,2,30,0,0
11622,-83.3333333333333,4,2,2,55,0,0
20688,-62.5,4,2,2,70,0,0
20853,-62.5,4,2,2,70,0,0
22171,-55.5555555555556,4,2,2,70,0,0
32062,-55.5555555555556,4,2,2,85,0,0
32391,-55.5555555555556,4,2,2,70,0,0
32721,-55.5555555555556,4,2,2,55,0,0
33710,-71.4285714285714,4,2,2,55,0,0
41952,-71.4285714285714,4,2,2,65,0,0
43270,-55.5555555555556,4,2,2,75,0,0
45248,-90.9090909090909,4,2,2,75,0,0
45825,-90.9090909090909,4,2,2,5,0,0
45908,-46.2962962962963,4,2,2,92,0,1
55963,-66.6666666666667,4,2,2,92,0,1
56457,-46.2962962962963,4,2,2,92,0,1
57281,-66.6666666666667,4,2,2,92,0,1
57776,-46.2962962962963,4,2,2,92,0,1
58600,-66.6666666666667,4,2,2,92,0,1
59094,-46.2962962962963,4,2,2,92,0,1
67007,-50,4,2,2,55,0,0
76073,-62.5,4,2,2,70,0,0
77556,-55.5555555555556,4,2,2,70,0,0
85468,-38.4615384615385,4,2,2,85,0,0
85798,-45.4545454545455,4,2,2,75,0,0
86127,-55.5555555555556,4,2,2,65,0,0
86457,-71.4285714285714,4,2,2,55,0,0
86787,-55.5555555555556,4,2,2,85,0,0
88105,-55.5555555555556,4,2,2,70,0,0
93380,-45.4545454545455,4,2,2,85,0,0
93627,-45.4545454545455,4,2,2,5,0,0
93710,-100,4,2,2,85,0,0
93957,-100,4,2,2,5,0,0
94040,-45.4545454545455,4,2,2,85,0,0
94534,-71.4285714285714,4,2,2,85,0,0
96018,-71.4285714285714,4,2,2,70,0,0
97336,-71.4285714285714,4,2,2,50,0,0
98655,-125,4,2,2,30,0,0
108545,-125,4,2,2,40,0,0
109122,-125,4,2,2,5,0,0
109204,-71.4285714285714,4,2,2,50,0,0
114479,-500,4,2,2,50,0,0
119424,-500,4,2,2,60,0,0
119754,-55.5555555555556,4,2,2,80,0,0
124369,-90.9090909090909,4,2,2,80,0,0
124946,-90.9090909090909,4,2,2,5,0,0
125029,-46.2962962962963,4,2,2,92,0,1
135083,-66.6666666666667,4,2,2,92,0,1
135578,-46.2962962962963,4,2,2,92,0,1
136402,-66.6666666666667,4,2,2,92,0,1
136897,-46.2962962962963,4,2,2,92,0,1
137721,-66.6666666666667,4,2,2,92,0,1
138215,-46.2962962962963,4,2,2,92,0,1
144644,-41.6666666666667,4,2,2,92,0,1
144891,-41.6666666666667,4,2,2,5,0,1
144974,-41.6666666666667,4,2,2,92,0,1
146127,-50,4,2,2,80,0,0
159067,-50,4,2,2,5,0,0
159149,-50,4,2,2,80,0,0
165908,-45.4545454545455,4,2,2,80,0,0
166155,-45.4545454545455,4,2,2,5,0,0
166237,-100,4,2,2,80,0,0
166485,-100,4,2,2,5,0,0
166567,-45.4545454545455,4,2,2,80,0,0
166897,-100,4,2,2,80,0,0
167144,-100,4,2,2,5,0,0
167226,-55.5555555555556,4,2,2,70,0,0
175963,-100,4,2,2,70,0,0
176952,-55.5555555555556,4,2,2,70,0,0
183051,-45.4545454545455,4,2,2,85,0,0
183298,-45.4545454545455,4,2,2,5,0,0
183380,-100,4,2,2,85,0,0
183627,-100,4,2,2,5,0,0
183710,-55.5555555555556,4,2,2,85,0,0
185688,-55.5555555555556,4,2,2,55,0,0
187007,-55.5555555555556,4,2,2,70,0,0
188325,-55.5555555555556,4,2,2,45,0,0
193600,-55.5555555555556,4,2,2,55,0,0
196237,-55.5555555555556,4,2,2,65,0,0
197556,-41.6666666666667,4,2,2,75,0,0
197886,-50,4,2,2,75,0,0
198875,-46.2962962962963,4,2,2,92,0,0
204149,-46.2962962962963,4,2,2,85,0,0
206787,-46.2962962962963,4,2,2,92,0,0
208765,-38.4615384615385,4,2,2,92,0,0
209094,-45.4545454545455,4,2,2,92,0,0
209424,-43.4782608695652,4,2,2,92,0,1
211979,-43.4782608695652,4,2,2,5,0,1
212062,-43.4782608695652,4,2,2,92,0,1
219479,-62.5,4,2,2,92,0,1
219974,-43.4782608695652,4,2,2,92,0,1
230358,-500,4,2,2,80,0,0
231759,-500,4,2,2,5,0,0
231842,-55.5555555555556,4,2,2,80,0,0
250303,582.52427184466,4,2,2,80,1,0
250303,-45.4545454545455,4,2,2,80,0,0
250685,480,4,2,2,80,1,0
250685,-52.6315789473684,4,2,2,80,0,0
250963,659.340659340659,4,2,2,80,1,0
250963,-55.5555555555556,4,2,2,80,0,0
251292,-71.4285714285714,4,2,2,80,0,0
252776,-50,4,2,2,80,0,0
252941,659.340659340659,4,2,2,50,1,0
252941,-125,4,2,2,50,0,0
254830,750,4,2,2,50,1,0
255083,659.340659340659,4,2,2,50,1,0
255578,-125,4,2,2,40,0,0
256897,-125,4,2,2,30,0,0
258215,-125,4,2,2,20,0,0
259534,-125,4,2,2,10,0,0
260193,-125,4,2,2,5,0,0

[Colours]
Combo1 : 255,255,85
Combo2 : 128,64,64
Combo3 : 128,128,192

[HitObjects]
138,91,1073,5,2,0:0:0:0:
138,91,1237,2,0,L|81:86,2,43,0|0|0,0:0|0:0|0:0,0:0:0:0:
194,153,1897,2,0,L|251:148,2,43,0|0|0,0:0|0:0|0:0,0:0:0:0:
138,215,2556,2,0,L|81:210,2,43,0|0|0,0:0|0:0|0:0,0:0:0:0:
194,277,3215,2,0,L|251:272,1,43
306,306,3545,6,0,L|308:341,2,21.5,2|2|2,0:0|0:0|0:0,0:0:0:0:
375,271,3875,2,0,L|432:276,2,43,0|0|0,0:0|0:0|0:0,0:0:0:0:
319,209,4535,2,0,L|262:214,2,43
375,147,5194,2,0,L|432:152,2,43,0|0|0,0:0|0:0|0:0,0:0:0:0:
319,85,5853,1,0,0:0:0:0:
319,85,6018,2,0,L|262:90,1,43,0|0,0:0|0:0,0:0:0:0:
198,62,6347,5,2,0:0:0:0:
256,192,6512,12,0,9974,0:0:0:0:
286,171,10303,6,0,L|283:101,2,64.5,2|2|2,0:0|0:0|0:0,0:0:0:0:
283,279,10963,2,0,L|280:349,2,64.5,2|2|2,0:0|0:0|0:0,0:0:0:0:
450,233,11622,6,0,L|341:228,1,103.199996850586,2|0,0:0|0:0,0:0:0:0:
272,189,12116,2,0,P|303:225|307:288,1,103.199996850586,2|0,0:0|0:0,0:0:0:0:
309,278,12776,2,0,L|148:264,1,154.799995275879,2|0,0:0|0:0,0:0:0:0:
143,277,13600,1,2,0:0:0:0:
141,291,13930,1,2,0:0:0:0:
139,305,14259,6,0,P|154:252|134:203,1,103.199996850586,2|0,0:0|0:0,0:0:0:0:
63,171,14754,2,0,L|57:56,1,103.199996850586,2|0,0:0|0:0,0:0:0:0:
58,68,15413,2,0,L|219:54,1,154.799995275879,2|0,0:0|0:0,0:0:0:0:
226,44,16237,1,2,0:0:0:0:
240,46,16567,1,2,0:0:0:0:
254,48,16897,6,0,L|367:38,1,103.199996850586,2|0,0:0|0:0,0:0:0:0:
431,6,17391,2,0,P|400:45|411:114,1,103.199996850586,2|0,0:0|0:0,0:0:0:0:
401,96,18051,2,0,L|409:260,1,154.799995275879,2|0,0:0|0:0,0:0:0:0:
415,264,18875,1,2,0:0:0:0:
412,275,19204,1,2,0:0:0:0:
409,288,19534,6,0,P|366:259|301:265,1,103.199996850586,2|0,0:0|0:0,0:0:0:0:
239,222,20029,2,0,L|247:342,1,103.199996850586,2|2,0:0|0:0,0:0:0:0:
247,325,20688,6,0,L|291:330,2,34.4,2|0|12,3:0|3:0|3:2,0:0:0:0:
91,306,21018,1,0,3:0:0:0:
85,319,21347,5,0,3:0:0:0:
242,258,21512,2,0,P|252:305|236:343,1,68.8,10|0,0:0|3:0,0:0:0:0:
86,215,21842,1,2,3:0:0:0:
86,215,22171,6,0,B|128:195|166:216|166:216|193:259|257:258,1,154.799995275879,6|2,3:2|3:2,0:0:0:0:
337,216,22666,1,2,0:0:0:0:
289,54,22831,2,0,P|224:120|246:187,1,154.799995275879,10|0,0:0|0:0,0:0:0:0:
326,295,23325,1,2,3:2:0:0:
323,307,23655,5,10,0:0:0:0:
177,353,23820,1,2,3:2:0:0:
165,348,24149,2,0,L|157:255,1,77.3999976379395,10|0,0:0|0:0,0:0:0:0:
260,204,24479,2,0,L|253:281,1,77.3999976379395,0|0,0:0|3:0,0:0:0:0:
173,165,24809,6,0,P|222:117|317:127,1,154.799995275879,2|2,3:2|3:2,0:0:0:0:
417,177,25303,1,2,0:0:0:0:
512,38,25468,2,0,P|452:71|363:37,1,154.799995275879,8|0,0:0|0:0,0:0:0:0:
231,19,25963,1,2,3:2:0:0:
221,26,26292,5,10,0:0:0:0:
172,176,26457,1,2,3:2:0:0:
179,186,26787,2,0,L|276:176,1,77.3999976379395,10|0,0:0|3:0,0:0:0:0:
160,276,27116,2,0,L|63:266,1,77.3999976379395,0|0,0:0|3:0,0:0:0:0:
133,96,27446,6,0,L|288:80,1,154.799995275879,2|2,3:2|3:2,0:0:0:0:
413,70,27941,1,2,0:0:0:0:
439,226,28105,2,0,B|364:259|368:179|262:227,1,154.799995275879,10|0,0:0|0:0,0:0:0:0:
206,339,28600,1,2,3:2:0:0:
209,349,28930,5,10,0:0:0:0:
372,377,29094,1,2,3:2:0:0:
379,369,29424,2,0,L|385:274,1,77.3999976379395,10|0,0:0|0:0,0:0:0:0:
294,212,29754,2,0,L|298:289,1,77.3999976379395,0|0,0:0|3:0,0:0:0:0:
469,368,30083,6,0,L|480:214,1,154.799995275879,2|2,3:2|3:2,0:0:0:0:
356,368,30578,1,2,0:0:0:0:
346,207,30743,2,0,P|417:177|491:237,1,154.799995275879,10|0,0:0|0:0,0:0:0:0:
324,289,31237,1,2,3:2:0:0:
310,286,31567,5,10,0:0:0:0:
280,123,31732,1,2,3:2:0:0:
274,134,32062,5,10,0:0:0:0:
142,238,32226,2,0,L|135:138,1,77.3999976379395,10|10,0:0|0:0,0:0:0:0:
166,62,32556,1,10,0:0:0:0:
8,168,32721,1,6,0:0:0:0:
2,179,33710,6,0,P|68:228|69:281,1,120.399996325684,0|0,3:0|3:0,0:0:0:0:
72,261,35358,1,0,3:0:0:0:
72,261,36347,2,0,P|108:204|176:198,1,120.399996325684,0|0,3:0|3:0,0:0:0:0:
157,193,37336,6,0,B|213:224|205:294|205:294|242:232|324:248,1,240.799992651367,10|0,0:0|3:0,0:0:0:0:
307,246,38985,2,0,P|359:293|426:282,1,120.399996325684,0|0,3:0|3:0,0:0:0:0:
406,291,39974,6,0,B|409:259|423:238|423:238|411:209|381:183|381:183|379:153|404:123,1,180.599994488526,2|0,0:0|3:0,0:0:0:0:
479,19,40633,6,0,L|349:25,1,120.399996325684,10|8,0:0|0:0,0:0:0:0:
142,116,41292,2,0,L|272:122,1,120.399996325684,10|8,0:0|0:0,0:0:0:0:
394,277,41952,5,10,0:0:0:0:
447,75,42281,1,8,0:0:0:0:
239,174,42611,1,10,0:0:0:0:
480,239,42941,1,8,0:0:0:0:
349,54,43270,5,10,0:0:0:0:
349,54,43435,1,0,3:0:0:0:
250,184,43600,1,10,0:0:0:0:
171,49,43765,1,8,0:0:0:0:
315,135,43930,1,10,0:0:0:0:
177,221,44094,1,8,0:0:0:0:
77,77,44259,6,0,L|68:172,1,77.3999976379395,10|0,0:0|3:0,0:0:0:0:
67,194,44507,1,0,3:0:0:0:
67,194,44589,1,10,0:0:0:0:
115,302,44754,1,2,3:2:0:0:
123,312,45083,5,2,0:0:0:0:
272,230,45248,2,0,P|279:200|196:221,1,165.550005052185,10|0,0:0|0:0,0:0:0:0:
266,240,45908,6,0,B|302:237|330:208|330:208|383:207|422:285,1,185.760004535156,6|2,3:2|3:2,0:0:0:0:
309,333,46402,1,0,0:0:0:0:
260,158,46567,2,0,L|262:48,1,92.8800022675782,10|0,0:0|0:0,0:0:0:0:
394,131,46897,1,2,0:0:0:0:
257,249,47062,6,0,B|347:210|351:296|464:245,1,185.760004535156,2|8,3:2|0:0,0:0:0:0:
260,158,47556,1,2,3:2:0:0:
251,167,47886,2,0,B|220:151|204:122|204:122|195:192|149:231,1,185.760004535156,10|2,0:0|0:0,0:0:0:0:
14,223,48380,1,0,3:0:0:0:
155,378,48545,6,0,P|187:347|151:226,1,185.760004535156,2|2,3:2|3:2,0:0:0:0:
70,343,49040,1,0,0:0:0:0:
256,384,49204,2,0,P|278:314|269:257,1,92.8800022675782,10|0,0:0|0:0,0:0:0:0:
218,140,49534,1,2,0:0:0:0:
416,197,49699,6,0,B|384:224|384:224|237:216,1,185.760004535156,2|8,3:2|0:0,0:0:0:0:
350,133,50193,1,2,3:2:0:0:
355,143,50523,1,10,0:0:0:0:
403,294,50688,1,0,3:0:0:0:
240,216,50853,1,2,0:0:0:0:
362,133,51018,1,0,3:0:0:0:
317,337,51182,6,0,P|251:296|142:312,1,185.760004535156,2|0,3:2|3:0,0:0:0:0:
33,379,51677,1,0,0:0:0:0:
71,208,51842,2,0,L|69:320,2,92.8800022675782,10|0|0,0:0|0:0|0:0,0:0:0:0:
0,55,52336,6,0,B|99:39|80:137|216:100,1,185.760004535156,2|10,3:2|0:0,0:0:0:0:
295,26,52831,1,2,3:2:0:0:
307,37,53160,2,0,L|304:134,1,92.8800022675782,10|0,0:0|0:0,0:0:0:0:
462,196,53490,1,2,0:0:0:0:
427,79,53655,1,0,3:0:0:0:
284,218,53820,6,0,P|354:217|414:320,2,185.760004535156,2|0|10,3:2|3:0|0:0,0:0:0:0:
188,308,54644,1,2,0:0:0:0:
318,308,54809,1,2,0:0:0:0:
190,141,54974,6,0,P|154:236|215:329,1,185.760004535156,2|10,3:2|0:0,0:0:0:0:
274,139,55468,1,2,3:2:0:0:
279,151,55798,1,10,0:0:0:0:
362,104,55963,2,0,B|369:70|369:70|356:27,2,64.5000024604798,2|2|2,0:0|0:0|3:2,0:0:0:0:
512,280,56457,6,0,B|458:251|458:251|423:321|358:333,1,185.760004535156,6|2,3:2|3:2,0:0:0:0:
228,306,56952,1,2,0:0:0:0:
350,172,57116,1,10,0:0:0:0:
350,172,57281,2,0,B|377:155|377:155|425:156,2,64.5000024604798,2|2|2,0:0|0:0|3:2,0:0:0:0:
218,217,57776,5,2,0:0:0:0:
134,39,57941,1,10,0:0:0:0:
12,133,58105,2,0,B|99:94|98:183|201:118,1,185.760004535156,2|8,3:2|0:0,0:0:0:0:
286,50,58600,2,0,B|318:57|318:57|351:49,2,64.5000024604798,2|2|2,0:0|0:0|3:2,0:0:0:0:
92,40,59094,6,0,B|126:9|126:9|176:63|139:163,1,185.760004535156,2|2,3:2|3:2,0:0:0:0:
56,239,59589,1,2,0:0:0:0:
221,322,59754,2,0,L|323:315,1,92.8800022675782,10|0,0:0|0:0,0:0:0:0:
444,310,60083,1,2,0:0:0:0:
229,223,60248,6,0,P|172:239|136:368,1,185.760004535156,2|10,3:2|0:0,0:0:0:0:
45,190,60743,1,2,3:2:0:0:
51,198,61073,1,10,0:0:0:0:
136,123,61237,1,2,3:2:0:0:
216,221,61403,1,2,0:0:0:0:
299,115,61567,1,2,3:2:0:0:
394,288,61732,6,0,B|425:236|425:236|410:101,1,185.760004535156,6|2,3:2|3:2,0:0:0:0:
302,37,62226,1,2,0:0:0:0:
248,209,62391,2,0,P|300:225|354:211,1,92.8800022675782,10|0,0:0|0:0,0:0:0:0:
461,160,62721,1,2,0:0:0:0:
500,355,62886,6,0,P|426:303|313:323,1,185.760004535156,2|8,3:2|0:0,0:0:0:0:
184,384,63380,1,2,3:2:0:0:
172,379,63710,2,0,B|126:335|152:263|152:263|185:248|212:265,1,185.760004535156,10|2,0:0|0:0,0:0:0:0:
334,329,64204,1,0,3:0:0:0:
320,124,64369,5,10,3:2:0:0:
209,263,64534,2,0,P|151:274|103:250,1,92.8800022675782,10|0,0:0|0:0,0:0:0:0:
12,193,64864,1,8,0:0:0:0:
152,7,65029,6,0,B|149:79|149:79|172:113|172:113|168:200,1,185.760004535156,6|0,3:2|3:0,0:0:0:0:
373,52,65523,2,0,B|308:6|241:52|241:52|275:97,1,185.760004535156,6|0,3:2|3:0,0:0:0:0:
82,145,66018,1,2,0:0:0:0:
169,286,66182,1,0,3:0:0:0:
169,286,66265,1,0,3:0:0:0:
169,286,66347,5,10,3:2:0:0:
274,270,66512,1,2,3:2:0:0:
259,165,66677,1,2,3:2:0:0:
153,179,66842,1,2,3:2:0:0:
296,285,67007,5,6,0:0:0:0:
256,192,67171,12,2,69644,0:0:0:0:
256,192,72281,12,0,75908,0:0:0:0:
457,187,76073,5,0,3:0:0:0:
387,35,76237,1,10,0:0:0:0:
316,141,76402,1,0,3:0:0:0:
309,153,76732,6,0,L|253:151,2,34.4,2|0|8,3:2|3:0|0:0,0:0:0:0:
457,93,77062,1,10,0:0:0:0:
457,93,77556,6,0,B|417:123|379:108|379:108|375:59|332:29,1,154.799995275879,6|2,3:2|3:2,0:0:0:0:
243,0,78051,1,2,0:0:0:0:
174,153,78215,2,0,P|246:162|300:92,1,154.799995275879,10|0,0:0|0:0,0:0:0:0:
138,29,78710,1,2,3:2:0:0:
131,40,79040,5,10,0:0:0:0:
93,198,79205,1,2,3:2:0:0:
87,210,79534,2,0,L|2:206,1,77.3999976379395,10|0,0:0|0:0,0:0:0:0:
102,120,79864,2,0,L|187:116,1,77.3999976379395,0|0,0:0|3:0,0:0:0:0:
217,327,80193,6,0,P|166:280|220:197,1,154.799995275879,2|2,3:2|3:2,0:0:0:0:
291,278,80688,1,2,0:0:0:0:
129,361,80853,2,0,P|92:297|106:197,1,154.799995275879,10|0,0:0|0:0,0:0:0:0:
217,327,81347,1,2,3:2:0:0:
212,339,81677,5,10,0:0:0:0:
40,384,81842,1,2,3:2:0:0:
29,380,82171,2,0,L|21:280,1,77.3999976379395,10|0,0:0|3:0,0:0:0:0:
146,268,82501,2,0,L|138:368,1,77.3999976379395,0|0,0:0|3:0,0:0:0:0:
5,191,82831,6,0,B|80:159|84:231|179:172,1,154.799995275879,2|2,3:2|3:2,0:0:0:0:
267,110,83325,1,2,0:0:0:0:
119,0,83490,2,0,P|75:62|124:123,1,154.799995275879,10|0,0:0|0:0,0:0:0:0:
261,20,83985,1,2,3:2:0:0:
258,31,84314,5,10,0:2:0:0:
409,7,84479,1,2,3:2:0:0:
418,15,84809,2,0,L|414:108,1,77.3999976379395,10|0,0:0|0:0,0:0:0:0:
370,268,85138,6,0,L|366:204,2,58.0499982284546,2|0|0,3:2|3:0|3:0,0:0:0:0:
382,315,85468,6,0,P|421:325|467:307,2,83.8499961616518,10|8|8,0:0|0:0|0:0,0:0:0:0:
343,297,85798,6,0,P|303:286|258:304,2,70.9500021652222,8|8|8,0:0|0:0|0:0,0:0:0:0:
393,229,86127,6,0,L|399:163,2,51.599998425293,0|0|0,3:0|3:0|3:0,0:0:0:0:
307,199,86457,6,0,L|301:133,2,40.1333321085612,0|0|0,3:0|3:0|0:0,0:0:0:0:
249,345,86787,5,14,3:2:0:0:
432,307,86952,1,2,3:2:0:0:
441,318,87281,5,0,3:0:0:0:
298,194,87446,1,10,0:0:0:0:
258,364,87611,1,10,3:2:0:0:
285,378,87941,1,0,3:0:0:0:
285,378,88023,1,0,3:0:0:0:
285,378,88105,6,0,B|305:375|323:383|323:383|367:334|328:259,1,154.799995275879,6|2,3:2|3:2,0:0:0:0:
244,184,88600,1,2,0:0:0:0:
388,66,88765,2,0,P|450:106|438:200,1,154.799995275879,10|0,0:0|0:0,0:0:0:0:
300,108,89259,1,2,3:2:0:0:
294,117,89589,5,10,0:0:0:0:
369,249,89754,1,2,3:2:0:0:
375,259,90083,2,0,L|466:253,1,77.3999976379395,10|0,0:0|0:0,0:0:0:0:
364,351,90413,2,0,L|273:345,1,77.3999976379395,0|0,0:0|3:0,0:0:0:0:
218,186,90743,6,0,B|253:158|253:158|288:261,1,154.799995275879,2|2,3:2|3:2,0:0:0:0:
364,351,91237,1,2,0:0:0:0:
505,255,91402,2,0,P|457:195|367:193,1,154.799995275879,10|0,0:0|0:0,0:0:0:0:
269,292,91897,1,2,3:2:0:0:
261,304,92226,5,10,0:2:0:0:
213,150,92391,1,2,3:2:0:0:
200,147,92721,5,10,0:2:0:0:
137,282,92886,1,2,3:2:0:0:
131,301,93215,1,0,3:0:0:0:
131,301,93298,1,0,3:0:0:0:
131,301,93380,6,0,P|71:287|65:205,1,141.900004330444,14|0,3:2|0:0,0:0:0:0:
129,177,93710,2,0,L|202:181,1,64.5,0|0,3:0|0:0,0:0:0:0:
259,225,94040,6,0,P|319:211|280:101,1,189.200005773926,14|0,0:0|0:0,0:0:0:0:
198,47,94534,1,0,3:0:0:0:
164,242,94699,1,14,0:0:0:0:
34,182,94864,1,2,3:2:0:0:
37,197,95193,5,0,3:0:0:0:
234,280,95358,1,14,0:0:0:0:
127,370,95523,1,2,3:2:0:0:
127,370,96018,6,0,B|30:239|207:220|159:84|54:66|16:113|7:263|181:213,1,481.599985302735,14|2,0:2|3:2,0:0:0:0:
194,215,97996,1,2,0:0:0:0:
217,202,98655,6,0,B|305:135|318:253|416:180,1,206.4,2|0,0:0|0:0,0:0:0:0:
355,126,99974,6,0,B|312:101|312:101|300:269,1,206.4,2|0,0:0|0:0,0:0:0:0:
393,260,101292,6,0,B|348:224|299:255|299:255|283:313|352:348,1,206.4,2|0,0:0|0:0,0:0:0:0:
460,300,102611,6,0,B|480:270|471:229|471:229|442:202|447:157,1,137.6,2|2,0:0|0:0,0:0:0:0:
446,172,103930,6,0,B|387:143|332:186|332:186|285:166|279:110,1,206.4,2|0,0:0|0:0,0:0:0:0:
203,30,105248,6,0,B|192:49|192:49|201:104,3,68.8,2|2|2|2,0:0|0:0|0:0|0:0,0:0:0:0:
119,122,106567,6,0,B|112:178|112:178|125:204|125:204|119:269,1,137.6,2|2,0:0|0:0,0:0:0:0:
120,255,107886,6,0,P|172:254|222:295,1,103.2,2|0,0:0|0:0,0:0:0:0:
286,292,108545,2,0,P|234:291|177:343,1,120.4,2|0,1:2|0:0,0:0:0:0:
182,331,109204,6,0,B|63:315,1,120.399996325684,2|0,0:0|0:0,0:0:0:0:
193,233,109864,1,2,0:0:0:0:
330,331,110523,6,0,B|449:315,1,120.399996325684,2|0,0:0|0:0,0:0:0:0:
319,233,111183,1,2,0:0:0:0:
160,219,111842,6,0,P|129:181|138:91,1,120.399996325684,2|0,0:0|0:0,0:0:0:0:
256,256,112501,1,2,0:0:0:0:
352,219,113160,2,0,P|383:181|374:91,1,120.399996325684,2|0,0:0|0:0,0:0:0:0:
256,256,113820,1,2,0:0:0:0:
256,176,114149,1,2,0:0:0:0:
256,96,114479,6,0,L|256:61,3,34.4,2|2|2|2,3:2|0:0|0:0|0:0,0:0:0:0:
256,288,117116,2,0,L|256:323,3,34.4,2|2|2|2,0:2|0:0|0:0|0:0,0:0:0:0:
325,162,119424,1,2,0:0:0:0:
319,172,119754,6,0,L|225:164,1,77.3999976379395,10|0,0:0|3:0,0:0:0:0:
103,155,120083,1,0,3:0:0:0:
103,155,120248,1,0,3:0:0:0:
197,11,120413,6,0,L|189:105,1,77.3999976379395,10|0,0:0|3:0,0:0:0:0:
180,227,120742,1,0,3:0:0:0:
180,227,120907,1,0,3:0:0:0:
38,333,121073,6,0,L|132:325,1,77.3999976379395,10|0,0:0|3:0,0:0:0:0:
254,316,121402,1,0,3:0:0:0:
254,316,121567,1,0,3:0:0:0:
360,180,121732,6,0,L|354:110,2,38.6999988189698,10|8|8,0:0|0:0|0:0,0:0:0:0:
377,333,122062,1,0,3:0:0:0:
377,333,122226,1,0,3:0:0:0:
512,234,122391,6,0,P|462:227|433:201,1,77.3999976379395,10|0,0:0|0:0,0:0:0:0:
391,76,122721,1,10,0:0:0:0:
308,247,122886,2,0,L|312:139,1,77.3999976379395,8|2,0:0|0:0,0:0:0:0:
316,13,123215,1,8,0:0:0:0:
484,106,123380,2,0,L|383:104,1,77.3999976379395,10|0,0:0|3:0,0:0:0:0:
271,190,123710,5,14,0:0:0:0:
228,15,123875,1,0,3:0:0:0:
222,24,124204,6,0,L|171:22,1,38.6999988189698,2|0,3:2|0:0,0:0:0:0:
77,42,124369,2,0,P|122:38|139:141,1,165.550005052185,14|0,0:0|0:0,0:0:0:0:
117,160,125029,6,0,B|187:154|187:154|221:173|221:173|300:165,1,185.760004535156,6|2,3:2|3:2,0:0:0:0:
355,290,125523,1,0,0:0:0:0:
171,320,125688,2,0,P|152:277|179:212,1,92.8800022675782,10|0,0:0|0:0,0:0:0:0:
243,90,126018,1,2,0:0:0:0:
51,27,126182,6,0,P|81:95|56:208,1,185.760004535156,2|8,3:2|0:0,0:0:0:0:
154,41,126677,1,2,3:2:0:0:
163,52,127007,2,0,B|249:16|240:98|346:47,1,185.760004535156,10|2,0:0|0:0,0:0:0:0:
458,4,127501,1,0,3:0:0:0:
499,175,127666,6,0,B|413:139|422:221|316:170,1,185.760004535156,2|2,3:2|3:2,0:0:0:0:
204,127,128160,1,0,0:0:0:0:
370,12,128325,2,0,L|374:111,1,92.8800022675782,10|0,0:0|0:0,0:0:0:0:
462,244,128655,1,2,0:0:0:0:
249,220,128820,6,0,B|293:184|293:184|441:176,1,185.760004535156,2|8,3:2|0:0,0:0:0:0:
234,113,129314,1,2,3:2:0:0:
224,124,129644,1,10,0:0:0:0:
154,247,129809,1,0,3:0:0:0:
327,259,129974,1,2,0:0:0:0:
239,128,130138,1,0,3:0:0:0:
257,322,130303,6,0,P|325:357|418:289,1,185.760004535156,2|0,3:2|3:0,0:0:0:0:
468,184,130798,1,0,0:0:0:0:
327,259,130963,2,0,L|319:158,2,92.8800022675782,10|0|0,0:0|0:0|0:0,0:0:0:0:
132,283,131457,6,0,P|187:258|235:356,1,185.760004535156,2|10,3:2|0:0,0:0:0:0:
62,375,131952,1,2,3:2:0:0:
50,370,132281,2,0,L|44:253,1,92.8800022675782,8|0,0:0|0:0,0:0:0:0:
32,107,132611,1,2,0:0:0:0:
133,189,132776,1,2,3:2:0:0:
262,52,132941,6,0,P|198:33|115:119,2,185.760004535156,2|0|10,3:2|3:0|0:0,0:0:0:0:
334,164,133765,1,2,0:0:0:0:
207,128,133930,1,2,0:0:0:0:
415,50,134094,6,0,P|445:101|413:223,1,185.760004535156,2|10,3:2|0:0,0:0:0:0:
333,23,134589,1,2,3:2:0:0:
326,33,134919,1,10,0:0:0:0:
415,50,135083,2,0,B|444:38|444:38|505:45,2,64.5000024604798,2|2|2,0:2|0:0|3:2,0:0:0:0:
268,185,135578,6,0,B|327:158|327:158|466:193,1,185.760004535156,6|2,3:2|3:2,0:0:0:0:
509,304,136073,1,2,0:0:0:0:
337,250,136237,1,10,0:0:0:0:
337,250,136402,2,0,B|332:284|332:284|342:333,2,64.5000024604798,2|2|2,0:0|0:0|3:2,0:0:0:0:
448,145,136897,5,2,0:0:0:0:
253,106,137062,1,10,0:0:0:0:
362,0,137226,2,0,B|398:90|317:94|371:195,1,185.760004535156,2|8,3:2|0:0,0:0:0:0:
439,269,137721,2,0,B|468:256|468:256|521:262,2,64.5000024604798,2|2|2,0:0|0:0|3:2,0:0:0:0:
282,373,138215,6,0,B|272:325|225:320|225:320|103:338,1,185.760004535156,2|2,3:2|3:2,0:0:0:0:
10,262,138710,1,2,0:0:0:0:
163,166,138875,2,0,L|268:179,1,92.8800022675782,10|0,0:0|0:0,0:0:0:0:
395,203,139204,1,2,0:0:0:0:
447,25,139369,6,0,L|342:38,1,92.8800022675782,2|0,3:2|0:0,0:0:0:0:
132,65,139699,1,14,0:0:0:0:
286,104,139864,1,2,3:2:0:0:
292,119,140193,1,10,0:0:0:0:
212,204,140358,1,10,0:0:0:0:
317,273,140523,1,2,3:2:0:0:
208,360,140688,1,0,3:0:0:0:
119,188,140853,6,0,L|126:304,1,92.8800022675782,14|0,3:2|3:0,0:0:0:0:
247,152,141182,1,2,0:0:0:0:
37,99,141347,2,0,L|30:215,1,92.8800022675782,14|0,0:0|0:0,0:0:0:0:
124,280,141677,1,2,3:2:0:0:
236,163,141842,1,2,3:2:0:0:
31,191,142007,1,10,0:0:0:0:
21,206,142336,5,10,0:0:0:0:
1,35,142501,1,0,3:0:0:0:
12,28,142831,2,0,B|104:-7|106:90|197:45,1,185.760004535156,14|0,0:0|0:0,0:0:0:0:
313,0,143325,1,0,3:2:0:0:
378,167,143490,5,10,0:0:0:0:
217,129,143655,2,0,L|225:248,1,92.8800022675782,2|0,3:2|0:0,0:0:0:0:
324,344,143985,2,0,L|332:225,1,92.8800022675782,10|0,0:0|0:0,0:0:0:0:
345,89,144314,1,0,3:0:0:0:
345,89,144397,1,0,3:0:0:0:
345,89,144479,1,8,3:2:0:0:
512,183,144644,6,0,P|456:196|428:288,1,154.799995275879,6|0,3:2|0:0,0:0:0:0:
500,259,144974,2,0,B|509:216|484:177|484:177|500:137|500:137|478:91|512:44,1,206.399993701172,6|0,0:0|3:0,0:0:0:0:
301,39,145468,5,10,0:0:0:0:
311,144,145633,1,10,0:0:0:0:
417,135,145798,1,10,0:0:0:0:
408,28,145963,1,10,0:0:0:0:
221,112,146127,6,0,P|236:202|316:240,1,172,6|0,3:2|3:0,0:0:0:0:
429,213,146622,1,0,0:0:0:0:
393,38,146787,2,0,B|218:23,1,172,8|0,0:0|0:0,0:0:0:0:
387,132,147281,1,0,3:0:0:0:
399,128,147611,5,8,0:0:0:0:
380,287,147775,1,0,3:0:0:0:
372,296,148105,2,0,B|286:262|296:345|188:332,1,172,10|0,0:0|0:0,0:0:0:0:
86,283,148600,1,0,3:0:0:0:
209,109,148765,6,0,P|253:166|215:261,2,172,2|0|8,3:2|3:0|0:0,0:0:0:0:
89,178,149589,1,2,0:0:0:0:
89,178,149754,1,2,0:0:0:0:
6,45,149919,1,2,3:2:0:0:
0,57,150248,5,8,0:0:0:0:
156,31,150413,1,0,3:0:0:0:
167,36,150743,5,10,0:0:0:0:
136,126,150908,1,0,3:2:0:0:
204,200,151073,1,2,0:0:0:0:
204,200,151237,2,0,L|252:192,1,43,2|0,3:2|3:0,0:0:0:0:
339,226,151402,6,0,P|282:197|278:88,1,172,2|0,3:2|3:0,0:0:0:0:
374,20,151897,1,0,0:0:0:0:
494,144,152062,1,8,0:0:0:0:
494,144,152226,2,0,L|503:48,2,86,2|2|2,0:0|0:0|3:2,0:0:0:0:
469,314,152721,5,2,0:0:0:0:
440,340,152803,1,2,0:0:0:0:
403,354,152886,1,10,0:0:0:0:
365,347,152968,1,2,0:0:0:0:
334,322,153051,6,0,P|250:300|178:373,1,172,2|10,3:2|0:0,0:0:0:0:
61,365,153545,1,2,0:0:0:0:
0,224,153710,2,0,P|57:242|81:284,1,86,2|2,0:0|3:2,0:0:0:0:
163,88,154040,6,0,L|151:296,1,172,2|0,3:2|3:0,0:0:0:0:
263,315,154534,1,0,0:0:0:0:
406,243,154699,1,10,0:0:0:0:
406,243,154864,2,0,P|405:181|372:142,1,86,2|0,0:0|0:0,0:0:0:0:
231,100,155193,6,0,L|323:91,1,86,2|0,3:2|0:0,0:0:0:0:
512,79,155523,1,10,0:0:0:0:
382,0,155688,1,2,3:2:0:0:
376,11,156018,5,10,3:2:0:0:
302,183,156182,2,0,L|198:174,1,86,14|0,0:0|0:0,0:0:0:0:
305,86,156512,1,2,3:2:0:0:
337,289,156677,6,0,L|139:271,1,172,6|0,3:2|3:0,0:0:0:0:
78,160,157171,1,0,0:0:0:0:
252,84,157336,1,8,0:0:0:0:
252,84,157501,6,0,P|265:134|242:186,2,86,2|2|2,0:0|0:0|3:2,0:0:0:0:
149,1,157996,1,2,0:0:0:0:
6,100,158160,1,10,0:0:0:0:
169,126,158325,1,2,3:2:0:0:
176,136,158655,5,10,0:0:0:0:
312,21,158820,2,0,P|270:81|288:160,1,129,2|2,0:0|3:2,0:0:0:0:
299,173,159149,2,0,L|402:166,1,86,2|2,3:2|3:2,0:0:0:0:
265,315,159479,5,2,0:0:0:0:
265,315,159644,2,0,L|162:308,1,86,2|0,3:2|0:0,0:0:0:0:
282,190,159974,2,0,L|385:183,1,86,10|0,0:0|0:0,0:0:0:0:
490,123,160303,1,2,0:0:0:0:
338,24,160468,1,2,3:2:0:0:
332,35,160798,5,10,0:2:0:0:
276,185,160963,1,2,3:2:0:0:
271,196,161292,5,10,0:0:0:0:
113,167,161457,1,0,3:0:0:0:
111,183,161787,1,0,3:0:0:0:
111,183,161869,1,0,3:0:0:0:
111,183,161952,5,6,3:2:0:0:
234,305,162116,1,2,0:0:0:0:
331,191,162281,2,0,L|243:183,1,86,2|2,3:2|0:0,0:0:0:0:
118,206,162611,5,10,0:0:0:0:
269,292,162775,1,2,0:0:0:0:
334,158,162940,2,0,L|247:173,1,86,2|2,0:0|3:2,0:0:0:0:
132,227,163271,5,2,0:0:0:0:
301,271,163435,1,10,0:0:0:0:
328,124,163600,2,0,L|247:161,1,86,2|2,3:2|0:0,0:0:0:0:
106,268,163930,6,0,P|119:217|97:165,1,86,10|0,0:0|0:0,0:0:0:0:
52,79,164259,1,2,0:0:0:0:
214,13,164424,1,2,3:2:0:0:
214,13,164507,1,2,0:0:0:0:
214,13,164589,6,0,B|171:31|171:31|129:89|184:162,1,172,2|0,3:2|3:0,0:0:0:0:
283,206,165083,1,0,0:0:0:0:
389,44,165248,2,0,B|397:144|397:144|371:187,2,129,10|2|2,0:0|0:0|3:2,0:0:0:0:
283,206,165908,6,0,P|264:158|162:168,1,141.900004330444,10|0,0:0|0:0,0:0:0:0:
131,211,166237,2,0,L|137:284,1,64.5,0|0,3:0|0:0,0:0:0:0:
79,336,166567,6,0,B|54:336|54:336|15:354,2,47.3000014434815,10|8|8,0:0|0:0|0:0,0:0:0:0:
131,211,166897,2,0,L|125:284,1,64.5,0|0,3:0|0:0,0:0:0:0:
134,285,167226,6,0,B|205:249|206:321|297:286,1,154.799995275879,6|2,3:2|3:2,0:0:0:0:
379,222,167721,1,2,0:0:0:0:
486,354,167886,2,0,L|494:188,1,154.799995275879,10|0,0:0|0:0,0:0:0:0:
504,30,168380,1,2,3:2:0:0:
511,41,168710,5,10,0:2:0:0:
364,66,168875,1,2,3:2:0:0:
356,76,169204,2,0,L|362:182,2,77.3999976379395,10|0|0,0:0|0:0|0:0,0:0:0:0:
247,18,169699,1,0,3:0:0:0:
122,124,169864,6,0,P|188:132|237:216,1,154.799995275879,2|2,3:2|3:2,0:0:0:0:
193,314,170358,1,2,0:0:0:0:
28,257,170523,2,0,L|18:93,1,154.799995275879,10|0,0:0|0:0,0:0:0:0:
142,217,171018,1,2,3:2:0:0:
150,227,171347,5,10,0:2:0:0:
296,244,171512,1,2,3:2:0:0:
306,245,171842,5,10,0:2:0:0:
322,102,172007,1,2,3:2:0:0:
318,96,172336,1,0,3:0:0:0:
318,96,172419,1,0,3:0:0:0:
318,96,172501,6,0,P|260:117|246:222,1,154.799995275879,2|2,3:2|3:2,0:0:0:0:
308,284,172996,1,2,0:0:0:0:
197,363,173160,2,0,B|274:319|280:408|374:340,1,154.799995275879,10|0,0:0|0:0,0:0:0:0:
477,278,173655,1,2,3:2:0:0:
482,289,173985,5,10,0:2:0:0:
354,219,174149,1,2,3:2:0:0:
350,230,174479,2,0,B|280:202|274:274|189:233,1,154.799995275879,10|0,0:0|0:0,0:0:0:0:
96,175,174974,2,0,L|102:109,1,38.6999988189698,0|0,3:0|3:0,0:0:0:0:
190,20,175138,5,10,0:0:0:0:
190,20,175220,1,8,0:0:0:0:
190,20,175303,1,8,0:0:0:0:
237,167,175468,1,2,3:2:0:0:
241,177,175798,1,2,3:2:0:0:
380,130,175963,6,0,B|400:126|419:113|419:113|432:132|453:144,2,86,6|2|2,3:2|3:2|3:2,0:0:0:0:
375,144,176952,1,0,3:0:0:0:
375,144,177034,1,0,3:0:0:0:
375,144,177117,5,10,0:0:0:0:
389,278,177281,1,10,0:0:0:0:
258,151,177446,1,10,0:0:0:0:
272,287,177610,1,10,0:0:0:0:
91,309,177776,6,0,B|116:339|116:339|160:269|108:209,1,154.799995275879,6|2,3:2|3:2,0:0:0:0:
32,137,178270,1,2,0:0:0:0:
201,77,178435,2,0,L|217:238,1,154.799995275879,10|0,0:0|0:0,0:0:0:0:
116,344,178930,1,2,3:2:0:0:
118,357,179259,5,10,0:2:0:0:
269,382,179424,1,2,3:2:0:0:
275,375,179754,2,0,P|315:362|352:370,2,77.3999976379395,10|0|0,0:0|0:0|0:0,0:0:0:0:
179,306,180248,1,0,3:0:0:0:
258,143,180413,6,0,P|292:191|257:285,1,154.799995275879,2|2,3:2|3:2,0:0:0:0:
145,277,180908,1,2,0:0:0:0:
187,99,181073,2,0,P|235:65|329:100,1,154.799995275879,10|0,0:0|0:0,0:0:0:0:
374,252,181567,1,2,3:2:0:0:
370,264,181897,5,10,0:2:0:0:
234,196,182062,1,2,3:2:0:0:
225,205,182391,5,10,0:2:0:0:
100,289,182556,1,2,3:2:0:0:
97,303,182886,1,0,3:0:0:0:
100,310,182969,1,0,3:0:0:0:
103,317,183051,6,0,P|163:303|169:221,1,141.900004330444,6|0,3:2|0:0,0:0:0:0:
120,179,183380,2,0,L|114:102,1,64.5,0|0,3:0|0:0,0:0:0:0:
79,47,183710,6,0,B|40:26|40:26|30:139,1,154.799995275879,10|0,0:0|0:0,0:0:0:0:
15,257,184204,1,0,3:0:0:0:
214,214,184369,1,10,0:0:0:0:
110,136,184534,1,0,3:2:0:0:
105,150,184864,5,0,3:0:0:0:
304,193,185029,1,10,0:0:0:0:
200,271,185194,1,0,3:0:0:0:
194,285,185523,1,2,0:0:0:0:
358,208,185688,6,0,P|388:285|347:357,1,154.799995275879,6|2,0:0|0:0,0:0:0:0:
154,176,186347,2,0,P|124:99|165:27,1,154.799995275879,2|2,0:0|0:0,0:0:0:0:
401,141,187007,5,14,0:0:0:0:
262,162,187171,1,0,3:0:0:0:
255,179,187500,1,0,3:0:0:0:
255,179,187583,1,0,3:0:0:0:
255,179,187666,5,10,0:0:0:0:
202,269,187831,1,10,0:0:0:0:
271,347,187996,1,10,0:0:0:0:
366,305,188160,1,10,0:0:0:0:
254,177,188325,5,6,0:0:0:0:
132,89,189644,5,2,0:0:0:0:
379,89,190963,5,2,0:0:0:0:
254,177,192158,1,2,0:0:0:0:
132,89,192941,1,2,0:0:0:0:
379,89,193600,5,6,3:2:0:0:
132,89,194589,1,2,3:2:0:0:
254,177,194919,1,2,3:2:0:0:
254,177,195413,2,0,L|254:133,2,38.6999988189698,0|0|8,3:0|3:0|0:0,0:0:0:0:
304,337,196073,1,2,3:2:0:0:
208,337,196237,5,10,0:0:0:0:
208,145,196567,1,10,0:0:0:0:
400,145,196897,1,10,0:0:0:0:
400,337,197226,1,10,0:0:0:0:
209,239,197556,6,0,P|169:221|110:231,2,68.7999979003907,10|0|0,0:0|3:0|3:0,0:0:0:0:
283,278,197886,6,0,P|326:273|372:235,2,57.3333333333333,10|0|0,0:2|3:0|3:0,0:0:0:0:
153,301,198215,5,10,0:0:0:0:
298,200,198380,1,10,0:0:0:0:
247,362,198545,1,10,0:0:0:0:
190,180,198710,1,10,0:0:0:0:
354,322,198875,5,6,3:2:0:0:
353,212,199040,2,0,B|272:206|266:294|172:273,1,185.760004535156,2|0,3:2|3:0,0:0:0:0:
11,189,199534,2,0,P|74:213|93:260,1,92.8800022675782,10|0,0:0|0:0,0:0:0:0:
172,368,199864,1,2,3:2:0:0:
172,368,200029,1,2,3:2:0:0:
244,186,200193,5,10,0:0:0:0:
300,281,200358,2,0,P|360:291|433:187,1,185.760004535156,2|0,3:2|3:0,0:0:0:0:
481,23,200853,2,0,P|470:83|487:121,1,92.8800022675782,10|0,0:0|3:0,0:0:0:0:
344,200,201182,1,2,0:0:0:0:
344,200,201347,1,2,0:0:0:0:
236,48,201512,6,0,B|357:33|357:33|365:92|312:100,1,185.760004535156,6|2,3:2|3:2,0:0:0:0:
209,153,202007,1,2,0:0:0:0:
108,10,202171,2,0,P|38:41|57:150,1,185.760004535156,10|2,0:0|0:0,0:0:0:0:
193,224,202666,1,2,3:2:0:0:
42,338,202831,5,10,0:0:0:0:
137,377,202996,2,0,B|169:276|75:294|116:166,1,185.760004535156,2|0,3:2|3:0,0:0:0:0:
223,69,203490,1,10,0:0:0:0:
50,26,203655,1,2,3:2:0:0:
43,35,203985,2,0,L|48:105,1,46.4400011337891,2|2,3:2|3:2,0:0:0:0:
7,177,204149,5,10,0:0:0:0:
163,138,204314,1,2,3:2:0:0:
165,151,204644,1,2,3:2:0:0:
167,164,204974,2,0,L|162:234,1,46.4400011337891,2|0,3:2|3:0,0:0:0:0:
193,317,205138,1,10,0:0:0:0:
12,276,205303,5,6,3:2:0:0:
11,287,205633,1,10,0:0:0:0:
109,178,205798,1,8,3:2:0:0:
193,297,205963,1,0,3:2:0:0:
292,189,206128,1,10,0:0:0:0:
292,189,206622,1,2,3:2:0:0:
393,346,206787,5,14,3:2:0:0:
256,383,206952,2,0,P|188:354|196:242,1,185.760004535156,2|2,3:2|3:2,0:0:0:0:
415,228,207446,6,0,B|337:221|337:221|308:197|308:197|213:187,1,185.760004535156,10|0,0:0|3:0,0:0:0:0:
94,325,207941,2,0,B|184:343|169:257|296:270,1,185.760004535156,14|0,0:0|3:0,0:0:0:0:
389,334,208435,1,2,3:2:0:0:
476,180,208600,1,0,3:0:0:0:
476,180,208682,1,0,3:0:0:0:
476,180,208765,6,0,P|484:137|513:96,2,74.5333299214683,10|8|8,0:0|0:0|0:0,0:0:0:0:
407,233,209094,6,0,P|370:241|316:219,2,63.0666685913087,10|8|8,0:0|0:0|0:0,0:0:0:0:
362,94,209424,6,0,B|275:88|275:88|249:107|249:107|153:100,1,197.800003772736,14|2,3:2|3:2,0:0:0:0:
8,81,209919,1,0,0:0:0:0:
52,261,210083,2,0,P|104:277|154:260,1,98.9000018863678,10|0,0:0|0:0,0:0:0:0:
308,203,210413,2,0,P|256:187|206:204,1,98.9000018863678,2|0,3:2|0:0,0:0:0:0:
355,363,210743,6,0,B|390:311|390:311|392:154,1,197.800003772736,10|2,0:0|3:2,0:0:0:0:
389,16,211237,1,0,0:0:0:0:
232,112,211402,2,0,P|219:169|240:228,1,98.9000018863678,10|0,0:0|0:0,0:0:0:0:
389,313,211732,2,0,P|346:273|247:302,1,148.350002829552,2|0,3:2|0:0,0:0:0:0:
226,319,212062,6,0,L|107:328,1,98.9000018863678,10|0,0:0|0:0,0:0:0:0:
276,186,212391,2,0,L|395:195,1,98.9000018863678,2|0,3:2|0:0,0:0:0:0:
222,55,212721,2,0,L|103:64,1,98.9000018863678,10|0,0:0|0:0,0:0:0:0:
276,186,213051,1,2,3:2:0:0:
341,30,213215,1,2,0:0:0:0:
165,140,213380,6,0,P|125:225|195:315,1,197.800003772736,10|2,0:0|3:2,0:0:0:0:
312,346,213875,1,0,0:0:0:0:
445,207,214040,2,0,P|401:182|341:192,1,98.9000018863678,10|0,0:0|0:0,0:0:0:0:
175,306,214369,2,0,P|218:280|239:223,1,98.9000018863678,2|0,0:0|0:0,0:0:0:0:
103,85,214699,6,0,B|179:73|179:73|212:91|212:91|307:81,1,197.800003772736,14|2,0:0|3:2,0:0:0:0:
428,19,215193,1,0,0:0:0:0:
475,198,215358,2,0,L|467:318,1,98.9000018863678,10|0,0:0|0:0,0:0:0:0:
301,180,215688,2,0,L|293:60,1,98.9000018863678,2|0,3:2|0:0,0:0:0:0:
475,198,216018,6,0,B|374:207|397:283|281:273,1,197.800003772736,10|2,0:0|3:2,0:0:0:0:
145,230,216512,1,0,0:0:0:0:
305,98,216677,2,0,P|325:168|303:212,1,98.9000018863678,10|0,0:0|0:0,0:0:0:0:
233,354,217007,2,0,P|213:284|235:240,1,98.9000018863678,2|0,3:2|0:0,0:0:0:0:
83,84,217336,6,0,P|133:185|97:265,1,197.800003772736,10|2,0:0|3:2,0:0:0:0:
8,356,217831,1,0,0:0:0:0:
180,383,217996,2,0,L|300:372,1,98.9000018863678,10|0,0:0|0:0,0:0:0:0:
103,258,218325,2,0,L|-17:247,1,98.9000018863678,2|0,3:2|0:0,0:0:0:0:
199,99,218655,6,0,B|208:186|208:186|191:208|191:208|200:303,1,197.800003772736,14|2,0:0|3:2,0:0:0:0:
110,154,219149,1,0,0:0:0:0:
291,244,219314,1,10,0:0:0:0:
291,244,219479,2,0,B|321:260|321:260|379:254,2,68.8,2|2|2,0:0|3:2|3:2,0:0:0:0:
256,48,219974,5,14,3:2:0:0:
144,112,220138,2,0,P|131:166|161:222,1,98.9000018863678,2|0,0:0|3:0,0:0:0:0:
247,283,220468,1,2,0:0:0:0:
63,281,220633,2,0,P|103:318|167:321,1,98.9000018863678,10|0,0:0|0:0,0:0:0:0:
256,272,220963,1,2,0:0:0:0:
256,272,221127,1,2,3:2:0:0:
256,48,221293,5,10,0:0:0:0:
368,112,221457,2,0,P|380:166|350:222,1,98.9000018863678,2|0,3:2|0:0,0:0:0:0:
265,283,221787,1,0,3:0:0:0:
449,281,221952,2,0,P|408:318|344:321,1,98.9000018863678,10|0,0:0|3:0,0:0:0:0:
256,272,222282,1,2,0:0:0:0:
256,272,222446,1,2,0:0:0:0:
65,361,222611,6,0,L|186:355,1,98.9000018863678,10|0,0:0|0:0,0:0:0:0:
294,240,222941,1,2,3:2:0:0:
370,368,223105,1,2,0:0:0:0:
191,280,223270,2,0,P|177:227|205:162,1,98.9000018863678,10|0,0:0|0:0,0:0:0:0:
343,108,223600,1,2,0:0:0:0:
174,50,223765,1,0,3:0:0:0:
268,230,223930,6,0,L|397:220,1,98.9000018863678,10|10,0:0|0:0,0:0:0:0:
512,216,224259,1,2,3:2:0:0:
339,119,224424,1,10,0:0:0:0:
337,134,224754,1,0,3:0:0:0:
335,149,225083,2,0,L|339:214,1,49.4500009431839,0|0,3:0|3:0,0:0:0:0:
429,293,225248,6,0,L|442:171,1,98.9000018863678,6|0,3:2|0:0,0:0:0:0:
241,268,225578,2,0,L|228:146,1,98.9000018863678,10|0,0:0|0:0,0:0:0:0:
413,307,225908,6,0,L|426:185,1,98.9000018863678,10|0,0:0|0:0,0:0:0:0:
225,282,226238,2,0,L|212:160,1,98.9000018863678,10|0,0:0|0:0,0:0:0:0:
397,321,226567,6,0,L|410:199,1,98.9000018863678,10|0,0:0|0:0,0:0:0:0:
209,296,226897,2,0,L|196:174,1,98.9000018863678,10|0,0:0|0:0,0:0:0:0:
268,24,227226,5,10,0:0:0:0:
105,116,227391,1,2,3:2:0:0:
307,158,227556,1,10,0:0:0:0:
168,29,227721,1,10,0:2:0:0:
84,221,227886,5,14,3:2:0:0:
191,113,228051,2,0,P|235:168|229:230,1,98.9000018863678,2|0,3:2|3:0,0:0:0:0:
62,332,228380,2,0,B|113:326|113:326|116:321|116:321|157:315,1,98.9000018863678,6|0,3:2|0:0,0:0:0:0:
333,287,228710,1,2,3:2:0:0:
184,186,228875,1,10,0:0:0:0:
352,46,229040,6,0,B|385:52|400:87|400:87|359:153|391:222,1,197.800003772736,6|0,3:2|3:0,0:0:0:0:
470,330,229534,1,2,0:0:0:0:
250,293,229699,1,0,3:2:0:0:
250,293,229781,1,0,3:0:0:0:
250,293,229864,5,10,0:0:0:0:
255,151,230029,1,10,0:0:0:0:
394,156,230194,1,10,0:0:0:0:
390,298,230358,2,0,L|389:374,1,73.1,10|0,0:0|0:0,0:0:0:0:
389,371,231842,6,0,B|310:380|311:309|215:340,1,154.799995275879,6|0,3:2|3:0,0:0:0:0:
119,358,232336,1,0,0:0:0:0:
219,207,232501,2,0,P|258:239|226:343,1,154.799995275879,10|2,0:0|0:0,0:0:0:0:
107,250,232996,1,0,3:0:0:0:
106,262,233325,5,8,0:0:0:0:
239,201,233490,1,2,3:2:0:0:
247,210,233820,2,0,L|251:310,1,77.3999976379395,10|0,0:0|0:0,0:0:0:0:
356,363,234149,1,2,0:0:0:0:
356,363,234314,1,2,3:2:0:0:
463,229,234479,6,0,P|422:179|307:183,1,154.799995275879,2|0,3:2|3:0,0:0:0:0:
206,212,234974,1,0,0:0:0:0:
150,50,235138,2,0,P|191:100|306:96,1,154.799995275879,10|2,0:0|0:0,0:0:0:0:
417,25,235633,1,2,3:2:0:0:
427,32,235963,5,8,0:0:0:0:
449,177,236127,1,0,3:0:0:0:
452,189,236457,5,8,0:0:0:0:
337,280,236621,1,0,3:0:0:0:
327,275,236952,1,2,3:2:0:0:
231,128,237116,6,0,P|176:146|154:246,1,154.799995275879,2|0,3:2|3:0,0:0:0:0:
209,334,237611,1,0,0:0:0:0:
51,374,237776,2,0,L|40:191,1,154.799995275879,10|2,0:0|0:0,0:0:0:0:
27,56,238270,1,0,3:0:0:0:
33,47,238600,5,8,0:0:0:0:
177,34,238765,1,2,3:2:0:0:
187,41,239094,2,0,P|228:95|189:196,1,154.799995275879,10|2,0:0|0:0,0:0:0:0:
103,245,239589,1,2,3:2:0:0:
103,245,239671,1,0,3:2:0:0:
103,245,239754,6,0,P|178:223|247:292,1,154.799995275879,2|0,3:2|3:0,0:0:0:0:
301,370,240248,1,0,0:0:0:0:
453,309,240413,2,0,P|477:240|444:160,1,154.799995275879,10|2,0:0|0:0,0:0:0:0:
323,284,240908,1,2,3:2:0:0:
323,284,241073,5,2,0:0:0:0:
233,131,241237,1,8,0:0:0:0:
160,258,241402,1,0,3:0:0:0:
162,268,241732,5,10,0:0:0:0:
311,190,241897,1,10,0:0:0:0:
139,126,242062,1,2,3:2:0:0:
254,260,242227,1,2,3:2:0:0:
366,107,242391,6,0,P|288:71|201:101,1,154.799995275879,6|0,3:2|3:0,0:0:0:0:
133,180,242886,1,0,0:0:0:0:
277,300,243051,2,0,B|310:221|248:212|293:136,1,154.799995275879,10|2,0:0|0:0,0:0:0:0:
367,307,243545,1,0,3:0:0:0:
361,318,243875,5,8,0:0:0:0:
208,350,244040,1,2,3:2:0:0:
196,346,244369,2,0,P|161:272|209:197,1,154.799995275879,10|2,0:0|0:0,0:0:0:0:
303,126,244864,1,2,3:2:0:0:
303,126,244946,1,2,3:2:0:0:
303,126,245029,6,0,P|252:163|137:140,1,154.799995275879,2|0,3:2|3:0,0:0:0:0:
66,81,245523,1,0,0:0:0:0:
0,244,245688,2,0,L|167:256,1,154.799995275879,10|0,0:0|0:0,0:0:0:0:
351,269,246182,1,0,3:0:0:0:
363,271,246512,5,8,0:0:0:0:
265,143,246677,1,0,3:0:0:0:
253,140,247007,5,10,0:0:0:0:
155,268,247172,1,2,3:2:0:0:
159,279,247501,1,10,0:0:0:0:
309,366,247666,6,0,P|369:341|354:245,1,154.799995275879,2|0,3:2|3:0,0:0:0:0:
272,185,248160,1,0,0:0:0:0:
357,51,248325,2,0,L|519:59,1,154.799995275879,10|2,0:0|0:0,0:0:0:0:
350,137,248820,1,0,3:0:0:0:
348,149,249149,5,8,0:0:0:0:
457,255,249314,1,2,3:2:0:0:
464,266,249644,2,0,P|475:311|378:350,1,154.799995275879,10|2,0:0|0:0,0:0:0:0:
328,254,250138,1,0,3:0:0:0:
183,324,250303,6,0,P|144:295|81:299,2,94.600002886963,10|8|8,0:0|0:0|0:0,0:0:0:0:
257,287,250685,6,0,P|296:258|359:262,2,81.6999978183747,10|8|8,0:0|0:0|0:0,0:0:0:0:
240,267,250963,6,0,L|232:203,2,51.599998425293,2|0|0,3:2|3:0|3:0,0:0:0:0:
310,344,251292,6,0,L|305:383,2,40.1333321085612,2|0|0,3:2|3:0|3:0,0:0:0:0:
347,269,251622,5,10,0:0:0:0:
186,229,251787,1,2,3:2:0:0:
177,238,252116,5,0,3:0:0:0:
252,79,252281,1,14,0:0:0:0:
331,194,252446,1,2,3:2:0:0:
327,204,252776,6,0,L|265:199,1,43,2|0,0:0|0:0,0:0:0:0:
106,185,252941,1,6,3:2:0:0:
98,203,253600,6,0,P|73:251|107:327,1,137.6,2|2,0:0|0:0,0:0:0:0:
223,354,254830,2,0,L|235:360,2,14.3333333333333,2|0|0,0:0|0:0|0:0,0:0:0:0:
180,275,255083,1,2,0:0:0:0:
256,192,255248,12,0,260193,0:0:0:0:
