osu file format v14

[General]
AudioFilename: audio.mp3
AudioLeadIn: 0
PreviewTime: 169453
Countdown: 0
SampleSet: Soft
StackLeniency: 0.8
Mode: 0
LetterboxInBreaks: 0
WidescreenStoryboard: 0

[Editor]
Bookmarks: 23699,40138,59590,170549,188357,205617
DistanceSpacing: 0.1
BeatDivisor: 3
GridSize: 4
TimelineZoom: 3.399999

[Metadata]
Title:PHANTOM
TitleUnicode:PHANTOM
Artist:ELFENSJoN
ArtistUnicode:ELFENSJóN
Creator:Kalibe
Version:DELUSJoN
Source:
Tags:fa mpg mocaotic iljaaz agatsu ASH OF ROUGE: SIDE ASTRAL mappers' guild featured artist japanese jp j-rock jrock rock male
BeatmapID:2326801
BeatmapSetID:1113775

[Difficulty]
HPDrainRate:6
CircleSize:4
OverallDifficulty:8
ApproachRate:9.5
SliderMultiplier:1.6
SliderTickRate:1

[Events]
//Background and Video events
0,0,"kalibes_bg.jpg",0,0
//Break Periods
2,113762,119339
//Storyboard Layer 0 (Background)
//Storyboard Layer 1 (Fail)
//Storyboard Layer 2 (Pass)
//Storyboard Layer 3 (Foreground)
//Storyboard Layer 4 (Overlay)
//Storyboard Sound Samples

[TimingPoints]
1782,273.972602739726,4,2,5,60,1,0
1782,-250,4,2,5,60,0,0
5891,-133.333333333333,4,2,5,60,0,0
6165,-125,4,2,5,60,0,0
7809,-66.6666666666667,4,2,5,65,0,0
8357,-83.3333333333333,4,1,5,70,0,0
10823,-66.6666666666667,4,1,5,70,0,0
11097,-83.3333333333333,4,1,5,70,0,0
11645,-71.4285714285714,4,1,5,70,0,0
11918,-100,4,1,5,70,0,0
12192,-74.0740740740741,4,1,5,70,0,0
13014,-66.6666666666667,4,1,5,70,0,0
13288,-83.3333333333333,4,1,5,70,0,0
13836,-100,4,1,5,70,0,0
14110,-76.9230769230769,4,1,5,70,0,0
15206,-111.111111111111,4,1,5,60,0,0
21508,-249.999999999999,4,1,5,65,0,0
23699,-100,4,1,5,70,0,0
26987,-66.6666666666667,4,1,5,70,0,0
27535,-90.9090909090909,4,1,5,70,0,0
28083,-76.9230769230769,4,1,5,70,0,0
29727,-125,4,1,5,70,0,0
30001,-90.9090909090909,4,1,5,70,0,0
32055,-200,4,1,5,70,0,0
32466,-285.714285714286,4,2,5,50,0,0
34293,-153.846153846154,4,2,5,50,0,0
34658,-285.714285714286,4,2,5,50,0,0
36211,-100,4,2,5,60,0,0
36850,-111.111111111111,4,1,5,70,0,0
41234,-66.6666666666667,4,1,6,70,0,0
41302,-66.6666666666667,4,1,5,75,0,0
41508,-83.3333333333333,4,1,5,75,0,0
41782,-71.4285714285714,4,1,5,75,0,0
42238,-100,4,1,5,75,0,0
42603,-66.6666666666667,4,1,5,75,0,0
43060,-100,4,1,5,75,0,0
43425,-83.3333333333333,4,1,5,75,0,0
45617,-71.4285714285714,4,1,5,75,0,0
45891,-83.3333333333333,4,1,5,75,0,0
46165,-76.9230769230769,4,1,5,75,0,0
46439,-100,4,1,5,75,0,0
46987,-76.9230769230769,4,1,5,75,0,0
47535,-100,4,1,5,75,0,0
47809,-76.9230769230769,4,1,5,75,0,0
48905,-66.6666666666667,4,1,5,75,0,0
49658,-133.333333333333,4,1,5,75,0,0
50001,-107.52688172043,4,1,5,75,0,0
50275,-83.3333333333333,4,1,6,75,0,0
50343,-83.3333333333333,4,1,5,75,0,0
52192,-71.4285714285714,4,1,5,75,0,0
52466,-90.9090909090909,4,1,5,75,0,0
53562,-100,4,1,5,75,0,0
53836,-66.6666666666667,4,1,5,75,0,0
54384,-125,4,1,5,75,0,0
55115,-83.3333333333333,4,1,5,75,0,0
57877,-100,4,1,5,75,0,0
58494,-83.3333333333333,4,1,5,70,0,0
58768,-111.111111111111,4,1,5,60,0,0
64795,-83.3333333333333,4,1,5,65,0,0
65343,-100,4,1,5,75,0,0
67535,-100,4,1,5,70,0,0
70823,-71.4285714285714,4,1,5,70,0,0
71371,-90.9090909090909,4,1,5,70,0,0
71918,-76.9230769230769,4,1,5,70,0,0
73562,-125,4,1,5,65,0,0
73836,-90.9090909090909,4,1,5,65,0,0
76302,-200,4,2,5,45,0,0
78220,-133.333333333333,4,2,5,50,0,0
78494,-200,4,2,5,50,0,0
79453,-200,4,2,5,15,0,0
79521,-200,4,2,5,50,0,0
85069,-133.333333333333,4,2,5,55,0,0
89453,-111.111111111111,4,1,5,65,0,0
92466,-142.857142857143,4,1,5,70,0,0
93836,-66.6666666666667,4,1,6,75,0,0
93905,-66.6666666666667,4,1,5,75,0,0
94110,-83.3333333333333,4,1,5,75,0,0
94384,-71.4285714285714,4,1,5,75,0,0
94841,-100,4,1,5,75,0,0
95206,-66.6666666666667,4,1,5,75,0,0
95754,-90.9090909090909,4,1,5,75,0,0
96028,-83.3333333333333,4,1,5,75,0,0
98220,-133.333333333333,4,1,5,75,0,0
98494,-62.5,4,1,5,75,0,0
98768,-83.3333333333333,4,1,5,75,0,0
99590,-76.9230769230769,4,1,5,75,0,0
100138,-100,4,1,5,75,0,0
100412,-76.9230769230769,4,1,5,75,0,0
101508,-66.6666666666667,4,1,5,75,0,0
102329,-133.333333333333,4,1,5,75,0,0
102603,-107.52688172043,4,1,5,75,0,0
102877,-66.6666666666667,4,1,6,75,0,0
102946,-66.6666666666667,4,1,5,75,0,0
103151,-83.3333333333333,4,1,5,75,0,0
104795,-71.4285714285714,4,1,5,75,0,0
105069,-83.3333333333333,4,1,5,75,0,0
105800,-71.4285714285714,4,1,5,75,0,0
106097,-83.3333333333333,4,1,5,75,0,0
106439,-66.6666666666667,4,1,5,75,0,0
106987,-100,4,1,5,75,0,0
110275,-142.857142857143,4,1,5,75,0,0
110731,-166.666666666667,4,1,5,75,0,0
111097,-125,4,1,5,40,0,0
113562,-125,4,1,5,45,0,0
119864,-250,4,2,5,45,0,0
124453,-250,4,2,5,5,0,0
124521,-90.9090909090909,4,1,5,65,0,0
126804,-86.9565217391304,4,1,5,70,0,0
127078,-83.3333333333333,4,1,5,70,0,0
127352,-80,4,1,5,70,0,0
127626,-76.9230769230769,4,1,5,70,0,0
127809,-200,4,1,5,55,0,0
128905,-76.9230769230769,4,1,6,70,0,0
128973,-76.9230769230769,4,1,5,70,0,0
129179,-100,4,1,5,70,0,0
130823,-133.333333333333,4,1,5,70,0,0
131097,-166.666666666667,4,1,5,70,0,0
131371,-55.5555555555556,4,1,5,70,0,0
131645,-100,4,1,5,70,0,0
132877,-117.647058823529,4,1,5,70,0,0
133288,-111.111111111111,4,1,5,70,0,0
133562,-66.6666666666667,4,1,5,70,0,0
133836,-83.3333333333333,4,1,5,70,0,0
134247,-100,4,1,5,70,0,0
134384,-76.9230769230769,4,1,5,70,0,0
135754,-86.9565217391304,4,1,5,70,0,0
136576,-83.3333333333333,4,1,5,70,0,0
137672,-62.5,4,1,5,70,0,0
138220,-76.9230769230769,4,1,5,70,0,0
139864,-125,4,1,5,70,0,0
140138,-58.8235294117647,4,1,5,70,0,0
140412,-83.3333333333333,4,1,5,70,0,0
143151,-133.333333333333,4,1,5,70,0,0
143836,-50,4,1,5,70,0,0
146439,-83.3333333333333,4,1,5,70,0,0
150823,-285.714285714284,4,2,5,45,0,0
154932,-133.333333333333,4,2,5,50,0,0
155206,-111.111111111111,4,2,5,55,0,0
159042,-83.3333333333333,4,2,5,60,0,0
159316,-133.333333333333,4,2,5,50,0,0
159590,-100,4,2,5,55,0,0
162877,-83.3333333333333,4,2,5,60,0,0
164795,-100,4,2,5,60,0,0
166165,-83.3333333333333,4,2,5,65,0,0
169316,-66.6666666666667,4,2,5,65,0,0
169453,-76.9230769230769,4,2,6,65,0,0
169521,-76.9230769230769,4,2,5,65,0,0
170549,-250,4,1,5,70,0,0
170617,-250,4,1,5,70,0,0
171645,-142.857142857143,4,1,5,70,0,0
172740,-181.818181818182,4,1,5,70,0,0
173768,-100,4,1,5,70,0,0
178220,-66.6666666666667,4,1,5,70,0,0
178973,-133.333333333333,4,1,5,70,0,0
179316,-107.52688172043,4,1,5,70,0,0
179590,-66.6666666666667,4,1,6,75,0,0
179658,-66.6666666666667,4,1,5,75,0,0
179864,-83.3333333333333,4,1,5,75,0,0
180960,-74.0740740740741,4,1,5,75,0,0
181508,-66.6666666666667,4,1,5,75,0,0
181782,-90.9090909090909,4,1,5,75,0,0
181987,-83.3333333333333,4,1,5,75,0,0
183151,-66.6666666666667,4,1,5,75,0,0
183699,-90.9090909090909,4,1,5,75,0,0
188083,-250,4,1,5,75,0,0
188357,-62.5,4,1,6,80,0,1
188425,-62.5,4,1,5,80,0,1
188562,-76.9230769230769,4,1,5,80,0,1
192466,-166.666666666667,4,1,5,80,0,1
192740,-66.6666666666667,4,1,6,80,0,1
192809,-66.6666666666667,4,1,5,80,0,1
193014,-76.9230769230769,4,1,5,80,0,1
205069,-76.9230769230769,4,1,5,60,0,0
205617,-74.0740740740741,4,1,6,70,0,0
205686,-74.0740740740741,4,1,5,70,0,0
205891,-100,4,1,5,70,0,0
206165,-83.3333333333333,4,1,5,70,0,0
208083,-71.4285714285714,4,1,5,70,0,0
208357,-83.3333333333333,4,1,5,70,0,0
208905,-71.4285714285714,4,1,5,70,0,0
209179,-100,4,1,5,70,0,0
209453,-74.0740740740741,4,1,5,70,0,0
210275,-66.6666666666667,4,1,5,70,0,0
210549,-83.3333333333333,4,1,5,70,0,0
211097,-71.4285714285714,4,1,5,70,0,0
212466,-53.475935828877,4,1,6,70,0,0
212535,-53.475935828877,4,1,5,70,0,0
212740,-71.4285714285714,4,1,5,70,0,0
213562,-76.9230769230769,4,1,5,70,0,0
214658,-62.5,4,1,5,70,0,0
214932,-76.9230769230769,4,1,5,70,0,0
216028,-68.9655172413793,4,1,5,70,0,0
216850,-62.5,4,1,5,70,0,0
217124,-76.9230769230769,4,1,5,70,0,0
218768,273.972602739726,3,2,5,60,1,0
222535,-1000,3,2,5,60,0,0
222603,-1000,3,2,5,50,0,0
222877,-1000,3,2,6,40,0,0
223151,-1000,3,2,5,30,0,0
223425,-1000,3,2,6,25,0,0
223699,-1000,3,2,5,20,0,0
223973,-1000,3,2,6,18,0,0
224247,-1000,3,2,5,16,0,0
224521,-1000,3,2,6,14,0,0
224795,-1000,3,2,5,12,0,0
225069,-1000,3,2,6,11,0,0
225343,-1000,3,2,5,10,0,0
225617,-1000,3,2,6,8,0,0
225891,-1000,3,2,5,6,0,0
226165,-1000,3,2,1,5,0,0

[Colours]
Combo1 : 102,102,113
Combo2 : 158,196,72
Combo3 : 7,222,131
Combo4 : 145,143,171
Combo5 : 191,139,104
Combo6 : 234,53,53
Combo7 : 171,50,68
Combo8 : 103,106,96

[HitObjects]
74,63,1782,37,4,3:2:0:0:
83,69,2329,2,0,L|142:60,1,48,0|2,0:0|3:2,0:0:0:0:
277,0,2809,37,4,1:2:0:0:
277,0,3151,2,0,L|350:12,1,64,2|2,0:0|0:0,0:0:0:0:
340,10,3631,1,0,3:0:0:0:
454,115,3973,70,2,B|507:151|507:151|456:198,1,128,4|2,1:2|0:0,1:0:0:0:
459,194,4727,1,2,3:2:0:0:
320,112,5001,38,0,B|245:77|257:170|184:134,1,144,4|8,3:2|1:0,0:0:0:0:
60,220,5823,1,0,1:0:0:0:
60,220,5891,2,0,B|84:280|84:280|148:256,1,120.000004577637,8|2,1:0|3:1,0:0:0:0:
295,212,6371,69,2,3:0:0:0:
295,212,6713,2,0,P|316:224|335:276,1,64,8|0,1:0|2:0,0:0:0:0:
428,144,6987,2,0,P|459:144|486:160,1,64,8|0,1:0|3:0,0:0:0:0:
512,233,7192,1,8,1:3:0:0:
512,233,7261,5,14,1:0:0:0:
340,154,7466,1,8,1:0:0:0:
169,239,7672,1,8,1:0:0:0:
268,73,7809,6,0,B|310:147|310:147|285:208|225:189,1,180.000006866455,6|0,1:0|0:0,0:0:0:0:
236,191,8083,2,0,L|213:151,6,30.0000011444092
257,55,8357,54,0,B|214:44|193:77|193:77|171:117|117:112,1,143.999995605469,4|0,1:0|2:0,0:0:0:0:
135,112,8631,2,0,B|95:104|95:104|90:106|90:106|18:92,1,95.9999970703126,8|0,0:0|2:0,0:0:0:0:
314,199,8905,2,0,B|363:185|363:185|408:203|408:203|466:186,1,143.999995605469,0|0,0:0|2:0,0:0:0:0:
463,186,9179,1,8,0:0:0:0:
406,333,9361,6,0,B|436:333|480:353|480:353|522:352|545:287|504:258,1,191.999994140625,2|0,0:0|0:0,0:0:0:0:
313,173,9727,2,0,L|177:196,1,127.99999609375,8|2,0:0|2:0,0:0:0:0:
168,194,10001,2,0,B|168:180|168:180|248:166,1,95.9999970703126,2|0,0:0|2:0,0:0:0:0:
419,353,10275,2,0,B|442:338|442:338|406:249|406:249|434:232,1,143.999995605469,10|0,0:0|2:0,0:0:0:0:
442,232,10549,102,0,L|490:216,1,47.9999985351563,2|0,0:0|2:0,0:0:0:0:
313,39,10754,1,0,0:0:0:0:
313,39,10823,2,0,B|295:22|295:22|238:39|238:39|210:104|160:92,1,180.000006866455,14|0,0:0|0:0,0:0:0:0:
150,87,11097,1,2,0:2:0:0:
388,178,11279,5,2,0:3:0:0:
398,99,11371,2,0,P|414:126|413:175,1,63.9999980468751,8|0,0:0|2:0,0:0:0:0:
496,256,11553,1,2,0:0:0:0:
496,256,11645,2,0,B|415:238|433:286|343:261,1,149.333328776042,2|0,0:3|0:0,0:0:0:0:
229,229,11918,102,0,B|188:236|188:236|185:239|185:239|147:246,1,80,10|0,0:0|0:0,0:0:0:0:
73,261,12124,1,8,0:3:0:0:
53,266,12192,6,0,P|32:212|115:171,1,162.000000617981,10|0,0:0|0:0,0:0:0:0:
242,227,12466,2,0,P|263:281|178:327,1,162.000000617981,12|0,0:2|0:0,0:0:0:0:
151,245,12740,101,2,2:0:0:0:
339,25,12946,1,0,0:0:0:0:
339,25,13014,2,0,B|277:38|277:38|232:81|287:128,1,160.000006103516,14|0,0:0|2:0,0:0:0:0:
432,224,13288,6,0,P|410:168|350:186,1,127.99999609375,2|2,0:0|3:0,0:0:0:0:
342,168,13562,2,0,P|398:146|380:86,1,127.99999609375,10|2,0:0|3:0,0:0:0:0:
269,28,13836,101,14,0:2:0:0:
269,28,13928,2,0,L|253:100,1,53.3333333333333,0|0,0:0|3:0,0:0:0:0:
74,123,14110,6,0,B|85:109|85:109|180:127,1,103.999995239258,10|0,0:0|2:0,0:0:0:0:
257,80,14293,2,0,B|251:103|251:103|256:123|256:123|237:195,1,103.999995239258,10|2,0:0|2:0,0:0:0:0:
332,270,14521,101,2,0:0:0:0:
332,270,14590,2,0,P|306:264|282:245,1,51.999997619629,8|8,0:0|0:0,0:0:0:0:
167,209,14726,5,8,0:3:0:0:
167,209,14795,2,0,P|143:227|134:257,1,51.999997619629,2|2,0:0|0:2,0:0:0:0:
43,311,14932,5,4,0:1:0:0:
43,311,15206,2,0,L|131:334,1,71.9999978027344,8|0,0:0|2:0,0:0:0:0:
228,258,15480,2,0,L|342:235,1,95.9999970703126,2|0,2:0|3:0,0:0:0:0:
322,239,15754,1,8,0:0:0:0:
478,306,15937,5,0,0:0:0:0:
494,314,16028,2,0,P|534:277|463:241,1,143.999995605469,2|8,2:0|0:0,0:0:0:0:
473,235,16439,2,0,P|433:198|504:162,1,143.999995605469,0|2,2:0|2:0,0:0:0:0:
488,152,16850,102,0,L|474:65,1,71.9999978027344,8|0,0:0|2:0,0:0:0:0:
494,314,17124,2,0,B|349:353,1,143.999995605469,2|8,3:0|1:0,0:0:0:0:
77,262,17672,6,0,P|33:278|30:343,1,95.9999970703126,2|0,2:0|0:0,0:0:0:0:
132,377,17946,2,0,P|176:368|239:362,1,95.9999970703126,8|0,0:0|3:0,0:0:0:0:
227,363,18220,102,0,P|253:311|230:197,1,143.999995605469,2|8,2:1|0:0,0:0:0:0:
235,221,18631,2,0,P|226:150|253:105,1,107.999996704102,2|0,2:0|0:0,0:0:0:0:
255,109,18905,1,8,0:3:0:0:
290,39,19042,1,8,0:0:0:0:
141,7,19179,5,8,0:0:0:0:
141,7,19247,1,8,0:0:0:0:
141,7,19316,2,0,P|106:18|43:25,1,71.9999978027344,6|0,0:0|2:0,0:0:0:0:
182,107,19590,2,0,B|176:177|237:181|220:258,2,143.999995605469,8|0|8,0:0|2:0|0:0,0:0:0:0:
168,317,20320,101,2,0:3:0:0:
168,317,20412,2,0,P|107:319|78:240,1,143.999995605469,2|8,2:0|0:0,0:0:0:0:
311,365,20823,2,0,P|372:367|401:288,1,143.999995605469,2|0,2:0|2:0,0:0:0:0:
246,195,21234,2,0,L|225:280,1,71.9999978027344,8|0,0:0|2:0,0:0:0:0:
355,169,21508,70,2,B|246:153|239:203|125:181,1,224,6|0,3:1|2:0,1:0:0:0:
0,137,22603,53,10,0:0:0:0:
79,134,22695,1,2,0:3:0:0:
133,182,22786,1,2,0:3:0:0:
201,229,22877,5,10,0:0:0:0:
243,241,22969,1,2,0:3:0:0:
282,222,23060,1,2,0:3:0:0:
355,169,23151,21,4,3:2:0:0:
512,309,23699,70,0,B|471:283|434:319|434:319|441:367|398:392,1,160,6|8,0:1|0:0,0:0:0:0:
236,333,24110,2,0,P|272:332|313:365,1,80,2|2,2:0|0:0,0:0:0:0:
418,218,24384,85,2,0:3:0:0:
307,356,24521,2,0,P|309:318|325:273,1,80,8|0,0:0|2:0,0:0:0:0:
241,93,24795,2,0,B|215:135|215:135|192:147|192:147|165:191,1,120,2|0,0:0|2:0,0:0:0:0:
163,197,25069,1,8,0:0:0:0:
71,338,25206,2,0,B|29:361|29:361|-18:347|-33:302|8:266,1,160,2|0,2:0|2:0,0:0:0:0:
71,338,25617,1,8,0:0:0:0:
312,185,25823,21,0,0:0:0:0:
312,185,25891,2,0,B|384:169|384:169|398:175|398:175|445:239,1,160,2|8,0:0|0:0,0:0:0:0:
316,93,26302,2,0,L|218:56,1,80,2|0,2:0|2:0,0:0:0:0:
316,93,26576,85,2,0:3:0:0:
177,202,26713,2,0,L|150:298,1,80,8|0,0:0|3:0,0:0:0:0:
139,356,26918,1,8,0:3:0:0:
136,366,26987,22,0,P|82:379|55:330,1,120.000004577637,6|0,0:0|2:0,0:0:0:0:
196,274,27192,86,0,P|245:300|231:354,1,120.000004577637,6|0,0:2|2:0,0:0:0:0:
76,250,27398,22,0,P|82:221|136:200,1,60.0000022888184,2|0,0:3|0:0,0:0:0:0:
313,168,27535,86,0,L|431:183,1,88.000002685547,6|0,0:0|3:0,0:0:0:0:
469,170,27740,2,0,L|530:179,1,44.0000013427735,0|8,3:0|0:0,0:0:0:0:
239,58,27992,22,0,L|254:-27,1,58.6666684570313,0|12,3:0|0:0,0:0:0:0:
249,0,28539,1,8,0:0:0:0:
241,73,28813,1,0,3:0:0:0:
241,73,28905,2,0,B|185:215|350:180|284:342,1,277.333320638021,10|0,0:0|2:0,0:0:0:0:
243,384,29361,1,8,0:0:0:0:
448,232,29590,53,0,3:0:0:0:
448,232,29658,1,0,3:0:0:0:
448,232,29727,2,0,L|380:252,1,64,10|0,0:0|2:0,0:0:0:0:
252,168,30001,2,0,L|132:144,1,88.000002685547,10|0,0:0|2:0,0:0:0:0:
0,212,30275,53,6,0:2:0:0:
69,234,30549,1,6,0:2:0:0:
223,195,30823,1,6,0:2:0:0:
296,213,31097,1,14,0:2:0:0:
53,278,31371,5,12,0:0:0:0:
144,244,31508,1,0,3:0:0:0:
260,193,31645,5,10,0:0:0:0:
369,241,31782,1,0,3:0:0:0:
381,244,31850,1,8,3:0:0:0:
375,250,31918,1,8,0:0:0:0:
443,206,32055,1,2,0:0:0:0:
454,212,32124,2,0,L|524:198,1,60,4|0,2:2|2:0,0:0:0:0:
512,200,32398,1,2,2:0:0:0:
512,200,32466,1,6,0:0:0:0:
299,322,32740,6,0,P|289:345|279:379,1,55.9999982910157,0|2,0:0|0:0,0:0:0:0:
299,322,33288,1,0,0:0:0:0:
147,248,33562,2,0,P|123:253|87:266,1,55.9999982910157,2|0,0:0|0:0,0:0:0:0:
93,263,33973,2,0,L|84:233,1,27.9999991455078,0|2,0:0|0:0,0:0:0:0:
196,76,34293,5,0,3:0:0:0:
196,76,34384,2,0,P|169:95|167:152,1,77.9999964294435
230,205,34658,102,0,L|290:223,1,55.9999982910157,2|0,0:0|0:0,0:0:0:0:
340,272,35206,2,0,L|363:215,1,55.9999982910157,2|0,0:0|0:0,0:0:0:0:
422,175,35617,1,0,0:0:0:0:
502,271,35754,2,0,L|485:217,1,55.9999982910157,2|0,0:0|0:0,0:0:0:0:
431,353,36211,5,2,1:0:0:0:
431,353,36302,2,0,B|424:322|424:322|432:301|432:301|416:257,1,80
420,121,36508,54,0,B|403:84|403:84|362:70|336:104|336:104|353:149,1,160,4|0,3:2|0:0,0:0:0:0:
411,204,36850,69,8,1:0:0:0:
261,275,37033,1,0,3:0:0:0:
273,352,37124,1,8,0:0:0:0:
8,272,37329,5,8,0:0:0:0:
96,161,37466,2,0,P|103:198|104:240,1,71.9999978027344,4|8,0:0|0:0,0:0:0:0:
104,232,37672,2,0,P|112:280|116:344,1,95.9999970703126,2|0,0:2|2:0,0:0:0:0:
220,384,37946,101,8,0:0:0:0:
256,232,38151,5,8,0:0:0:0:
244,36,38357,101,0,0:0:0:0:
256,40,38425,1,0,3:0:0:0:
252,32,38494,1,8,0:0:0:0:
289,205,38768,6,0,L|368:195,1,71.9999978027344,12|0,0:2|3:0,0:0:0:0:
440,186,38973,1,8,0:3:0:0:
440,186,39042,101,12,0:0:0:0:
360,196,39179,1,8,3:0:0:0:
240,277,39316,5,10,0:0:0:0:
219,173,39453,1,8,3:0:0:0:
79,167,39590,37,10,0:0:0:0:
27,223,39681,1,2,0:3:0:0:
51,295,39772,1,2,0:3:0:0:
119,291,39864,5,8,0:0:0:0:
144,254,39955,1,2,0:3:0:0:
135,211,40046,1,2,0:3:0:0:
11,151,40138,21,6,2:0:0:0:
11,151,41234,70,0,B|2:133|2:133|61:70|137:112|91:130,1,160.000006103516,6|0,0:0|2:0,0:0:0:0:
101,206,41508,2,0,B|172:192|124:213|203:198,1,95.9999970703126,10|0,0:0|0:0,0:0:0:0:
439,362,41782,2,0,B|415:339|369:344|369:344|411:302|385:248,1,167.999994873047,2|0,2:0|3:0,0:0:0:0:
297,276,42055,5,8,0:0:0:0:
407,4,42238,2,0,B|394:41|394:41|459:92|459:92|445:147,1,160,6|0,2:0|2:0,0:0:0:0:
479,231,42603,102,0,B|443:297|353:254|373:175,1,180.000006866455,10|0,0:0|2:0,0:0:0:0:
372,178,42877,2,0,P|343:168|308:144,1,60.0000022888184,2|0,0:0|2:0,0:0:0:0:
115,250,43060,1,0,3:0:0:0:
115,250,43151,2,0,P|79:273|-9:283,1,106.666666666667,8|0,0:0|0:0,0:0:0:0:
6,281,43425,6,0,P|49:276|85:325,1,95.9999970703126,4|0,0:0|2:0,0:0:0:0:
373,179,43699,2,0,P|330:174|263:253,1,143.999995605469,10|0,0:0|2:0,0:0:0:0:
323,352,43973,101,4,0:2:0:0:
160,266,44110,1,2,0:2:0:0:
373,179,44247,5,8,0:0:0:0:
264,240,44430,2,0,P|189:231|173:147,1,159.999995117188,2|0,0:0|2:0,0:0:0:0:
108,331,44795,102,0,P|115:290|174:268,1,95.9999970703126,8|0,0:0|2:0,0:0:0:0:
453,155,45069,2,0,P|494:174|505:220,1,95.9999970703126,14|0,0:0|2:0,0:0:0:0:
422,299,45343,22,0,P|395:294|371:280,1,47.9999985351563,10|2,0:0|2:0,0:0:0:0:
233,220,45480,2,0,P|261:215|292:202,1,47.9999985351563,10|2,0:0|2:0,0:0:0:0:
453,155,45617,102,0,B|428:156|387:173|387:173|346:172|312:120|351:97,1,167.999994873047,6|0,0:0|2:0,0:0:0:0:
402,55,45891,2,0,L|524:80,1,95.9999970703126,8|0,0:0|0:0,0:0:0:0:
365,257,46165,2,0,B|323:268|312:302|312:302|331:346|301:390,1,138.666660319011,2|0,2:0|3:0,0:0:0:0:
201,340,46439,101,8,1:0:0:0:
462,186,46622,2,0,B|380:191|388:154|287:162,1,160,2|0,0:2|2:0,0:0:0:0:
114,172,46987,6,0,P|136:216|209:211,1,103.999995239258,10|0,0:0|0:0,0:0:0:0:
187,225,47192,1,8,0:3:0:0:
187,225,47261,2,0,P|136:269|206:310,1,138.666660319011,0|0,0:0|3:0,0:0:0:0:
263,293,47535,6,0,P|257:278|255:254,1,40,10|0,0:0|2:0,0:0:0:0:
187,225,47672,2,0,P|189:205|203:182,1,40,10|0,0:0|2:0,0:0:0:0:
316,32,47809,86,0,B|340:66|314:107|314:107|282:134|284:185,1,155.999992858887,6|0,0:0|0:0,0:0:0:0:
283,174,48083,2,0,P|307:192|380:222,1,103.999995239258,2|0,3:0|2:0,0:0:0:0:
287,34,48357,5,4,0:0:0:0:
424,144,48494,2,0,L|490:130,2,51.999997619629,0|8|10,0:0|3:0|0:0,0:0:0:0:
282,276,48768,1,2,2:0:0:0:
439,252,48905,101,10,0:0:0:0:
439,252,48996,2,0,P|417:225|358:229,1,80.0000030517579,8|8,0:3|0:3,0:0:0:0:
230,192,49179,5,10,0:0:0:0:
230,192,49270,2,0,P|196:202|176:248,1,80.0000030517579
115,160,49453,6,0,B|170:172|170:172|175:177|175:177|242:195,1,120.000004577637,10|2,0:0|2:0,0:0:0:0:
383,215,49658,6,0,B|371:228|371:228|480:213,1,120.000004577637,6|0,0:0|2:0,0:0:0:0:
483,229,50001,6,0,B|427:236|427:236|424:239|424:239|352:248,1,111.600003490906,2|0,0:3|2:0,0:0:0:0:
255,307,50275,54,0,B|180:290|191:359|107:333,1,143.999995605469,14|0,0:0|2:0,0:0:0:0:
103,330,50549,1,2,0:2:0:0:
286,96,50731,1,0,3:0:0:0:
286,96,50823,2,0,P|294:127|286:180,1,63.9999980468751,8|0,0:0|2:0,0:0:0:0:
399,208,51005,5,2,0:0:0:0:
465,163,51097,2,0,P|442:114|374:135,1,127.99999609375,2|0,2:0|3:0,0:0:0:0:
210,52,51371,2,0,P|238:0|296:15,1,127.99999609375,8|0,1:0|3:0,0:0:0:0:
302,29,51645,102,0,P|273:80|215:65,1,127.99999609375,2|0,2:2|3:0,0:0:0:0:
50,201,51918,2,0,P|107:216|136:164,1,127.99999609375,8|0,1:0|3:0,0:0:0:0:
131,13,52192,6,0,B|55:-5|55:-5|22:2|-2:41|37:81,1,167.999994873047,2|0,0:2|2:0,0:0:0:0:
32,72,52466,2,0,L|128:94,1,88.000002685547,8|0,0:0|2:0,0:0:0:0:
271,274,52740,2,0,P|256:242|249:147,1,117.333336914063,0|0,0:0|3:0,0:0:0:0:
246,161,53014,5,10,0:0:0:0:
395,60,53151,2,0,B|419:28|497:75|486:152|438:181,1,176.000005371094,2|0,2:2|3:0,0:0:0:0:
452,169,53494,1,8,0:3:0:0:
452,169,53562,2,0,L|370:151,1,80,8|0,0:0|0:0,0:0:0:0:
178,358,53836,101,8,0:0:0:0:
178,358,53905,2,0,B|191:318|191:318|219:303|219:303|235:248,1,120.000004577637,2|0,0:0|3:0,0:0:0:0:
221,164,54110,6,0,B|250:187|245:229|209:239|209:239|110:226,1,180.000006866455,8|0,0:0|2:0,0:0:0:0:
5,243,54384,102,0,B|-15:213|-15:213|-14:171|45:132,2,128,6|8|0,0:2|0:0|2:0,0:0:0:0:
221,164,55115,5,0,3:0:0:0:
238,277,55206,1,8,0:0:0:0:
422,110,55389,101,0,0:0:0:0:
422,110,55480,2,0,P|388:71|322:94,1,127.99999609375,6|0,0:2|2:0,0:0:0:0:
257,178,55754,2,0,P|312:186|340:121,1,127.99999609375,8|0,0:2|3:0,0:0:0:0:
342,129,56028,2,0,P|297:162|334:232,1,127.99999609375,6|0,0:2|2:0,0:0:0:0:
389,300,56302,2,0,P|395:228|347:210,1,127.99999609375,8|0,0:2|3:0,0:0:0:0:
214,167,56576,6,0,P|191:171|152:186,1,47.9999985351563,14|0,0:0|2:0,0:0:0:0:
422,110,56782,102,0,P|445:118|469:121,1,47.9999985351563,6|0,0:0|2:0,0:0:0:0:
422,110,57055,6,0,B|466:120|482:152|482:152|476:197|517:220,1,143.999995605469,8|0,0:0|3:0,0:0:0:0:
214,167,57398,102,0,B|170:177|154:209|154:209|160:254|119:277,1,143.999995605469,8|4,0:0|3:2,0:0:0:0:
382,244,57877,6,0,P|341:240|295:242,1,80,10|0,0:0|2:0,0:0:0:0:
190,193,58083,101,0,0:0:0:0:
190,193,58151,1,2,0:0:0:0:
190,193,58220,2,0,P|206:182|244:173,1,40,10|2,0:0|0:2,0:0:0:0:
353,95,58357,38,0,P|374:99|420:122,1,40,2|0,2:0|2:0,0:0:0:0:
392,106,58494,6,0,B|446:201|301:176|351:285,1,191.999994140625,10|2,3:1|3:0,0:0:0:0:
351,275,59042,1,0,3:0:0:0:
19,145,59316,2,0,P|63:143|103:184,1,95.9999970703126,12|0,0:0|3:0,0:0:0:0:
195,266,59590,54,0,B|133:236|113:273|51:242,2,143.999995605469,8|0|0,0:0|3:0|0:0,0:0:0:0:
268,337,60275,1,2,2:0:0:0:
419,185,60412,2,0,P|372:197|311:208,1,95.9999970703126,8|0,0:0|3:0,0:0:0:0:
325,206,60686,2,0,P|335:242|338:283,1,71.9999978027344,8|0,0:0|2:0,0:0:0:0:
434,265,60960,53,2,0:3:0:0:
285,359,61142,1,8,0:3:0:0:
285,359,61234,1,2,0:2:0:0:
127,267,61416,1,8,0:3:0:0:
127,267,61508,2,0,P|87:283|26:293,1,95.9999970703126,8|0,0:0|3:0,0:0:0:0:
35,292,61782,2,0,P|9:268|26:204,1,95.9999970703126,10|0,0:0|3:0,0:0:0:0:
107,162,62055,53,8,0:0:0:0:
373,218,62238,1,8,0:3:0:0:
373,218,62329,2,0,L|451:191,1,71.9999978027344,8|2,0:0|0:0,0:0:0:0:
418,125,62603,1,12,3:0:0:0:
441,194,62740,1,0,3:0:0:0:
337,115,62877,2,0,L|261:102,1,71.9999978027344,8|0,0:0|2:0,0:0:0:0:
193,78,63083,1,2,2:0:0:0:
177,73,63151,54,0,B|156:63|156:63|68:80,2,95.9999970703126,2|0|0,0:3|3:0|2:0,0:0:0:0:
456,283,63699,2,0,B|497:256|497:256|476:201,1,95.9999970703126,12|2,0:0|3:1,0:0:0:0:
362,164,63973,2,0,L|236:188,1,95.9999970703126,8|0,0:0|3:0,0:0:0:0:
267,181,64247,2,0,P|274:202|280:283,1,95.9999970703126,2|0,2:0|3:0,0:0:0:0:
209,374,64521,2,0,P|200:342|205:265,1,95.9999970703126,8|0,0:0|3:0,0:0:0:0:
201,279,64795,54,0,L|111:259,2,63.9999980468751,12|8|8,0:0|0:3|0:3,0:0:0:0:
310,352,65069,2,0,L|399:330,2,63.9999980468751,8|8|8,3:0|0:3|0:3,0:0:0:0:
193,378,65343,53,12,0:0:0:0:
317,261,65480,1,0,3:0:0:0:
317,261,65549,1,8,3:3:0:0:
317,261,65617,2,0,P|315:221|281:187,1,80,10|0,0:0|0:0,0:0:0:0:
71,105,65891,2,0,L|40:192,1,80,8|0,0:0|0:0,0:0:0:0:
275,64,66165,1,10,0:0:0:0:
290,191,66302,54,0,L|282:141,1,40
189,108,66439,53,8,0:0:0:0:
237,121,66530,1,2,3:2:0:0:
283,151,66622,1,2,3:2:0:0:
363,209,66713,53,10,0:3:0:0:
290,226,66805,1,8,0:3:0:0:
228,273,66896,1,8,0:3:0:0:
155,362,66987,37,14,0:0:0:0:
155,362,67535,6,0,B|89:373|89:373|31:344|77:294,1,160,6|8,0:0|0:0,0:0:0:0:
272,264,67946,2,0,P|260:301|253:348,1,80,2|0,0:2|2:0,0:0:0:0:
371,330,68220,21,2,0:0:0:0:
256,149,68357,2,0,P|292:149|346:183,1,80,8|0,0:0|2:0,0:0:0:0:
387,225,68562,1,2,2:3:0:0:
392,234,68631,1,2,2:2:0:0:
197,240,68768,86,0,L|141:254,2,40,0|0|8,2:2|3:0|0:0,0:0:0:0:
442,155,69042,2,0,B|405:143|405:143|345:156|345:156|377:133|372:101,1,160,2|0,2:0|2:0,0:0:0:0:
231,9,69453,2,0,B|218:-1|218:-1|106:17,1,120,8|0,0:0|2:0,0:0:0:0:
108,16,69727,1,2,0:0:0:0:
389,97,70001,21,8,0:0:0:0:
489,20,70138,2,0,B|493:56|521:97|521:97|479:107|447:145,1,160,2|0,2:0|3:0,0:0:0:0:
194,222,70549,86,0,B|265:207|225:183|302:167,1,120,8|0,0:0|2:0,0:0:0:0:
389,97,70823,22,0,B|417:133|417:133|391:197,1,111.999996582031,10|0,0:0|0:0,0:0:0:0:
399,214,71028,2,0,L|470:238,1,55.9999982910157,2|12,2:0|0:0,0:0:0:0:
307,60,71234,1,2,2:0:0:0:
318,250,71371,86,0,L|298:352,1,88.000002685547,10|2,0:0|0:3,0:0:0:0:
301,336,71576,1,8,0:3:0:0:
301,336,71645,1,10,0:0:0:0:
414,262,71782,1,10,0:0:0:0:
131,312,71918,21,8,0:0:0:0:
131,312,72375,1,8,0:0:0:0:
180,372,72649,1,0,3:0:0:0:
180,372,72740,2,0,B|223:398|293:348|272:286|272:286|234:169,1,277.333320638021,10|0,0:0|2:0,0:0:0:0:
208,100,73197,1,8,0:0:0:0:
166,291,73425,53,0,0:0:0:0:
166,291,73494,1,0,0:0:0:0:
166,291,73562,2,0,P|197:282|224:256,1,64,14|0,0:0|2:0,0:0:0:0:
391,185,73836,2,0,P|351:177|321:142,1,88.000002685547,10|0,0:0|0:0,0:0:0:0:
254,11,74110,53,6,0:0:0:0:
276,81,74384,1,6,0:0:0:0:
252,125,74658,1,6,0:0:0:0:
263,199,74932,1,14,0:0:0:0:
229,273,75206,5,10,0:0:0:0:
281,376,75343,1,12,3:0:0:0:
298,365,75412,1,10,0:3:0:0:
284,357,75480,1,10,0:0:0:0:
229,273,75617,5,2,0:0:0:0:
294,156,75754,1,8,0:0:0:0:
219,108,75891,1,8,3:0:0:0:
219,108,75937,2,0,B|117:51|124:148|24:119,1,176.000005371094,6|2,0:0|2:3,0:0:0:0:
35,119,76302,1,4,3:2:0:0:
299,20,76576,6,0,L|345:38,1,40,0|2,0:0|0:3,0:0:0:0:
390,89,76850,2,0,L|482:69,1,80,2|0,0:0|0:0,0:0:0:0:
468,72,77261,1,0,0:0:0:0:
375,163,77398,2,0,P|404:186|432:230,1,80,2|2,0:0|0:3,0:0:0:0:
404,288,77809,1,0,0:0:0:0:
404,288,78129,85,0,3:0:0:0:
287,242,78220,2,0,B|253:247|253:247|242:254|242:254|196:261,1,80.0000030517579,8|2,0:0|3:2,0:0:0:0:
108,323,78494,37,6,0:0:0:0:
108,323,78768,2,0,P|119:284|129:232,1,80,2|2,0:3|0:0,0:0:0:0:
161,178,79179,2,0,P|146:163|121:110,1,80,2|0,0:3|0:0,0:0:0:0:
156,85,79521,102,0,P|116:140|11:125,1,180,2|2,0:0|1:3,0:0:0:0:
71,227,80343,2,0,P|68:256|55:296,1,60,4|0,3:2|0:0,0:0:0:0:
13,358,80686,5,4,3:2:0:0:
180,310,80960,1,2,0:0:0:0:
232,359,81097,2,0,L|277:348,1,40,0|2,0:0|0:0,0:0:0:0:
363,298,81371,1,2,0:3:0:0:
363,298,81645,1,0,0:0:0:0:
250,147,81782,102,0,P|244:179|240:237,1,80,2|2,0:0|0:3,0:0:0:0:
248,233,82329,5,0,0:0:0:0:
278,132,82466,1,0,3:0:0:0:
264,27,82603,1,8,0:0:0:0:
239,16,82877,102,0,L|146:32,1,80,6|2,3:2|0:3,0:0:0:0:
160,29,83288,2,0,P|168:46|180:82,1,40,0|2,0:0|0:0,0:0:0:0:
276,130,83562,2,0,P|266:162|255:222,1,80,2|0,0:3|0:0,0:0:0:0:
214,270,83973,2,0,P|218:286|223:333,2,53.3333333333333,2|2|2,0:0|0:3|0:3,0:0:0:0:
75,160,84521,85,8,1:2:0:0:
30,143,84590,1,8,1:2:0:0:
19,155,84658,1,2,1:2:0:0:
0,142,84727,1,6,3:2:0:0:
8,258,85069,86,0,B|51:248|51:248|77:252|77:252|138:237,1,120.000004577637,4|0,1:0|0:0,0:0:0:0:
304,165,85617,2,0,P|328:180|364:190,1,60.0000022888184,8|0,1:0|0:0,0:0:0:0:
428,149,85891,2,0,P|416:112|406:49,1,80.0000030517579,2|0,0:0|3:0,0:0:0:0:
408,71,86165,6,0,P|351:77|305:21,1,120.000004577637,4|0,0:0|3:0,0:0:0:0:
360,182,86576,1,2,0:0:0:0:
428,149,86713,2,0,P|446:142|502:136,1,60.0000022888184,12|0,1:0|0:0,0:0:0:0:
344,254,86987,2,0,P|329:282|314:343,1,80.0000030517579,2|8,0:0|3:0,0:0:0:0:
315,328,87261,102,0,P|332:342|373:353,1,60.0000022888184,4|0,3:2|0:0,0:0:0:0:
218,263,87535,2,0,B|160:268|155:300|89:299,2,120.000004577637,2|12|0,0:0|1:0|0:0,0:0:0:0:
347,147,88266,1,0,3:0:0:0:
347,147,88357,2,0,P|332:99|337:39,1,80.0000030517579,6|2,0:0|0:0,0:0:0:0:
331,69,88631,2,0,P|291:58|255:34,1,80.0000030517579,0|2,3:0|0:3,0:0:0:0:
180,0,88905,6,0,L|122:13,1,40.000001525879,10|0,1:0|0:0,0:0:0:0:
251,130,89110,2,0,B|198:113|185:147|126:120,1,120.000004577637,6|0,3:2|0:0,0:0:0:0:
59,59,89453,69,12,0:0:0:0:
56,216,89635,1,0,3:0:0:0:
33,286,89727,1,12,0:0:0:0:
209,382,89932,1,8,0:0:0:0:
209,382,90001,2,0,P|206:351|218:267,1,107.999996704102,2|8,0:3|0:0,0:0:0:0:
215,275,90275,2,0,P|213:240|206:198,1,71.9999978027344,0|0,0:0|2:0,0:0:0:0:
119,115,90549,5,10,0:0:0:0:
303,191,90754,101,8,0:0:0:0:
504,128,90960,5,0,3:0:0:0:
512,137,91028,1,8,3:0:0:0:
512,126,91097,1,10,0:0:0:0:
192,244,91371,102,0,L|105:261,1,71.9999978027344,12|8,0:0|0:3,0:0:0:0:
49,276,91576,1,0,0:0:0:0:
49,276,91645,5,14,0:0:0:0:
121,257,91782,1,8,3:0:0:0:
182,156,91918,101,14,0:0:0:0:
292,196,92055,1,0,3:0:0:0:
304,199,92124,1,8,3:0:0:0:
300,207,92192,1,10,0:0:0:0:
365,311,92329,5,0,0:0:0:0:
512,230,92466,2,0,B|504:220|504:220|499:185|499:185|506:178|506:178|501:136|501:136|478:121,1,111.999996582031,6|2,0:0|3:0,0:0:0:0:
245,0,93288,101,10,2:1:0:0:
215,52,93380,5,8,2:1:0:0:
223,119,93471,5,8,2:1:0:0:
264,167,93562,5,8,2:1:0:0:
294,229,93654,5,8,2:1:0:0:
266,306,93745,5,8,2:1:0:0:
185,352,93836,102,0,B|172:341|172:341|113:331|113:331|51:389|11:364,1,180.000006866455,6|0,1:0|2:0,0:0:0:0:
11,363,94110,2,0,L|113:347,1,95.9999970703126,10|0,0:0|0:0,0:0:0:0:
335,177,94384,2,0,B|297:202|320:247|320:247|376:263|380:313,1,167.999994873047,2|0,2:2|2:0,0:0:0:0:
302,329,94658,1,8,0:0:0:0:
98,110,94841,6,0,B|72:104|72:104|54:106|54:106|32:101|32:101|-39:130|10:183,1,160,2|0,2:0|2:0,0:0:0:0:
14,263,95206,102,0,B|36:262|36:262|93:293|93:293|152:273|152:273|161:330|204:347,1,240.000009155274,10|0,0:0|3:0,0:0:0:0:
423,256,95663,1,0,3:0:0:0:
423,256,95754,2,0,B|411:218|411:218|426:185|426:185|406:136,1,117.333336914063,10|0,0:0|2:0,0:0:0:0:
431,45,96028,6,0,P|385:62|326:69,1,95.9999970703126,6|0,0:0|0:0,0:0:0:0:
160,261,96302,2,0,B|156:203|210:186|198:122,1,143.999995605469,14|0,0:0|2:0,0:0:0:0:
103,62,96576,101,2,0:3:0:0:
198,125,96713,1,2,2:0:0:0:
305,210,96850,5,10,0:0:0:0:
177,364,96987,2,0,P|301:330|310:269,1,191.999994140625,2|0,3:1|0:0,0:0:0:0:
498,211,97398,101,12,0:0:0:0:
468,127,97535,1,2,0:2:0:0:
338,78,97672,5,10,0:0:0:0:
285,200,97809,1,8,0:3:0:0:
407,176,97946,6,0,L|354:185,1,47.9999985351563,12|0,0:0|2:0,0:0:0:0:
285,200,98083,2,0,L|237:208,1,47.9999985351563,10|0,0:0|2:0,0:0:0:0:
34,209,98220,6,0,B|23:250|23:250|43:237|73:241,1,90.0000034332277,0|0,3:0|2:0,0:0:0:0:
58,318,98494,70,0,P|89:273|91:127,1,170.666666666667,14|0,0:0|2:0,0:0:0:0:
179,96,98768,2,0,B|197:104|236:116|236:116|217:158|209:194,1,127.99999609375,2|0,0:2|3:0,0:0:0:0:
188,266,99042,5,8,0:0:0:0:
462,120,99224,2,0,B|419:105|384:136|384:136|388:141|388:141|347:193|298:177,1,191.999994140625,2|0,2:0|2:0,0:0:0:0:
138,5,99590,102,0,B|184:12|184:12|191:16|191:16|250:27,1,103.999995239258,10|0,0:0|0:0,0:0:0:0:
319,40,99795,1,0,0:0:0:0:
319,40,99864,1,0,0:0:0:0:
270,211,100001,1,2,0:3:0:0:
331,113,100138,22,0,L|323:163,1,40,10|0,0:0|2:0,0:0:0:0:
270,211,100275,2,0,L|279:257,1,40,10|2,3:0|2:0,0:0:0:0:
348,342,100412,102,0,B|287:332|249:347|249:347|180:337,1,155.999992858887,6|0,0:0|2:0,0:0:0:0:
172,348,100686,2,0,P|150:317|195:243,1,103.999995239258,4|0,0:0|2:0,0:0:0:0:
309,225,100960,101,6,0:0:0:0:
206,148,101097,1,0,0:0:0:0:
282,319,101234,1,12,0:0:0:0:
436,211,101371,1,2,2:0:0:0:
336,144,101508,5,10,0:0:0:0:
336,144,101599,2,0,P|298:160|283:201,1,80.0000030517579,8|8,0:3|0:3,0:0:0:0:
101,320,101782,101,8,0:0:0:0:
101,320,101873,2,0,P|117:282|158:267,1,80.0000030517579,10|8,0:3|0:3,0:0:0:0:
247,275,102055,6,0,B|269:241|234:199|234:199|227:201|227:201|189:151|220:117,1,180.000006866455,10|0,0:0|2:0,0:0:0:0:
323,17,102329,22,0,L|421:40,1,90.0000034332277,4|0,0:0|2:0,0:0:0:0:
410,37,102603,6,0,P|358:45|339:99,1,111.600003490906,2|0,0:3|2:0,0:0:0:0:
425,234,102877,54,0,B|489:253|489:253|539:253|558:196|502:174,1,180.000006866455,12|0,0:0|2:0,0:0:0:0:
494,170,103151,1,2,0:0:0:0:
264,264,103334,1,0,3:0:0:0:
264,264,103425,2,0,L|273:328,1,63.9999980468751,10|0,0:0|2:0,0:0:0:0:
279,156,103608,5,2,0:0:0:0:
191,197,103699,2,0,P|218:146|286:166,1,127.99999609375,2|0,2:0|3:0,0:0:0:0:
376,186,103973,2,0,P|349:135|281:155,1,127.99999609375,8|0,0:0|3:0,0:0:0:0:
199,210,104247,102,0,P|143:226|109:164,1,127.99999609375,2|0,0:3|3:0,0:0:0:0:
10,229,104521,2,0,P|65:245|99:183,1,127.99999609375,10|0,0:0|3:0,0:0:0:0:
253,63,104795,6,0,B|267:112|226:140|226:140|187:167|201:222,1,167.999994873047,6|0,3:2|2:0,0:0:0:0:
199,210,105069,2,0,L|310:232,1,95.9999970703126,8|0,0:0|0:0,0:0:0:0:
367,250,105275,1,8,0:3:0:0:
379,256,105343,101,2,0:0:0:0:
321,142,105480,1,8,0:3:0:0:
184,302,105617,5,8,0:0:0:0:
321,142,105800,2,0,B|355:88|355:88|219:144,1,186.666660970052,6|0,2:0|3:0,0:0:0:0:
86,0,106165,101,10,0:0:0:0:
197,65,106302,1,2,3:3:0:0:
197,65,106371,1,0,3:0:0:0:
197,65,106439,2,0,L|375:91,1,160.000006103516,14|12,0:0|3:0,3:0:0:0:
466,162,106713,6,0,B|489:170|489:170|504:155|504:155|489:120|434:91|381:123,1,180.000006866455,14|0,0:0|2:0,0:0:0:0:
311,195,106987,102,0,B|298:232|328:266|316:323,1,120,6|0,0:2|2:0,0:0:0:0:
317,313,107261,2,0,P|335:324|398:343,1,80,8|0,0:0|0:0,0:0:0:0:
207,213,107535,2,0,B|156:221|156:221|152:224|152:224|95:233,1,106.666666666667,2|0,2:0|3:0,0:0:0:0:
77,306,107809,2,0,P|13:304|22:222,1,160,8|2,0:0|0:2,0:0:0:0:
217,90,108266,5,0,3:0:0:0:
217,90,108357,2,0,P|254:104|316:113,1,80,8|2,0:0|0:0,0:0:0:0:
415,192,108631,2,0,P|414:153|428:100,1,80,2|0,0:3|2:0,0:0:0:0:
290,251,108905,2,0,P|253:253|194:271,1,80,10|0,0:0|3:0,0:0:0:0:
6,315,109179,101,12,0:0:0:0:
119,257,109316,2,0,L|139:186,2,40,2|2|8,0:0|0:3|0:0,0:0:0:0:
187,368,109590,1,2,0:3:0:0:
414,280,109727,5,10,0:3:0:0:
381,213,109818,1,8,0:3:0:0:
313,197,109909,1,8,3:0:0:0:
242,218,110001,1,8,0:0:0:0:
100,367,110138,101,0,3:0:0:0:
100,367,110206,1,8,0:3:0:0:
100,367,110275,1,12,0:0:0:0:
392,268,110549,53,2,2:0:0:0:
88,174,110823,1,2,2:0:0:0:
300,100,111028,21,0,3:0:0:0:
300,100,111097,2,0,B|265:81|265:81|239:113|239:113|276:134|276:134|293:112,1,128,14|4,0:0|3:2,0:0:0:0:
256,192,111439,12,2,113562,2:0:0:0:
0,71,119864,69,8,1:0:0:0:
9,80,120138,2,0,B|55:74|55:74|91:78|91:78|143:71,1,128,4|2,0:0|0:0,0:0:0:0:
135,71,120960,1,0,0:0:0:0:
243,20,121234,2,0,L|314:36,1,64,2|0,0:0|0:0,0:0:0:0:
374,62,121782,2,0,L|438:45,1,64,2|0,0:0|0:0,0:0:0:0:
497,162,122329,6,0,P|503:191|513:300,1,128,6|2,0:0|0:0,0:0:0:0:
465,344,123151,1,2,0:3:0:0:
358,309,123425,1,2,0:0:0:0:
275,346,123699,1,0,0:0:0:0:
207,316,123973,1,2,0:3:0:0:
164,341,124247,2,0,L|112:337,1,48,2|0,0:0|0:0,0:0:0:0:
2,365,124521,5,8,0:0:0:0:
21,290,124613,1,8,0:3:0:0:
41,216,124704,1,8,0:3:0:0:
41,216,124795,2,0,P|80:206|139:198,1,88.000002685547,8|0,0:0|2:0,0:0:0:0:
189,155,125001,2,0,P|243:179|257:269,1,132.00000402832,8|0,0:0|0:0,0:0:0:0:
474,249,125343,5,8,0:3:0:0:
437,177,125434,1,8,0:3:0:0:
369,143,125526,1,8,0:3:0:0:
369,143,125617,2,0,P|324:150|273:169,1,88.000002685547,10|0,0:0|2:0,0:0:0:0:
217,129,125823,2,0,P|174:114|155:19,1,132.00000402832,8|0,0:0|0:0,0:0:0:0:
240,0,126165,101,8,0:0:0:0:
260,7,126256,1,8,0:3:0:0:
279,15,126348,1,8,0:3:0:0:
302,49,126439,5,8,0:0:0:0:
337,39,126530,1,8,0:3:0:0:
369,29,126622,1,8,0:3:0:0:
450,64,126713,69,14,0:0:0:0:
469,86,126804,1,12,0:3:0:0:
474,116,126896,1,12,0:3:0:0:
433,144,126987,5,10,0:0:0:0:
396,175,127078,1,12,0:3:0:0:
348,177,127170,1,12,0:3:0:0:
274,215,127261,37,14,0:0:0:0:
243,145,127352,1,12,3:0:0:0:
297,94,127444,1,12,3:0:0:0:
348,177,127535,5,10,0:0:0:0:
274,215,127626,5,12,3:3:0:0:
175,189,127718,5,12,3:0:0:0:
107,111,127809,6,0,B|135:54|285:119|158:173|322:233|348:176,1,293.333333333333,10|0,0:0|2:0,0:0:0:0:
512,302,128905,86,0,B|515:268|480:251|480:251|461:254|461:254|439:250|439:250|377:264,1,155.999992858887,6|0,0:0|2:0,0:0:0:0:
391,262,129179,2,0,B|400:302|400:302|402:357,1,80,10|0,0:0|2:0,0:0:0:0:
171,162,129453,2,0,B|177:117|177:117|181:109|181:109|177:99|177:99|185:32,1,120,2|0,0:0|3:0,0:0:0:0:
187,30,129727,1,8,0:0:0:0:
86,234,129909,5,2,0:0:0:0:
86,234,130001,2,0,L|243:259,1,120,2|0,2:0|2:0,0:0:0:0:
204,252,130275,2,0,P|197:289|166:338,1,80,10|0,0:0|0:0,0:0:0:0:
349,127,130549,2,0,P|351:88|396:20,1,120,2|0,0:3|3:0,0:0:0:0:
452,125,130823,102,0,L|514:137,1,60.0000022888184,8|2,0:0|2:0,0:0:0:0:
510,136,131028,1,0,0:0:0:0:
510,136,131097,6,0,L|503:173,1,23.9999992675781,2|2,0:0|2:0,0:0:0:0:
437,122,131234,2,0,L|429:152,1,23.9999992675781,2|2,0:0|2:0,0:0:0:0:
291,323,131371,102,0,B|337:369|421:310|363:233|363:233|376:262|351:278,1,215.999993408203,14|0,0:0|2:0,0:0:0:0:
205,280,131645,6,0,B|166:286|166:286|163:288|163:288|107:297,1,80,2|0,0:0|2:0,0:0:0:0:
52,296,131850,1,0,3:0:0:0:
52,296,131918,1,8,0:0:0:0:
231,204,132055,1,2,0:0:0:0:
44,121,132192,101,0,0:0:0:0:
139,202,132329,1,2,0:2:0:0:
139,202,132398,1,2,3:0:0:0:
139,202,132466,2,0,P|149:164|146:118,1,80,10|2,0:0|2:3,0:0:0:0:
330,19,132740,5,8,1:0:0:0:
246,75,132877,2,0,P|247:58|258:31,1,34.0000006484985,2|0,0:3|3:0,0:0:0:0:
396,88,133014,101,12,0:0:0:0:
282,197,133151,2,0,P|275:183|273:156,1,34.0000006484985,0|2,2:2|0:0,0:0:0:0:
483,181,133288,38,0,B|460:157|430:169|430:169|461:176|473:201,1,107.999996704102,2|0,0:3|2:0,0:0:0:0:
364,244,133562,86,0,B|339:225|298:229|298:229|257:253|257:253|219:256|190:226,1,180.000006866455,12|0,0:0|2:0,0:0:0:0:
190,226,133836,1,2,0:0:0:0:
28,126,134019,101,0,3:0:0:0:
3,119,134110,2,0,B|45:110|45:110|84:116|84:116|157:100,1,127.99999609375,10|0,1:0|3:0,0:0:0:0:
194,44,134384,21,6,0:0:0:0:
269,150,134521,1,2,2:0:0:0:
468,22,134658,2,0,B|486:19|486:19|530:43|530:43|546:103|489:150,1,155.999992858887,8|0,0:0|2:0,0:0:0:0:
491,137,134932,85,2,0:0:0:0:
354,60,135069,2,0,L|338:-11,2,51.999997619629,2|2|8,2:0|0:0|0:0,0:0:0:0:
246,234,135343,1,2,0:3:0:0:
413,162,135480,6,0,B|366:145|366:145|316:170|316:170|260:147,1,155.999992858887,4|0,0:0|2:0,0:0:0:0:
167,81,135754,2,0,B|152:61|144:41|144:41|150:18|176:-4,1,92.0000017547608,8|0,0:0|0:0,0:0:0:0:
7,233,136028,2,0,P|20:292|20:364,1,122.666669006348,2|2,0:0|3:1,0:0:0:0:
22,354,136302,2,0,P|82:343|155:344,1,122.666669006348,8|2,0:0|0:0,0:0:0:0:
207,384,136576,101,2,2:0:0:0:
335,303,136713,1,2,0:3:0:0:
225,179,136850,2,0,P|217:220|204:280,1,95.9999970703126,10|0,0:0|0:0,0:0:0:0:
257,333,137124,1,2,0:3:0:0:
453,257,137307,1,0,3:0:0:0:
453,257,137398,1,8,1:0:0:0:
310,157,137581,1,2,0:3:0:0:
341,254,137672,6,0,B|307:149|408:78|502:142,2,256,6|10|0,0:0|0:0|0:0,0:0:0:0:
221,167,138357,1,2,0:3:0:0:
295,79,138494,2,0,P|259:45|201:52,1,103.999995239258,10|0,0:0|1:0,0:0:0:0:
14,229,138768,101,2,0:0:0:0:
139,183,138905,1,0,2:0:0:0:
14,229,139042,1,8,0:0:0:0:
176,301,139224,5,0,3:0:0:0:
162,345,139316,1,2,1:0:0:0:
262,205,139453,1,2,2:0:0:0:
366,294,139590,2,0,B|359:253|378:221|378:221|381:219|381:219|405:182|394:138,1,155.999992858887,10|0,0:0|2:0,0:0:0:0:
395,17,139864,102,0,L|386:56,1,32,6|0,0:0|2:0,0:0:0:0:
466,43,140001,2,0,L|456:80,1,32,0|0,0:0|2:0,0:0:0:0:
188,94,140138,6,0,B|170:120|170:120|233:159|233:159|297:141|297:141|286:103,1,204.000003890991,14|0,0:0|2:0,0:0:0:0:
225,188,140412,102,0,B|215:221|215:221|220:238|220:238|206:288,1,95.9999970703126,2|0,0:0|1:0,0:0:0:0:
146,321,140617,1,0,3:0:0:0:
141,324,140686,2,0,P|117:336|84:343,1,47.9999985351563,10|0,0:0|2:0,0:0:0:0:
250,351,140823,2,0,P|270:374|303:391,1,47.9999985351563,2|2,0:0|2:0,0:0:0:0:
208,280,140960,5,2,0:0:0:0:
393,204,141097,1,0,0:0:0:0:
393,204,141165,1,0,3:0:0:0:
393,204,141234,2,0,L|471:187,1,63.9999980468751,8|2,0:0|0:0,0:0:0:0:
388,298,141416,101,2,0:3:0:0:
288,259,141508,2,0,L|135:237,1,143.999995605469,14|0,0:0|3:0,0:0:0:0:
85,187,141782,6,0,L|70:140,1,31.9999990234375,2|0,0:0|2:0,0:0:0:0:
55,169,141873,102,0,L|66:129,1,31.9999990234375,2|0,0:0|2:0,0:0:0:0:
32,148,141964,102,0,L|61:118,1,31.9999990234375,2|0,0:0|2:0,0:0:0:0:
27,115,142055,69,6,0:0:0:0:
37,102,142147,1,0,2:0:0:0:
79,96,142238,1,0,2:0:0:0:
117,120,142329,1,0,2:0:0:0:
138,166,142421,1,0,2:0:0:0:
121,214,142512,1,0,2:0:0:0:
96,224,142603,5,2,2:0:0:0:
73,254,142695,1,0,2:0:0:0:
84,305,142786,1,0,2:0:0:0:
120,339,142877,1,0,2:0:0:0:
171,349,142969,1,0,2:0:0:0:
226,319,143060,1,0,2:0:0:0:
273,248,143151,86,0,B|267:209,8,30.0000011444092,0|0|0|0|0|0|0|0|0,2:0|2:0|2:0|2:0|2:0|2:0|2:0|2:0|2:0,2:0:0:0:
470,172,143836,70,0,P|489:124|351:45,1,240,14|0,0:0|0:0,0:0:0:0:
248,59,144110,6,0,L|233:151,1,80,14|0,0:0|0:0,0:0:0:0:
260,242,144795,5,2,2:0:0:0:
260,242,145343,1,2,2:0:0:0:
260,242,145891,1,2,2:0:0:0:
26,172,146028,86,0,P|7:124|145:45,1,240,14|0,0:0|0:0,0:0:0:0:
248,59,146302,6,0,L|263:151,1,80,14|0,0:0|0:0,0:0:0:0:
0,282,146576,37,0,3:0:0:0:
138,207,146713,1,8,0:0:0:0:
44,149,146850,2,0,L|-16:122,2,47.9999985351563,4|8|0,2:0|0:0|3:0,0:0:0:0:
197,296,147124,5,12,3:0:0:0:
316,225,147261,2,0,B|377:201|393:252|483:235,1,167.999994873047,10|0,0:0|3:0,0:0:0:0:
512,218,147535,101,8,1:0:0:0:
512,218,147626,2,0,L|420:213,1,63.9999980468751,0|0,1:0|1:0,0:0:0:0:
337,126,147809,5,8,1:0:0:0:
315,123,147900,2,0,L|223:128,1,63.9999980468751,2|0,1:0|1:0,0:0:0:0:
127,247,148083,102,0,L|-8:235,1,127.99999609375,8|0,1:0|0:0,0:0:0:0:
0,235,148357,5,2,2:0:0:0:
0,236,148631,37,10,0:0:0:0:
68,211,148722,1,12,0:3:0:0:
138,238,148813,1,12,0:3:0:0:
198,300,148905,5,10,0:0:0:0:
251,324,148996,1,12,3:0:0:0:
296,316,149087,1,12,3:0:0:0:
382,266,149179,85,10,0:0:0:0:
233,166,149361,2,2,B|139:147|139:147|178:168,1,127.99999609375,10|0,0:0|2:0,1:0:0:0:
312,239,149635,101,0,3:0:0:0:
312,239,149727,2,2,B|364:252|381:208|449:217,1,127.99999609375,10|2,0:0|2:0,1:0:0:0:
435,215,150183,69,8,3:0:0:0:
68,153,150549,1,8,0:0:0:0:
256,192,150823,101,4,1:2:0:0:
256,192,151827,1,4,3:2:0:0:
256,192,153014,2,0,P|219:212|147:230,1,111.999996582031,4|2,3:2|0:0,0:0:0:0:
348,112,154019,2,0,B|405:113|416:147|477:142,1,130.666662679037,4|8,3:2|1:0,0:0:0:0:
289,13,154841,53,0,3:0:0:0:
289,13,154932,2,0,B|235:37|235:37|261:102,1,120.000004577637,8|2,1:0|3:0,0:0:0:0:
257,93,155480,53,2,0:0:0:0:
111,125,155754,2,0,P|81:116|42:92,1,71.9999978027344,10|0,1:0|0:0,0:0:0:0:
164,205,156028,2,0,P|146:241|118:326,1,107.999996704102,8|2,1:0|3:0,0:0:0:0:
346,183,156576,1,2,3:0:0:0:
227,286,156850,6,0,P|262:278|315:273,1,71.9999978027344,12|0,1:0|0:0,0:0:0:0:
437,195,157124,2,0,P|429:160|424:107,1,71.9999978027344,0|0,3:0|0:0,0:0:0:0:
463,16,157398,101,2,3:0:0:0:
463,16,157672,1,2,0:0:0:0:
368,67,157809,1,2,0:0:0:0:
267,76,157946,2,0,P|221:64|151:35,1,107.999996704102,8|0,1:0|0:0,0:0:0:0:
164,41,158220,2,0,P|116:66|60:80,1,107.999996704102,10|2,1:0|3:2,0:0:0:0:
0,234,158768,53,0,3:0:0:0:
171,125,159042,2,0,B|210:129|221:166|221:166|213:197|253:227,1,127.99999609375,12|8,1:0|1:0,0:0:0:0:
375,309,159316,54,0,B|309:300|309:300|332:308,1,80.0000030517579,8|0,3:0|2:0,0:0:0:0:
255,371,159590,54,0,L|160:365,1,90,4|8,3:2|1:0,0:0:0:0:
89,361,159864,1,2,0:0:0:0:
227,235,160046,1,12,3:0:0:0:
227,235,160138,2,0,B|215:202|215:202|232:168|232:168|214:111,1,106.666666666667,8|0,1:0|3:0,0:0:0:0:
216,119,160412,1,8,1:0:0:0:
512,160,160594,70,0,B|428:146|445:217|356:192,1,160,4|8,3:2|1:0,0:0:0:0:
71,65,161142,1,0,3:0:0:0:
71,65,161234,2,0,P|68:120|122:135,1,106.666666666667,10|0,1:0|3:0,0:0:0:0:
109,138,161508,2,0,P|104:182|85:248,1,106.666666666667,8|8,1:0|1:0,0:0:0:0:
35,327,161782,37,4,0:0:0:0:
176,261,161964,2,0,P|237:249|348:234,1,160,8|0,1:0|0:0,0:0:0:0:
448,202,162329,70,0,P|498:224|487:294,1,106.666666666667,8|0,1:0|3:0,0:0:0:0:
504,271,162603,2,0,L|421:294,1,80,8|0,1:0|0:0,0:0:0:0:
246,213,162877,5,10,1:0:0:0:
204,193,162969,1,8,1:3:0:0:
161,209,163060,1,8,1:3:0:0:
83,253,163151,5,10,1:0:0:0:
45,260,163243,1,8,0:3:0:0:
15,238,163334,1,8,0:3:0:0:
0,150,163425,5,10,1:0:0:0:
0,150,163517,2,0,B|31:145|31:145|36:146|36:146|80:139,1,63.9999980468751,12|0,3:0|3:0,0:0:0:0:
182,112,163699,69,10,1:0:0:0:
182,112,163791,2,0,B|213:116|213:116|218:116|218:116|262:123,1,63.9999980468751,12|0,3:0|3:0,0:0:0:0:
344,153,163973,38,0,B|402:169|414:120|507:147,2,127.99999609375,6|8|2,2:0|1:0|0:0,0:0:0:0:
221,57,164521,2,0,B|174:48|151:82|151:82|156:84|156:84|174:134,1,127.99999609375,12|0,1:0|0:0,0:0:0:0:
171,125,164795,2,0,B|131:134|131:134|118:154|118:154|76:165,1,106.666666666667,8|0,1:0|0:0,0:0:0:0:
5,207,165069,70,0,P|36:274|121:270,1,160,2|2,1:0|3:0,0:0:0:0:
469,98,165617,2,0,P|438:31|353:35,1,160,12|2,1:0|3:0,0:0:0:0:
260,111,166074,37,2,0:0:0:0:
260,111,166165,2,0,B|206:105|206:105|176:109|176:109|104:100,1,127.99999609375,12|8,1:0|3:0,0:0:0:0:
91,96,166439,1,10,1:0:0:0:
252,209,166622,2,0,L|391:192,1,127.99999609375,8|0,1:0|2:0,0:0:0:0:
408,176,166850,2,0,L|397:115,2,47.9999985351563,0|0|8,1:0|1:0|1:0,0:0:0:0:
285,320,167170,1,0,3:0:0:0:
291,360,167261,1,8,1:0:0:0:
155,238,167444,5,8,1:0:0:0:
166,205,167535,2,0,L|178:140,3,47.9999985351563,2|0|0|0,1:0|1:0|1:0|1:0,1:0:0:0:
265,113,167809,2,0,P|280:63|192:24,1,127.99999609375,14|0,1:0|3:0,0:0:0:0:
181,27,168083,1,10,0:0:0:0:
258,187,168220,1,2,1:3:0:0:
363,95,168357,5,12,1:0:0:0:
258,187,168494,1,12,3:0:0:0:
117,192,168631,5,10,1:0:0:0:
280,278,168768,1,12,3:0:0:0:
117,296,168905,70,0,B|139:271|139:271|215:293,1,95.9999970703126,10|0,0:0|0:0,0:0:0:0:
372,188,169110,2,0,B|346:169|346:169|278:193,1,95.9999970703126,10|0,1:0|0:0,0:0:0:0:
221,280,169316,6,0,L|236:366,1,80.0000030517579,0|0,3:0|0:0,0:0:0:0:
235,359,169453,70,0,B|360:300|293:133|185:133|124:178|120:273|209:291,1,415.999980957032,12|2,1:0|2:0,0:0:0:0:
360,384,170549,6,0,L|434:371,1,64,4|2,0:2|2:0,0:0:0:0:
54,155,171097,2,0,L|64:226,1,64,0|8,2:0|1:0,0:0:0:0:
136,244,171508,1,2,2:0:0:0:
237,188,171645,2,0,B|276:177|276:177|302:184|302:184|355:168,2,111.999996582031,4|2|8,0:2|2:0|0:0,0:0:0:0:
448,343,172466,2,0,P|463:318|475:254,1,83.9999974365235,8|0,0:0|2:0,0:0:0:0:
501,196,172740,6,0,P|481:156|471:108,1,88.000002685547,4|2,0:2|2:0,0:0:0:0:
190,300,173288,1,2,2:0:0:0:
275,328,173425,1,0,3:0:0:0:
275,328,173494,1,0,0:0:0:0:
275,328,173562,1,8,0:0:0:0:
84,186,173768,102,0,B|61:207|34:220|34:220|45:243|51:288,1,120,6|0,0:0|3:0,0:0:0:0:
151,351,174110,2,0,L|250:329,1,80,8|0,0:0|2:0,0:0:0:0:
229,333,174316,1,0,0:0:0:0:
229,333,174384,1,10,0:0:0:0:
337,280,174521,1,12,3:0:0:0:
512,339,174658,2,0,B|471:302|422:328|422:328|420:371|382:398,1,160,10|6,0:2|3:2,0:0:0:0:
76,275,175206,53,2,2:0:0:0:
102,262,175480,5,4,0:2:0:0:
147,269,175754,101,2,2:0:0:0:
186,320,176028,5,6,0:2:0:0:
271,371,176302,101,0,0:0:0:0:
404,329,176576,54,0,P|426:308|412:210,1,106.666666666667,6|0,0:2|3:0,0:0:0:0:
381,175,176850,2,0,L|296:155,1,80,8|2,0:0|2:3,0:0:0:0:
303,156,177055,1,2,1:3:0:0:
303,156,177124,5,6,0:0:0:0:
441,126,177261,1,2,0:2:0:0:
512,238,177398,1,4,0:0:0:0:
281,345,177535,5,2,0:3:0:0:
281,345,177603,1,2,0:3:0:0:
281,345,177672,1,4,0:2:0:0:
238,229,177809,1,2,0:2:0:0:
172,364,177946,5,8,0:0:0:0:
343,239,178083,1,6,3:0:0:0:
92,255,178220,85,10,0:0:0:0:
166,284,178311,2,0,P|205:273|242:240,1,80.0000030517579,12|12,0:3|0:3,0:0:0:0:
444,326,178494,1,10,0:0:0:0:
370,354,178585,2,0,P|330:348|292:314,1,80.0000030517579,12|12,3:0|3:0,0:0:0:0:
262,158,178768,6,0,B|251:137|258:108|258:108|267:98|267:98|282:60|257:31,1,120.000004577637,10|0,0:0|2:0,0:0:0:0:
397,86,178973,22,0,B|448:98|448:98|459:111|459:111|517:124,1,120.000004577637,6|0,2:0|2:0,0:0:0:0:
512,128,179316,6,0,B|461:140|461:140|450:153|450:153|397:167,1,111.600003490906,2|0,0:3|2:0,0:0:0:0:
271,188,179590,70,0,B|232:163|187:191|187:191|189:197|189:197|153:246|111:232,1,180.000006866455,14|0,0:0|2:0,0:0:0:0:
99,224,179864,1,2,0:0:0:0:
309,384,180046,1,0,3:0:0:0:
309,384,180138,2,0,P|304:351|311:308,1,63.9999980468751,8|0,0:0|2:0,0:0:0:0:
231,273,180320,5,6,0:0:0:0:
375,204,180412,102,0,P|430:231|421:289,1,127.99999609375,2|0,0:2|3:0,0:0:0:0:
274,204,180686,2,0,B|231:197|231:197|198:200|198:200|133:189,1,127.99999609375,10|0,0:0|3:0,0:0:0:0:
48,141,180960,6,0,P|-7:168|7:248,1,144.000000549316,2|0,0:2|3:0,0:0:0:0:
137,114,181234,2,0,B|180:107|180:107|219:110|219:110|293:98,1,144.000000549316,10|0,0:0|3:0,0:0:0:0:
411,175,181508,102,0,B|445:181|479:202|479:202|517:198|540:159|510:120,1,180.000006866455,6|0,0:2|2:0,0:0:0:0:
432,1,181782,2,0,L|408:89,1,88.000002685547,8|2,0:0|2:0,0:0:0:0:
413,97,181987,1,8,0:3:0:0:
398,100,182055,5,2,0:0:0:0:
260,180,182192,1,2,2:3:0:0:
75,95,182329,101,8,1:0:0:0:
260,180,182466,2,0,B|252:164|252:164|218:145|218:145|186:154|186:154|149:221|88:210,1,191.999994140625,6|0,0:2|2:0,0:0:0:0:
27,217,182809,1,8,3:0:0:0:
11,212,182877,1,12,0:0:0:0:
75,95,183014,1,0,3:0:0:0:
228,30,183151,5,8,0:0:0:0:
232,34,183220,2,0,B|264:15|293:24|293:24|268:26|238:55,1,120.000004577637,2|0,0:0|3:0,0:0:0:0:
305,107,183425,102,0,B|352:101|376:118|376:118|403:148|403:148|436:173|481:163,1,180.000006866455,14|0,0:0|2:0,0:0:0:0:
345,224,183699,6,0,B|356:178|356:178|385:153|385:153|398:104,1,132.00000402832,6|0,0:2|2:0,0:0:0:0:
401,34,183973,2,0,L|491:54,1,88.000002685547,8|0,0:0|2:0,0:0:0:0:
458,190,184247,2,0,L|472:321,1,117.333336914063,2|2,0:2|3:0,0:0:0:0:
419,366,184521,2,0,P|364:379|334:326,1,117.333336914063,8|0,0:0|3:0,0:0:0:0:
381,249,184795,101,4,0:0:0:0:
238,185,184978,1,2,3:0:0:0:
211,198,185069,1,8,0:0:0:0:
55,274,185252,1,2,3:0:0:0:
21,263,185343,2,0,P|3:223|31:121,1,132.00000402832,10|0,0:0|3:0,0:0:0:0:
87,104,185617,5,10,0:0:0:0:
248,142,185754,1,10,0:0:0:0:
423,183,185891,1,12,0:0:0:0:
267,40,186074,102,0,L|257:-10,1,29.3333342285157,4|0,3:2|2:0,0:0:0:0:
205,205,186393,6,0,L|210:176,1,29.3333342285157,4|0,3:2|2:0,0:0:0:0:
264,368,186713,70,0,L|258:339,1,29.3333342285157,4|0,3:2|2:0,0:0:0:0:
291,231,186896,70,0,B|197:211|213:279|106:248,1,176.000005371094,6|10,2:0|0:0,0:0:0:0:
419,219,187444,69,8,3:3:0:0:
400,182,187535,1,10,0:0:0:0:
298,144,187672,1,4,3:0:0:0:
52,168,187809,5,10,0:0:0:0:
208,131,187946,1,6,3:0:0:0:
208,8,188083,22,0,L|218:62,1,48,2|0,1:3|2:0,0:0:0:0:
318,71,188357,22,0,B|340:112|309:151|309:151|288:162|288:162|249:193|262:238,1,192,12|0,0:0|2:0,0:0:0:0:
273,311,188631,1,2,0:3:0:0:
512,340,188813,1,0,3:0:0:0:
512,340,188905,2,0,P|449:343|369:370,1,138.666660319011,8|2,0:0|2:0,0:0:0:0:
364,281,189179,37,6,0:2:0:0:
444,163,189316,1,12,0:0:0:0:
495,225,189453,1,2,2:0:0:0:
316,175,189590,1,0,3:0:0:0:
316,175,189658,1,8,3:0:0:0:
316,175,189727,2,0,P|270:161|208:151,1,103.999995239258,12|0,0:0|2:0,0:0:0:0:
316,77,189932,70,0,B|236:70|216:177|102:155,1,207.999990478516,6|0,0:0|2:0,0:0:0:0:
28,218,190275,38,0,B|13:192|4:175|4:175|6:151|33:113,1,103.999995239258,2|0,0:3|2:0,0:0:0:0:
238,242,190549,2,0,B|215:298|215:298|180:309|180:309|150:367,1,155.999992858887,12|0,0:0|0:0,0:0:0:0:
133,371,190823,69,2,0:3:0:0:
340,177,191005,2,0,P|366:200|357:265,1,69.3333301595054,0|8,3:0|1:0,0:0:0:0:
130,157,191234,37,2,2:0:0:0:
294,244,191371,1,4,3:0:0:0:
294,244,191439,1,8,3:0:0:0:
294,244,191508,2,0,P|207:303|58:283,1,242.666655558269,14|0,0:0|0:0,0:0:0:0:
20,220,191918,69,14,0:0:0:0:
97,197,192010,1,8,0:0:0:0:
177,209,192101,1,8,0:0:0:0:
240,251,192192,101,12,3:0:0:0:
309,274,192284,1,0,3:0:0:0:
379,259,192375,1,0,3:0:0:0:
419,191,192466,86,0,L|344:171,1,71.9999978027344,2|0,0:3|2:0,0:0:0:0:
202,41,192740,86,0,B|281:24|281:24|336:47|320:110,1,180.000006866455,12|0,0:0|2:0,0:0:0:0:
287,123,193014,1,2,0:0:0:0:
202,41,193151,1,2,1:3:0:0:
75,131,193288,2,0,B|74:191|27:210|21:288,1,155.999992858887,12|0,0:0|2:0,0:0:0:0:
168,228,193562,69,2,3:2:0:0:
168,228,193631,1,12,3:0:0:0:
168,228,193699,2,0,B|218:212|275:212|275:212,1,103.999995239258,14|2,0:0|2:0,0:0:0:0:
485,131,193973,1,2,0:3:0:0:
421,11,194110,2,0,P|340:4|277:55,1,155.999992858887,10|0,0:0|0:0,0:0:0:0:
247,117,194384,37,8,0:0:0:0:
77,209,194521,1,10,0:0:0:0:
0,22,194658,2,0,P|54:25|136:114,1,155.999992858887,6|0,3:2|2:0,0:0:0:0:
128,89,194932,2,0,L|98:164,1,51.999997619629,10|0,0:0|0:0,0:0:0:0:
271,310,195115,70,0,B|305:282|364:300|364:300|407:342|480:308,1,207.999990478516,6|0,0:0|0:0,0:0:0:0:
511,213,195480,38,0,P|486:143|403:121,1,155.999992858887,10|0,0:0|0:0,0:0:0:0:
413,118,195754,2,0,P|402:142|363:174,1,51.999997619629,12|8,3:0|3:0,0:0:0:0:
212,235,195891,54,0,B|179:210|124:238|124:238|102:240|102:240|70:281|13:280,1,207.999990478516,14|2,0:0|3:0,0:0:0:0:
256,44,196302,53,12,0:0:0:0:
300,160,196439,1,8,0:3:0:0:
324,200,196508,1,6,0:0:0:0:
288,240,196576,1,8,0:0:0:0:
244,260,196645,1,8,0:0:0:0:
208,300,196713,1,8,3:0:0:0:
216,344,196782,1,8,3:0:0:0:
252,372,196850,69,6,0:0:0:0:
306,148,196987,1,10,0:0:0:0:
246,26,197261,37,0,3:0:0:0:
246,26,197329,1,8,3:0:0:0:
246,26,197398,2,0,P|352:39|370:107,1,155.999992858887,10|0,0:0|3:0,0:0:0:0:
358,82,197672,1,8,0:0:0:0:
196,336,197877,2,0,P|90:323|72:255,1,155.999992858887,6|0,0:0|3:0,0:0:0:0:
84,280,198151,1,8,0:0:0:0:
280,205,198425,69,0,3:0:0:0:
280,205,198494,2,0,B|318:209|318:209|352:198|352:198|445:207,1,155.999992858887,8|0,0:0|3:0,0:0:0:0:
444,207,198768,2,0,L|545:218,2,69.3333301595054,10|8|8,0:0|0:0|0:0,0:0:0:0:
283,175,199042,37,6,0:0:0:0:
116,122,199179,2,0,B|74:155|74:155|96:210,1,103.999995239258,10|2,0:0|2:0,0:0:0:0:
324,76,199453,1,0,0:0:0:0:
324,76,199521,1,8,0:3:0:0:
324,76,199590,2,0,B|289:7|289:7|209:24,1,155.999992858887,8|0,0:0|3:0,0:0:0:0:
187,31,199864,1,8,0:0:0:0:
225,261,200001,1,2,2:0:0:0:
225,261,200069,1,8,3:0:0:0:
225,261,200138,70,0,L|190:347,2,69.3333301595054,10|8|8,0:0|0:3|0:3,0:0:0:0:
314,218,200412,37,8,0:0:0:0:
314,218,200503,2,0,P|345:232|410:244,1,69.3333301595054,12|12,0:3|0:3,0:0:0:0:
199,159,200686,5,8,0:0:0:0:
199,159,200777,2,0,P|166:173|116:182,1,69.3333301595054,12|12,0:3|0:3,0:0:0:0:
322,99,200960,53,8,0:0:0:0:
396,84,201051,1,12,3:0:0:0:
457,129,201142,1,12,3:0:0:0:
459,208,201234,1,6,0:0:0:0:
164,58,201508,38,0,P|113:55|47:40,1,103.999995239258,10|0,0:2|3:0,0:0:0:0:
9,73,201713,1,8,3:0:0:0:
9,73,201782,2,0,P|68:63|81:129,1,138.666660319011,0|0,0:0|1:0,0:0:0:0:
148,175,202055,2,0,P|207:165|220:231,1,138.666660319011,8|0,0:0|1:0,0:0:0:0:
285,280,202329,69,8,1:0:0:0:
148,175,202512,1,0,3:0:0:0:
138,219,202603,1,8,0:0:0:0:
343,139,202740,1,2,1:3:0:0:
334,85,202832,1,8,1:0:0:0:
164,202,203014,69,0,0:0:0:0:
164,202,203083,1,8,3:0:0:0:
164,202,203151,1,10,0:2:0:0:
355,260,203288,1,10,0:2:0:0:
124,344,203425,37,6,0:0:0:0:
253,108,203631,37,0,3:0:0:0:
253,108,203699,2,0,B|233:138|233:138|266:205|266:205|237:250,2,138.666660319011,12|8|0,1:0|1:0|2:0,0:0:0:0:
295,44,204156,1,0,0:0:0:0:
327,33,204247,2,0,B|367:34|367:34|394:46|394:46|424:41|424:41|479:53,1,138.666660319011,10|0,1:0|1:0,0:0:0:0:
499,148,204521,5,14,0:0:0:0:
422,135,204613,1,8,3:0:0:0:
359,183,204704,1,8,3:0:0:0:
400,247,204795,5,14,0:0:0:0:
454,252,204886,1,12,3:0:0:0:
492,223,204978,1,12,3:0:0:0:
474,77,205069,21,6,2:0:0:0:
474,77,205617,6,0,B|437:26|378:42|378:42|376:73|344:93,1,162.000000617981,4|0,0:0|2:0,0:0:0:0:
292,34,205891,2,0,L|199:47,1,80,8|0,0:0|2:0,0:0:0:0:
410,150,206165,2,0,B|410:192|434:227|434:227|397:239|374:267,1,143.999995605469,2|0,2:0|3:0,0:0:0:0:
371,270,206439,1,10,0:2:0:0:
138,355,206622,102,0,B|51:343|51:343|9:317|13:268|67:264,1,191.999994140625,2|0,3:1|0:0,0:0:0:0:
168,187,206987,2,0,P|143:147|50:168,1,127.99999609375,8|2,0:0|3:0,0:0:0:0:
68,147,207261,2,0,P|115:134|164:102,1,95.9999970703126,2|0,0:3|2:0,0:0:0:0:
376,71,207535,2,0,P|309:56|256:6,1,143.999995605469,8|0,0:0|2:0,0:0:0:0:
255,5,207809,6,0,L|230:70,1,47.9999985351563,2|0,0:0|2:0,0:0:0:0:
456,184,208014,1,0,3:0:0:0:
456,184,208083,2,0,B|467:220|467:220|438:253|438:253|403:294|445:339,1,167.999994873047,14|0,0:0|2:0,0:0:0:0:
456,338,208357,1,2,0:2:0:0:
216,226,208539,101,2,3:0:0:0:
288,212,208631,2,0,L|219:222,1,63.9999980468751,8|0,0:0|3:0,0:0:0:0:
150,307,208813,1,2,0:3:0:0:
150,307,208905,2,0,B|82:297|82:297|66:301|66:301|-9:289,1,149.333328776042,2|4,0:0|3:0,0:0:0:0:
31,160,209179,6,0,L|51:67,1,80,8|0,0:0|0:0,0:0:0:0:
47,81,209384,1,0,0:0:0:0:
47,81,209453,2,0,B|102:96|96:161|170:181,1,162.000000617981,10|0,0:0|0:0,0:0:0:0:
161,316,209727,2,0,B|177:261|242:267|262:193,1,162.000000617981,10|0,0:0|0:0,0:0:0:0:
252,103,210001,101,2,2:0:0:0:
496,240,210206,1,0,3:0:0:0:
496,240,210275,2,0,P|500:168|438:190,1,160.000006103516,12|0,0:0|2:0,0:0:0:0:
329,325,210549,6,0,P|387:335|388:266,1,127.99999609375,2|0,0:0|3:0,0:0:0:0:
417,265,210823,2,0,P|403:208|346:219,1,127.99999609375,10|0,0:2|3:0,0:0:0:0:
240,288,211097,102,0,P|203:298|156:308,1,74.6666643880209,10|0,0:0|3:0,0:0:0:0:
16,180,211279,2,0,P|52:192|92:200,1,74.6666643880209,2|8,0:3|1:0,0:0:0:0:
424,56,211576,5,8,0:0:0:0:
424,56,211645,2,0,P|411:34|372:20,1,55.9999982910157,2|0,0:0|3:0,0:0:0:0:
312,80,211782,2,0,P|324:101|364:116,1,55.9999982910157,8|8,0:3|0:0,0:0:0:0:
504,160,211918,102,0,P|452:76|332:100,1,223.999993164063,10|4,0:0|3:0,0:0:0:0:
340,78,212466,6,0,P|444:64|513:153,1,224.399995548706,14|4,0:0|3:0,0:0:0:0:
506,168,212740,101,2,0:3:0:0:
386,246,212877,1,0,0:0:0:0:
500,370,213014,5,10,0:0:0:0:
306,204,213197,2,0,P|255:206|94:280,1,223.999993164063,2|0,0:0|0:0,0:0:0:0:
188,353,213562,2,0,P|248:314|219:244,1,155.999992858887,8|0,0:0|3:0,0:0:0:0:
158,204,213836,102,0,B|111:192|111:192|105:193|105:193|48:179,1,103.999995239258,2|0,0:3|2:0,0:0:0:0:
273,333,214110,2,0,B|293:321|319:319|319:319|372:343|372:343|395:342|422:326,1,155.999992858887,10|0,0:0|0:0,0:0:0:0:
512,272,214384,5,2,0:3:0:0:
176,373,214590,1,0,3:0:0:0:
176,373,214658,2,0,P|144:305|257:259,1,192,14|0,0:0|2:0,0:0:0:0:
346,215,214932,102,0,B|381:188|356:151|356:151|286:126,1,138.666660319011,2|0,0:3|3:0,0:0:0:0:
266,121,215206,1,8,0:0:0:0:
71,40,215389,2,0,B|96:6|146:19|146:19|189:54|189:54|156:81|162:123,1,207.999990478516,2|0,0:0|0:0,0:0:0:0:
92,228,215754,2,0,B|148:238|148:238|163:279|163:279|238:298,1,155.999992858887,10|0,0:2|0:0,0:0:0:0:
324,299,216028,6,0,B|289:284|253:279|253:279|280:242|275:191,1,154.666671386719,10|0,0:0|0:0,0:0:0:0:
402,136,216302,2,0,B|437:151|473:156|473:156|446:193|451:244,1,154.666671386719,10|0,0:0|0:0,0:0:0:0:
360,220,216576,101,2,2:0:0:0:
464,69,216782,1,0,3:0:0:0:
464,69,216850,2,0,P|385:121|292:112,1,192,14|0,0:0|2:0,0:0:0:0:
114,13,217124,6,0,P|115:72|191:82,1,138.666660319011,2|0,2:0|0:0,0:0:0:0:
173,112,217398,2,0,P|110:115|94:189,1,138.666660319011,10|0,0:2|0:0,0:0:0:0:
31,284,217672,101,10,0:0:0:0:
31,284,217763,2,0,B|56:278|56:278|74:280|74:280|123:269,1,69.3333301595054,2|0,0:2|3:0,0:0:0:0:
254,194,217946,6,0,B|286:223|286:223|262:303,1,103.999995239258,10|0,0:0|0:0,0:0:0:0:
264,296,218151,2,0,L|241:363,1,51.999997619629,2|10,0:3|0:0,0:0:0:0:
432,272,218357,1,4,3:0:0:0:
440,278,218425,1,8,0:0:0:0:
433,280,218494,1,6,0:0:0:0:
244,186,218631,1,2,0:3:0:0:
350,358,218768,22,0,L|339:302,1,40,10|0,1:0|0:0,0:0:0:0:
128,296,218950,70,0,L|139:238,1,53.3333333333333,2|0,1:0|0:0,0:0:0:0:
255,0,219224,101,2,1:0:0:0:
353,276,219498,53,0,3:0:0:0:
353,276,219589,2,0,L|342:220,1,40,10|0,1:0|0:0,0:0:0:0:
121,225,219772,70,0,L|135:167,1,53.3333333333333,2|0,1:0|0:0,0:0:0:0:
255,0,220046,101,2,1:0:0:0:
365,202,220320,53,0,3:0:0:0:
365,202,220411,2,0,L|354:146,1,40,10|0,1:0|0:0,0:0:0:0:
114,157,220594,70,0,L|129:103,1,53.3333333333333,2|0,1:0|0:0,0:0:0:0:
255,0,220890,101,2,1:0:0:0:
379,130,221142,53,0,3:0:0:0:
379,130,221233,2,0,L|368:74,1,40,10|0,1:0|0:0,0:0:0:0:
99,93,221416,70,0,L|111:35,1,53.3333333333333,2|0,1:0|0:0,0:0:0:0:
255,0,221690,101,2,1:0:0:0:
263,153,221964,53,0,3:0:0:0:
263,153,222055,1,8,1:0:0:0:
255,232,222238,1,0,3:0:0:0:
255,232,222330,1,12,1:0:0:0:
255,384,222535,37,4,3:2:0:0:
