osu file format v14

[General]
AudioFilename: audio.mp3
AudioLeadIn: 0
PreviewTime: 169453
Countdown: 0
SampleSet: Normal
StackLeniency: 0.5
Mode: 0
LetterboxInBreaks: 0
WidescreenStoryboard: 1

[Editor]
Bookmarks: 59590,128905,150823,188357,205617
DistanceSpacing: 1.2
BeatDivisor: 4
GridSize: 16
TimelineZoom: 2.099999

[Metadata]
Title:PHANTOM
TitleUnicode:PHANTOM
Artist:ELFENSJoN
ArtistUnicode:ELFENSJóN
Creator:Kalibe
Version:Collab Hard
Source:
Tags:fa mpg mocaotic iljaaz agatsu ASH OF ROUGE: SIDE ASTRAL mappers' guild featured artist japanese jp j-rock jrock rock male
BeatmapID:2460260
BeatmapSetID:1113775

[Difficulty]
HPDrainRate:5
CircleSize:3.8
OverallDifficulty:7
ApproachRate:8.3
SliderMultiplier:1.4
SliderTickRate:1

[Events]
//Background and Video events
0,0,"kalibes_bg.jpg",0,0
//Break Periods
2,32665,35758
2,76502,77425
2,78694,79639
2,113762,119160
//Storyboard Layer 0 (Background)
//Storyboard Layer 1 (Fail)
//Storyboard Layer 2 (Pass)
//Storyboard Layer 3 (Foreground)
//Storyboard Layer 4 (Overlay)
//Storyboard Sound Samples

[TimingPoints]
1782,273.972602739726,4,2,5,60,1,0
1782,-100,4,2,5,60,0,0
5891,-100,4,2,5,60,0,0
6165,-100,4,2,5,60,0,0
7809,-100,4,2,5,65,0,0
8357,-100,4,1,5,70,0,0
10823,-100,4,1,5,70,0,0
11097,-100,4,1,5,70,0,0
11645,-100,4,1,5,70,0,0
11918,-100,4,1,5,70,0,0
12192,-100,4,1,5,70,0,0
13014,-100,4,1,5,70,0,0
13288,-100,4,1,5,70,0,0
13836,-100,4,1,5,70,0,0
14110,-100,4,1,5,70,0,0
15206,-100,4,1,5,60,0,0
21508,-100,4,1,5,65,0,0
23699,-100,4,1,5,70,0,0
26987,-100,4,1,5,70,0,0
27535,-100,4,1,5,70,0,0
28083,-100,4,1,5,70,0,0
29727,-100,4,1,5,70,0,0
30001,-100,4,1,5,70,0,0
32055,-100,4,1,5,70,0,0
32466,-100,4,2,5,50,0,0
34293,-100,4,2,5,50,0,0
34658,-100,4,2,5,50,0,0
36211,-100,4,2,5,60,0,0
36850,-100,4,1,5,70,0,0
41234,-90.9090909090909,4,1,6,70,0,0
41302,-90.9090909090909,4,1,5,75,0,0
41508,-90.9090909090909,4,1,5,75,0,0
41782,-90.9090909090909,4,1,5,75,0,0
42238,-90.9090909090909,4,1,5,75,0,0
42603,-90.9090909090909,4,1,5,75,0,0
43060,-90.9090909090909,4,1,5,75,0,0
43425,-90.9090909090909,4,1,5,75,0,0
45617,-90.9090909090909,4,1,5,75,0,0
45891,-90.9090909090909,4,1,5,75,0,0
46165,-90.9090909090909,4,1,5,75,0,0
46439,-90.9090909090909,4,1,5,75,0,0
46987,-90.9090909090909,4,1,5,75,0,0
47535,-90.9090909090909,4,1,5,75,0,0
47809,-90.9090909090909,4,1,5,75,0,0
48905,-90.9090909090909,4,1,5,75,0,0
49658,-90.9090909090909,4,1,5,75,0,0
50001,-90.9090909090909,4,1,5,75,0,0
50275,-90.9090909090909,4,1,6,75,0,0
50343,-90.9090909090909,4,1,5,75,0,0
52192,-90.9090909090909,4,1,5,75,0,0
52466,-90.9090909090909,4,1,5,75,0,0
53562,-90.9090909090909,4,1,5,75,0,0
53836,-90.9090909090909,4,1,5,75,0,0
54384,-90.9090909090909,4,1,5,75,0,0
55115,-90.9090909090909,4,1,5,75,0,0
57877,-90.9090909090909,4,1,5,75,0,0
58494,-90.9090909090909,4,1,5,70,0,0
58768,-100,4,1,5,60,0,0
64795,-100,4,1,5,65,0,0
65343,-100,4,1,5,75,0,0
67535,-100,4,1,5,70,0,0
70823,-100,4,1,5,70,0,0
71371,-100,4,1,5,70,0,0
71918,-100,4,1,5,70,0,0
73562,-100,4,1,5,65,0,0
73836,-100,4,1,5,65,0,0
76302,-100,4,2,5,45,0,0
78220,-100,4,2,5,50,0,0
78494,-100,4,2,5,50,0,0
80686,-125,4,2,5,50,0,0
85069,-100,4,2,5,55,0,0
89453,-100,4,1,5,65,0,0
92466,-100,4,1,5,70,0,0
93836,-100,4,1,6,75,0,0
93905,-100,4,1,5,75,0,0
94110,-100,4,1,5,75,0,0
94384,-100,4,1,5,75,0,0
94841,-100,4,1,5,75,0,0
95206,-100,4,1,5,75,0,0
95754,-100,4,1,5,75,0,0
96028,-100,4,1,5,75,0,0
98220,-100,4,1,5,75,0,0
98494,-100,4,1,5,75,0,0
98768,-100,4,1,5,75,0,0
99590,-100,4,1,5,75,0,0
100138,-100,4,1,5,75,0,0
100412,-100,4,1,5,75,0,0
101508,-100,4,1,5,75,0,0
102329,-100,4,1,5,75,0,0
102603,-100,4,1,5,75,0,0
102877,-100,4,1,6,75,0,0
102946,-100,4,1,5,75,0,0
103151,-100,4,1,5,75,0,0
104795,-100,4,1,5,75,0,0
105069,-100,4,1,5,75,0,0
106439,-100,4,1,5,75,0,0
106987,-100,4,1,5,75,0,0
110275,-100,4,1,5,75,0,0
110731,-100,4,1,5,75,0,0
111097,-100,4,1,5,40,0,0
113562,-100,4,1,5,45,0,0
119864,-100,4,2,5,45,0,0
120138,-125,4,2,5,45,0,0
124453,-100,4,2,5,5,0,0
124521,-100,4,1,5,65,0,0
126804,-100,4,1,5,70,0,0
127078,-100,4,1,5,70,0,0
127352,-100,4,1,5,70,0,0
127626,-100,4,1,5,70,0,0
127809,-100,4,1,5,55,0,0
128905,-100,4,1,6,70,0,0
128973,-100,4,1,5,70,0,0
129179,-100,4,1,5,70,0,0
130823,-100,4,1,5,70,0,0
131097,-100,4,1,5,70,0,0
131371,-100,4,1,5,70,0,0
131645,-100,4,1,5,70,0,0
132877,-100,4,1,5,70,0,0
133288,-100,4,1,5,70,0,0
133562,-100,4,1,5,70,0,0
133836,-100,4,1,5,70,0,0
134247,-100,4,1,5,70,0,0
134384,-100,4,1,5,70,0,0
135754,-100,4,1,5,70,0,0
136576,-100,4,1,5,70,0,0
137672,-100,4,1,5,70,0,0
138220,-100,4,1,5,70,0,0
139864,-100,4,1,5,70,0,0
140138,-100,4,1,5,70,0,0
140412,-100,4,1,5,70,0,0
143836,-100,4,1,5,70,0,0
146439,-100,4,1,5,70,0,0
149727,-100,4,1,5,70,0,0
150823,-100,4,2,5,45,0,0
154932,-100,4,2,5,50,0,0
155206,-125,4,2,5,55,0,0
159042,-125,4,2,5,60,0,0
159316,-125,4,2,5,50,0,0
159590,-100,4,2,5,55,0,0
162877,-100,4,2,5,60,0,0
164795,-100,4,2,5,60,0,0
166165,-100,4,2,5,65,0,0
169316,-100,4,2,5,65,0,0
169453,-133.333333333333,4,2,6,65,0,0
169521,-100,4,2,5,65,0,0
170549,-100,4,1,5,70,0,0
170617,-100,4,1,5,70,0,0
171645,-100,4,1,5,70,0,0
172740,-100,4,1,5,70,0,0
173745,-100,4,1,5,70,0,0
178220,-100,4,1,5,70,0,0
178973,-100,4,1,5,70,0,0
179316,-100,4,1,5,70,0,0
179590,-100,4,1,6,75,0,0
179658,-100,4,1,5,75,0,0
179864,-100,4,1,5,75,0,0
180960,-100,4,1,5,75,0,0
181508,-100,4,1,5,75,0,0
181782,-100,4,1,5,75,0,0
181987,-100,4,1,5,75,0,0
183151,-100,4,1,5,75,0,0
183699,-100,4,1,5,75,0,0
188083,-100,4,1,5,75,0,0
188357,-88.4955752212389,4,1,6,80,0,1
188425,-88.4955752212389,4,1,5,80,0,1
189270,-88.4955752212389,4,1,6,80,0,1
189727,-88.4955752212389,4,1,5,80,0,1
190275,-88.4955752212389,4,1,5,80,0,1
192740,-88.4955752212389,4,1,6,80,0,1
192809,-88.4955752212389,4,1,5,80,0,1
193014,-88.4955752212389,4,1,5,80,0,1
193197,-88.4955752212389,4,1,6,80,0,1
193288,-88.4955752212389,4,1,5,80,0,1
194247,-88.4955752212389,4,1,6,80,0,1
194384,-88.4955752212389,4,1,5,80,0,1
195069,-88.4955752212389,4,1,6,80,0,1
195479,-88.4955752212389,4,1,5,80,0,1
196210,-88.4955752212389,4,1,6,80,0,1
196302,-88.4955752212389,4,1,5,80,0,1
196485,-88.4955752212389,4,1,6,80,0,1
196576,-88.4955752212389,4,1,5,80,0,1
197581,-88.4955752212389,4,1,6,80,0,1
197672,-88.4955752212389,4,1,5,80,0,1
197855,-88.4955752212389,4,1,5,80,0,1
198494,-88.4955752212389,4,1,5,80,0,1
199772,-88.4955752212389,4,1,6,80,0,1
199864,-88.4955752212389,4,1,5,80,0,1
201416,-88.4955752212389,4,1,6,80,0,1
201508,-88.4955752212389,4,1,5,80,0,1
201690,-88.4955752212389,4,1,5,80,0,1
202055,-88.4955752212389,4,1,5,80,0,1
202511,-88.4955752212389,4,1,6,80,0,1
202603,-88.4955752212389,4,1,5,80,0,1
202786,-88.4955752212389,4,1,6,80,0,1
202877,-88.4955752212389,4,1,5,80,0,1
203060,-88.4955752212389,4,1,6,80,0,1
203151,-88.4955752212389,4,1,5,80,0,1
204155,-88.4955752212389,4,1,6,80,0,1
204247,-88.4955752212389,4,1,5,80,0,1
205069,-100,4,1,5,60,0,0
205617,-100,4,1,6,70,0,0
205686,-100,4,1,5,70,0,0
205891,-100,4,1,5,70,0,0
206165,-100,4,1,5,70,0,0
208083,-100,4,1,5,70,0,0
208357,-100,4,1,5,70,0,0
208905,-100,4,1,5,70,0,0
209179,-100,4,1,5,70,0,0
209453,-100,4,1,5,70,0,0
210275,-100,4,1,5,70,0,0
210549,-100,4,1,5,70,0,0
211097,-100,4,1,5,70,0,0
212466,-100,4,1,6,70,0,0
212535,-100,4,1,5,70,0,0
212740,-100,4,1,5,70,0,0
213562,-100,4,1,5,70,0,0
214658,-100,4,1,5,70,0,0
214932,-100,4,1,5,70,0,0
216028,-100,4,1,5,70,0,0
216850,-100,4,1,5,70,0,0
217124,-100,4,1,5,70,0,0
218768,273.972602739726,3,2,5,60,1,0
222535,-100,3,2,5,60,0,0
222603,-100,3,2,5,50,0,0
222877,-100,3,2,6,40,0,0
223151,-100,3,2,5,30,0,0
223425,-100,3,2,6,25,0,0
223699,-100,3,2,5,20,0,0
223973,-100,3,2,6,18,0,0
224247,-100,3,2,5,16,0,0
224521,-100,3,2,6,14,0,0
224795,-100,3,2,5,12,0,0
225069,-100,3,2,6,11,0,0
225343,-100,3,2,5,10,0,0
225617,-100,3,2,6,8,0,0
225891,-100,3,2,5,6,0,0
226165,-100,3,2,1,5,0,0

[Colours]
Combo1 : 102,102,113
Combo2 : 158,196,72
Combo3 : 7,222,131
Combo4 : 145,143,171
Combo5 : 191,139,104
Combo6 : 234,53,53
Combo7 : 171,50,68
Combo8 : 103,106,96

[HitObjects]
159,45,1782,5,4,3:2:0:0:
392,130,2809,5,4,1:2:0:0:
162,227,3973,5,4,1:2:0:0:
321,302,5001,5,4,3:2:0:0:
321,302,5617,2,0,P|372:311|423:241,1,140,8|8,1:0|1:0,0:0:0:0:
487,123,6165,6,0,P|485:90|465:14,2,105,2|2|0,3:1|3:0|0:0,0:0:0:0:
401,167,6713,2,0,B|315:156|354:199|261:177,1,140,8|8,1:0|1:0,0:0:0:0:
105,232,7261,6,0,P|107:209|139:132,2,105,14|8|8,1:0|1:0|1:0,0:0:0:0:
0,293,7809,2,0,P|61:321|270:281,1,280,6|4,1:0|1:0,0:0:0:0:
402,190,8631,5,8,0:0:0:0:
402,190,8905,2,0,P|433:199|423:310,1,140,0|8,0:0|0:0,0:0:0:0:
352,351,9361,2,0,P|289:338|196:329,1,140,2|0,0:0|0:0,0:0:0:0:
136,288,9727,2,0,B|107:258|107:258|10:286,2,140,8|2|10,0:0|0:0|0:0,0:0:0:0:
284,208,10549,5,2,0:0:0:0:
284,208,10823,2,0,B|304:120|252:164|260:60,1,140,14|2,0:0|0:2,0:0:0:0:
429,7,11371,2,0,P|465:13|489:75,1,93.3333333333333,8|2,0:0|0:0,0:0:0:0:
428,109,11645,2,0,L|319:86,1,93.3333333333333,2|0,0:3|0:0,0:0:0:0:
271,46,11918,2,0,B|216:57|216:57|208:85|208:85|131:100,2,140,10|10|12,0:0|0:0|0:2,0:0:0:0:
369,182,12740,5,2,2:0:0:0:
369,182,13014,2,0,P|331:162|208:179,1,140,14|2,0:0|0:0,0:0:0:0:
128,147,13471,1,2,3:0:0:0:
128,147,13562,2,0,P|102:171|90:240,1,93.3333333333333,10|2,0:0|3:0,0:0:0:0:
32,281,13836,6,0,P|50:296|144:312,1,93.3333333333333,14|0,0:2|3:0,0:0:0:0:
148,339,14110,2,0,P|192:329|237:290,1,93.3333333333333,10|0,0:0|0:0,0:0:0:0:
290,248,14384,2,0,P|346:244|377:338,1,140,0|8,0:0|0:0,0:0:0:0:
476,166,14932,6,0,P|470:118|465:16,2,140,4|8|2,0:1|0:0|2:0,0:0:0:0:
368,104,15754,1,8,0:0:0:0:
255,138,16028,2,0,P|202:131|146:67,1,140,2|8,2:0|0:0,0:0:0:0:
73,97,16439,2,0,P|72:122|2:219,1,140,0|2,2:0|2:0,0:0:0:0:
76,259,16850,6,0,P|132:234|237:227,2,140,8|2|8,0:0|3:0|1:0,0:0:0:0:
178,347,17672,1,2,2:0:0:0:
302,292,17946,2,0,P|345:298|390:334,1,93.3333333333333,8|0,0:0|3:0,0:0:0:0:
418,358,18220,2,0,P|463:338|444:252,1,140,2|8,2:1|0:0,0:0:0:0:
389,137,18631,2,0,P|452:119|488:173,1,140,2|8,2:0|0:3,0:0:0:0:
387,219,19042,2,0,L|311:200,1,70,8|8,0:0|0:0,0:0:0:0:
240,156,19316,5,6,0:0:0:0:
240,156,19590,2,0,B|210:180|210:180|229:294,2,140,8|0|8,0:0|2:0|0:0,0:0:0:0:
361,39,20412,2,0,P|315:39|216:22,1,140,2|8,2:0|0:0,0:0:0:0:
150,81,20823,2,0,P|196:83|295:62,1,140,2|0,2:0|2:0,0:0:0:0:
377,119,21234,2,0,P|404:136|438:176,1,70,8|0,0:0|2:0,0:0:0:0:
487,253,21508,5,6,3:1:0:0:
487,253,22603,2,0,B|442:243|442:243|396:270,1,93.3333333333333,10|2,0:0|0:3,0:0:0:0:
352,325,22877,2,0,B|307:335|307:335|261:308,1,93.3333333333333,10|2,0:0|0:3,0:0:0:0:
228,246,23151,1,4,3:2:0:0:
0,344,23699,6,0,P|2:301|48:200,1,140,6|8,0:1|0:0,0:0:0:0:
110,180,24110,2,0,P|103:142|13:109,1,140,2|2,2:0|0:3,0:0:0:0:
103,31,24521,2,0,P|135:22|185:-7,1,70,8|0,0:0|2:0,0:0:0:0:
225,69,24795,6,0,P|229:99|248:161,2,70,2|0|8,0:0|0:0|0:0,0:0:0:0:
321,0,25206,2,0,P|380:18|392:103,1,140,2|0,2:0|2:0,0:0:0:0:
479,150,25617,1,8,0:0:0:0:
371,278,25891,6,0,P|350:293|291:306,1,70,2|0,0:0|0:0,0:0:0:0:
223,250,26165,1,8,0:0:0:0:
170,302,26302,2,0,B|80:275|128:323|21:285,1,140,2|2,2:0|0:3,0:0:0:0:
2,201,26713,2,0,L|20:123,1,70,8|0,0:0|3:0,0:0:0:0:
91,63,26987,6,0,B|169:48|121:37|200:23,2,105,6|6|2,0:0|0:2|0:3,0:0:0:0:
12,114,27535,1,6,0:0:0:0:
176,216,27809,1,8,0:0:0:0:
344,120,28083,1,12,0:0:0:0:
344,120,28539,1,8,0:0:0:0:
145,16,28905,2,0,P|86:27|66:175,1,233.333333333333,10|8,0:0|0:0,0:0:0:0:
201,352,29727,5,10,0:0:0:0:
53,271,30001,1,10,0:0:0:0:
195,181,30275,2,0,P|232:187|281:271,1,140,6|6,0:2|0:2,0:0:0:0:
281,268,30823,1,6,0:2:0:0:
431,192,31097,1,14,0:2:0:0:
315,69,31371,6,0,P|281:42|229:47,1,93.3333333333333,12|0,0:0|0:0,0:0:0:0:
179,104,31645,2,0,P|145:131|93:126,1,93.3333333333333,10|0,0:0|0:0,0:0:0:0:
21,133,31918,2,0,P|18:99|62:62,1,93.3333333333333,8|0,0:0|0:0,0:0:0:0:
126,24,32192,2,0,P|189:51|199:120,1,140,0|6,0:0|0:0,0:0:0:0:
28,91,36508,5,4,3:2:0:0:
28,91,36850,2,0,B|82:82|82:82|107:91|107:91|181:79,1,140,8|8,1:0|0:0,0:0:0:0:
288,55,37329,2,0,B|273:24|318:14|318:14|419:52,1,140,8|8,0:0|0:0,0:0:0:0:
410,51,37672,1,2,0:2:0:0:
505,214,37946,6,0,B|501:286|483:241|474:328,2,105,8|8|0,0:0|0:0|0:0,0:0:0:0:
457,124,38494,2,0,P|425:111|381:84,1,70,8|0,0:0|0:0,0:0:0:0:
398,211,38768,2,0,P|376:240|363:287,1,70,12|0,0:2|3:0,0:0:0:0:
282,348,39042,5,12,0:0:0:0:
208,196,39316,1,10,0:0:0:0:
360,120,39590,1,10,0:0:0:0:
436,284,39864,1,8,0:0:0:0:
436,284,40001,1,0,0:0:0:0:
436,284,40138,1,6,2:0:0:0:
338,218,41234,6,0,B|297:211|297:211|262:234|262:234|184:224,1,154.000004699707,6|10,0:0|0:0,0:0:0:0:
49,331,41782,2,0,P|39:289|82:159,1,154.000004699707,2|8,2:0|0:0,0:0:0:0:
33,44,42238,6,0,B|127:78|89:25|197:57,1,154.000004699707,2|0,0:2|0:0,0:0:0:0:
230,25,42603,2,0,L|249:126,1,77.0000023498536,10|0,0:0|0:0,0:0:0:0:
317,210,42877,2,0,P|273:193|197:188,1,102.666669799805,2|0,0:0|3:0,0:0:0:0:
218,186,43151,2,0,P|208:212|194:285,1,77.0000023498536,8|0,0:0|0:0,0:0:0:0:
102,325,43425,6,0,P|49:328|23:234,2,154.000004699707,4|10|4,0:0|0:0|0:2,0:0:0:0:
235,259,44247,1,8,0:0:0:0:
275,361,44430,2,0,B|332:347|332:347|366:352|366:352|437:332,1,154.000004699707,2|0,0:0|2:0,0:0:0:0:
499,274,44795,2,0,P|462:258|421:239,1,77.0000023498536,8|0,0:0|2:0,0:0:0:0:
339,168,45069,2,0,P|327:203|308:252,1,77.0000023498536,14|0,0:0|2:0,0:0:0:0:
454,167,45343,2,0,P|452:129|420:93,1,77.0000023498536,10|10,0:0|0:0,0:0:0:0:
345,172,45617,6,0,B|275:150|260:202|182:173,1,154.000004699707,6|8,0:0|0:0,0:0:0:0:
103,51,46165,2,0,B|41:67|41:67|5:124|53:171,1,154.000004699707,2|8,2:0|1:0,0:0:0:0:
112,229,46622,1,2,0:2:0:0:
112,229,46713,2,0,P|178:211|265:211,1,154.000004699707,0|10,0:0|0:0,0:0:0:0:
417,175,47261,2,0,P|371:157|296:157,1,102.666669799805,0|0,3:0|3:0,0:0:0:0:
288,125,47535,2,0,P|297:97|299:31,1,77.0000023498536,10|10,0:0|0:0,0:0:0:0:
208,0,47809,5,6,0:0:0:0:
131,151,48083,1,2,3:0:0:0:
294,210,48357,1,4,0:0:0:0:
294,210,48631,1,10,0:0:0:0:
267,364,48905,6,0,B|213:358|213:358|206:363|206:363|139:354,1,115.50000352478,10|0,0:0|0:0,0:0:0:0:
140,364,49179,2,0,B|116:328|116:328|174:260,1,115.50000352478,10|0,0:0|0:0,0:0:0:0:
177,275,49453,2,0,B|179:202|147:237|144:159,2,115.50000352478,10|6|0,0:0|0:0|0:0,0:0:0:0:
237,349,50001,5,2,0:3:0:0:
237,349,50275,2,0,B|338:314|300:364|386:329,1,154.000004699707,14|2,0:0|0:2,0:0:0:0:
471,269,50731,1,0,3:0:0:0:
471,269,50823,2,0,P|459:230|461:157,1,102.666669799805,8|2,0:0|0:0,0:0:0:0:
458,168,51097,6,0,P|395:197|308:195,1,154.000004699707,2|8,2:0|1:0,0:0:0:0:
247,55,51645,2,0,P|176:24|100:27,1,154.000004699707,2|8,2:2|1:0,0:0:0:0:
29,54,52055,1,0,0:0:0:0:
0,172,52192,6,0,P|43:171|125:91,1,154.000004699707,2|8,0:2|0:0,0:0:0:0:
261,15,52740,2,0,P|301:17|358:57,1,102.666669799805,0|0,0:0|3:0,0:0:0:0:
380,63,53014,1,10,0:0:0:0:
462,21,53151,2,0,P|480:45|486:172,1,154.000004699707,2|0,2:2|3:0,0:0:0:0:
412,231,53562,2,0,P|345:225|359:142,2,154.000004699707,8|8|8,0:0|0:0|0:0,0:0:0:0:
496,360,54384,5,6,0:2:0:0:
347,320,54658,1,8,0:0:0:0:
200,368,54932,1,0,2:0:0:0:
53,321,55206,1,8,0:0:0:0:
53,321,55480,6,0,P|38:293|51:157,1,154.000004699707,6|8,0:2|0:2,0:0:0:0:
185,117,56028,2,0,P|206:140|229:274,2,154.000004699707,6|8|14,0:2|0:2|0:0,0:0:0:0:
89,50,56782,5,6,0:0:0:0:
89,50,57055,2,0,P|166:83|242:3,1,192.500005874634,8|8,0:0|0:0,0:0:0:0:
332,87,57603,2,0,B|411:67|395:109|486:83,2,154.000004699707,4|10|2,3:2|0:0|0:0,0:0:0:0:
317,91,58220,2,0,B|289:117|289:117|313:246,1,154.000004699707,10|10,0:0|3:1,0:0:0:0:
334,369,58768,5,2,3:0:0:0:
399,197,59042,1,0,3:0:0:0:
219,238,59316,6,0,B|163:250|163:250|152:278|152:278|89:293,2,140,12|8|0,0:0|0:0|3:0,0:0:0:0:
473,63,60412,2,0,P|434:58|386:10,1,93.3333333333333,8|0,0:0|3:0,0:0:0:0:
393,24,60686,2,0,P|359:37|298:46,1,70,8|0,0:0|2:0,0:0:0:0:
209,81,60960,6,0,B|267:99|267:99|293:144|339:150,2,140,2|2|8,0:3|0:2|0:0,0:0:0:0:
132,20,61690,1,0,3:0:0:0:
132,20,61782,2,0,P|91:41|93:96,1,93.3333333333333,10|0,0:0|3:0,0:0:0:0:
86,84,62055,2,0,P|88:116|36:222,1,140,8|8,0:0|0:0,0:0:0:0:
14,323,62466,6,0,P|46:259|293:294,1,350,2|2,0:0|1:0,0:0:0:0:
349,228,63334,6,0,P|404:283|376:351,1,140,0|0,3:0|0:0,0:0:0:0:
324,377,63699,2,0,P|279:362|236:358,1,70,12|0,0:0|0:0,0:0:0:0:
165,307,63973,2,0,P|124:310|96:359,1,93.3333333333333,8|0,0:0|3:0,0:0:0:0:
96,350,64247,6,0,P|118:299|99:187,1,140,2|8,2:0|0:0,0:0:0:0:
11,69,64795,2,0,P|54:102|236:102,1,233.333333333333,12|8,0:0|0:3,0:0:0:0:
272,167,65343,6,0,P|301:141|315:92,1,70,12|0,0:0|3:0,0:0:0:0:
429,55,65617,2,0,P|460:68|511:78,1,70,10|0,0:0|0:0,0:0:0:0:
405,152,65891,2,0,B|441:242|379:198|417:300,2,140,8|10|8,0:0|0:0|0:0,0:0:0:0:
272,42,66713,2,0,L|208:61,2,46.6666666666667,10|8|8,0:3|0:3|0:3,0:0:0:0:
313,10,66987,1,14,0:0:0:0:
13,80,67535,6,0,B|58:73|90:109|90:109|65:122|50:156,1,140,6|8,0:0|0:0,0:0:0:0:
136,189,67946,2,0,L|306:175,1,140,2|2,0:2|0:0,0:0:0:0:
371,118,68357,2,0,B|399:125|399:125|405:130|405:130|458:142,1,70,8|0,0:0|2:0,0:0:0:0:
376,230,68631,6,0,B|234:206,1,140,2|8,2:2|0:0,0:0:0:0:
156,150,69042,2,0,P|112:173|99:258,1,140,2|0,2:0|2:0,0:0:0:0:
73,353,69453,2,0,P|112:340|144:315,1,70,8|0,0:0|0:0,0:0:0:0:
237,287,69727,6,0,P|305:282|353:339,1,140,2|8,0:0|0:0,0:0:0:0:
284,381,70138,2,0,P|347:366|422:360,1,140,2|0,2:0|3:0,0:0:0:0:
511,325,70549,1,8,0:0:0:0:
380,212,70823,2,0,P|368:183|406:127,1,93.3333333333333,10|0,0:0|0:0,0:0:0:0:
420,138,71097,2,0,P|452:102|432:5,1,140,12|10,0:0|0:0,0:0:0:0:
343,9,71553,5,0,0:0:0:0:
343,9,71645,2,0,L|248:24,1,70,10|10,0:0|0:0,0:0:0:0:
172,54,71918,6,0,B|225:62|264:33|264:33|248:112|305:161,1,233.333333333333,8|8,0:0|0:0,0:0:0:0:
350,308,72649,5,0,3:0:0:0:
350,308,72740,2,0,B|335:284|330:254|330:254|219:195|181:306,1,233.333333333333,10|8,0:0|0:0,0:0:0:0:
185,293,73425,5,0,0:0:0:0:
75,356,73562,2,0,P|89:324|98:263,1,70,14|0,0:0|2:0,0:0:0:0:
19,161,73836,2,0,P|31:193|31:228,1,70,10|0,0:0|0:0,0:0:0:0:
124,207,74110,6,0,B|171:195|171:195|214:202|214:202|272:187,2,140,6|6|6,0:0|0:0|0:0,0:0:0:0:
266,103,74932,1,14,0:0:0:0:
367,218,75206,6,0,L|379:284,2,46.6666666666667,10|0|0,0:0|0:0|0:0,0:0:0:0:
408,187,75480,2,0,B|415:129|430:156|439:67,1,93.3333333333333,10|0,0:0|0:0,0:0:0:0:
396,63,75754,2,0,B|354:72|354:72|349:77|349:77|298:89,2,93.3333333333333,8|0|0,0:0|0:0|0:0,0:0:0:0:
492,27,76302,5,4,3:2:0:0:
132,325,78129,5,0,3:0:0:0:
132,325,78220,2,0,P|98:282|121:235,1,93.3333333333333,8|2,0:0|3:2,0:0:0:0:
134,225,78494,1,6,0:0:0:0:
0,57,80343,6,0,P|69:62|137:17,1,140,4|0,3:2|0:0,0:0:0:0:
128,27,80686,2,0,P|160:73|226:72,1,112,4|2,3:2|0:0,0:0:0:0:
326,31,81234,1,2,0:0:0:0:
398,7,81371,2,0,P|411:35|410:133,1,112,2|0,0:3|0:0,0:0:0:0:
387,213,81782,6,0,B|438:204|428:185|511:166,2,112,2|2|0,0:0|0:3|0:0,0:0:0:0:
313,274,82512,1,0,0:0:0:0:
313,274,82603,2,0,P|269:270|232:232,1,74.6666666666667,8|0,0:0|0:0,0:0:0:0:
245,252,82877,6,0,P|278:285|273:358,1,112,6|2,3:2|0:3,0:0:0:0:
168,295,83288,2,0,P|175:212|222:144,1,168
270,30,83973,6,0,P|219:117|131:56,1,224,2|8,0:0|1:2,0:0:0:0:
39,140,84727,2,0,P|13:171|24:226,1,84,6|0,3:2|0:0,0:0:0:0:
77,276,85069,6,0,P|137:261|166:331,1,140,4|0,1:0|0:0,0:0:0:0:
309,256,85617,2,0,P|349:247|445:214,1,140,8|2,1:0|0:0,0:0:0:0:
393,68,86165,2,0,P|349:85|361:168,1,140,4|0,0:0|3:0,0:0:0:0:
434,211,86576,1,2,0:0:0:0:
346,166,86713,2,0,B|265:160|289:197|195:172,1,140,12|2,1:0|0:0,0:0:0:0:
135,118,87170,5,8,3:0:0:0:
135,118,87261,2,0,P|120:151|106:264,1,140,4|2,3:2|0:0,0:0:0:0:
204,371,87809,2,0,P|255:344|232:265,1,140,12|0,1:0|0:0,0:0:0:0:
138,231,88220,6,0,B|71:251|71:251|56:291|6:296,1,140,2|0,0:0|0:0,0:0:0:0:
81,167,88631,2,0,L|95:85,1,70,0|0,3:0|0:0,0:0:0:0:
211,194,88905,2,0,B|202:155|202:155|185:134|185:134|172:81,1,105,10|6,1:0|3:2,0:0:0:0:
345,4,89453,6,0,P|391:1|418:55,1,93.3333333333333,12|0,0:0|3:0,0:0:0:0:
442,80,89727,2,0,P|416:107|356:101,1,93.3333333333333,12|0,0:0|0:0,0:0:0:0:
320,75,90001,2,0,P|306:113|302:233,1,140,2|0,0:3|0:0,0:0:0:0:
271,276,90412,1,0,2:0:0:0:
377,269,90549,6,0,B|443:249|412:279|504:243,2,105,10|8|0,0:0|0:0|3:0,0:0:0:0:
305,340,91097,2,0,L|220:323,1,70,10|0,0:0|3:0,0:0:0:0:
129,267,91371,2,0,B|50:288|50:288|91:346,1,140,12|14,0:0|0:0,0:0:0:0:
252,247,91918,6,0,P|248:217|233:171,1,70,14|0,0:0|3:0,0:0:0:0:
87,113,92192,2,0,P|116:107|198:107,1,105,10|0,0:0|0:0,0:0:0:0:
191,106,92466,2,0,P|184:73|184:34,1,70,6|8,0:0|0:0,0:0:0:0:
289,0,92740,1,2,3:0:0:0:
289,0,93288,6,8,L|301:53,3,46.6666666666667,8|8|8|8,1:0|1:0|1:0|1:0,1:0:0:0:
479,103,93836,6,0,B|443:83|407:107|407:107|381:149|338:150,1,140,6|10,1:0|0:0,0:0:0:0:
242,227,94384,2,0,P|286:242|402:251,1,140,2|8,2:2|0:0,0:0:0:0:
502,319,94841,6,0,P|448:311|389:375,1,140,2|0,2:0|2:0,0:0:0:0:
396,371,95206,2,0,P|330:378|277:318,1,140,10|2,0:0|0:0,0:0:0:0:
185,228,95663,1,0,3:0:0:0:
185,228,95754,2,0,P|186:246|161:311,1,70,10|0,0:0|2:0,0:0:0:0:
269,251,96028,2,0,P|261:219|268:92,1,140,6|14,0:0|0:0,0:0:0:0:
72,56,96576,2,0,L|-15:83,2,70,2|2|10,0:3|2:0|0:0,0:0:0:0:
197,45,96987,6,0,P|88:80|117:145,1,210,2|12,1:2|0:0,0:0:0:0:
12,240,97581,1,0,0:0:0:0:
12,240,97672,2,0,P|60:241|108:267,1,93.3333333333333,10|0,0:0|0:0,0:0:0:0:
100,260,97946,2,0,P|97:303|108:344,1,70,12|10,0:0|0:0,0:0:0:0:
207,380,98220,6,0,B|235:357|273:351|273:351|246:326|234:282,1,140,0|14,3:0|0:0,0:0:0:0:
348,179,98768,2,0,P|394:173|472:250,1,140,2|8,0:2|0:0,0:0:0:0:
351,292,99224,2,0,B|303:282|303:282|272:296|272:296|208:285,1,140,2|0,2:0|2:0,0:0:0:0:
101,325,99590,2,0,P|111:302|121:235,1,70,10|0,0:0|0:0,0:0:0:0:
68,172,99864,2,0,P|38:153|16:126,1,70,0|2,0:0|0:3,0:0:0:0:
166,174,100138,2,0,P|211:158|251:153,1,70,10|10,0:0|3:0,0:0:0:0:
341,184,100412,6,0,P|298:173|282:80,2,140,6|4|6,0:0|0:0|0:0,0:0:0:0:
477,307,101234,1,12,0:0:0:0:
271,262,101508,6,0,L|209:278,2,46.6666666666667,10|8|8,0:0|0:3|0:3,0:0:0:0:
307,256,101782,2,0,P|336:287|310:354,1,93.3333333333333,8|8,0:0|0:3,0:0:0:0:
261,374,102055,2,0,B|202:364|202:364|190:369|190:369|105:355,1,140,10|4,0:0|0:0,0:0:0:0:
123,358,102603,1,2,0:3:0:0:
29,160,102877,6,0,P|64:110|137:131,1,140,12|2,0:0|0:0,0:0:0:0:
222,193,103334,1,0,3:0:0:0:
222,193,103425,2,0,P|269:179|330:179,1,93.3333333333333,10|2,0:0|0:0,0:0:0:0:
428,81,103882,5,0,3:0:0:0:
428,81,103973,2,0,P|360:69|327:8,1,140,8|2,0:0|0:3,0:0:0:0:
213,61,104430,1,0,0:0:0:0:
213,61,104521,2,0,P|179:74|127:84,1,70,10|0,0:0|0:0,0:0:0:0:
64,150,104795,6,0,P|94:109|182:123,1,140,6|8,3:2|0:0,0:0:0:0:
293,291,105343,2,0,P|256:330|164:325,1,140,2|8,0:0|0:0,0:0:0:0:
58,359,105800,6,0,B|72:296|110:317|134:239,1,140,4|0,0:2|0:0,0:0:0:0:
120,235,106165,1,10,0:0:0:0:
48,174,106348,1,0,0:0:0:0:
48,174,106439,2,0,P|74:125|155:134,1,140,8|14,0:0|0:0,0:0:0:0:
288,189,106987,5,6,0:2:0:0:
430,99,107261,1,8,0:0:0:0:
281,19,107535,1,2,2:0:0:0:
209,83,107718,1,0,3:0:0:0:
209,83,107809,2,0,L|307:105,1,93.3333333333333,8|0,0:0|0:0,0:0:0:0:
300,103,108083,6,0,B|281:168|240:144|216:219,1,140,2|8,0:2|0:0,0:0:0:0:
101,335,108631,2,0,B|36:345|36:345|-6:316|27:274,1,140,2|10,0:3|0:0,0:0:0:0:
184,236,109179,6,0,B|172:197|137:186|137:186|229:186|245:299,1,233.333333333333,12|0,0:0|0:0,0:0:0:0:
257,363,109727,2,0,B|316:356|316:356|340:364|340:364|407:356,1,140,10|8,0:3|0:0,0:0:0:0:
474,277,110183,2,0,L|465:219,1,46.6666666666667,0|12,0:0|0:0,0:0:0:0:
409,101,110549,5,2,2:0:0:0:
274,139,110823,1,2,2:0:0:0:
137,108,111097,1,14,0:0:0:0:
4,153,111371,1,4,3:2:0:0:
256,192,111827,12,2,113562,2:0:0:0:
54,126,119864,5,8,1:0:0:0:
58,130,120138,2,0,P|107:138|153:82,1,112,4|0,0:0|0:0,0:0:0:0:
149,91,120686,2,0,P|197:66|257:97,1,112,2|0,0:0|0:0,0:0:0:0:
250,97,121234,2,0,P|295:126|363:113,1,112,2|0,0:0|0:0,0:0:0:0:
351,112,121782,2,0,P|409:101|460:160,1,112,2|0,0:0|0:0,0:0:0:0:
500,239,122329,6,0,B|462:246|462:246|448:256|448:256|366:270,2,112,6|0|2,0:0|0:0|0:0,0:0:0:0:
392,344,123151,1,2,0:3:0:0:
273,223,123425,2,0,L|309:102,1,112,2|0,0:0|0:0,0:0:0:0:
123,172,123973,2,0,L|91:279,1,112,2|2,0:3|0:0,0:0:0:0:
204,361,124521,5,8,0:0:0:0:
256,192,124658,12,8,126165,0:0:0:0:
16,227,126713,6,0,L|145:210,1,93.3333333333333,14|12,0:0|0:3,0:0:0:0:
120,225,126987,1,10,0:0:0:0:
204,166,127170,1,12,0:3:0:0:
204,166,127261,2,0,L|317:183,1,93.3333333333333,14|12,0:0|3:0,0:0:0:0:
308,186,127535,1,10,0:0:0:0:
400,246,127718,5,12,3:0:0:0:
400,246,127809,2,0,B|478:293|559:158|441:117|337:139|272:199|277:307,1,420,10|0,0:0|2:0,0:0:0:0:
148,340,128905,6,0,P|87:314|2:334,2,140,6|10|0,0:0|0:0|0:0,0:0:0:0:
272,227,129727,2,0,P|314:199|372:224,1,93.3333333333333,8|0,0:0|0:0,0:0:0:0:
373,219,130001,2,0,P|392:160|393:60,1,140,2|10,2:0|0:0,0:0:0:0:
249,0,130549,2,0,P|212:34|215:100,1,93.3333333333333,2|0,0:3|0:0,0:0:0:0:
223,89,130823,1,8,0:0:0:0:
132,234,131097,6,0,P|90:219|16:235,1,93.3333333333333,2|0,0:0|0:0,0:0:0:0:
22,236,131371,2,0,B|-15:297|-15:297|59:315,1,140,14|2,0:0|0:0,0:0:0:0:
194,351,131827,1,2,0:2:0:0:
194,351,131918,2,0,P|240:318|293:320,1,93.3333333333333,8|0,0:0|0:0,0:0:0:0:
302,304,132192,2,0,B|365:263|309:224|402:161,1,140,2|10,0:0|0:0,0:0:0:0:
493,143,132649,1,0,0:0:0:0:
493,143,132740,2,0,B|426:107|479:63|380:9,1,140,2|10,0:0|0:0,0:0:0:0:
244,42,133288,6,0,B|263:81|270:114|270:114|301:102|342:102,1,140,6|8,0:0|0:0,0:0:0:0:
489,184,133836,2,0,P|437:198|411:245,1,93.3333333333333,2|0,0:0|0:0,0:0:0:0:
394,248,134110,2,0,P|394:301|432:339,1,93.3333333333333,10|0,0:0|0:0,0:0:0:0:
446,346,134384,2,0,B|476:327|476:327|530:343,2,70,0|2|8,0:0|0:1|1:0,0:0:0:0:
245,219,134932,2,0,P|241:276|262:336,2,105,2|2|2,0:0|0:0|0:3,0:0:0:0:
121,149,135480,6,0,B|151:168|164:197|164:197|142:242|138:291,1,140,4|8,0:0|0:0,0:0:0:0:
234,116,136028,1,2,0:0:0:0:
328,193,136211,2,0,P|388:208|433:152,1,140,2|2,3:1|0:0,0:0:0:0:
432,125,136576,1,2,2:0:0:0:
358,83,136713,1,0,1:0:0:0:
426,33,136850,2,0,L|513:27,2,70,8|0|2,0:0|0:0|0:0,0:0:0:0:
311,4,137307,1,2,1:0:0:0:
300,10,137398,6,0,P|306:82|299:158,1,140,8|4,0:0|0:0,0:0:0:0:
116,282,137946,2,0,P|105:168|108:37,1,233.333333333333,8|2,0:0|0:0,0:0:0:0:
117,31,138494,2,0,P|178:25|184:99,1,140,10|2,0:0|0:0,0:0:0:0:
65,143,138950,2,0,B|141:143|131:203|211:181,1,140,2|0,0:2|0:0,0:0:0:0:
219,169,139316,1,2,0:0:0:0:
352,13,139590,2,0,P|339:83|344:187,1,140,10|6,0:0|0:0,0:0:0:0:
366,245,140001,1,0,0:0:0:0:
278,212,140138,6,0,B|215:208|215:208|193:216|193:216|110:213,1,140,14|2,0:0|0:0,0:0:0:0:
236,303,140594,1,0,0:0:0:0:
236,303,140686,2,0,B|299:299|299:299|321:307|321:307|404:304,1,140,14|2,0:0|0:0,0:0:0:0:
457,221,141142,1,0,0:0:0:0:
451,211,141234,2,0,B|446:171|446:144|446:144|472:111|461:64,2,140,8|14|2,0:0|0:0|0:0,0:0:0:0:
378,294,141964,1,0,0:0:0:0:
368,297,142055,5,6,0:0:0:0:
368,297,143836,2,0,P|323:321|310:243,1,140,14|14,0:0|0:0,0:0:0:0:
369,208,145891,1,2,2:0:0:0:
433,144,146028,6,0,B|377:141|378:197|275:180,1,140,12|6,0:0|0:0,0:0:0:0:
130,55,146622,1,0,3:0:0:0:
137,67,146713,2,0,B|142:143|100:154|133:243,1,140,8|0,0:0|0:0,0:0:0:0:
0,334,147261,2,0,B|38:313|38:313|90:356,1,93.3333333333333,10|0,0:0|0:0,0:0:0:0:
91,358,147535,6,0,P|137:366|174:283,1,140,10|2,0:0|0:0,0:0:0:0:
117,189,147992,1,0,0:0:0:0:
127,199,148083,2,0,P|181:206|212:174,1,93.3333333333333,8|0,0:0|0:0,0:0:0:0:
214,168,148357,2,0,P|268:161|299:193,1,93.3333333333333,4|0,0:2|0:0,0:0:0:0:
306,204,148631,6,0,B|282:241|282:241|289:348,1,140,10|10,0:0|0:0,0:0:0:0:
401,375,149087,1,0,3:0:0:0:
413,363,149179,2,0,P|435:305|416:270,1,93.3333333333333,8|8,0:0|0:0,0:0:0:0:
414,263,149453,2,0,P|402:218|425:179,1,93.3333333333333,2|0,0:0|0:0,0:0:0:0:
469,150,149727,6,2,B|416:135|388:98|388:98|299:101|340:178|240:179,1,233.333333333333,10|0,0:0|3:0,1:0:0:0:
122,99,150457,1,4,3:0:0:0:
131,92,150549,6,0,B|165:121|165:121|172:236,1,140,8|4,0:0|0:0,0:0:0:0:
170,216,151827,1,4,3:2:0:0:
170,216,153014,1,4,3:2:0:0:
170,216,154019,1,4,3:2:0:0:
139,288,154658,5,8,1:0:0:0:
310,335,154932,1,8,1:0:0:0:
409,172,155206,1,2,3:0:0:0:
409,172,155754,6,0,B|363:191|363:191|346:225|297:228,1,112,10|8,1:0|1:0,0:0:0:0:
193,146,156302,1,2,0:0:0:0:
138,278,156576,1,2,3:0:0:0:
237,378,156850,2,0,P|239:320|246:257,1,112,12|0,0:0|0:0,0:0:0:0:
352,155,157398,6,0,P|288:183|239:174,1,112,2|8,3:0|1:0,0:0:0:0:
152,135,157855,1,0,0:0:0:0:
152,135,157946,2,0,B|160:192|160:192|162:199|162:199|170:263,1,112,8|8,1:0|1:0,0:0:0:0:
206,345,158425,2,0,P|134:330|52:364,1,140,2|0,2:0|1:0,0:0:0:0:
9,236,159042,2,0,L|16:284,3,37.3333333333333,12|8|8|8,1:0|1:0|1:0|1:3,1:0:0:0:
165,121,159590,6,0,P|123:121|113:212,1,140,4|2,3:2|0:0,0:0:0:0:
167,349,160138,2,0,P|171:302|170:255,1,93.3333333333333,8|0,1:0|3:0,0:0:0:0:
192,231,160411,1,8,1:0:0:0:
72,161,160617,2,0,P|128:169|204:140,1,140,4|8,1:0|1:0,0:0:0:0:
294,105,161142,1,0,3:0:0:0:
294,105,161234,2,0,B|314:154|314:154|298:206,1,93.3333333333333,8|0,1:0|0:0,0:0:0:0:
281,225,161508,2,0,L|224:236,2,46.6666666666667,8|8|8,1:0|0:0|0:0,0:0:0:0:
321,253,161782,6,0,P|393:234|467:232,1,140,4|0,0:0|0:0,0:0:0:0:
512,75,162329,2,0,P|444:56|408:56,1,93.3333333333333,10|0,1:0|3:0,0:0:0:0:
395,44,162603,2,0,P|344:93|326:124,1,93.3333333333333,8|0,1:0|3:0,0:0:0:0:
312,129,162877,2,0,P|326:152|335:173,3,46.6666666666667,10|8|8|10,1:0|1:3|1:3|1:0,0:0:0:0:
465,296,163425,2,0,P|477:272|491:254,3,46.6666666666667,10|8|8|10,1:0|1:3|1:3|1:0,0:0:0:0:
323,353,163973,6,0,P|282:345|224:362,1,93.3333333333333,6|8,2:0|1:0,0:0:0:0:
208,377,164247,1,0,3:0:0:0:
59,322,164521,2,0,B|58:281|50:239|50:239|75:219|85:191,1,140,12|8,1:0|1:0,0:0:0:0:
174,103,164978,1,0,0:0:0:0:
174,103,165069,2,0,P|233:134|316:123,1,140,2|2,1:0|3:0,0:0:0:0:
135,263,165617,2,0,P|66:256|4:288,1,140,6|2,1:0|3:0,0:0:0:0:
10,289,166165,6,0,P|8:236|1:152,1,93.3333333333333,12|2,1:0|1:0,0:0:0:0:
0,166,166439,1,8,0:0:0:0:
43,64,166622,1,8,1:0:0:0:
43,64,166713,2,0,P|53:111|106:61,1,140,2|10,0:0|1:2,0:0:0:0:
208,6,167170,1,0,3:0:0:0:
208,6,167261,2,0,P|212:64|192:123,1,93.3333333333333,8|8,1:0|1:0,0:0:0:0:
180,120,167535,5,2,1:0:0:0:
328,29,167809,1,14,1:0:0:0:
457,148,168083,1,10,0:0:0:0:
457,148,168357,6,0,P|425:121|351:131,1,93.3333333333333,12|2,1:0|1:0,0:0:0:0:
351,133,168631,2,0,B|330:153|330:153|259:98,1,93.3333333333333,8|0,1:0|0:0,0:0:0:0:
257,92,168905,2,0,B|182:89|200:128|91:125,1,140,8|0,1:0|3:0,0:0:0:0:
30,271,169453,6,0,B|0:225|22:166|22:166|37:230|99:256,1,210.000008010865,12|0,1:0|0:0,0:0:0:0:
79,246,170549,5,4,0:2:0:0:
151,291,171645,1,4,0:2:0:0:
231,247,172192,2,0,B|222:181|252:179|243:106,2,140,8|8|0,0:0|0:0|0:0,0:0:0:0:
308,296,173471,1,0,0:0:0:0:
308,296,173562,1,8,0:0:0:0:
381,373,173745,6,0,B|401:370|424:370|424:370|451:335|429:274,1,140,4|8,0:2|0:0,0:0:0:0:
417,263,174110,2,0,P|394:224|427:183,1,93.3333333333333,0|0,0:0|3:0,0:0:0:0:
436,190,174384,2,0,P|419:135|357:81,1,140,10|8,0:0|0:0,0:0:0:0:
207,135,174932,5,6,3:2:0:0:
211,150,175480,1,4,0:2:0:0:
316,200,176028,6,0,L|287:322,1,116.666666666667,6|0,0:0|2:0,0:0:0:0:
294,324,176302,6,0,L|173:359,1,116.666666666667,8|0,0:0|2:0,0:0:0:0:
175,366,176576,6,0,L|83:279,1,116.666666666667,6|0,0:0|2:0,0:0:0:0:
79,283,176850,5,8,0:0:0:0:
220,109,177124,6,0,P|213:182|209:251,1,140,6|4,0:0|0:0,0:0:0:0:
349,328,177672,1,4,0:2:0:0:
469,217,177946,1,8,0:0:0:0:
355,75,178220,6,0,P|332:126|364:168,1,93.3333333333333,10|4,0:0|0:3,0:0:0:0:
361,174,178494,2,0,B|299:192|303:230|209:219,1,140,8|8,0:0|0:0,0:0:0:0:
75,330,178973,2,0,P|145:290|116:198,1,175,4|2,1:0|0:3,0:0:0:0:
130,208,179590,6,0,B|52:201|77:168|-13:163,2,140,6|0|8,0:0|0:0|0:0,0:0:0:0:
316,96,180412,2,0,B|263:112|213:157,1,93.3333333333333,2|0,0:2|3:0,0:0:0:0:
221,165,180686,2,0,P|241:206|231:243,1,70,10|0,0:0|0:0,0:0:0:0:
164,316,180960,2,0,B|203:327|233:310|233:310|269:307|300:342,1,140,2|10,0:2|0:0,0:0:0:0:
410,220,181508,6,0,P|479:269|460:324,2,140,6|8|0,0:2|0:0|0:0,0:0:0:0:
278,349,182329,1,8,0:0:0:0:
381,374,182466,2,0,B|379:276|283:273|318:162,1,210,6|8,0:0|0:0,0:0:0:0:
489,75,183151,2,0,B|454:117|454:117|400:84,1,105,8|0,0:0|3:0,0:0:0:0:
392,74,183425,2,0,P|356:80|316:112,1,70,14|0,0:0|0:0,0:0:0:0:
388,164,183699,5,4,0:0:0:0:
226,95,183973,1,8,0:0:0:0:
114,226,184247,1,0,0:0:0:0:
208,290,184430,1,0,3:0:0:0:
208,290,184521,2,0,L|210:183,1,93.3333333333333,8|0,0:0|3:0,0:0:0:0:
210,196,184795,6,0,P|269:203|307:298,1,140,4|8,0:0|0:0,0:0:0:0:
381,375,185252,1,0,3:0:0:0:
381,375,185343,2,0,P|429:384|482:330,1,93.3333333333333,8|0,0:0|0:0,0:0:0:0:
476,347,185617,2,0,L|486:241,1,105,8|0,0:0|0:0,0:0:0:0:
482,217,185891,6,0,B|437:212|437:212|359:232,1,105,10|4,0:0|0:0,0:0:0:0:
379,226,186371,2,0,P|382:166|389:115,1,105,8|0,0:0|0:0,0:0:0:0:
411,27,186713,2,0,P|375:44|292:41,1,105,8|4,0:0|0:0,0:0:0:0:
141,52,187192,6,0,B|134:132|134:132|140:152|175:156,1,128.333333333333,10|0,0:0|0:0,0:0:0:0:
199,147,187535,1,10,0:0:0:0:
0,0,187809,2,0,P|37:60|32:154,1,140,8|2,0:0|0:2,0:0:0:0:
40,127,188357,6,0,B|92:121|92:121|124:142|124:142|214:131,1,158.200000482788,12|2,0:0|0:3,0:0:0:0:
296,86,188813,1,0,3:0:0:0:
307,96,188905,2,0,P|313:153|281:187,1,105.466666988525,8|2,0:0|2:0,0:0:0:0:
132,271,189316,6,0,B|97:258|54:257|54:257|209:234,1,237.300000724182,12|12,0:0|0:0,0:0:0:0:
365,173,189932,2,0,B|323:224|337:297|337:297|324:267|289:241,1,197.750000603485,4|2,0:0|0:3,0:0:0:0:
196,78,190549,6,0,B|220:165|150:155|172:251,1,158.200000482788,8|0,0:0|0:0,0:0:0:0:
41,273,191005,1,0,3:0:0:0:
37,288,191097,2,0,P|73:318|126:322,1,79.100000241394,8|0,0:0|0:0,0:0:0:0:
310,368,191508,6,0,B|264:337|264:337|260:217,1,158.200000482788,12|0,0:0|0:0,0:0:0:0:
284,136,191918,2,0,L|351:143,2,52.7333334942627,8|8|8,0:0|0:0|0:0,0:0:0:0:
251,112,192192,2,0,P|181:153|188:231,1,158.200000482788,12|2,3:0|0:3,0:0:0:0:
355,371,192740,6,0,B|359:314|359:314|385:271|385:271|394:203,1,158.200000482788,12|2,0:0|0:0,0:0:0:0:
466,116,193197,1,0,0:0:0:0:
454,106,193288,2,0,P|412:114|369:153,1,79.100000241394,12|0,0:0|0:0,0:0:0:0:
253,25,193699,6,0,B|210:46|212:102|212:102|173:61|106:85,1,184.566667229919,14|10,0:0|0:0,0:0:0:0:
93,105,194110,1,10,0:0:0:0:
140,180,194247,1,0,0:0:0:0:
48,179,194384,2,0,L|55:257,1,79.100000241394,8|10,0:0|0:0,0:0:0:0:
133,335,194658,6,0,P|147:263|137:170,1,158.200000482788,6|10,3:2|0:0,0:0:0:0:
79,57,195115,2,0,P|167:137|260:95,1,210.933333977051,4|10,0:0|0:0,0:0:0:0:
417,186,195754,5,12,3:0:0:0:
488,86,195891,2,0,P|426:89|324:163,1,184.566667229919,6|0,0:0|1:0,0:0:0:0:
326,179,196302,1,8,0:0:0:0:
264,80,196439,1,2,0:2:0:0:
264,80,196576,2,0,P|223:161|235:251,1,158.200000482788,8|6,0:0|0:0,0:0:0:0:
235,331,196987,6,0,P|196:232|49:203,1,237.300000724182,10|10,0:0|0:0,0:0:0:0:
100,36,197603,1,0,0:0:0:0:
105,48,197672,2,0,B|134:87|134:87|174:85|193:37,1,118.650000362091,8|4,0:0|0:2,0:0:0:0:
352,172,198151,2,0,P|240:192|206:235,1,158.200000482788,8|0,0:0|0:0,0:0:0:0:
213,235,198494,1,8,0:0:0:0:
46,148,198768,2,0,L|33:70,2,52.7333334942627,10|8|8,0:0|0:0|0:0,0:0:0:0:
39,171,199042,5,6,0:0:0:0:
128,282,199224,2,0,P|217:220|340:237,1,210.933333977051,8|8,0:0|0:0,0:0:0:0:
452,317,199795,1,0,0:0:0:0:
447,303,199864,1,8,0:0:0:0:
478,97,200138,6,0,P|496:81|507:40,2,52.7333334942627,10|8|8,0:0|0:3|0:3,0:0:0:0:
436,81,200412,2,0,P|440:57|422:18,2,52.7333334942627,8|12|12,0:0|0:3|0:3,0:0:0:0:
392,94,200686,2,0,B|299:98|335:43|218:44,1,158.200000482788,8|8,0:0|0:0,0:0:0:0:
22,11,201234,6,0,P|77:14|116:64,1,105.466666988525,6|0,0:0|0:0,0:0:0:0:
107,72,201508,1,10,0:2:0:0:
253,144,201713,2,0,B|158:151|201:173|108:177,1,145.016667109222,8|0,1:2|0:0,0:0:0:0:
79,164,202055,1,10,0:0:0:0:
20,364,202329,6,0,P|75:354|102:289,1,105.466666988525,8|0,0:0|0:0,0:0:0:0:
95,291,202603,1,8,0:0:0:0:
227,216,202786,2,0,P|203:296|233:356,1,131.833333735657,8|0,0:0|0:0,0:0:0:0:
328,382,203151,2,0,B|342:347|382:341|382:341|421:378|485:376,1,158.200000482788,8|8,0:0|0:0,0:0:0:0:
505,179,203699,6,0,P|460:215|374:221,1,118.650000362091,12|8,0:0|1:0,0:0:0:0:
402,226,203973,2,0,P|348:205|299:134,1,105.466666988525
318,145,204247,5,8,0:0:0:0:
492,205,204521,1,14,0:0:0:0:
356,315,204795,1,14,0:0:0:0:
191,260,205069,1,6,2:0:0:0:
191,260,205617,6,0,P|268:263|329:289,2,140,4|8|0,0:0|0:0|0:0,0:0:0:0:
49,157,206439,1,10,0:2:0:0:
161,120,206622,2,0,B|163:182|107:185|109:260,1,140
98,267,206987,2,0,P|130:305|199:303,1,93.3333333333333,8|0,0:0|0:0,0:0:0:0:
195,299,207261,2,0,B|272:304|256:332|356:335,1,140,2|8,0:3|0:0,0:0:0:0:
479,229,207809,2,0,P|451:230|402:259,1,70,2|0,0:0|0:0,0:0:0:0:
413,247,208083,6,0,L|404:68,1,140,12|0,0:0|0:0,0:0:0:0:
317,18,208539,1,2,3:0:0:0:
313,35,208631,1,8,0:0:0:0:
225,135,208813,2,0,P|169:149|183:64,1,140,2|0,0:0|0:0,0:0:0:0:
160,80,209179,2,0,P|170:134|131:194,1,93.3333333333333,10|0,0:0|0:0,0:0:0:0:
143,186,209453,2,0,P|85:172|48:188,1,93.3333333333333,8|0,0:0|0:0,0:0:0:0:
9,245,209727,2,0,B|2:290|40:317|40:317|51:270|97:252,1,140,10|2,0:0|2:0,0:0:0:0:
256,214,210275,6,0,P|249:291|262:361,2,140,12|2|10,0:0|0:0|0:2,0:0:0:0:
340,120,211005,1,0,3:0:0:0:
353,113,211097,2,0,P|396:155|375:214,1,93.3333333333333,8|0,0:0|0:0,0:0:0:0:
408,202,211371,2,0,P|383:256|320:257,1,93.3333333333333,8|0,0:0|0:0,0:0:0:0:
342,283,211645,2,0,P|282:278|260:219,1,93.3333333333333,2|0,0:0|3:0,0:0:0:0:
245,246,211918,2,0,P|237:168|220:94,1,140,8|0,0:0|0:0,0:0:0:0:
223,107,212466,6,0,B|295:105|299:66|376:66,2,140,14|2|10,0:0|0:3|0:0,0:0:0:0:
115,37,213197,2,0,P|55:65|72:142,1,140,2|0,0:0|0:0,0:0:0:0:
50,156,213562,1,8,0:0:0:0:
191,133,213768,2,0,B|145:170|145:170|139:286,1,175,0|8,3:0|0:0,0:0:0:0:
329,323,214384,2,0,P|305:299|271:290,1,70,2|0,0:3|2:0,0:0:0:0:
203,378,214658,6,0,B|276:376|264:321|348:322,1,140,12|0,0:0|0:0,0:0:0:0:
459,265,215115,1,0,3:0:0:0:
454,286,215206,1,8,0:0:0:0:
387,384,215389,2,0,P|350:331|383:252,1,140,2|0,0:0|0:0,0:0:0:0:
378,252,215754,2,0,P|325:282|280:256,1,93.3333333333333,8|0,0:0|0:0,0:0:0:0:
277,283,216028,2,0,P|234:239|247:189,1,93.3333333333333,8|0,0:0|0:0,0:0:0:0:
274,144,216302,2,0,B|325:124|368:133|368:133|337:156|320:183,1,140,10|2,0:0|2:0,0:0:0:0:
468,73,216850,6,0,P|454:145|464:232,2,140,14|2|10,0:0|2:0|0:2,0:0:0:0:
304,12,217672,2,0,P|334:58|313:97,1,93.3333333333333,8|0,0:0|0:0,0:0:0:0:
303,107,217946,2,0,B|279:136|279:136|331:193,1,93.3333333333333,8|0,0:0|0:0,0:0:0:0:
339,190,218220,2,0,P|394:177|449:186,1,93.3333333333333,2|0,0:0|0:0,0:0:0:0:
448,195,218494,1,8,0:0:0:0:
325,327,218768,5,8,0:0:0:0:
234,277,218950,2,0,P|226:213|197:138,2,140
220,293,219589,5,8,0:0:0:0:
311,243,219772,2,0,P|318:179|347:107,2,140
325,259,220412,5,8,0:0:0:0:
234,209,220594,2,0,P|226:145|198:73,2,140
220,225,221234,5,8,0:0:0:0:
311,175,221416,2,0,P|318:111|348:37,2,140
317,220,222055,6,0,B|336:229|363:229|363:229|387:217|408:189,1,93.3333333333333,8|0,0:0|0:0,0:0:0:0:
420,159,222329,2,0,B|439:150|466:150|466:150|490:162|511:193,1,105,8|4,0:0|0:0,0:0:0:0:
