osu file format v14

[General]
AudioFilename: audio.mp3
AudioLeadIn: 0
PreviewTime: 139280
Countdown: 0
SampleSet: Soft
StackLeniency: 0.4
Mode: 0
LetterboxInBreaks: 0
WidescreenStoryboard: 0

[Editor]
Bookmarks: 2985,16075,29166,41166,44439,46621,48530,62985,94621,98985,103348,120803,129530,133894,139348,170985,188439,204803,236439,258257
DistanceSpacing: 1.3
BeatDivisor: 4
GridSize: 4
TimelineZoom: 2.7

[Metadata]
Title:ORPHEUS
TitleUnicode:ORPHEUS
Artist:ELFENSJoN
ArtistUnicode:ELFENSJóN
Creator:Crissa
Version:Insane
Source:osu!
Tags:fa featured artist mg mappers' guild japanese rock ASH OF ROUGE side elisia 藤田 和哉 okogeeechann 黒瀬 圭亮 戎屋 聖一郎 みゅー YUU ORYO
BeatmapID:2440485
BeatmapSetID:1169877

[Difficulty]
HPDrainRate:5.5
CircleSize:5
OverallDifficulty:8
ApproachRate:8.5
SliderMultiplier:1.2
SliderTickRate:1

[Events]
//Background and Video events
0,0,"bg3.jpg",0,0
//Break Periods
//Storyboard Layer 0 (Background)
//Storyboard Layer 1 (Fail)
//Storyboard Layer 2 (Pass)
//Storyboard Layer 3 (Foreground)
//Storyboard Layer 4 (Overlay)
//Storyboard Sound Samples

[TimingPoints]
2985,272.727272727273,4,2,1,55,1,0
4348,-166.666666666667,4,2,1,55,0,0
4621,-100,4,2,1,55,0,0
4894,-166.666666666667,4,2,1,55,0,0
5166,-100,4,2,1,55,0,0
12189,-100,4,2,1,5,0,0
12257,-100,4,2,1,60,0,0
29166,-100,4,2,1,70,0,0
44712,-76.9230769230769,4,2,1,75,0,0
46621,-76.9230769230769,4,2,1,75,0,0
59712,-62.5,4,2,1,75,0,0
59985,-166.666666666667,4,2,1,50,0,0
60530,-142.857142857143,4,2,1,55,0,0
60803,-125,4,2,1,60,0,0
61075,-111.111111111111,4,2,1,65,0,0
61348,-100,4,2,1,70,0,0
61621,-83.3333333333333,4,2,1,75,0,0
61894,-62.5,4,2,1,80,0,0
62303,-58.8235294117647,4,2,1,80,0,0
62712,-55.5555555555556,4,2,1,80,0,0
62985,-333.333333333333,4,2,1,90,0,0
63121,-333.333333333333,4,2,1,50,0,0
64075,-76.9230769230769,4,2,2,100,0,1
64621,-76.9230769230769,4,2,1,100,0,1
65985,-62.5,4,2,1,100,0,1
66257,-62.5,4,2,2,100,0,1
66803,-76.9230769230769,4,2,1,100,0,1
68439,-76.9230769230769,4,2,2,100,0,1
68848,-76.9230769230769,4,2,1,100,0,1
72257,-66.6666666666667,4,2,1,100,0,1
72803,-76.9230769230769,4,2,1,100,0,1
74985,-76.9230769230769,4,2,2,100,0,1
75257,-76.9230769230769,4,2,1,100,0,1
77166,-76.9230769230769,4,2,2,100,0,1
77303,-76.9230769230769,4,2,1,100,0,1
81530,-76.9230769230769,4,2,2,100,0,1
82075,-76.9230769230769,4,2,1,100,0,1
85894,-76.9230769230769,4,2,2,100,0,1
86303,-76.9230769230769,4,2,1,100,0,1
92439,-76.9230769230769,4,2,2,100,0,1
92712,-76.9230769230769,4,2,1,100,0,1
94212,-62.5,4,2,1,100,0,1
94621,-250,4,2,1,55,0,0
98985,-333.333333333333,4,2,1,55,0,0
103212,-142.857142857143,4,2,1,60,0,0
103348,-100,4,2,1,75,0,0
120257,-333.333333333333,4,2,1,80,0,0
120735,-333.333333333333,4,2,1,5,0,0
120803,-83.3333333333333,4,2,2,90,0,0
121075,-83.3333333333333,4,2,1,90,0,0
122985,-83.3333333333333,4,2,2,90,0,0
123121,-83.3333333333333,4,2,1,90,0,0
128985,-66.6666666666667,4,2,1,90,0,0
129803,-125,4,2,1,60,0,0
133348,-500,4,2,1,70,0,0
133894,-100,4,2,1,80,0,0
134166,-250,4,2,1,80,0,0
134985,-200,4,2,1,80,0,0
135257,-166.666666666667,4,2,1,80,0,0
136075,-66.6666666666667,4,2,1,85,0,0
136348,-200,4,2,1,85,0,0
136621,-142.857142857143,4,2,1,85,0,0
136894,-111.111111111111,4,2,1,85,0,0
137166,-90.9090909090908,4,2,1,90,0,0
137712,-83.3333333333333,4,2,1,90,0,0
137985,-76.9230769230769,4,2,1,90,0,0
138257,-62.5,4,2,1,100,0,0
139075,-38.4615384615385,4,2,1,100,0,0
139348,-200,4,2,1,70,0,0
140439,-71.4285714285714,4,2,2,100,0,1
140985,-71.4285714285714,4,2,1,100,0,1
142348,-62.5,4,2,1,100,0,1
142621,-62.5,4,2,2,100,0,1
142894,-62.5,4,2,1,100,0,1
143439,-71.4285714285714,4,2,1,100,0,1
144803,-71.4285714285714,4,2,2,100,0,1
145212,-71.4285714285714,4,2,1,100,0,1
148621,-58.8235294117647,4,2,1,100,0,1
149166,-71.4285714285714,4,2,2,100,0,1
149575,-71.4285714285714,4,2,1,100,0,1
151348,-71.4285714285714,4,2,2,100,0,1
151757,-71.4285714285714,4,2,1,100,0,1
152985,-83.3333333333333,4,2,1,100,0,1
153530,-71.4285714285714,4,2,2,100,0,1
153666,-71.4285714285714,4,2,1,100,0,1
157894,-71.4285714285714,4,2,2,100,0,1
158439,-71.4285714285714,4,2,1,100,0,1
160075,-71.4285714285714,4,2,2,100,0,1
160485,-71.4285714285714,4,2,1,100,0,1
166621,-71.4285714285714,4,2,2,100,0,1
167030,-71.4285714285714,4,2,1,100,0,1
168803,-71.4285714285714,4,2,2,100,0,1
169212,-71.4285714285714,4,2,1,100,0,1
170575,-55.5555555555556,4,2,2,100,0,1
170985,-62.5,4,2,1,90,0,0
173166,-62.5,4,2,2,90,0,0
173439,-62.5,4,2,1,90,0,0
175348,-62.5,4,2,2,90,0,0
175621,-62.5,4,2,1,90,0,0
179712,-62.5,4,2,2,90,0,0
179985,-62.5,4,2,1,90,0,0
181894,-62.5,4,2,2,90,0,0
182030,-62.5,4,2,1,90,0,0
184075,-62.5,4,2,2,90,0,0
184348,-62.5,4,2,1,90,0,0
186257,-62.5,4,2,1,95,0,0
188439,-62.5,4,2,1,85,0,0
188985,-83.3333333333333,4,2,1,85,0,0
192803,-83.3333333333333,4,2,2,85,0,0
193075,-83.3333333333333,4,2,1,85,0,0
194985,-83.3333333333333,4,2,2,85,0,0
195257,-83.3333333333333,4,2,1,85,0,0
201530,-83.3333333333333,4,2,2,85,0,0
201666,-83.3333333333333,4,2,1,85,0,0
204121,-71.4285714285714,4,2,1,85,0,0
204394,-55.5555555555556,4,2,1,85,0,0
204803,-250,4,2,1,70,0,0
205894,-76.9230769230769,4,2,2,100,0,1
206439,-76.9230769230769,4,2,1,100,0,1
207803,-62.5,4,2,1,100,0,1
208075,-62.5,4,2,2,100,0,1
208485,-76.9230769230769,4,2,1,100,0,1
210257,-76.9230769230769,4,2,2,100,0,1
210666,-76.9230769230769,4,2,1,100,0,1
214075,-62.5,4,2,1,100,0,1
214621,-76.9230769230769,4,2,2,100,0,1
214894,-76.9230769230769,4,2,1,100,0,1
216803,-76.9230769230769,4,2,2,100,0,1
217075,-76.9230769230769,4,2,1,100,0,1
218985,-76.9230769230769,4,2,2,100,0,1
219121,-76.9230769230769,4,2,1,100,0,1
223348,-76.9230769230769,4,2,2,100,0,1
223894,-76.9230769230769,4,2,1,100,0,1
225530,-76.9230769230769,4,2,2,100,0,1
225939,-76.9230769230769,4,2,1,100,0,1
227712,-76.9230769230769,4,2,2,100,0,1
228121,-76.9230769230769,4,2,1,100,0,1
232075,-76.9230769230769,4,2,2,100,0,1
232485,-76.9230769230769,4,2,1,100,0,1
234257,-76.9230769230769,4,2,2,100,0,1
234666,-76.9230769230769,4,2,1,100,0,1
236166,-55.5555555555556,4,2,1,100,0,1
236439,-250,4,2,3,80,0,0
239712,-250,4,2,1,60,0,0
240803,-250,4,2,1,50,0,0
241894,-250,4,2,1,5,0,0
242166,-250,4,2,1,50,0,0
242985,-250,4,2,1,5,0,0
243257,-250,4,2,1,50,0,0
245166,-250,4,2,3,50,0,0
245985,-250,4,2,3,5,0,0
246257,-250,4,2,3,50,0,0
247894,-250,4,2,3,5,0,0
248439,-250,4,2,3,50,0,0
258257,-250,4,2,1,5,0,0

[Colours]
Combo1 : 255,204,128
Combo2 : 162,166,221
Combo3 : 190,166,217
Combo4 : 171,184,211
Combo5 : 133,136,165
Combo6 : 145,134,164

[HitObjects]
189,182,2894,6,0,P|194:201|197:217,1,20,2|2,0:0|0:0,0:0:0:0:
189,218,2985,6,0,L|296:200,1,90,2|0,0:0|0:0,0:0:0:0:
288,207,3257,2,0,L|303:269,1,60,2|0,0:0|0:0,0:0:0:0:
436,155,3530,2,0,L|421:217,1,60,2|0,0:0|0:0,0:0:0:0:
301,121,3803,2,0,L|363:106,1,60,2|0,0:0|0:0,0:0:0:0:
441,295,4075,6,0,P|388:292|369:281,1,60,2|0,0:0|0:0,0:0:0:0:
306,353,4348,2,0,P|291:324|291:311,1,35.9999989013672,2|0,0:0|0:0,0:0:0:0:
188,265,4621,2,0,P|217:220|236:209,1,60,2|0,0:0|0:0,0:0:0:0:
205,119,4894,2,0,P|236:120|248:127,1,35.9999989013672,2|0,0:0|0:0,0:0:0:0:
291,320,5166,6,0,L|278:385,2,60,2|0|0,0:0|0:0|0:0,0:0:0:0:
356,242,5575,1,2,0:0:0:0:
356,242,5712,2,0,L|344:183,1,60,2|0,0:0|0:0,0:0:0:0:
251,101,5985,2,0,L|262:42,1,60
108,153,6257,6,0,P|137:160|175:175,2,60,2|0|0,0:0|0:0|0:0,0:0:0:0:
34,280,6666,1,0,0:0:0:0:
34,280,6803,2,0,P|54:258|86:232,1,60,2|0,0:0|0:0,0:0:0:0:
149,297,7075,2,0,P|178:304|215:319,1,60
330,372,7348,6,0,P|298:344|338:281,1,120,2|2,0:0|0:0,0:0:0:0:
406,270,7757,1,0,0:0:0:0:
406,270,7894,2,0,L|474:283,1,60,2|0,0:0|0:0,0:0:0:0:
512,190,8166,2,0,L|444:203,1,60,2|0,0:0|0:0,0:0:0:0:
354,121,8439,1,0,0:0:0:0:
391,128,8575,1,0,0:0:0:0:
325,147,8712,2,0,L|250:133,1,60,2|0,0:0|0:0,0:0:0:0:
204,28,8985,2,0,L|129:42,1,60,2|0,0:0|0:0,0:0:0:0:
29,147,9257,2,0,L|97:179,1,60,2|0,0:0|0:0,0:0:0:0:
195,306,9530,5,0,0:0:0:0:
182,267,9666,1,0,0:0:0:0:
230,326,9803,2,0,L|215:392,1,60,2|0,0:0|0:0,0:0:0:0:
76,268,10075,1,0,0:0:0:0:
144,275,10212,1,0,0:0:0:0:
171,252,10348,2,0,L|234:233,1,60,2|0,0:0|0:0,0:0:0:0:
378,309,10621,6,0,P|334:311|308:243,1,120,2|0,0:0|0:0,0:0:0:0:
341,183,11030,1,2,0:0:0:0:
341,183,11166,2,0,L|369:124,1,60,2|0,0:0|0:0,0:0:0:0:
256,27,11439,2,0,L|281:81,1,60,2|0,0:0|0:0,0:0:0:0:
141,215,11712,6,0,P|124:175|243:147,1,210,2|0,0:0|0:0,0:0:0:0:
248,154,12257,2,0,P|270:169|314:168,1,60,2|0,0:0|0:0,0:0:0:0:
407,104,12530,2,0,P|438:101|471:178,1,120,2|0,0:0|0:0,0:0:0:0:
475,169,13075,2,0,P|462:114|407:104,1,120,2|0,0:0|0:0,0:0:0:0:
407,104,13621,6,0,P|438:101|428:203,1,180,2|0,0:0|0:0,0:0:0:0:
283,158,14166,2,0,P|313:160|341:172,1,60,2|0,0:0|0:0,0:0:0:0:
211,140,14439,2,0,P|262:140|279:70,1,120,2|0,0:0|0:0,0:0:0:0:
252,4,14848,1,0,0:0:0:0:
252,4,14985,2,0,L|184:-3,1,60,2|0,0:0|0:0,0:0:0:0:
89,67,15257,2,0,L|21:60,1,60
93,203,15530,1,2,0:0:0:0:
104,169,15666,1,0,0:0:0:0:
115,134,15803,2,0,L|104:60,1,60,2|0,0:0|0:0,0:0:0:0:
167,268,16075,6,0,P|175:202|270:217,1,180,2|0,0:0|0:0,0:0:0:0:
244,359,16621,2,0,P|242:330|250:301,1,60,2|0,0:0|0:0,0:0:0:0:
356,226,16894,2,0,P|387:195|353:131,1,120,2|0,0:0|0:0,0:0:0:0:
384,317,17439,2,0,P|401:267|352:226,1,120,2|0,0:0|0:0,0:0:0:0:
474,157,17985,2,0,P|424:139|358:233,1,180,2|0,0:0|0:0,0:0:0:0:
467,316,18530,2,0,P|465:286|455:259,1,60,2|0,0:0|0:0,0:0:0:0:
239,297,18803,2,0,P|288:314|354:220,1,180,2|0,0:0|0:0,0:0:0:0:
239,297,19348,2,0,P|214:234|297:170,1,180,2|0,0:0|0:0,0:0:0:0:
427,233,19894,1,2,0:0:0:0:
390,246,20030,1,0,0:0:0:0:
356,226,20166,1,2,0:0:0:0:
236,11,20439,6,0,L|216:210,1,180,2|0,0:0|0:0,0:0:0:0:
153,78,20985,2,0,P|127:61|78:45,1,60,2|0,0:0|0:0,0:0:0:0:
0,189,21257,2,0,P|48:162|117:141,1,120,2|2,0:0|0:0,0:0:0:0:
58,380,21803,2,0,P|87:295|132:217,1,180,2|0,0:0|0:0,0:0:0:0:
232,312,22348,2,0,P|200:275|184:251,1,60,2|0,0:0|0:0,0:0:0:0:
298,209,22621,2,0,P|268:280|244:391,1,180,2|0,0:0|0:0,0:0:0:0:
428,353,23166,1,2,0:0:0:0:
398,324,23303,1,0,0:0:0:0:
357,320,23439,1,0,0:0:0:0:
397,308,23575,1,0,0:0:0:0:
316,312,23712,6,0,L|187:297,1,120,2|0,0:0|0:0,0:0:0:0:
311,233,24121,2,0,L|259:113,1,120,2|0,0:0|0:0,0:0:0:0:
411,140,24530,2,0,L|376:189,1,60,2|0,0:0|0:0,0:0:0:0:
101,256,24803,6,0,P|122:200|219:231,1,180,2|0,0:0|0:0,0:0:0:0:
198,366,25348,2,0,P|190:337|177:311,1,60,2|0,0:0|0:0,0:0:0:0:
10,161,25666,2,0,B|10:206|67:229|117:197|114:139|77:116|77:116|123:142|162:115,1,280,2|0,0:0|0:0,0:0:0:0:
162,116,26746,2,0,P|207:109|242:126,1,75,2|0,0:0|0:0,0:0:0:0:
244,130,26985,6,0,L|227:37,1,90,2|0,0:0|0:0,0:0:0:0:
339,12,27291,2,0,P|309:10|285:-1,1,45,2|0,0:0|0:0,0:0:0:0:
444,139,27530,2,0,P|385:154|408:66,1,180,2|0,0:0|0:0,0:0:0:0:
469,71,28075,5,2,0:0:0:0:
256,192,28144,12,8,28894,0:3:0:0:
207,328,29166,6,0,P|213:281|176:243,1,90,12|0,0:3|0:0,0:0:0:0:
177,245,29439,2,0,P|151:215|151:189,1,60,8|0,0:2|0:0,0:0:0:0:
287,138,29712,2,0,P|312:167|312:193,1,60,10|0,0:2|0:0,0:0:0:0:
267,266,29985,1,2,0:0:0:0:
195,112,30121,2,0,L|51:99,1,120,8|0,0:2|0:0,0:0:0:0:
262,131,30530,2,0,L|190:124,1,60,10|0,0:2|0:0,0:0:0:0:
149,30,30803,2,0,L|137:-14,2,30,8|8|8,0:2|0:2|0:2,0:0:0:0:
65,111,31075,2,0,P|95:128|106:153,1,60,10|0,0:2|0:0,0:0:0:0:
80,233,31348,5,8,0:3:0:0:
199,278,31485,1,10,0:2:0:0:
199,278,31621,2,0,L|185:211,1,60,10|0,0:2|0:0,0:0:0:0:
284,121,31894,2,0,L|270:188,2,60,10|0|8,0:2|0:0|0:3,0:0:0:0:
226,46,32303,1,8,0:2:0:0:
275,107,32439,2,0,L|403:97,1,120,8|8,0:3|0:2,0:0:0:0:
480,88,32848,1,8,0:3:0:0:
389,109,32985,2,0,L|390:142,2,30,8|8|8,0:2|0:2|0:2,0:2:0:0:
364,219,33257,2,0,P|336:210|294:211,1,60,10|0,0:2|0:0,0:0:0:0:
153,314,33530,6,0,P|170:270|248:266,2,120,10|8|10,0:2|0:0|0:2,0:0:0:0:
153,314,34349,1,2,0:0:0:0:
178,219,34485,2,0,P|161:175|83:171,1,120,10|0,0:2|0:0,0:0:0:0:
31,278,34894,2,0,P|60:273|87:259,1,60,10|0,0:2|0:0,0:0:0:0:
166,146,35166,2,0,P|158:128|148:107,2,30,8|8|8,0:2|0:2|0:2,0:0:0:0:
250,257,35439,2,0,P|258:230|272:197,1,60,10|0,0:2|0:0,0:0:0:0:
335,132,35712,5,8,0:3:0:0:
220,80,35848,1,8,0:2:0:0:
220,80,35985,2,0,P|210:38|205:9,1,60,10|0,0:2|0:0,0:0:0:0:
333,64,36257,2,0,P|280:74|206:101,1,120,10|10,0:2|0:3,0:0:0:0:
402,116,36666,1,8,0:0:0:0:
336,188,36803,2,0,P|389:198|463:225,1,120,8|0,0:2|0:0,0:0:0:0:
292,311,37212,2,0,P|302:258|329:184,1,120,8|0,0:2|0:0,0:0:0:0:
282,322,37621,2,0,P|272:291|253:253,1,60,10|0,0:2|0:0,0:0:0:0:
96,175,37894,6,0,P|126:200|184:166,1,90,10|0,0:2|0:0,0:0:0:0:
180,177,38166,2,0,L|187:105,1,60,8|0,0:2|0:0,0:0:0:0:
260,19,38439,2,0,L|265:78,1,60,10|0,0:2|0:0,0:0:0:0:
275,168,38712,1,2,0:0:0:0:
386,65,38848,6,0,P|432:69|461:143,1,120,8|0,0:2|0:3,0:0:0:0:
351,213,39257,2,0,P|360:185|373:158,1,60,10|0,0:2|0:0,0:0:0:0:
466,47,39530,2,0,P|459:32|456:17,2,30,8|8|8,0:2|0:2|0:2,0:2:0:0:
309,59,39803,2,0,P|342:59|372:64,1,60,10|0,0:2|0:0,0:0:0:0:
442,122,40075,5,8,0:3:0:0:
296,175,40212,1,8,0:2:0:0:
296,175,40348,2,0,P|284:177|267:183,2,30,8|8|8,0:2|0:2|0:2,0:0:0:0:
501,263,40621,2,0,P|463:252|379:235,1,120,8|8,0:2|0:3,0:0:0:0:
258,264,41030,1,8,0:2:0:0:
396,164,41166,6,0,P|385:195|377:229,1,60,10|0,0:3|0:0,0:0:0:0:
299,42,41439,2,0,P|319:67|339:96,1,60,8|8,0:2|0:3,0:0:0:0:
189,41,41712,2,8,P|205:35|224:21,2,30,10|8|8,0:2|0:2|0:2,0:0:0:0:
60,72,41985,2,0,P|98:81|130:91,1,60,8|0,0:2|0:0,0:0:0:0:
304,185,42257,5,4,0:0:0:0:
188,287,42394,1,8,0:2:0:0:
188,287,42530,2,0,P|211:286|237:284,2,30,8|8|8,0:2|0:2|0:2,0:0:0:0:
129,189,42803,2,0,P|160:249|181:303,1,120,8|0,0:2|0:0,0:0:0:0:
26,220,43212,2,0,P|57:160|78:106,1,120,8|0,0:2|0:0,0:0:0:0:
229,92,43621,2,0,P|190:103|171:111,1,60,8|0,0:2|0:0,0:0:0:0:
189,288,43894,2,0,P|200:249|208:230,1,60,10|0,0:2|0:0,0:0:0:0:
356,157,44166,2,2,B|337:141|326:154|299:136,1,60,8|0,0:2|0:0,1:1:0:0:
169,0,44439,5,10,0:3:0:0:
85,115,44575,1,8,0:2:0:0:
85,115,44712,2,0,P|114:104|168:93,1,77.9999964294435,8|2,0:2|0:0,0:0:0:0:
145,305,44985,2,0,P|178:238|228:162,1,155.999992858887,8|2,0:2|0:0,0:0:0:0:
294,100,45394,1,8,0:2:0:0:
406,192,45530,2,0,P|390:152|371:115,1,77.9999964294435,8|0,0:3|0:0,0:0:0:0:
306,258,45803,1,8,0:2:0:0:
419,304,45939,1,8,0:3:0:0:
426,311,46075,1,8,0:3:0:0:
468,166,46212,2,0,P|454:217|429:331,1,155.999992858887,8|0,0:2|0:0,0:0:0:0:
363,189,46621,5,14,0:3:0:0:
306,258,46757,1,8,0:2:0:0:
306,258,46894,2,0,P|265:273|234:255,1,77.9999964294435,2|8,0:0|0:3,0:0:0:0:
416,291,47166,2,0,P|374:232|305:257,1,155.999992858887,2|10,0:0|0:3,0:0:0:0:
338,351,47575,1,2,0:0:0:0:
380,208,47712,2,0,P|364:165|319:154,1,77.9999964294435,8|2,0:2|0:0,0:0:0:0:
205,263,47985,2,0,P|254:281|264:195,1,155.999992858887,2|0,0:0|0:0,0:0:0:0:
273,201,48530,2,0,P|257:178|264:129,1,77.9999964294435,10|2,0:3|0:0,0:0:0:0:
360,233,48803,5,8,0:3:0:0:
357,318,48939,2,0,P|402:326|420:358,1,77.9999964294435,8|2,0:2|0:0,0:0:0:0:
227,310,49212,2,0,P|272:302|290:270,1,77.9999964294435,10|0,0:3|0:0,0:0:0:0:
109,361,49485,1,2,0:0:0:0:
109,361,49621,2,0,P|154:353|181:377,1,77.9999964294435,8|2,0:3|0:0,0:0:0:0:
154,171,49894,6,0,P|112:206|167:278,1,155.999992858887,8|10,0:2|0:1,0:0:0:0:
264,224,50303,1,8,0:1:0:0:
281,289,50439,2,0,P|311:318|348:312,1,77.9999964294435,2|8,0:0|0:1,0:0:0:0:
462,289,50712,2,0,P|432:260|395:266,1,77.9999964294435,10|0,0:3|0:0,0:0:0:0:
344,313,50985,5,4,0:0:0:0:
464,193,51121,2,0,L|445:100,1,77.9999964294435,8|2,0:3|0:0,0:0:0:0:
312,160,51394,1,8,0:3:0:0:
312,160,51530,2,0,P|341:189|393:178,1,77.9999964294435,2|0,0:0|0:0,0:0:0:0:
306,68,51803,2,0,P|267:69|241:96,1,77.9999964294435,10|0,0:3|0:0,0:0:0:0:
177,320,52075,6,0,B|137:222|137:222|127:272,1,155.999992858887,8|2,0:2|0:0,0:0:0:0:
257,344,52485,1,8,0:3:0:0:
257,344,52621,2,0,L|343:331,1,77.9999964294435
294,207,52894,2,0,L|208:194,1,77.9999964294435,10|0,0:3|0:0,0:0:0:0:
121,183,53166,5,8,0:3:0:0:
298,117,53303,2,0,P|296:69|270:49,1,77.9999964294435,8|0,0:2|0:0,0:0:0:0:
217,195,53575,2,0,P|266:177|313:265,1,155.999992858887,8|0,0:3|0:0,0:0:0:0:
223,348,53985,2,0,P|214:311|238:281,1,77.9999964294435,8|0,0:3|0:0,0:0:0:0:
460,323,54257,6,0,L|286:342,1,155.999992858887,8|10,0:2|0:1,0:0:0:0:
223,348,54666,1,8,0:1:0:0:
385,233,54803,2,0,L|471:249,1,77.9999964294435,10|8,0:2|0:3,0:0:0:0:
347,166,55075,2,0,L|261:182,1,77.9999964294435,2|0,0:0|0:0,0:0:0:0:
115,368,55348,6,0,B|158:306|89:282|133:217,1,155.999992858887,4|0,0:0|0:0,0:0:0:0:
189,156,55757,1,10,0:3:0:0:
189,156,55894,2,0,P|190:115|164:85,1,77.9999964294435
62,205,56166,2,0,P|97:226|135:218,1,77.9999964294435,10|0,0:3|0:0,0:0:0:0:
364,189,56439,2,0,P|309:166|252:241,1,155.999992858887,8|0,0:2|0:0,0:0:0:0:
343,340,56848,1,8,0:3:0:0:
343,340,56985,2,0,L|323:247,1,77.9999964294435
466,139,57257,2,0,L|446:232,1,77.9999964294435,10|0,0:3|0:0,0:0:0:0:
335,258,57530,5,10,0:3:0:0:
373,94,57666,2,0,P|344:68|305:66,1,77.9999964294435,8|0,0:0|0:0,0:0:0:0:
209,195,57939,2,0,P|239:214|274:132,1,155.999992858887,10|0,0:3|0:3,0:0:0:0:
242,24,58348,2,0,L|164:12,1,77.9999964294435,10|0,0:3|0:3,0:0:0:0:
34,122,58621,2,0,L|189:98,1,155.999992858887,12|8,0:0|0:3,0:0:0:0:
242,24,59030,1,8,0:1:0:0:
226,21,59166,1,2,0:2:0:0:
247,168,59303,1,8,0:1:0:0:
249,180,59439,1,8,0:3:0:0:
441,107,59712,6,0,P|386:75|345:144,1,144,12|0,0:0|0:0,0:0:0:0:
344,139,59985,2,0,L|357:188,1,35.9999989013672,8|0,0:0|0:0,0:0:0:0:
283,223,60257,2,0,L|269:271,1,35.9999989013672,8|0,0:0|0:0,0:0:0:0:
188,265,60530,2,0,L|152:300,1,41.9999987182618,8|0,0:0|0:0,0:0:0:0:
84,253,60803,2,0,L|35:266,1,48,8|0,0:0|0:0,0:0:0:0:
197,162,61075,2,0,L|252:161,1,53.9999983520508,8|0,0:0|0:0,0:0:0:0:
87,91,61348,2,0,L|27:74,1,60,8|0,0:0|0:0,0:0:0:0:
273,36,61621,2,0,L|347:-7,1,71.9999978027344,8|0,0:0|0:0,0:0:0:0:
87,14,61894,6,0,P|111:79|136:177,1,144,12|0,0:2|0:0,0:0:0:0:
133,164,62166,1,8,0:0:0:0:
354,245,62303,2,0,P|393:162|309:125,1,204.000003890991,8|0,0:0|0:0,0:0:0:0:
149,264,62712,2,0,P|209:247|286:242,1,107.999996704102,8|0,0:0|0:0,0:0:0:0:
476,264,62985,6,0,P|468:268|458:268,1,17.9999994506836,10|0,0:0|0:0,0:0:0:0:
455,235,63257,2,0,P|456:243|453:253,1,17.9999994506836,2|0,0:0|0:0,0:0:0:0:
420,246,63530,2,0,P|428:247|436:253,1,17.9999994506836,2|0,0:0|0:0,0:0:0:0:
419,282,63803,2,0,P|423:274|431:268,1,17.9999994506836,2|0,0:0|0:0,0:0:0:0:
441,74,64075,6,0,B|405:41|331:57|336:88|341:124|274:141|230:114|224:73|239:37|271:15|315:34,1,311.999985717774,10|0,0:3|0:0,0:0:0:0:
305,30,64894,1,10,0:3:0:0:
83,9,65098,1,8,0:3:0:0:
76,2,65166,6,0,B|185:22|185:22|130:40,1,155.999992858887,8|10,0:0|0:3,0:0:0:0:
9,32,65575,1,0,0:0:0:0:
89,163,65712,2,0,L|72:75,1,77.9999964294435,2|8,0:0|0:3,0:0:0:0:
34,290,65985,2,0,P|62:257|157:254,1,144,2|0,0:0|0:0,0:0:0:0:
286,326,66257,6,0,B|270:369|202:374|202:374|142:277|235:199,1,288,10|8,0:3|0:3,0:0:0:0:
312,168,66803,1,0,0:0:0:0:
312,168,67075,2,0,P|302:123|287:91,1,77.9999964294435,10|0,0:3|0:0,0:0:0:0:
463,153,67348,2,0,P|424:155|386:166,1,77.9999964294435,10|0,0:0|0:0,0:0:0:0:
212,209,67621,2,0,P|248:220|282:241,1,77.9999964294435,10|0,0:3|0:0,0:0:0:0:
454,240,67894,2,0,P|416:242|378:253,1,77.9999964294435,10|8,0:0|0:3,0:0:0:0:
285,353,68166,2,0,P|247:364|208:367,1,77.9999964294435,2|0,0:0|0:3,0:0:0:0:
11,287,68439,6,0,B|52:296|77:271|77:271|88:276|88:276|150:215|229:262,1,233.999989288331,10|0,0:3|0:0,0:0:0:0:
138,384,68985,2,0,P|138:349|175:311,1,77.9999964294435,2|0,0:0|0:0,0:0:0:0:
237,274,69257,1,10,0:3:0:0:
91,186,69462,1,8,0:3:0:0:
87,177,69530,2,0,P|100:133|136:115,1,77.9999964294435,8|0,0:0|0:0,0:0:0:0:
213,96,69803,1,10,0:3:0:0:
213,96,69939,2,0,P|228:61|217:24,1,77.9999964294435,0|0,0:0|0:3,0:0:0:0:
48,23,70212,1,8,0:3:0:0:
48,23,70348,2,0,P|87:24|125:35,1,77.9999964294435,2|0,0:0|0:0,0:0:0:0:
274,240,70621,6,0,L|293:116,1,116.999994644165,8|0,0:3|0:0,0:0:0:0:
300,112,70894,2,0,L|223:108,1,77.9999964294435,2|8,0:3|0:3,0:0:0:0:
102,252,71166,2,0,L|179:248,1,77.9999964294435,2|0,0:0|0:0,0:0:0:0:
274,240,71439,1,8,0:3:0:0:
54,77,71712,6,0,P|96:50|137:113,1,116.999994644165,8|0,0:0|0:0,0:0:0:0:
140,101,71985,2,0,L|126:180,1,77.9999964294435,10|0,0:3|0:0,0:0:0:0:
387,233,72257,6,0,P|328:209|289:266,1,135.000005149841,12|0,0:0|0:0,0:0:0:0:
282,274,72530,2,0,B|252:219|312:200|269:140,1,135.000005149841,2|0,0:0|0:0,0:0:0:0:
174,88,72803,6,0,P|212:152|282:109,1,155.999992858887,12|0,0:3|0:0,0:0:0:0:
94,186,73348,2,0,P|139:160|165:160,1,77.9999964294435,2|0,0:0|0:0,0:0:0:0:
216,281,73621,2,0,P|171:307|145:307,1,77.9999964294435,10|0,0:3|0:0,0:0:0:0:
68,282,73826,1,8,0:3:0:0:
69,274,73894,2,0,P|114:299|127:322,1,77.9999964294435,8|0,0:0|0:0,0:0:0:0:
0,233,74166,2,0,P|53:199|156:210,1,155.999992858887,10|0,0:3|0:0,0:0:0:0:
212,258,74575,1,8,0:3:0:0:
223,127,74712,2,0,B|200:41|200:41|192:74,1,116.999994644165,2|0,0:0|0:0,0:0:0:0:
156,181,74985,6,0,B|225:167|225:167|254:181|254:181|307:174,1,155.999992858887,10|0,0:3|0:0,0:0:0:0:
384,219,75394,2,0,L|469:207,1,77.9999964294435,8|0,0:3|0:3,0:0:0:0:
461,208,75803,1,8,0:3:0:0:
248,338,76075,6,0,P|220:292|268:241,1,116.999994644165,10|0,0:0|0:0,0:0:0:0:
267,238,76348,2,0,P|224:222|220:191,1,77.9999964294435,8|0,0:3|0:0,0:0:0:0:
320,51,76621,1,10,0:0:0:0:
344,131,76757,2,0,L|261:120,1,77.9999964294435,8|0,0:3|0:0,0:0:0:0:
419,335,77166,6,0,P|401:292|373:267,1,77.9999964294435,10|0,0:3|0:0,0:0:0:0:
297,329,77439,2,0,P|250:323|215:334,1,77.9999964294435,2|0,0:0|0:0,0:0:0:0:
222,197,77712,2,0,P|249:223|286:237,1,77.9999964294435,2|0,0:0|0:0,0:0:0:0:
383,236,77985,1,10,0:3:0:0:
328,92,78189,1,8,0:3:0:0:
324,85,78257,6,0,P|330:32|389:30,1,116.999994644165,8|0,0:0|0:0,0:0:0:0:
395,34,78530,2,0,P|433:44|467:27,1,77.9999964294435,10|0,0:3|0:0,0:0:0:0:
450,169,78803,2,0,P|477:141|479:103,1,77.9999964294435,2|8,0:0|0:3,0:0:0:0:
306,166,79075,2,0,P|344:155|378:173,1,77.9999964294435,2|0,0:0|0:0,0:0:0:0:
274,379,79348,2,0,P|264:309|240:198,1,155.999992858887,8|0,0:3|0:0,0:0:0:0:
168,98,79757,2,0,P|175:142|189:185,1,77.9999964294435,8|0,0:3|0:0,0:0:0:0:
184,173,80166,1,8,0:3:0:0:
3,16,80439,6,0,P|53:27|121:44,1,116.999994644165,10|0,0:0|0:0,0:0:0:0:
127,49,80712,2,0,P|84:63|39:80,1,77.9999964294435,10|0,0:3|0:0,0:0:0:0:
276,110,80985,1,12,0:0:0:0:
210,185,81121,1,8,0:3:0:0:
210,185,81257,2,0,P|196:151|186:92,1,77.9999964294435,2|0,0:0|0:0,0:0:0:0:
306,191,81530,6,0,B|197:170|164:277|164:277|244:311|287:258,1,311.999985717774,10|0,0:3|0:0,0:0:0:0:
281,265,82348,2,0,P|248:286|190:284,1,77.9999964294435,10|0,0:3|0:0,0:0:0:0:
143,260,82553,1,8,0:3:0:0:
136,255,82621,6,0,L|131:175,1,77.9999964294435,8|0,0:0|0:0,0:0:0:0:
198,36,82894,2,0,P|198:67|166:101,1,77.9999964294435,10|0,0:3|0:0,0:0:0:0:
82,106,83166,2,0,P|54:90|40:46,1,77.9999964294435,2|8,0:0|0:3,0:0:0:0:
223,176,83439,2,0,L|133:183,1,77.9999964294435,2|0,0:0|0:0,0:0:0:0:
23,357,83712,6,0,P|18:317|117:292,1,155.999992858887,12|0,0:3|0:0,0:0:0:0:
169,345,84121,2,0,P|209:354|242:341,1,77.9999964294435,8|0,0:3|0:0,0:0:0:0:
242,340,84530,2,0,P|260:296|245:258,1,77.9999964294435,10|0,0:3|0:0,0:0:0:0:
205,203,84735,1,8,0:3:0:0:
199,198,84803,2,0,P|191:160|209:126,1,77.9999964294435,10|0,0:0|0:0,0:0:0:0:
372,109,85075,2,0,L|292:119,1,77.9999964294435,10|0,0:3|0:0,0:0:0:0:
334,267,85348,2,0,L|414:277,1,77.9999964294435,10|8,0:0|0:3,0:0:0:0:
451,131,85621,2,0,L|428:218,1,77.9999964294435,2|0,0:0|0:0,0:0:0:0:
280,355,85894,6,0,B|281:290|232:243|232:243|276:281|333:266,1,233.999989288331,10|0,0:3|0:0,0:0:0:0:
342,169,86439,2,0,P|304:151|257:154,1,77.9999964294435,2|0,0:0|0:0,0:0:0:0:
177,168,86712,1,10,0:3:0:0:
290,56,86916,1,8,0:3:0:0:
291,47,86985,6,0,P|267:4|241:-3,1,77.9999964294435,8|0,0:0|0:0,0:0:0:0:
69,101,87257,2,0,P|126:84|228:67,1,155.999992858887,10|0,0:3|0:0,0:0:0:0:
308,77,87666,1,8,0:3:0:0:
212,153,87803,2,0,P|205:209|213:248,1,77.9999964294435,2|0,0:0|0:0,0:0:0:0:
269,311,88075,6,0,P|272:263|197:259,1,116.999994644165,8|0,0:3|0:0,0:0:0:0:
203,252,88348,2,0,P|161:255|127:233,1,77.9999964294435,2|8,0:0|0:3,0:0:0:0:
97,107,88621,2,0,P|149:97|184:181,1,155.999992858887,0|8,0:0|0:3,0:0:0:0:
185,178,89166,6,0,L|352:159,1,155.999992858887,8|8,0:0|0:3,0:0:0:0:
340,160,89712,1,12,0:0:0:0:
285,349,89848,1,0,0:0:0:0:
404,296,89985,2,0,P|370:268|320:262,1,77.9999964294435,2|0,0:0|0:0,0:0:0:0:
172,316,90257,6,0,B|200:318|217:339|217:339|181:225,1,155.999992858887,12|0,0:3|0:0,0:0:0:0:
310,384,90803,2,0,L|286:309,1,77.9999964294435,2|0,0:0|0:0,0:0:0:0:
376,261,91075,2,0,L|399:186,1,77.9999964294435,10|0,0:3|0:0,0:0:0:0:
355,99,91280,1,8,0:3:0:0:
349,109,91348,6,0,P|314:129|269:129,1,77.9999964294435,8|0,0:0|0:0,0:0:0:0:
166,73,91621,2,0,P|201:63|251:166,1,155.999992858887,10|0,0:3|0:0,0:0:0:0:
149,206,92030,1,8,0:3:0:0:
88,132,92166,2,0,P|44:125|9:143,1,77.9999964294435,2|0,0:0|0:0,0:0:0:0:
0,315,92439,6,0,P|48:305|58:198,1,155.999992858887,10|0,0:3|0:0,0:0:0:0:
14,138,92848,1,8,0:3:0:0:
69,211,92985,2,0,P|121:225|145:218,1,77.9999964294435,2|0,0:0|0:0,0:0:0:0:
222,159,93257,2,0,P|260:152|295:166,1,77.9999964294435,10|0,0:3|0:0,0:0:0:0:
388,282,93530,2,0,L|372:199,1,77.9999964294435,8|0,0:0|0:0,0:0:0:0:
445,80,93803,2,0,P|416:110|378:114,1,77.9999964294435,10|0,0:3|0:0,0:0:0:0:
211,36,94075,1,10,0:0:0:0:
347,0,94212,6,2,P|326:29|267:239,1,240,0|0,0:0|0:0,0:0:0:0:
270,233,94621,6,0,P|271:201|216:188,1,96,2|0,0:0|0:0,0:0:0:0:
283,359,95439,2,0,B|317:316|369:335|369:335|365:310|379:291|379:291|406:290|425:272,1,192,2|2,0:0|0:0,0:0:0:0:
469,212,96666,2,0,L|466:195,1,12,2|2,0:0|0:0,0:0:0:0:
465,221,96803,2,0,L|475:321,1,96,2|0,0:0|0:0,0:0:0:0:
474,316,98166,5,2,0:0:0:0:
404,314,98439,1,2,0:0:0:0:
360,369,98712,1,2,0:0:0:0:
370,376,98985,6,0,P|367:354|359:337,1,35.9999989013672,0|2,0:0|0:0,0:0:0:0:
361,341,99530,1,2,0:0:0:0:
401,281,99803,1,2,0:0:0:0:
330,40,100348,5,2,0:0:0:0:
281,112,100621,1,2,0:0:0:0:
195,115,100894,1,2,0:0:0:0:
195,115,102189,6,0,L|199:130,1,8.99999972534181,2|2,0:0|0:0,0:0:0:0:
189,127,102348,2,0,P|186:99|241:69,1,95.9999970703126,2|0,0:0|0:0,0:0:0:0:
321,107,103212,2,0,P|323:114|327:125,2,13.9999995727539,2|0|0,0:0|0:0|0:0,0:0:0:0:
330,95,103348,6,0,P|379:120|370:191,1,120,12|0,0:3|0:0,0:0:0:0:
303,227,103757,1,8,0:3:0:0:
303,227,103894,2,0,P|297:259|308:290,1,60
450,283,104166,2,0,P|398:265|383:256,1,60,10|0,0:3|0:0,0:0:0:0:
493,142,104439,2,0,P|434:156|379:180,1,120,2|0,0:0|0:0,0:0:0:0:
315,234,104848,1,2,0:0:0:0:
368,96,104985,2,0,P|344:73|314:66,1,60,8|0,0:0|0:0,0:0:0:0:
256,66,105189,1,0,0:0:0:0:
251,74,105257,2,0,L|190:84,1,60,2|0,0:0|0:0,0:0:0:0:
91,177,105530,6,0,P|135:190|146:202,2,60,8|0|0,0:3|0:0|0:0,0:0:0:0:
143,199,105939,2,0,P|144:141|107:89,1,120,8|0,0:3|0:0,0:0:0:0:
184,271,106348,2,0,P|208:238|240:227,1,60,10|0,0:3|0:0,0:0:0:0:
323,320,106621,2,0,P|294:316|264:310,1,60,2|0,0:0|0:0,0:0:0:0:
358,237,106894,2,0,P|347:210|337:182,1,60,2|0,0:0|0:0,0:0:0:0:
484,179,107166,2,0,P|464:201|446:225,1,60,10|0,0:0|0:0,0:0:0:0:
406,286,107371,1,0,0:0:0:0:
416,289,107439,2,0,P|427:316|437:344,1,60,2|0,0:0|0:0,0:0:0:0:
211,353,107712,6,0,P|192:310|243:258,1,120,12|0,0:3|0:0,0:0:0:0:
314,275,108121,1,8,0:3:0:0:
231,178,108257,2,0,P|224:137|232:112,1,60,2|0,0:0|0:0,0:0:0:0:
420,154,108530,2,0,P|372:162|307:201,1,120,10|0,0:3|0:0,0:0:0:0:
310,197,109075,1,2,0:0:0:0:
346,129,109212,1,0,0:0:0:0:
244,69,109348,2,0,L|176:79,1,60,8|0,0:0|0:0,0:0:0:0:
246,156,109621,2,0,L|125:138,1,120,2|8,0:0|0:3,0:0:0:0:
21,207,110030,5,0,0:0:0:0:
21,207,110166,2,0,L|86:197,1,60,0|8,0:0|0:3,0:0:0:0:
151,241,110439,2,0,P|133:271|133:300,1,60
225,326,110712,2,0,P|243:296|243:267,1,60,8|0,0:3|0:0,0:0:0:0:
206,147,110985,6,0,P|212:194|264:168,1,120,0|10,0:0|0:3,0:0:0:0:
267,89,111394,1,0,0:0:0:0:
365,186,111530,2,0,P|395:194|432:177,1,60,10|8,0:0|0:3,0:0:0:0:
512,114,111803,2,0,P|482:106|445:123,1,60,2|0,0:0|0:0,0:0:0:0:
450,304,112075,6,0,P|481:300|475:217,1,120,12|0,0:3|0:0,0:0:0:0:
348,223,112485,2,0,P|378:225|407:234,1,60,10|0,0:3|0:0,0:0:0:0:
407,234,112894,2,0,P|393:207|385:173,1,60,10|0,0:3|0:0,0:0:0:0:
378,109,113166,1,0,0:0:0:0:
378,109,113439,1,2,0:0:0:0:
302,67,113575,1,0,0:0:0:0:
224,166,113712,2,0,P|193:179|157:174,1,60,8|0,0:0|0:0,0:0:0:0:
58,99,113985,2,0,P|84:119|98:153,1,60,2|0,0:0|0:0,0:0:0:0:
102,222,114257,5,8,0:3:0:0:
172,257,114394,1,0,0:0:0:0:
172,257,114530,2,0,L|185:318,1,60,0|8,0:0|0:3,0:0:0:0:
99,368,114803,2,0,L|39:348,1,60
70,183,115075,2,0,L|90:292,1,90,8|0,0:3|0:0,0:0:0:0:
79,285,115348,6,0,B|129:259|144:305|194:273,1,120,2|0,0:0|0:0,0:0:0:0:
237,190,115757,1,0,0:0:0:0:
310,325,115894,1,10,0:0:0:0:
386,287,116030,1,0,0:0:0:0:
386,287,116098,1,0,0:0:0:0:
386,287,116166,2,0,P|392:242|384:226,1,60
307,89,116439,6,0,P|292:131|354:165,1,120,12|0,0:3|0:0,0:0:0:0:
424,156,116848,2,0,P|474:179|463:234,1,120,10|0,0:3|0:0,0:0:0:0:
390,271,117257,2,0,B|342:197|420:173|373:100,1,180,10|0,0:3|0:0,0:0:0:0:
317,49,117803,2,0,L|250:43,1,60
167,189,118075,2,0,P|218:184|232:168,1,60,10|0,0:0|0:0,0:0:0:0:
105,117,118348,2,0,P|80:158|92:207,1,90,2|0,0:0|0:0,0:0:0:0:
96,212,118621,6,0,P|105:244|99:274,2,60,8|0|0,0:3|0:0|0:0,0:0:0:0:
21,145,119030,1,8,0:3:0:0:
21,145,119166,2,0,P|56:154|90:97,1,90
96,102,119439,2,0,P|123:69|166:76,1,90,10|0,0:3|0:0,0:0:0:0:
214,125,119712,6,0,L|225:202,1,60,8|0,0:0|0:0,0:0:0:0:
267,49,119985,1,8,0:3:0:0:
251,46,120121,1,0,0:0:0:0:
363,182,120257,1,8,0:0:0:0:
477,122,120394,2,0,P|480:99|468:80,1,44.999998626709,8|0,0:0|0:0,0:0:0:0:
458,79,120803,6,0,P|406:116|437:189,1,143.999995605469,10|2,0:3|0:0,0:0:0:0:
511,224,121212,1,0,0:0:0:0:
380,300,121348,2,0,P|402:278|446:267,1,71.9999978027344,2|8,0:0|0:3,0:0:0:0:
269,251,121621,1,10,0:0:0:0:
333,180,121757,2,0,P|332:136|275:104,1,107.999996704102,2|0,0:0|0:0,0:0:0:0:
255,114,122030,1,10,0:0:0:0:
385,50,122166,1,2,0:0:0:0:
388,33,122303,1,8,0:3:0:0:
415,195,122439,2,0,P|424:151|439:114,1,71.9999978027344,12|0,0:0|0:0,0:0:0:0:
454,31,122712,2,0,P|411:45|371:50,1,71.9999978027344,2|8,0:0|0:3,0:0:0:0:
184,39,122985,6,0,P|212:61|222:102,1,71.9999978027344,10|0,0:3|0:0,0:0:0:0:
213,239,123257,1,2,0:3:0:0:
116,192,123394,2,0,L|197:167,1,71.9999978027344,2|0,0:0|0:0,0:0:0:0:
366,110,123666,2,0,L|285:135,1,71.9999978027344,10|8,0:3|0:0,0:0:0:0:
219,255,123939,2,0,P|297:266|322:207,1,143.999995605469,10|8,0:3|0:3,0:0:0:0:
278,135,124348,1,2,0:0:0:0:
271,120,124485,1,8,0:3:0:0:
208,273,124621,1,12,0:0:0:0:
112,201,124757,2,0,P|66:205|40:301,1,143.999995605469,8|8,0:1|0:1,0:0:0:0:
156,368,125166,6,0,B|217:321|231:382|291:340,1,143.999995605469,12|2,0:3|0:0,0:0:0:0:
324,257,125575,1,2,0:0:0:0:
371,378,125712,2,0,P|404:388|452:370,1,71.9999978027344,2|8,0:0|0:3,0:0:0:0:
466,242,125985,2,0,L|452:159,1,71.9999978027344,10|8,0:0|0:3,0:0:0:0:
506,24,126257,1,2,0:0:0:0:
304,51,126394,2,8,P|360:54|451:90,1,143.999995605469,8|8,0:0|0:3,0:3:0:0:
224,166,126803,1,10,0:0:0:0:
173,41,126939,1,8,0:0:0:0:
227,153,127075,1,10,0:1:0:0:
139,128,127212,1,8,0:1:0:0:
261,66,127348,5,12,0:3:0:0:
275,71,127485,1,8,0:3:0:0:
289,190,127621,2,0,L|268:287,1,71.9999978027344,2|8,0:0|0:3,0:0:0:0:
433,230,127894,2,0,L|450:149,2,71.9999978027344,10|8|0,0:0|0:3|0:0,0:0:0:0:
505,363,128303,6,0,P|483:341|435:326,1,71.9999978027344,8|0,0:3|0:3,0:0:0:0:
323,377,128575,2,0,P|297:323|347:263,1,143.999995605469,8|8,0:3|0:3,0:0:0:0:
512,169,128985,6,0,B|451:167|381:188|381:188|400:172|422:145,2,180.000006866455,12|8|2,0:0|0:1|0:0,0:0:0:0:
390,276,129803,5,2,0:0:0:0:
390,276,129939,1,2,0:0:0:0:
390,276,130075,2,0,P|338:280|301:248,1,96,2|2,0:0|0:0,0:0:0:0:
266,186,130485,2,0,P|227:159|180:164,1,96,2|2,0:0|0:0,0:0:0:0:
133,225,130894,2,0,P|94:251|47:246,1,96,2|0,0:0|0:0,0:0:0:0:
65,56,131439,5,2,0:0:0:0:
65,56,131575,1,2,0:0:0:0:
65,56,131712,2,0,P|112:63|169:74,1,96,2|2,0:0|0:0,0:0:0:0:
225,32,132121,2,0,P|259:41|281:48,1,48,2|0,0:0|0:0,0:0:0:0:
338,106,132394,2,0,P|304:115|282:122,1,48,2|0,0:0|0:0,0:0:0:0:
203,204,132666,2,0,P|210:166|223:104,1,96,2|0,0:0|0:0,0:0:0:0:
179,45,133075,2,0,P|171:22|165:0,1,48,2|2,0:0|0:0,0:0:0:0:
69,59,133348,6,0,P|66:67|85:83,1,36,2|0,0:0|0:0,0:0:0:0:
87,67,133894,6,0,L|70:173,1,90,8|0,0:0|0:0,0:0:0:0:
54,171,134166,6,0,L|82:165,1,24,8|0,0:0|0:0,0:0:0:0:
181,292,134439,2,0,L|209:298,1,24,10|0,0:0|0:0,0:0:0:0:
204,297,134712,1,8,0:3:0:0:
307,156,134848,1,8,0:0:0:0:
307,156,134985,2,0,L|273:163,1,30,2|0,0:0|3:0,0:0:0:0:
399,25,135257,6,0,L|390:60,1,35.9999989013672,8|2,0:0|0:0,0:0:0:0:
504,180,135530,2,0,L|513:215,1,35.9999989013672,8|0,0:0|0:0,0:0:0:0:
399,335,135803,2,0,L|390:370,1,35.9999989013672,10|0,0:0|0:0,0:0:0:0:
210,283,136075,6,0,P|220:219|286:210,1,135.000005149841,12|0,0:3|0:0,0:0:0:0:
291,217,136348,2,0,P|301:229|317:244,1,30,8|0,0:0|0:0,0:0:0:0:
228,100,136621,2,0,P|249:82|267:59,1,41.9999987182618,8|0,0:0|0:0,0:0:0:0:
131,235,136894,2,0,P|146:258|158:284,1,53.9999983520508,8|0,0:0|0:0,0:0:0:0:
34,113,137166,2,0,P|44:81|50:47,1,66.0000020141602,8|0,0:0|0:0,0:0:0:0:
0,286,137439,2,0,P|31:269|79:253,1,66.0000020141602,10|0,0:0|0:0,0:0:0:0:
140,85,137712,2,0,P|171:102|219:118,1,71.9999978027344,10|0,0:0|0:0,0:0:0:0:
260,316,137985,2,0,P|285:291|327:263,1,77.9999964294435,10|0,0:0|0:0,0:0:0:0:
456,53,138257,6,0,P|446:110|324:121,1,192,12|8,0:0|0:0,0:0:0:0:
73,267,138666,2,0,P|162:275|198:192,1,192,8|0,0:0|0:0,0:0:0:0:
198,16,139075,2,0,L|304:245,1,233.999989288331,8|0,0:0|0:0,0:0:0:0:
340,309,139348,6,0,P|338:290|346:276,1,30,12|0,0:3|0:0,0:0:0:0:
296,228,139621,2,0,P|305:239|308:254,1,30,2|0,0:0|0:0,0:0:0:0:
363,325,139894,6,0,P|345:317|337:303,1,30,2|0,0:0|0:0,0:0:0:0:
267,225,140166,2,0,P|281:222|295:227,1,30,2|0,0:0|0:0,0:0:0:0:
71,345,140439,6,0,B|152:312|198:384|198:384|209:297|289:294|289:294|284:318|249:332,1,335.999989746094,10|0,0:3|0:0,0:0:0:0:
259,328,141257,1,10,0:3:0:0:
237,123,141462,1,8,0:3:0:0:
245,131,141530,2,0,B|189:124|189:124|146:147|146:147|67:138,1,167.999994873047,8|10,0:0|0:3,0:0:0:0:
12,87,141939,1,0,0:0:0:0:
12,87,142075,2,0,L|-1:175,1,83.9999974365235,2|8,0:0|0:3,0:0:0:0:
124,295,142348,2,0,P|121:242|36:234,1,144,2|0,0:0|0:0,0:0:0:0:
39,343,142621,6,0,P|99:344|141:229,1,192,10|0,0:3|0:0,0:0:0:0:
128,170,143030,1,8,0:3:0:0:
128,170,143166,1,0,0:0:0:0:
128,170,143439,2,0,P|183:170|217:133,1,83.9999974365235,10|0,0:3|0:0,0:0:0:0:
265,0,143712,2,0,L|256:93,1,83.9999974365235,10|0,0:0|0:0,0:0:0:0:
351,192,143985,2,0,L|342:108,1,83.9999974365235,10|0,0:3|0:0,0:0:0:0:
217,226,144257,2,0,P|284:231|308:252,1,83.9999974365235,10|8,0:0|0:3,0:0:0:0:
351,311,144530,2,0,P|388:328|429:324,1,83.9999974365235,2|0,0:0|0:0,0:0:0:0:
512,145,144803,6,0,B|486:119|444:117|413:143|399:177|411:211|431:232|431:232|402:214|366:230,1,251.999992309571,10|0,0:3|0:0,0:0:0:0:
236,287,145348,2,0,P|277:287|301:249,1,83.9999974365235,2|0,0:0|0:0,0:0:0:0:
296,133,145621,2,0,L|270:45,1,83.9999974365235,10|0,0:3|0:0,0:0:0:0:
189,7,145825,1,8,0:3:0:0:
178,10,145894,2,0,L|154:90,1,83.9999974365235,8|0,0:0|0:0,0:0:0:0:
187,252,146166,2,0,P|237:224|173:162,1,167.999994873047,10|0,0:3|0:0,0:0:0:0:
111,210,146575,1,8,0:3:0:0:
15,130,146712,2,0,P|10:87|31:53,1,83.9999974365235,2|0,0:0|0:0,0:0:0:0:
220,15,146985,6,0,P|196:70|111:58,1,125.999996154785,8|0,0:3|0:0,0:0:0:0:
113,70,147257,2,0,P|147:105|151:144,1,83.9999974365235,2|8,0:0|0:3,0:0:0:0:
34,307,147530,2,0,P|45:265|88:237,1,83.9999974365235,2|0,0:0|0:0,0:0:0:0:
165,227,147803,1,8,0:3:0:0:
385,365,148075,6,0,L|362:231,1,125.999996154785,12|0,0:0|0:0,0:0:0:0:
347,231,148348,2,0,P|362:237|372:183,1,83.9999974365235,10|0,0:3|0:0,0:0:0:0:
118,286,148621,6,0,L|160:126,1,153.000002918243,10|0,0:0|0:0,0:0:0:0:
152,124,148894,2,0,P|196:149|221:67,1,153.000002918243,2|0,0:0|0:0,0:0:0:0:
147,34,149166,6,0,B|68:61|0:22|0:22|44:47|49:106,1,251.999992309571,10|0,0:3|0:0,0:0:0:0:
6,258,149712,2,0,P|5:198|21:170,1,83.9999974365235,2|0,0:0|0:0,0:0:0:0:
170,221,149985,2,0,L|60:232,1,83.9999974365235,10|0,0:3|0:0,0:0:0:0:
162,314,150189,1,8,0:3:0:0:
170,321,150257,2,0,L|280:332,1,83.9999974365235,8|0,0:0|0:0,0:0:0:0:
363,194,150530,2,0,P|305:172|260:257,1,167.999994873047,10|0,0:3|0:0,0:0:0:0:
323,294,150939,1,8,0:3:0:0:
323,294,151075,2,0,L|414:286,1,83.9999974365235,2|0,0:0|0:0,0:0:0:0:
468,67,151348,6,0,B|402:39|353:99|353:99|332:89|332:89|289:125|231:102,1,251.999992309571,10|8,0:3|0:3,0:0:0:0:
165,59,151894,2,0,P|201:89|150:184,1,167.999994873047,0|8,0:0|0:3,0:0:0:0:
456,218,152439,2,0,P|371:225|288:262,1,167.999994873047,10|8,0:0|0:3,0:0:0:0:
469,108,152984,1,10,0:0:0:0:
388,132,153121,2,0,P|349:104|420:67,1,143.999995605469,8|0,0:3|0:0,0:0:0:0:
422,248,153530,6,0,P|369:216|332:211,1,83.9999974365235,10|0,0:3|0:0,0:0:0:0:
265,338,153803,2,0,P|212:370|175:375,1,83.9999974365235,2|0,0:0|0:0,0:0:0:0:
217,176,154075,2,0,P|245:206|262:244,1,83.9999974365235,2|0,0:0|0:0,0:0:0:0:
174,370,154348,5,10,0:3:0:0:
140,349,154439,53,8,0:3:0:0:
107,361,154530,5,8,0:3:0:0:
60,348,154621,38,0,L|40:253,1,83.9999974365235,8|0,0:0|0:0,0:0:0:0:
149,141,154894,2,0,P|113:182|78:180,1,83.9999974365235,10|0,0:3|0:0,0:0:0:0:
34,105,155166,2,0,P|70:64|105:66,1,83.9999974365235,2|8,0:0|0:3,0:0:0:0:
222,218,155439,2,0,P|289:234|335:179,1,125.999996154785,2|0,0:0|0:0,0:0:0:0:
335,182,155712,2,0,B|369:313|369:313|382:269,1,167.999994873047,8|0,0:3|0:0,0:0:0:0:
421,209,156121,1,8,0:3:0:0:
432,214,156257,1,0,0:0:0:0:
432,214,156530,2,0,P|463:167|408:118,1,125.999996154785,8|0,0:3|0:0,0:0:0:0:
341,115,156803,6,0,L|203:129,1,125.999996154785,10|0,0:0|0:0,0:0:0:0:
202,130,157075,2,0,L|288:146,1,83.9999974365235,10|0,0:3|0:0,0:0:0:0:
48,212,157348,1,10,0:0:0:0:
111,288,157485,1,8,0:3:0:0:
128,162,157621,2,0,P|117:103|102:61,1,83.9999974365235,2|0,0:0|0:0,0:0:0:0:
6,322,157894,6,0,B|42:283|126:269|163:337|165:380|165:380|195:320|267:335,1,335.999989746094,10|0,0:3|0:0,0:0:0:0:
266,334,158712,1,10,0:3:0:0:
338,94,158916,1,8,0:3:0:0:
334,106,158985,2,0,P|294:130|252:123,1,83.9999974365235,8|0,0:0|0:0,0:0:0:0:
232,34,159257,2,0,P|272:10|314:17,1,83.9999974365235,10|0,0:3|0:0,0:0:0:0:
410,160,159530,2,0,L|431:65,1,83.9999974365235,2|8,0:0|0:3,0:0:0:0:
283,199,159803,2,0,L|378:220,1,83.9999974365235,2|0,0:0|0:0,0:0:0:0:
162,328,160075,6,0,B|103:290|126:227|126:227|114:212|114:212|185:225|210:166,1,251.999992309571,10|8,0:3|0:3,0:0:0:0:
219,83,160621,1,0,0:0:0:0:
219,83,160894,2,0,P|286:98|317:73,1,83.9999974365235,10|0,0:3|0:0,0:0:0:0:
442,37,161166,2,0,P|406:19|366:28,1,83.9999974365235,10|0,0:0|0:0,0:0:0:0:
406,208,161439,2,0,L|392:106,1,83.9999974365235,10|0,0:3|0:0,0:0:0:0:
266,311,161712,2,0,L|278:228,1,83.9999974365235,10|8,0:0|0:3,0:0:0:0:
203,163,161985,2,0,L|191:79,1,83.9999974365235,2|0,0:0|0:0,0:0:0:0:
488,88,162257,6,0,B|411:65|364:145|364:145|331:103|267:116,1,251.999992309571,12|0,0:3|0:0,0:0:0:0:
242,217,162803,2,0,P|290:242|324:239,1,83.9999974365235,2|0,0:0|0:0,0:0:0:0:
483,187,163075,53,10,0:3:0:0:
464,219,163166,5,8,0:3:0:0:
479,243,163257,5,8,0:3:0:0:
465,281,163348,6,0,P|417:306|383:303,1,83.9999974365235,8|0,0:0|0:0,0:0:0:0:
297,124,163621,2,0,P|361:129|371:237,1,167.999994873047,10|0,0:3|0:0,0:0:0:0:
313,276,164030,1,8,0:3:0:0:
197,170,164166,2,0,L|183:76,1,83.9999974365235,2|0,0:0|0:0,0:0:0:0:
59,319,164439,2,0,P|103:294|234:268,1,167.999994873047,8|2,0:3|0:0,0:0:0:0:
303,290,164848,1,8,0:3:0:0:
234,167,164985,2,0,P|173:131|69:111,1,167.999994873047,0|8,0:0|0:3,0:0:0:0:
323,270,165530,6,0,L|334:176,1,83.9999974365235,8|0,0:0|0:0,0:0:0:0:
286,67,165803,2,0,L|367:85,1,83.9999974365235,8|0,0:3|0:0,0:0:0:0:
475,317,166075,1,10,0:0:0:0:
504,231,166212,1,8,0:3:0:0:
504,231,166348,2,0,P|462:227|424:245,1,83.9999974365235,2|0,0:0|0:0,0:0:0:0:
242,343,166621,6,0,P|311:371|282:259,1,251.999992309571,10|0,0:3|0:0,0:0:0:0:
166,247,167166,2,0,P|135:210|135:171,1,83.9999974365235,2|0,0:0|0:0,0:0:0:0:
200,63,167439,5,10,0:3:0:0:
233,82,167530,5,8,0:3:0:0:
261,72,167621,5,8,0:3:0:0:
289,36,167712,6,0,P|343:19|380:36,1,83.9999974365235,8|0,0:0|0:0,0:0:0:0:
459,168,167985,2,0,P|448:103|479:-2,1,167.999994873047,10|0,0:3|0:0,0:0:0:0:
370,106,168394,1,8,0:3:0:0:
370,106,168530,2,0,L|265:123,1,83.9999974365235,2|0,0:0|0:0,0:0:0:0:
36,102,168803,6,0,B|88:91|113:139|113:139|131:131|131:131|81:199|131:264,1,251.999992309571,10|8,0:3|0:3,0:0:0:0:
282,221,169348,2,0,P|245:202|204:198,1,83.9999974365235,2|0,0:0|0:0,0:0:0:0:
279,315,169621,2,0,P|320:310|357:291,1,83.9999974365235,10|0,0:3|0:0,0:0:0:0:
394,63,169894,6,0,L|366:192,1,125.999996154785,8|0,0:0|0:0,0:0:0:0:
364,200,170166,2,0,L|346:113,1,83.9999974365235,10|0,0:3|0:0,0:0:0:0:
212,309,170439,1,10,0:0:0:0:
115,229,170575,2,2,L|353:259,1,215.999993408203,0|0,0:0|0:0,0:0:0:0:
447,341,170985,6,0,P|425:253|404:141,1,192,12|0,0:3|0:0,0:0:0:0:
400,58,171394,1,8,0:3:0:0:
311,183,171530,2,0,P|240:204|188:212,1,96,8|0,0:0|0:0,0:0:0:0:
123,97,171803,1,10,0:3:0:0:
123,97,171939,2,0,P|169:107|215:122,1,96,8|2,0:3|0:0,0:0:0:0:
17,182,172212,1,8,0:0:0:0:
102,207,172348,2,0,P|114:253|126:299,1,96,8|0,0:3|0:0,0:0:0:0:
199,384,172621,2,0,P|219:307|263:182,1,192,8|8,0:0|0:3,0:0:0:0:
482,374,173166,6,0,P|483:309|368:323,1,192,10|0,0:3|0:0,0:0:0:0:
332,379,173575,1,8,0:3:0:0:
248,267,173712,2,0,P|247:202|362:216,1,192,8|10,0:0|0:3,0:0:0:0:
348,278,174121,1,8,0:3:0:0:
333,284,174257,1,0,0:0:0:0:
451,190,174394,2,0,P|482:133|410:37,1,192,8|8,0:0|0:3,0:0:0:0:
242,0,174803,2,0,B|258:23|258:23|237:92,1,96,10|2,0:0|0:0,0:0:0:0:
272,179,175075,2,0,B|239:194|239:194|160:170,1,96,2|8,0:0|0:3,0:0:0:0:
25,160,175348,6,0,P|97:187|161:82,1,192,10|0,0:3|0:0,0:0:0:0:
155,24,175757,1,10,0:3:0:0:
119,205,175894,2,0,P|126:247|171:280,1,96,8|2,0:0|0:0,0:0:0:0:
298,194,176166,2,0,L|192:207,1,96,10|8,0:3|0:3,0:0:0:0:
156,286,176439,1,0,0:3:0:0:
306,342,176575,1,8,0:0:0:0:
222,366,176712,2,0,P|226:306|256:273,1,96,2|8,0:0|0:3,0:0:0:0:
387,274,176985,2,0,P|415:211|298:174,1,192,10|8,0:0|0:3,0:0:0:0:
326,155,177530,6,0,P|244:121|265:37,1,192,8|8,0:3|0:3,0:0:0:0:
357,61,177939,1,8,0:3:0:0:
214,137,178075,2,0,P|142:130|42:115,1,144,8|0,0:0|0:0,0:0:0:0:
55,119,178348,2,0,P|97:153|130:188,1,96,10|8,0:3|0:3,0:0:0:0:
196,281,178621,1,0,0:0:0:0:
218,126,178757,2,0,P|266:99|345:190,1,192,8|8,0:0|0:3,0:0:0:0:
325,274,179166,1,8,0:0:0:0:
416,239,179303,1,4,0:3:0:0:
512,198,179439,2,0,P|471:181|426:156,1,96
424,275,179712,6,0,P|336:274|210:288,1,192,10|0,0:3|0:0,0:0:0:0:
137,312,180121,1,8,0:3:0:0:
263,191,180257,2,0,P|269:120|262:-9,1,192,8|8,0:0|0:3,0:0:0:0:
336,116,180666,1,10,0:3:0:0:
189,153,180803,1,0,0:0:0:0:
302,253,180939,2,0,P|279:191|381:177,1,192,8|8,0:0|0:3,0:0:0:0:
362,344,181348,2,0,P|298:326|192:322,1,144,8|0,0:0|0:0,0:0:0:0:
198,324,181621,1,2,0:0:0:0:
257,245,181757,1,2,0:0:0:0:
189,153,181894,5,10,0:3:0:0:
61,208,182030,1,2,0:0:0:0:
100,109,182166,2,0,P|118:147|130:213,1,96,10|0,0:3|0:0,0:0:0:0:
114,353,182439,1,10,0:0:0:0:
32,287,182575,1,2,0:0:0:0:
139,206,182712,1,10,0:3:0:0:
241,249,182848,1,10,0:3:0:0:
309,191,182985,6,0,B|322:186|322:186|333:189|351:193|351:193|386:182,2,64,2|2|2,0:0|0:0|0:0,0:0:0:0:
269,174,183257,1,2,0:0:0:0:
257,259,183394,1,10,0:3:0:0:
168,182,183530,1,10,0:0:0:0:
165,168,183666,1,10,0:3:0:0:
185,293,183803,1,2,0:3:0:0:
302,207,183939,1,10,0:3:0:0:
400,277,184075,6,0,B|399:301|399:301|387:322,2,48,10|2|2,0:3|0:0|0:0,0:0:0:0:
370,175,184348,1,10,0:3:0:0:
383,183,184485,1,0,0:0:0:0:
325,57,184621,2,0,B|280:72|280:72|229:49,2,96,10|0|10,0:0|0:0|0:3,0:0:0:0:
408,32,185030,1,10,0:3:0:0:
452,115,185166,1,2,0:0:0:0:
385,172,185303,1,8,0:0:0:0:
508,248,185439,6,0,B|481:253|467:280|467:280|434:244|385:253,1,144,10|0,0:3|0:0,0:0:0:0:
370,266,185712,1,10,0:0:0:0:
293,213,185848,1,2,0:0:0:0:
223,272,185985,1,8,0:3:0:0:
162,234,186121,1,0,0:0:0:0:
79,311,186257,5,10,0:0:0:0:
47,278,186348,1,10,0:0:0:0:
66,249,186439,1,10,0:0:0:0:
54,232,186530,2,0,P|45:201|43:164,2,64,10|8|8,0:3|0:3|0:3,0:0:0:0:
158,251,186803,5,10,0:0:0:0:
189,232,186894,1,10,0:0:0:0:
220,247,186985,1,10,0:0:0:0:
259,238,187075,2,0,P|292:242|332:269,2,64,10|8|8,0:3|0:3|0:3,0:0:0:0:
311,345,187348,5,10,0:0:0:0:
321,333,187439,2,0,P|351:322|386:316,1,64,10|8,0:0|0:3,0:0:0:0:
454,290,187621,1,10,0:0:0:0:
440,272,187712,2,0,P|432:241|431:200,1,64,10|8,0:0|0:3,0:0:0:0:
480,140,187894,2,0,P|491:112|500:78,2,64,10|10|8,0:0|0:0|0:0,0:0:0:0:
397,68,188166,2,0,P|385:40|377:6,2,64,10|10|8,0:0|0:0|0:0,0:0:0:0:
330,147,188439,6,0,B|278:131|278:131|228:168|228:168|149:156,1,192,12|2,0:3|0:0,0:0:0:0:
93,99,188848,1,10,0:3:0:0:
149,173,188985,2,0,L|178:320,1,143.999995605469,2|8,0:0|0:3,0:0:0:0:
24,247,189394,2,0,L|115:263,1,71.9999978027344,12|0,0:0|0:0,0:0:0:0:
241,277,189666,2,0,L|332:293,1,71.9999978027344,10|0,0:3|0:0,0:0:0:0:
403,306,189939,1,10,0:3:0:0:
363,183,190075,1,8,0:0:0:0:
348,188,190212,1,8,0:1:0:0:
280,134,190348,2,0,P|244:115|206:115,1,71.9999978027344,8|0,0:3|0:3,0:0:0:0:
153,229,190621,6,0,B|179:259|215:264|215:264|254:253|274:217,1,143.999995605469,12|2,0:0|0:0,0:0:0:0:
289,147,191030,1,2,0:0:0:0:
379,227,191166,2,0,P|392:262|387:316,1,71.9999978027344,2|8,0:0|0:3,0:0:0:0:
343,369,191439,1,10,0:3:0:0:
209,313,191575,2,0,B|244:307|244:307|282:326,1,71.9999978027344,12|0,0:0|0:0,0:0:0:0:
379,227,191848,2,0,B|312:255|312:255|244:219,1,143.999995605469,10|8,0:3|0:3,0:0:0:0:
191,108,192257,1,10,0:0:0:0:
261,51,192394,1,8,0:0:0:0:
194,0,192530,1,8,0:0:0:0:
201,119,192666,1,8,0:0:0:0:
55,145,192803,6,0,P|60:100|123:91,1,107.999996704102,10|0,0:3|0:0,0:0:0:0:
129,95,193075,2,0,L|147:175,1,71.9999978027344,2|0,0:0|0:0,0:0:0:0:
241,230,193348,2,0,L|256:159,2,71.9999978027344,10|8|10,0:1|0:1|0:1,0:0:0:0:
73,275,193757,1,12,0:0:0:0:
73,275,193894,2,0,P|104:256|148:263,1,71.9999978027344,0|8,0:0|0:3,0:0:0:0:
224,294,194166,2,0,P|259:296|289:277,1,71.9999978027344,2|8,0:0|0:3,0:0:0:0:
321,130,194439,1,10,0:0:0:0:
393,188,194575,1,8,0:0:0:0:
421,164,194712,2,0,P|465:162|492:179,1,71.9999978027344,10|0,0:3|0:0,0:0:0:0:
494,348,194985,6,0,B|460:367|425:365|425:365|391:348|374:307,1,143.999995605469,10|0,0:3|0:0,0:0:0:0:
300,318,195394,2,0,P|307:262|349:180,1,143.999995605469,10|8,0:1|0:1,0:0:0:0:
405,126,195803,1,10,0:3:0:0:
291,74,195939,2,0,P|248:79|149:116,1,143.999995605469,12|8,0:0|0:3,0:0:0:0:
102,188,196348,2,0,P|116:225|129:267,1,71.9999978027344,10|8,0:3|0:3,0:0:0:0:
26,364,196621,5,8,0:0:0:0:
40,320,196712,5,8,0:0:0:0:
12,285,196803,5,8,0:0:0:0:
25,257,196894,6,0,P|30:229|34:196,2,47.9999985351563,8|8|8,0:0|0:0|0:0,0:0:0:0:
60,322,197166,6,0,P|103:344|159:272,1,143.999995605469,12|2,0:3|0:0,0:0:0:0:
147,197,197575,1,2,0:0:0:0:
262,236,197712,2,0,P|332:234|405:219,1,143.999995605469,2|10,0:0|0:3,0:0:0:0:
439,73,198121,2,0,P|414:111|406:144,1,71.9999978027344,10|0,0:0|0:0,0:0:0:0:
438,297,198394,2,0,P|413:259|405:226,1,71.9999978027344,10|0,0:3|0:0,0:0:0:0:
312,112,198666,1,2,0:0:0:0:
312,112,198735,1,0,0:0:0:0:
312,112,198803,2,0,L|232:125,1,71.9999978027344,8|8,0:0|0:1,0:0:0:0:
111,145,199075,2,0,P|149:141|182:206,1,107.999996704102,10|0,0:1|0:0,0:0:0:0:
180,216,199348,6,0,P|189:269|285:263,1,143.999995605469,12|2,0:0|0:0,0:0:0:0:
320,203,199757,1,2,0:0:0:0:
371,323,199894,2,0,P|414:339|491:287,1,143.999995605469,2|8,0:0|0:3,0:0:0:0:
426,185,200303,2,0,B|385:141|324:170|324:170|333:180|349:190,1,143.999995605469,12|8,0:0|0:3,0:0:0:0:
382,124,200712,2,0,L|368:47,1,71.9999978027344,2|8,0:0|0:1,0:0:0:0:
291,29,200916,1,8,0:1:0:0:
283,34,200985,2,0,L|269:111,1,71.9999978027344,10|8,0:0|0:1,0:0:0:0:
159,164,201257,1,10,0:1:0:0:
77,117,201394,1,8,0:1:0:0:
15,223,201530,6,0,P|54:218|88:231,1,71.9999978027344,10|0,0:3|0:0,0:0:0:0:
157,286,201803,2,0,P|190:296|226:291,1,71.9999978027344,2|8,0:0|0:3,0:0:0:0:
301,183,202075,1,10,0:0:0:0:
222,211,202212,2,0,L|240:298,1,71.9999978027344,8|10,0:3|0:3,0:0:0:0:
350,376,202485,2,0,L|372:212,1,143.999995605469,12|8,0:0|0:3,0:0:0:0:
456,358,202894,2,0,L|442:259,1,71.9999978027344,2|8,0:0|0:1,0:0:0:0:
494,229,203098,1,8,0:1:0:0:
502,237,203166,2,0,L|515:138,1,71.9999978027344,10|8,0:0|0:1,0:0:0:0:
428,76,203439,1,10,0:1:0:0:
353,128,203575,1,8,0:1:0:0:
232,51,203712,5,8,0:0:0:0:
251,37,203848,2,0,L|238:123,1,71.9999978027344,8|0,0:0|0:0,0:0:0:0:
179,265,204121,2,0,P|166:207|152:117,1,125.999996154785,8|0,0:0|0:0,0:0:0:0:
153,125,204394,6,0,P|111:87|88:214,1,269.999991760254,8|0,0:0|0:0,0:0:0:0:
165,209,204803,6,0,P|170:221|173:235,1,24,10|0,0:0|0:0,0:0:0:0:
210,229,205075,2,0,P|198:234|184:237,1,24,2|0,0:0|0:0,0:0:0:0:
190,274,205348,2,0,P|185:262|182:248,1,24,2|0,0:0|0:0,0:0:0:0:
145,254,205621,2,0,P|157:249|170:246,1,24,2|0,0:0|0:0,0:0:0:0:
333,91,205894,6,0,B|298:65|252:76|244:104|253:156|204:171|131:138|120:89|164:19|224:46,1,311.999985717774,10|0,0:3|0:0,0:0:0:0:
217,43,206712,1,10,0:3:0:0:
263,269,206916,1,8,0:3:0:0:
274,262,206985,2,0,B|219:255|219:255|200:264|200:264|105:255,1,155.999992858887,8|10,0:0|0:3,0:0:0:0:
39,251,207394,1,0,0:0:0:0:
146,179,207530,2,0,L|227:165,1,77.9999964294435,2|8,0:0|0:3,0:0:0:0:
63,66,207803,2,0,L|56:164,1,96,2|0,0:0|0:0,0:0:0:0:
4,339,208075,6,0,B|41:335|60:311|60:311|92:367|169:362,1,192,10|0,0:3|0:0,0:0:0:0:
244,325,208485,2,0,P|267:285|267:239,1,77.9999964294435,8|0,0:3|0:0,0:0:0:0:
269,253,208894,2,0,P|304:275|361:273,1,77.9999964294435,10|0,0:3|0:3,0:0:0:0:
429,157,209166,2,0,P|467:161|499:182,1,77.9999964294435,10|0,0:0|0:3,0:0:0:0:
486,279,209439,2,0,L|497:356,1,77.9999964294435,10|0,0:3|0:0,0:0:0:0:
330,348,209712,2,0,P|367:337|403:321,1,77.9999964294435,10|8,0:0|0:3,0:0:0:0:
475,266,209985,2,0,P|429:249|399:225,1,77.9999964294435,2|0,0:0|0:0,0:0:0:0:
384,69,210257,6,0,B|439:83|439:83|370:118|370:118|257:96,1,233.999989288331,10|0,0:3|0:0,0:0:0:0:
134,134,210803,2,0,L|231:154,1,77.9999964294435,2|0,0:0|0:0,0:0:0:0:
334,218,211075,5,10,0:3:0:0:
315,250,211166,5,8,0:3:0:0:
330,282,211257,5,8,0:3:0:0:
319,316,211348,6,0,P|260:339|227:324,1,77.9999964294435,8|0,0:0|0:0,0:0:0:0:
150,274,211621,2,0,P|102:278|87:372,1,155.999992858887,10|0,0:3|0:0,0:0:0:0:
167,356,212030,1,8,0:3:0:0:
160,262,212166,2,0,P|151:205|137:139,1,116.999994644165,2|0,0:0|0:0,0:0:0:0:
133,134,212439,2,0,P|170:160|220:102,1,116.999994644165,8|0,0:3|0:0,0:0:0:0:
222,108,212712,2,0,P|237:47|247:25,1,77.9999964294435,2|8,0:0|0:3,0:0:0:0:
405,143,212985,2,0,P|361:145|258:192,1,155.999992858887,2|8,0:0|0:3,0:0:0:0:
463,343,213530,6,0,P|421:339|426:272,1,116.999994644165,8|0,0:0|0:0,0:0:0:0:
432,271,213803,2,0,P|456:228|447:203,1,77.9999964294435,10|0,0:3|0:0,0:0:0:0:
199,251,214075,6,0,P|251:246|245:162,1,144,10|0,0:0|0:0,0:0:0:0:
239,160,214348,2,0,P|209:106|220:75,1,96,2|0,0:0|0:0,0:0:0:0:
456,63,214621,6,0,P|388:65|305:108,1,155.999992858887,10|0,0:3|0:0,0:0:0:0:
310,103,215166,2,0,P|339:137|355:185,1,77.9999964294435,2|0,0:0|0:0,0:0:0:0:
303,325,215439,2,0,P|332:291|348:243,1,77.9999964294435,10|0,0:3|0:0,0:0:0:0:
284,211,215644,1,8,0:3:0:0:
277,202,215712,6,0,L|191:198,1,77.9999964294435,8|0,0:0|0:0,0:0:0:0:
69,309,215985,2,0,L|239:288,1,155.999992858887,10|0,0:3|0:0,0:0:0:0:
289,355,216394,1,8,0:3:0:0:
342,273,216530,2,0,P|386:251|446:286,1,116.999994644165,2|0,0:0|0:0,0:0:0:0:
453,295,216803,6,0,B|471:237|471:237|462:202|462:202|480:133,1,155.999992858887,10|0,0:3|0:0,0:0:0:0:
411,84,217212,2,0,L|397:1,1,77.9999964294435,8|0,0:3|0:0,0:0:0:0:
398,7,217621,1,8,0:3:0:0:
223,94,217894,2,0,P|275:93|315:156,1,116.999994644165,10|0,0:0|0:0,0:0:0:0:
316,153,218166,2,0,L|319:234,1,77.9999964294435,8|0,0:3|0:0,0:0:0:0:
322,384,218439,1,10,0:0:0:0:
357,312,218575,1,8,0:3:0:0:
357,312,218712,2,0,P|318:306|275:293,1,77.9999964294435
181,139,218985,6,0,P|141:130|102:157,1,77.9999964294435,10|0,0:3|0:0,0:0:0:0:
119,231,219257,2,0,P|159:240|198:213,1,77.9999964294435,2|0,0:0|0:0,0:0:0:0:
272,160,219530,2,0,L|284:74,1,77.9999964294435,2|0,0:0|0:0,0:0:0:0:
386,222,219803,5,10,0:3:0:0:
358,249,219894,5,8,0:3:0:0:
367,291,219985,5,8,0:3:0:0:
353,331,220075,6,0,P|396:335|429:310,1,77.9999964294435,8|0,0:0|0:0,0:0:0:0:
298,271,220348,2,0,P|254:266|221:291,1,77.9999964294435,10|0,0:3|0:0,0:0:0:0:
162,365,220621,2,0,L|144:278,1,77.9999964294435,2|8,0:0|0:3,0:0:0:0:
82,200,220894,2,0,P|135:221|174:170,1,116.999994644165,2|0,0:0|0:0,0:0:0:0:
177,169,221166,6,0,B|174:60|174:60|207:118,1,155.999992858887,8|0,0:3|0:0,0:0:0:0:
214,256,221575,2,0,L|115:241,1,77.9999964294435,8|0,0:3|0:0,0:0:0:0:
136,244,221985,2,0,L|271:231,1,116.999994644165,8|0,0:3|0:0,0:0:0:0:
331,183,222257,6,0,P|330:135|300:108,1,77.9999964294435,10|0,0:0|0:0,0:0:0:0:
230,79,222530,2,0,P|207:48|210:9,1,77.9999964294435,10|0,0:3|0:0,0:0:0:0:
242,170,222803,1,10,0:0:0:0:
159,136,222939,1,8,0:3:0:0:
74,235,223075,2,0,P|68:269|99:320,1,77.9999964294435,2|0,0:0|0:0,0:0:0:0:
249,382,223348,6,0,B|245:342|270:314|270:314|204:297|197:233|197:233|247:207|235:154|235:154|225:166|213:191,1,311.999985717774,10|0,0:3|0:0,0:0:0:0:
220,176,224166,1,10,0:3:0:0:
432,208,224371,1,8,0:3:0:0:
441,198,224439,2,0,L|358:190,1,77.9999964294435,10|0,0:0|0:0,0:0:0:0:
221,254,224712,2,0,P|269:248|291:214,1,77.9999964294435,10|0,0:3|0:0,0:0:0:0:
221,130,224985,2,0,P|269:136|291:170,1,77.9999964294435,2|8,0:0|0:3,0:0:0:0:
156,308,225257,2,0,P|136:255|147:214,1,77.9999964294435,2|0,0:0|0:0,0:0:0:0:
383,169,225530,6,0,B|380:208|338:230|338:230|347:244|347:244|269:196|206:269,1,233.999989288331,10|8,0:3|0:3,0:0:0:0:
163,320,226075,1,0,0:0:0:0:
163,320,226348,2,0,P|137:281|138:234,1,77.9999964294435,10|0,0:3|0:0,0:0:0:0:
263,152,226621,2,0,L|157:162,1,77.9999964294435,10|0,0:0|0:0,0:0:0:0:
110,108,226894,2,0,L|4:118,1,77.9999964294435,10|0,0:3|0:0,0:0:0:0:
193,73,227166,1,10,0:0:0:0:
198,172,227303,1,8,0:3:0:0:
198,172,227439,2,0,L|184:258,1,77.9999964294435,2|0,0:0|0:0,0:0:0:0:
23,357,227712,6,0,B|15:335|3:322|3:322|1:296|16:275|16:275|43:352|127:344,1,233.999989288331,10|0,0:3|0:0,0:0:0:0:
217,317,228257,2,0,P|245:282|249:233,1,77.9999964294435,2|0,0:0|0:0,0:0:0:0:
218,149,228530,5,10,0:3:0:0:
256,132,228621,5,8,0:3:0:0:
290,145,228712,53,8,0:3:0:0:
315,180,228803,6,0,L|398:198,1,77.9999964294435,8|0,0:0|0:0,0:0:0:0:
492,49,229075,2,0,P|462:91|363:64,1,155.999992858887,10|0,0:3|0:0,0:0:0:0:
329,0,229485,1,8,0:3:0:0:
263,116,229621,2,0,P|279:154|289:201,1,77.9999964294435,2|0,0:0|0:0,0:0:0:0:
156,330,229894,6,0,P|140:289|214:250,1,116.999994644165,8|0,0:3|0:0,0:0:0:0:
200,243,230166,2,0,P|242:249|289:266,1,77.9999964294435,2|8,0:0|0:3,0:0:0:0:
359,341,230439,2,0,P|414:350|419:277,1,116.999994644165,2|0,0:0|0:0,0:0:0:0:
428,287,230712,1,8,0:3:0:0:
484,121,230985,6,0,P|447:145|360:153,1,116.999994644165,8|0,0:0|0:0,0:0:0:0:
359,152,231257,2,0,P|317:154|277:172,1,77.9999964294435,8|0,0:3|0:0,0:0:0:0:
438,32,231530,2,0,P|401:69|368:69,1,77.9999964294435,10|8,0:0|0:3,0:0:0:0:
269,62,231803,2,0,P|231:70|208:101,1,77.9999964294435,2|0,0:0|0:0,0:0:0:0:
184,300,232075,6,0,B|233:286|233:286|267:236|267:236|215:200|215:200|138:218,1,233.999989288331,10|0,0:3|0:0,0:0:0:0:
36,292,232621,2,0,L|131:269,1,77.9999964294435,2|0,0:0|0:0,0:0:0:0:
166,202,232894,2,0,L|71:179,1,77.9999964294435,10|0,0:3|0:0,0:0:0:0:
51,123,233098,1,8,0:3:0:0:
54,111,233166,2,0,P|89:76|123:72,1,77.9999964294435,8|0,0:0|0:0,0:0:0:0:
224,123,233439,2,0,P|266:125|244:36,1,155.999992858887,10|0,0:3|0:0,0:0:0:0:
189,56,233848,1,8,0:3:0:0:
77,2,233985,2,0,P|22:10|0:32,1,77.9999964294435,2|0,0:0|0:0,0:0:0:0:
14,213,234257,6,0,B|66:202|66:202|105:222|105:222|157:186|157:186|229:218,1,233.999989288331,10|8,0:3|0:3,0:0:0:0:
318,328,234803,2,0,L|306:235,1,77.9999964294435,2|0,0:0|0:0,0:0:0:0:
296,161,235075,1,10,0:3:0:0:
424,284,235348,6,0,L|444:143,1,116.999994644165,8|0,0:0|0:0,0:0:0:0:
442,154,235621,2,0,L|453:235,1,77.9999964294435,10|0,0:3|0:0,0:0:0:0:
308,322,235894,1,10,0:0:0:0:
266,233,236030,1,0,0:0:0:0:
338,187,236166,2,2,P|331:143|232:173,1,161.999995056153,2|0,0:0|0:0,0:0:0:0:
225,160,236439,6,0,B|177:172|184:134|128:144,1,96,2|0,0:0|0:0,0:0:0:0:
134,143,237257,2,0,B|101:141|78:119|65:88|84:42|112:30|153:22|186:50|190:80|189:105|189:105|232:78|274:108,1,336,2|0,0:0|0:0,0:0:0:0:
273,107,239712,5,2,0:0:0:0:
287,112,239985,1,2,0:0:0:0:
237,194,240257,1,2,0:0:0:0:
176,164,240530,1,2,0:0:0:0:
126,277,240803,5,2,0:0:0:0:
92,260,241075,1,0,0:0:0:0:
72,268,241348,1,0,0:0:0:0:
62,265,241621,2,0,P|56:241|51:217,1,48,2|0,0:0|0:0,0:0:0:0:
51,218,242166,1,2,0:0:0:0:
63,193,242439,1,0,0:0:0:0:
21,140,242712,2,0,P|12:117|5:90,1,48,2|0,0:0|0:0,0:0:0:0:
5,94,243257,1,2,0:0:0:0:
45,37,243530,1,2,0:0:0:0:
114,40,243803,1,2,0:0:0:0:
112,167,244075,5,2,0:0:0:0:
81,112,244348,1,2,0:0:0:0:
296,223,245098,5,2,0:0:0:0:
296,223,245166,2,0,B|322:157|271:150|298:83,1,144,2|0,0:0|0:0,0:0:0:0:
298,82,246257,5,2,0:0:0:0:
224,64,246530,1,0,0:0:0:0:
224,64,246803,1,2,0:0:0:0:
158,102,247075,1,2,0:0:0:0:
10,66,247348,6,0,P|30:67|51:130,1,96,2|0,0:0|0:0,0:0:0:0:
51,128,248439,1,2,0:0:0:0:
8,191,248712,1,0,0:0:0:0:
33,263,248984,1,2,0:0:0:0:
108,276,249257,1,2,0:0:0:0:
153,195,249530,6,0,L|98:189,2,48,2|2|2,0:0|0:0|0:0,0:0:0:0:
222,254,250348,2,0,L|323:242,1,96,2|2,0:0|0:0,0:0:0:0:
317,243,251166,1,0,0:0:0:0:
356,179,251439,1,2,0:0:0:0:
356,179,251985,1,2,0:0:0:0:
317,115,252258,1,0,0:0:0:0:
356,51,252530,1,2,0:0:0:0:
364,170,252803,5,2,0:0:0:0:
293,206,253075,1,2,0:0:0:0:
280,285,253348,2,0,L|272:337,1,48,0|2,0:0|0:0,0:0:0:0:
203,358,253803,6,0,L|215:354,3,8,0|0|0|2,0:0|0:0|0:0|0:0,0:0:0:0:
256,192,254030,12,0,258257,0:0:0:0:
