osu file format v14

[General]
AudioFilename: audio.mp3
AudioLeadIn: 0
PreviewTime: 82669
Countdown: 0
SampleSet: Soft
StackLeniency: 0.7
Mode: 2
LetterboxInBreaks: 0
WidescreenStoryboard: 0

[Editor]
DistanceSpacing: 0.8
BeatDivisor: 4
GridSize: 8
TimelineZoom: 2.1

[Metadata]
Title:Magatsu Yami ni Utau
TitleUnicode:禍つ闇に詠う
Artist:ELFENSJoN
ArtistUnicode:ELFENSJóN
Creator:-Luminate
Version:Twilight
Source:
Tags:mpg mg mappers' guild fa featured artist rock japanese female vocal yurica hanatan エルフェンシオン 黒瀬圭亮 Keisuke Kurose Kurose.K 花たん ユリカ j-rock jrock kakeyan Shuhei Kamada 鎌田修平 Kishida Yuki 岸田勇気 ケンシロー WHITEFISTS Kenshiro
BeatmapID:4353080
BeatmapSetID:2078875

[Difficulty]
HPDrainRate:6
CircleSize:4.4
OverallDifficulty:9.5
ApproachRate:9.5
SliderMultiplier:1.9
SliderTickRate:2

[Events]
//Background and Video events
0,0,"mhm.jpg",0,0
//Break Periods
2,60811,67144
2,112575,121262
2,131252,134644
//Storyboard Layer 0 (Background)
//Storyboard Layer 1 (Fail)
//Storyboard Layer 2 (Pass)
//Storyboard Layer 3 (Foreground)
//Storyboard Layer 4 (Overlay)
//Storyboard Sound Samples

[TimingPoints]
611,294.117647058824,4,2,1,10,1,0
2963,-100,4,2,1,70,0,0
6493,-100,4,2,1,55,0,0
7522,-100,4,2,1,70,0,0
11052,-100,4,2,1,60,0,0
12375,-100,4,2,1,40,0,0
16493,-100,4,2,1,55,0,0
20611,-100,4,2,1,60,0,0
21640,-100,4,2,1,70,0,0
31199,-100,4,2,1,60,0,0
36199,-100,4,2,1,30,0,0
37963,-100,4,2,1,45,0,0
38258,-100,4,2,1,70,0,0
40463,-100,4,2,1,80,0,1
59434,-100,4,2,1,60,0,0
59581,-100,4,2,1,25,0,0
60611,-100,4,2,1,70,0,0
67669,-100,4,2,1,60,0,0
74728,-100,4,2,1,70,0,0
79434,-100,4,2,1,55,0,0
81787,-100,4,2,1,40,0,0
82669,-100,4,2,1,70,0,0
83993,-100,4,2,1,80,0,1
93405,-100,4,2,1,70,0,0
97816,-100,4,2,1,80,0,0
98111,-100,4,2,1,80,0,1
112375,-100,4,2,1,70,0,0
121787,-100,4,2,1,50,0,0
126493,-100,4,2,1,40,0,0
128919,-100,4,2,1,25,0,0
130758,-100,4,2,1,40,0,0
131052,-100,4,2,1,60,0,0
135316,-100,4,2,1,70,0,0
138111,-100,4,2,1,80,0,1
140463,-100,4,2,1,70,0,0
145905,-100,4,2,1,55,0,0
146493,-100,4,2,1,70,0,0
147522,-100,4,2,1,80,0,0
149875,-100,4,2,1,80,0,1
159287,-100,4,2,1,70,0,0
164140,-100,4,2,1,80,0,1
168699,-100,4,2,1,70,0,0
179434,-100,4,2,1,30,0,0
181787,-100,4,2,1,20,0,0
184140,-100,4,2,1,10,0,0

[Colours]
Combo1 : 191,191,191
Combo2 : 34,102,204
Combo3 : 4,255,255
Combo4 : 128,128,255

[HitObjects]
256,192,611,12,0,2669,0:0:0:0:
384,208,2964,5,14,0:1:0:0:
96,208,3111,2,0,L|208:208,1,95,8|0,0:1|0:0,0:0:0:0:
424,272,3405,2,0,L|304:272,1,95,14|0,0:1|0:0,0:0:0:0:
96,272,3699,1,8,0:0:0:0:
224,272,3846,2,8,L|232:192,1,47.5
40,224,3993,1,14,0:1:0:0:
336,240,5316,5,8,0:1:0:0:
224,216,5464,1,8,0:1:0:0:
112,192,5611,1,0,0:0:0:0:
360,120,5758,2,0,L|480:120,1,95,14|0,0:1|0:0,0:0:0:0:
144,304,6052,1,8,0:0:0:0:
272,304,6199,2,8,L|344:304,1,47.5
104,232,6346,6,0,P|48:184|136:112,1,190,14|0,0:1|0:0,0:1:0:0:
208,104,6787,1,0,0:0:0:0:
208,184,6934,1,2,0:0:0:0:
464,328,7081,2,0,P|432:208|352:176,1,190,2|0,0:0|0:0,0:0:0:0:
240,168,7522,2,8,L|168:168,1,47.5
376,80,7669,6,0,L|472:80,1,95,14|0,0:1|0:0,0:0:0:0:
184,296,7964,2,8,L|112:296,1,47.5
328,248,8111,2,0,P|384:192|304:128,1,190,12|8,0:1|0:0,0:0:0:0:
456,120,8552,1,8,0:1:0:0:
200,64,8699,6,0,L|104:64,1,95,14|0,0:0|0:0,0:0:0:0:
352,336,8993,2,0,L|456:336,1,95,12|0,0:0|0:0,0:0:0:0:
328,256,9287,1,8,0:0:0:0:
64,200,9434,2,8,L|144:200,1,47.5,8|8,0:1|0:1,0:1:0:0:
264,200,9581,2,8,L|328:200,1,47.5,8|8,0:1|0:1,0:1:0:0:
136,72,9728,2,8,L|200:72,1,47.5,8|8,0:1|0:1,0:1:0:0:
328,72,9875,2,8,L|416:72,1,47.5,8|8,0:1|0:1,0:1:0:0:
128,312,10022,6,0,L|240:312,2,95,10|8|8,0:1|0:0|0:0,0:0:0:0:
184,312,10390,1,8,0:0:0:0:
376,320,10464,2,0,L|472:320,1,95,14|0,0:0|0:0,0:0:0:0:
352,208,10758,2,8,L|280:208,1,47.5,8|8,0:1|0:1,0:1:0:0:
456,72,10905,2,8,L|520:72,1,47.5,8|8,0:1|0:1,0:1:0:0:
280,40,11052,6,0,L|152:40,1,95,10|0,0:0|0:0,0:0:0:0:
312,144,11346,2,0,L|192:144,1,95,2|0,0:0|0:0,0:0:0:0:
336,256,11640,2,0,L|224:256,1,95,2|0,0:0|0:0,0:0:0:0:
120,256,11934,1,10,0:0:0:0:
360,328,12081,1,8,0:1:0:0:
104,352,12228,6,0,P|56:320|136:224,1,190,14|0,0:0|0:0,0:0:0:0:
224,216,12669,2,0,L|48:96,2,190,10|10|10,0:0|0:0|0:0,0:0:0:0:
376,296,13552,6,0,L|208:184,2,190,8|10|10,0:0|0:0|0:0,0:0:0:0:
256,336,14287,1,0,0:0:0:0:
376,352,14434,1,8,0:0:0:0:
136,336,14581,6,0,P|104:280|192:208,1,190,10|0,0:0|0:0,0:0:0:0:
304,200,15022,1,10,0:0:0:0:
128,136,15316,1,8,0:0:0:0:
304,104,15611,1,8,0:0:0:0:
480,72,15905,5,8,0:0:0:0:
272,56,16199,1,10,0:0:0:0:
480,176,16493,1,10,0:1:0:0:
368,232,16640,1,10,0:0:0:0:
480,280,16787,1,8,0:1:0:0:
192,344,16934,6,0,L|-8:312,1,190,14|0,0:0|0:0,0:0:0:0:
136,280,17375,2,0,P|192:208|120:160,1,190,8|2,0:1|0:0,0:0:0:0:
16,144,17816,2,0,L|136:136,1,95,10|10,0:0|0:1,0:1:0:0:
360,128,18111,6,0,L|128:112,1,190,10|8,0:0|0:0,0:1:0:0:
296,336,18552,2,0,P|384:280|384:184,1,190,8|2,0:1|0:0,0:0:0:0:
264,200,18993,1,8,0:0:0:0:
392,168,19140,2,0,L|496:168,1,95,10|0,0:1|0:0,0:0:0:0:
216,336,19434,6,0,P|128:304|112:184,1,190,14|0,0:0|0:0,0:0:0:0:
312,336,20022,2,0,P|400:296|400:192,1,190,2|0,0:0|0:0,0:0:0:0:
280,208,20464,1,2,0:0:0:0:
424,128,20611,6,8,L|496:128,1,47.5,8|8,0:1|0:1,0:1:0:0:
320,48,20758,2,8,L|256:48,1,47.5,8|8,0:3|0:3,0:3:0:0:
136,136,20905,2,8,L|128:208,1,47.5
200,176,21052,2,8,L|208:232,1,47.5
56,280,21199,1,8,0:1:0:0:
208,280,21272,2,0,L|272:280,2,47.5,0|8|8,0:0|0:1|0:1,0:0:0:0:
376,208,21493,2,8,L|432:208,1,47.5,8|8,0:1|0:1,0:1:0:0:
208,144,21640,6,0,L|80:144,1,95,14|0,0:0|0:0,0:0:0:0:
206,223,21934,1,8,0:0:0:0:
456,320,22081,2,0,L|464:208,1,95,8|0,0:1|0:0,0:0:0:0:
248,232,22375,2,0,L|240:128,1,95,10|8,0:0|0:0,0:0:0:0:
16,48,22669,2,0,L|112:48,1,95,8|0,0:1|0:0,0:0:0:0:
368,48,22964,5,10,0:0:0:0:
240,96,23111,2,0,L|232:224,1,95,2|8,0:0|0:1,0:0:0:0:
448,320,23405,2,0,L|456:208,1,95,2|8,0:0|0:0,0:0:0:0:
328,200,23699,1,10,0:0:0:0:
456,176,23846,1,8,0:1:0:0:
208,344,23993,6,0,P|104:296|112:200,1,190,14|8,0:0|0:0,0:0:0:0:
352,192,24434,2,0,L|256:192,1,95,10|0,0:1|0:0,0:0:0:0:
384,80,24728,2,0,L|488:80,1,95,10|8,0:0|0:0,0:0:0:0:
208,256,25022,2,0,L|328:256,1,95,8|0,0:1|0:0,0:0:0:0:
64,336,25316,5,10,0:0:0:0:
328,304,25464,2,0,L|336:176,1,95,2|8,0:0|0:1,0:0:0:0:
464,144,25758,2,0,L|368:144,1,95,2|8,0:0|0:0,0:0:0:0:
40,232,26052,2,0,L|160:232,1,95,10|8,0:0|0:1,0:0:0:0:
360,336,26346,6,0,L|368:216,1,95,14|0,0:0|0:0,0:0:0:0:
488,240,26640,1,2,0:0:0:0:
240,176,26787,2,0,L|136:176,1,95,10|0,0:1|0:0,0:0:0:0:
264,336,27081,1,8,0:1:0:0:
304,312,27154,1,8,0:0:0:0:
304,264,27228,1,8,0:0:0:0:
264,240,27301,1,8,0:0:0:0:
304,216,27375,1,8,0:1:0:0:
184,216,27522,1,8,0:0:0:0:
432,152,27669,5,14,0:0:0:0:
184,136,27816,1,10,0:0:0:0:
296,96,27964,1,8,0:1:0:0:
56,56,28111,1,8,0:0:0:0:
296,40,28258,2,8,L|344:40,1,47.5,8|8,0:1|0:1,0:1:0:0:
296,96,28405,2,8,L|232:96,2,47.5,8|8|8,0:0|0:0|0:1,0:0:0:0:
432,120,28699,1,8,0:0:0:0:
176,288,28846,5,14,0:0:0:0:
304,256,28993,1,10,0:0:0:0:
40,208,29140,1,8,0:1:0:0:
256,192,29287,1,14,0:0:0:0:
264,96,29434,1,10,0:0:0:0:
480,88,29581,1,8,0:1:0:0:
208,64,29728,1,14,0:0:0:0:
320,80,29875,1,8,0:0:0:0:
48,288,30022,1,8,0:1:0:0:
360,320,30169,6,0,L|264:320,1,95,14|2,0:0|0:0,0:0:0:0:
48,320,30464,1,8,0:0:0:0:
312,280,30611,1,8,0:1:0:0:
216,248,30758,1,8,0:3:0:0:
360,184,30905,1,8,0:0:0:0:
256,136,31052,1,4,0:3:0:0:
48,72,31199,5,8,0:0:0:0:
88,176,31346,1,8,0:0:0:0:
136,280,31493,1,8,0:0:0:0:
400,304,31640,1,14,0:0:0:0:
296,272,31787,1,8,0:0:0:0:
280,176,31934,1,8,0:0:0:0:
488,320,32081,5,12,0:1:0:0:
448,200,32228,1,8,0:0:0:0:
408,88,32375,1,8,0:0:0:0:
184,320,32522,1,14,0:1:0:0:
232,200,32669,1,8,0:0:0:0:
280,88,32816,1,8,0:0:0:0:
48,280,32964,2,8,L|112:280,1,47.5,8|8,0:1|0:1,0:1:0:0:
296,248,33111,2,8,L|216:248,1,47.5,8|8,0:1|0:1,0:1:0:0:
96,184,33258,2,4,L|32:184,1,47.5,4|4,0:3|0:3,0:3:0:0:
48,120,33405,2,4,L|96:120,1,47.5,4|4,0:3|0:3,0:3:0:0:
304,248,33552,5,8,0:1:0:0:
392,240,33699,1,8,0:0:0:0:
472,200,33846,2,0,L|360:184,1,95,8|0,0:0|0:0,0:0:0:0:
152,216,34140,2,0,L|264:208,1,95,8|8,0:0|0:0,0:0:0:0:
456,312,34434,5,8,0:1:0:0:
352,280,34581,1,8,0:0:0:0:
344,160,34728,1,8,0:0:0:0:
72,304,34875,1,8,0:1:0:0:
176,256,35022,1,8,0:0:0:0:
192,152,35169,1,8,0:0:0:0:
424,112,35316,1,8,0:1:0:0:
304,88,35464,1,8,0:3:0:0:
184,64,35611,1,8,0:0:0:0:
64,40,35758,1,4,0:3:0:0:
304,32,35905,5,4,0:3:0:0:
96,168,36199,1,2,0:0:0:0:
264,208,36493,1,2,0:0:0:0:
448,256,36787,1,2,0:0:0:0:
288,338,37081,6,0,P|219:267|283:203,1,190,2|0,0:0|0:0,0:0:0:0:
400,240,37522,2,0,P|472:184|456:72,1,190,2|0,0:0|0:0,0:0:0:0:
352,64,37964,1,2,0:0:0:0:
472,32,38111,1,2,0:0:0:0:
208,40,38258,6,0,B|128:72|120:144|208:200|264:184|336:184|336:184|272:224|152:256,1,475,14|0,0:0|0:0,0:0:0:0:
64,256,39140,2,0,L|80:368,1,95,10|0,0:1|0:0,0:0:0:0:
352,336,39434,6,8,L|408:336,1,47.5,8|8,0:1|0:1,0:1:0:0:
264,280,39581,1,8,0:1:0:0:
208,264,39654,1,8,0:1:0:0:
264,248,39728,1,8,0:1:0:0:
400,192,39801,1,8,0:1:0:0:
264,160,39875,2,8,L|200:160,1,47.5,8|8,0:1|0:1,0:1:0:0:
352,96,40022,1,4,0:3:0:0:
40,96,40169,1,4,0:3:0:0:
432,288,40464,6,0,P|400:144|312:128,1,237.5,14|0,0:0|0:0,0:0:0:0:
272,120,40905,2,0,L|408:120,1,95,8|0,0:1|0:0,0:0:0:0:
104,248,41199,1,10,0:0:0:0:
232,248,41346,2,0,L|240:120,1,95,2|8,0:0|0:1,0:0:0:0:
480,112,41640,6,0,L|320:112,1,142.5,10|0,0:0|0:0,0:0:0:0:
168,192,41934,2,0,L|160:312,1,95,2|8,0:0|0:1,0:0:0:0:
416,336,42228,1,2,0:0:0:0:
168,312,42375,1,8,0:0:0:0:
264,248,42522,1,8,0:0:0:0:
152,208,42669,1,8,0:1:0:0:
440,288,42816,6,0,P|488:224|408:168,1,190,14|0,0:0|0:0,0:0:0:0:
208,264,43258,2,0,L|312:264,1,95,8|0,0:1|0:0,0:0:0:0:
56,160,43552,1,10,0:0:0:0:
192,160,43699,2,8,L|200:40,1,95,10|8,0:0|0:1,0:1:0:0:
448,176,43993,6,0,P|472:120|400:88,1,142.5,10|0,0:0|0:0,0:0:0:0:
200,328,44287,2,0,L|72:328,1,95,2|8,0:0|0:1,0:0:0:0:
424,264,44581,1,10,0:0:0:0:
296,248,44728,2,8,L|240:248,1,47.5,8|8,0:1|0:1,0:1:0:0:
384,104,44875,2,8,L|320:104,1,47.5
160,128,45022,1,8,0:1:0:0:
424,336,45169,6,0,P|480:280|400:200,1,190,14|0,0:0|0:0,0:0:0:0:
368,200,45537,1,8,0:0:0:0:
184,208,45611,2,0,L|64:208,1,95,8|8,0:1|0:0,0:0:0:0:
344,72,45905,1,8,0:1:0:0:
224,112,46052,1,8,0:0:0:0:
472,272,46199,1,8,0:1:0:0:
224,328,46346,1,8,0:0:0:0:
464,336,46493,5,8,0:1:0:0:
352,336,46640,2,8,L|296:336,1,47.5
104,336,46787,1,8,0:1:0:0:
216,272,46934,1,8,0:0:0:0:
96,240,47081,1,8,0:1:0:0:
328,112,47228,1,8,0:0:0:0:
216,88,47375,1,8,0:1:0:0:
448,200,47522,1,8,0:0:0:0:
168,320,47669,6,0,L|160:192,1,95,14|10,0:0|0:0,0:0:0:0:
224,224,47890,1,8,0:0:0:0:
368,184,47963,1,8,0:1:0:0:
224,160,48037,1,8,0:1:0:0:
72,136,48111,1,8,0:1:0:0:
224,96,48184,1,8,0:1:0:0:
368,64,48258,1,8,0:1:0:0:
312,56,48331,1,8,0:3:0:0:
144,80,48405,1,4,0:3:0:0:
200,88,48478,1,4,0:3:0:0:
360,144,48552,1,8,0:0:0:0:
400,168,48625,1,8,0:0:0:0:
360,224,48699,2,4,L|408:256,1,47.5,4|4,0:3|0:3,0:3:0:0:
240,296,48846,5,8,0:1:0:0:
80,256,48919,1,8,0:1:0:0:
136,232,48993,2,8,L|144:176,1,47.5,8|8,0:3|0:3,0:3:0:0:
88,160,49140,2,8,L|168:160,1,47.5
296,160,49287,2,8,L|360:160,1,47.5
208,72,49434,1,12,0:1:0:0:
496,80,49581,1,12,0:1:0:0:
40,328,49875,6,0,P|54:237|132:188,1,190,14|0,0:0|0:0,0:0:0:0:
464,192,50316,2,0,L|456:80,1,95,10|0,0:1|0:0,0:0:0:0:
128,88,50611,1,10,0:0:0:0:
240,96,50758,2,8,L|248:224,1,95,2|8,0:0|0:1,0:1:0:0:
448,312,51052,6,0,L|264:312,1,142.5,10|0,0:0|0:0,0:0:0:0:
128,248,51346,2,0,L|248:248,1,95,2|8,0:0|0:1,0:0:0:0:
464,248,51640,1,2,0:0:0:0:
168,176,51787,1,8,0:1:0:0:
296,120,51934,1,8,0:1:0:0:
168,96,52008,1,8,0:1:0:0:
40,72,52081,1,8,0:1:0:0:
360,48,52228,6,0,P|416:104|336:184,1,190,14|8,0:0|0:0,0:0:0:0:
56,200,52669,2,0,L|176:200,1,95,8|0,0:1|0:0,0:0:0:0:
360,336,52964,1,10,0:0:0:0:
232,280,53111,1,8,0:1:0:0:
360,256,53185,1,8,0:1:0:0:
488,232,53258,1,8,0:1:0:0:
232,280,53405,6,0,P|184:208|264:160,1,190,14|2,0:0|0:0,0:0:0:0:
144,120,53846,2,0,L|264:120,1,95,8|0,0:1|0:0,0:0:0:0:
456,344,54140,1,10,0:1:0:0:
320,304,54287,1,8,0:0:0:0:
424,216,54434,1,8,0:1:0:0:
288,176,54581,1,8,0:0:0:0:
32,240,54728,6,0,L|48:128,1,95,14|0,0:0|0:0,0:0:0:0:
288,176,55022,2,0,L|304:64,1,95,8|0,0:1|0:0,0:0:0:0:
432,80,55316,1,10,0:0:0:0:
192,312,55464,2,0,L|304:312,1,95,10|0,0:1|0:0,0:0:0:0:
408,312,55758,1,8,0:0:0:0:
176,144,55905,6,0,L|48:144,1,95,14|0,0:1|0:0,0:0:0:0:
312,224,56199,2,0,L|448:224,1,95,14|0,0:0|0:0,0:0:0:0:
96,224,56493,1,8,0:1:0:0:
360,240,56640,2,8,L|416:240,1,47.5,8|8,0:1|0:1,0:1:0:0:
144,72,56787,2,8,L|96:72,1,47.5,8|8,0:1|0:1,0:1:0:0:
297,98,56934,6,0,L|313:274,1,142.5,4|0,0:3|0:0,0:0:0:0:
448,336,57228,2,8,L|504:336,1,47.5
312,240,57375,2,0,L|296:80,1,142.5,12|0,0:1|0:0,0:0:0:0:
96,96,57669,2,8,L|160:96,1,47.5
290,240,57816,2,0,L|298:80,1,142.5,12|0,0:1|0:0,0:0:0:0:
456,80,58111,2,8,L|408:80,1,47.5
200,80,58258,6,0,L|312:80,1,95,12|0,0:1|0:0,0:0:0:0:
80,328,58552,1,12,0:1:0:0:
432,288,58699,1,8,0:0:0:0:
304,240,58846,1,8,0:1:0:0:
168,232,58919,1,8,0:1:0:0:
32,224,58993,1,8,0:1:0:0:
168,192,59066,1,8,0:1:0:0:
304,160,59140,1,8,0:1:0:0:
456,128,59214,1,8,0:1:0:0:
304,112,59287,1,8,0:1:0:0:
160,80,59361,1,8,0:1:0:0:
304,40,59434,5,10,0:0:0:0:
256,192,59581,12,4,60611,0:0:0:0:
304,320,67669,6,0,B|400:272|208:232|168:192|176:40|384:72|384:72|488:184|344:264,1,665,10|0,0:0|0:0,0:0:0:0:
216,272,68846,5,2,0:0:0:0:
216,272,69140,1,2,0:0:0:0:
480,280,69434,2,8,L|488:200,1,47.5,8|8,0:1|0:1,0:1:0:0:
336,192,69581,2,8,L|264:192,1,47.5,8|8,0:1|0:1,0:1:0:0:
432,88,69728,2,8,L|488:88,1,47.5,8|8,0:1|0:1,0:1:0:0:
320,24,69875,2,8,L|256:24,1,47.5,8|8,0:1|0:1,0:1:0:0:
472,280,70022,6,0,L|480:168,1,95,14|0,0:0|0:0,0:0:0:0:
360,208,70316,2,0,L|360:96,1,95,8|0,0:0|0:0,0:0:0:0:
240,176,70611,2,0,L|224:64,1,95,10|0,0:0|0:0,0:0:0:0:
104,144,70905,2,0,L|120:32,1,95,8|0,0:0|0:0,0:0:0:0:
248,320,71199,6,0,L|368:320,1,95,10|0,0:0|0:0,0:0:0:0:
240,240,71493,2,0,L|104:224,1,95,8|0,0:0|0:0,0:0:0:0:
288,168,71787,1,10,0:0:0:0:
312,112,71885,1,2,0:0:0:0:
276,64,71983,1,2,0:0:0:0:
216,73,72081,1,10,0:0:0:0:
195,129,72179,1,2,0:0:0:0:
234,175,72277,1,2,0:0:0:0:
352,208,72375,6,0,L|176:304,1,190,10|8,0:0|0:0,0:0:0:0:
288,320,72816,1,2,0:0:0:0:
187,271,72964,2,0,L|179:151,1,95,8|0,0:0|0:0,0:0:0:0:
320,216,73258,2,0,L|328:104,1,95,10|0,0:0|0:0,0:0:0:0:
176,96,73552,6,0,L|280:88,1,95,8|0,0:0|0:0,0:0:0:0:
160,192,73846,2,0,L|272:184,1,95,8|0,0:0|0:0,0:0:0:0:
384,176,74140,2,0,L|496:168,1,95,10|0,0:0|0:0,0:0:0:0:
344,320,74434,2,0,L|232:296,1,95,10|0,0:0|0:0,0:0:0:0:
480,240,74728,6,0,L|488:120,1,95,10|0,0:0|0:0,0:0:0:0:
352,144,75022,1,8,0:1:0:0:
240,192,75169,2,0,L|232:64,1,95,2|8,0:0|0:0,0:0:0:0:
352,104,75464,1,2,0:0:0:0:
216,96,75611,2,0,L|104:96,1,95,8|8,0:1|0:1,0:0:0:0:
360,304,75905,5,10,0:0:0:0:
112,288,76052,2,0,L|104:160,1,95,2|8,0:0|0:1,0:0:0:0:
248,192,76346,1,2,0:0:0:0:
384,192,76493,1,8,0:0:0:0:
407,151,76566,1,8,0:0:0:0:
397,106,76640,1,8,0:0:0:0:
358,80,76713,1,8,0:0:0:0:
272,80,76787,2,0,L|160:80,1,95,8|0,0:1|0:0,0:0:0:0:
400,240,77081,5,14,0:0:0:0:
192,288,77228,1,8,0:0:0:0:
312,312,77375,1,8,0:1:0:0:
72,336,77522,2,0,P|80:248|152:224,1,142.5,14|0,0:0|0:0,0:0:0:0:
272,216,77816,1,8,0:1:0:0:
40,128,77964,2,0,L|216:128,1,142.5,14|0,0:0|0:0,0:0:0:0:
432,144,78258,5,8,0:1:0:0:
320,200,78405,2,0,L|160:200,1,142.5,14|0,0:0|0:0,0:0:0:0:
32,232,78699,1,8,0:1:0:0:
136,320,78846,1,8,0:1:0:0:
192,272,78944,1,8,0:1:0:0:
184,200,79042,1,8,0:1:0:0:
104,184,79140,1,8,0:3:0:0:
72,112,79238,1,8,0:3:0:0:
112,48,79336,1,8,0:3:0:0:
264,48,79434,5,8,0:0:0:0:
280,152,79581,1,8,0:0:0:0:
296,256,79728,1,8,0:0:0:0:
160,320,79875,1,8,0:0:0:0:
296,336,80022,1,8,0:0:0:0:
312,208,80169,1,8,0:0:0:0:
40,240,80316,5,14,0:1:0:0:
56,144,80464,1,0,0:0:0:0:
72,56,80611,1,0,0:0:0:0:
280,280,80758,1,14,0:1:0:0:
176,224,80905,1,8,0:0:0:0:
192,128,81052,1,8,0:0:0:0:
416,88,81199,2,8,L|360:88,1,47.5,8|8,0:1|0:1,0:1:0:0:
200,80,81346,2,8,L|128:80,1,47.5,8|8,0:1|0:1,0:1:0:0:
312,176,81493,2,8,L|320:256,1,47.5,8|8,0:0|0:0,0:0:0:0:
256,224,81640,2,8,L|248:288,1,47.5,8|8,0:0|0:0,0:0:0:0:
440,344,81787,6,0,B|504:288|480:128|320:120|320:120|480:80,1,475,12|0,0:0|0:0,0:0:0:0:
376,144,82669,2,0,L|488:176,1,95,2|0,0:0|0:0,0:0:0:0:
160,336,82964,6,8,L|104:336,1,47.5,8|8,0:1|0:1,0:1:0:0:
248,280,83111,1,8,0:1:0:0:
296,240,83184,1,8,0:1:0:0:
248,208,83258,1,8,0:1:0:0:
112,192,83331,1,8,0:1:0:0:
248,160,83405,2,8,L|312:160,1,47.5,8|8,0:1|0:1,0:1:0:0:
160,96,83552,1,4,0:3:0:0:
472,96,83699,1,4,0:3:0:0:
80,336,83993,6,0,P|88:216|224:176,1,237.5,14|0,0:0|0:0,0:0:0:0:
248,112,84434,2,0,L|112:112,1,95,10|0,0:1|0:0,0:0:0:0:
408,248,84728,1,10,0:0:0:0:
280,248,84875,2,0,L|272:120,1,95,2|8,0:0|0:1,0:0:0:0:
32,112,85169,6,0,L|192:112,1,142.5,10|0,0:0|0:0,0:0:0:0:
344,192,85464,2,8,L|464:192,1,95,2|8,0:0|0:1,0:1:0:0:
208,336,85758,2,0,L|80:336,1,95,2|8,0:0|0:0,0:0:0:0:
224,288,86051,1,8,0:0:0:0:
344,272,86199,1,8,0:1:0:0:
72,288,86345,6,0,P|24:224|104:168,1,190,14|8,0:0|0:0,0:0:0:0:
304,264,86787,2,0,L|200:264,1,95,8|0,0:1|0:0,0:0:0:0:
456,160,87081,1,10,0:0:0:0:
320,160,87228,2,0,L|448:160,1,95,10|8,0:0|0:1,0:0:0:0:
208,272,87522,6,0,P|184:216|256:184,1,142.5,10|0,0:0|0:0,0:0:0:0:
384,176,87816,1,10,0:1:0:0:
128,120,87964,1,8,0:1:0:0:
384,56,88111,2,0,L|488:56,1,95,2|8,0:0|0:0,0:0:0:0:
216,48,88404,2,8,L|168:48,1,47.5,8|8,0:1|0:1,0:1:0:0:
384,328,88552,2,8,L|440:328,1,47.5,8|8,0:1|0:1,0:1:0:0:
160,344,88698,6,0,P|104:288|184:208,1,190,14|8,0:0|0:0,0:0:0:0:
440,216,89140,2,0,L|448:88,1,95,8|8,0:1|0:0,0:0:0:0:
384,120,89361,1,8,0:0:0:0:
176,112,89434,1,8,0:1:0:0:
416,280,89581,2,8,L|352:280,1,47.5
176,280,89728,2,0,L|120:280,2,47.5,8|8|8,0:1|0:0|0:0,0:0:0:0:
496,184,90022,5,8,0:1:0:0:
376,184,90169,2,8,L|360:104,1,47.5
176,136,90316,1,8,0:1:0:0:
296,128,90464,2,8,L|304:56,1,47.5
104,72,90611,2,8,L|32:72,1,47.5,8|8,0:1|0:1,0:1:0:0:
248,232,90758,2,4,L|312:232,1,47.5,4|4,0:3|0:3,0:3:0:0:
248,288,90905,2,8,L|168:288,1,47.5
400,344,91052,6,0,L|512:344,1,95,14|0,0:0|0:0,0:0:0:0:
384,272,91346,1,8,0:0:0:0:
160,152,91493,1,8,0:1:0:0:
280,128,91640,1,8,0:0:0:0:
40,56,91787,1,8,0:1:0:0:
192,56,91934,2,8,L|272:56,1,47.5
384,56,92081,2,8,L|456:56,1,47.5,8|8,0:1|0:1,0:1:0:0:
192,120,92228,1,8,0:0:0:0:
288,304,92375,6,8,L|224:304,1,47.5,10|8,0:0|0:0,0:0:0:0:
64,304,92522,1,8,0:0:0:0:
360,176,92669,1,8,0:1:0:0:
224,104,92816,1,8,0:3:0:0:
360,104,92890,1,8,0:3:0:0:
416,104,92964,1,4,0:3:0:0:
144,32,93111,2,0,P|104:64|160:128,1,142.5,14|0,0:1|0:0,0:0:0:0:
384,304,93404,6,0,P|328:176|248:168,1,190,14|0,0:0|0:0,0:0:0:0:
408,184,93845,2,0,L|416:72,1,95,10|0,0:0|0:0,0:0:0:0:
272,96,94140,1,10,0:0:0:0:
128,96,94287,2,0,L|256:96,1,95,2|8,0:0|0:0,0:0:0:0:
360,168,94581,6,0,L|240:168,1,95,2|8,0:0|0:0,0:0:0:0:
400,248,94875,1,2,0:0:0:0:
248,248,95022,1,8,0:1:0:0:
368,232,95169,1,8,0:0:0:0:
152,216,95316,1,8,0:1:0:0:
264,168,95463,1,8,0:0:0:0:
208,168,95537,1,8,0:0:0:0:
16,160,95610,1,8,0:1:0:0:
301,24,95757,6,0,P|357:80|277:160,1,190,14|0,0:0|0:0,0:0:0:0:
176,160,96199,2,0,L|56:160,1,95,10|0,0:0|0:0,0:0:0:0:
336,336,96493,1,10,0:0:0:0:
184,328,96640,2,8,L|176:200,1,95,2|8,0:0|0:0,0:0:0:0:
440,232,96934,6,0,P|472:176|400:128,1,142.5,6|0,0:0|0:0,0:0:0:0:
208,128,97228,2,0,L|320:128,1,95,10|8,0:0|0:1,0:0:0:0:
56,56,97522,1,8,0:0:0:0:
312,312,97669,1,8,0:1:0:0:
192,320,97816,2,8,L|136:320,1,47.5,8|8,0:1|0:1,0:1:0:0:
376,184,97964,2,8,L|448:184,1,47.5,8|8,0:1|0:1,0:1:0:0:
144,184,98111,6,0,P|96:128|176:56,1,190,14|8,0:0|0:0,0:0:0:0:
432,56,98552,2,0,L|312:56,1,95,8|8,0:1|0:0,0:0:0:0:
162,54,98772,2,0,L|82:54,1,47.5,8|8,0:0|0:1,0:0:0:0:
248,120,98993,1,8,0:0:0:0:
32,120,99140,1,8,0:1:0:0:
160,120,99287,2,8,L|232:120,1,47.5
384,120,99434,6,0,L|512:120,1,95,10|8,0:1|0:0,0:0:0:0:
200,224,99728,2,8,L|64:224,1,95,8|0,0:1|0:0,0:0:0:0:
416,224,100022,1,8,0:1:0:0:
272,184,100096,1,8,0:1:0:0:
224,152,100169,1,8,0:0:0:0:
272,128,100243,1,8,0:0:0:0:
416,96,100316,1,8,0:1:0:0:
200,48,100463,6,0,L|376:48,1,142.5,14|0,0:0|0:0,0:0:0:0:
160,168,100757,2,8,L|104:168,1,47.5
296,344,100904,2,0,L|464:344,1,142.5,8|0,0:1|0:0,0:0:0:0:
288,272,101198,2,8,L|224:272,1,47.5
80,208,101346,2,0,L|264:208,1,142.5,8|0,0:1|0:0,0:0:0:0:
176,48,101640,2,8,L|248:48,1,47.5
424,80,101787,5,8,0:1:0:0:
272,88,101861,1,8,0:1:0:0:
128,112,101934,1,8,0:1:0:0:
272,152,102008,1,8,0:1:0:0:
424,184,102081,2,8,L|480:184,1,47.5,8|8,0:3|0:3,0:3:0:0:
320,288,102228,2,4,L|264:288,1,47.5,4|4,0:3|0:3,0:3:0:0:
432,328,102375,1,8,0:1:0:0:
136,344,102522,2,0,P|104:296|160:240,1,142.5,8|0,0:1|0:0,0:0:0:0:
320,208,102816,6,0,L|144:96,1,190,4|0,0:3|0:0,0:0:0:0:
432,304,103258,2,0,L|440:176,1,95,14|0,0:0|0:0,0:0:0:0:
320,200,103552,2,8,L|328:128,1,47.5
472,96,103699,2,0,L|360:96,1,95,12|0,0:1|0:0,0:0:0:0:
168,152,103993,6,0,L|280:152,1,95,8|8,0:1|0:0,0:0:0:0:
40,296,104287,2,8,L|32:224,1,47.5
288,296,104434,1,8,0:1:0:0:
160,296,104581,1,8,0:0:0:0:
408,240,104728,1,8,0:1:0:0:
160,176,104875,1,8,0:0:0:0:
408,104,105022,1,8,0:1:0:0:
160,120,105169,6,0,P|128:72|232:24,1,190,14|8,0:0|0:0,0:0:0:0:
440,328,105611,2,0,L|448:200,1,95,14|0,0:1|0:0,0:0:0:0:
312,240,105905,1,8,0:0:0:0:
64,208,106052,2,0,L|184:208,1,95,14|0,0:1|0:0,0:0:0:0:
280,120,106346,2,8,L|208:120,1,47.5
64,304,106493,5,12,0:1:0:0:
376,264,106640,1,8,0:0:0:0:
136,176,106787,2,0,L|192:176,1,47.5,12|8,0:1|0:0,0:0:0:0:
336,144,106934,2,8,L|256:144,1,47.5
56,232,107081,2,8,L|48:160,1,47.5,8|8,0:3|0:3,0:3:0:0:
184,168,107228,1,8,0:3:0:0:
312,160,107302,1,8,0:3:0:0:
448,144,107375,2,4,L|456:80,1,47.5,4|4,0:3|0:3,0:3:0:0:
280,48,107522,6,0,L|152:48,1,95,14|0,0:0|0:0,0:0:0:0:
72,64,107816,2,8,L|64:144,1,47.5
216,192,107964,2,0,L|336:192,1,95,14|0,0:1|0:0,0:0:0:0:
200,272,108258,1,8,0:0:0:0:
440,320,108405,2,0,L|328:320,1,95,14|0,0:1|0:0,0:0:0:0:
112,320,108699,2,8,L|48:320,1,47.5
312,224,108846,5,12,0:1:0:0:
192,224,108993,1,8,0:0:0:0:
400,128,109140,1,12,0:1:0:0:
112,128,109287,1,8,0:0:0:0:
320,64,109434,2,8,L|384:64,1,47.5,8|8,0:1|0:1,0:1:0:0:
200,64,109581,2,8,L|144:64,1,47.5,8|8,0:1|0:1,0:1:0:0:
328,184,109728,2,8,L|384:184,1,47.5,8|8,0:3|0:3,0:3:0:0:
152,176,109875,2,0,P|72:240|168:320,1,237.5,4|0,0:3|0:0,0:0:0:0:
344,320,110316,6,0,L|488:320,1,142.5,12|0,0:1|0:0,0:0:0:0:
336,192,110611,2,8,L|280:192,1,47.5
144,48,110758,2,0,L|320:48,1,142.5,8|0,0:1|0:0,0:0:0:0:
128,184,111052,2,0,L|184:184,1,47.5,0|8,0:0|0:0,0:0:0:0:
376,296,111199,6,0,L|216:296,1,142.5,14|0,0:1|0:0,0:0:0:0:
400,184,111493,1,8,0:1:0:0:
288,184,111640,1,10,0:0:0:0:
64,176,111787,1,10,0:1:0:0:
256,144,111885,1,8,0:3:0:0:
456,112,111983,1,8,0:3:0:0:
256,64,112081,1,4,0:3:0:0:
328,96,112179,1,4,0:3:0:0:
256,128,112277,1,4,0:3:0:0:
456,256,112375,5,12,0:0:0:0:
80,296,121787,6,0,L|72:192,1,95,8|0,0:0|0:0,0:0:0:0:
184,216,122081,2,0,L|192:112,1,95,8|0,0:0|0:0,0:0:0:0:
312,176,122375,2,0,L|304:80,1,95,10|0,0:0|0:0,0:0:0:0:
432,152,122669,2,0,L|440:48,1,95,8|0,0:0|0:0,0:0:0:0:
288,32,122964,6,0,L|384:80,1,95,10|0,0:0|0:0,0:0:0:0:
240,96,123258,2,0,L|232:216,1,95,8|0,0:0|0:0,0:0:0:0:
360,248,123552,2,0,L|256:312,1,95,10|0,0:0|0:0,0:0:0:0:
400,192,123846,2,0,L|408:72,1,95,8|0,0:0|0:0,0:0:0:0:
128,80,124140,6,0,L|136:200,1,95,10|0,0:0|0:0,0:0:0:0:
248,176,124434,1,8,0:0:0:0:
120,232,124581,2,0,L|208:288,2,95,2|8|0,0:0|0:0|0:0,0:0:0:0:
256,312,125022,2,0,L|136:344,1,95,10|0,0:0|0:0,0:0:0:0:
408,344,125316,6,0,B|528:264|392:184|392:184|472:168,1,285,14|8,0:0|0:0,0:0:0:0:
344,168,125905,1,8,0:0:0:0:
480,256,126052,1,8,0:0:0:0:
216,272,126199,1,8,0:0:0:0:
480,336,126346,1,8,0:0:0:0:
184,336,126493,5,2,0:0:0:0:
184,336,126787,1,0,0:0:0:0:
184,336,127081,1,0,0:0:0:0:
184,336,127375,1,0,0:0:0:0:
328,336,127669,5,2,0:0:0:0:
216,272,127816,2,0,L|392:168,1,190,0|2,0:0|0:0,0:0:0:0:
216,160,128405,1,2,0:0:0:0:
376,32,128699,1,2,0:0:0:0:
224,32,128846,6,0,B|112:64|136:296|304:304|304:304|400:176|288:112|288:112|216:208|288:296|352:288|472:408|512:304|520:104|488:48|400:8,1,1235
160,328,131052,1,14,0:0:0:0:
144,248,135169,5,2,0:0:0:0:
392,248,135316,2,8,L|400:168,1,47.5,8|8,0:1|0:1,0:1:0:0:
240,152,135464,2,8,L|312:152,1,47.5,8|8,0:1|0:1,0:1:0:0:
144,56,135611,2,8,L|56:56,1,47.5,8|8,0:1|0:1,0:1:0:0:
288,56,135758,1,10,0:0:0:0:
72,328,138111,6,0,P|24:248|128:208,1,190,14|8,0:0|0:0,0:0:0:0:
328,152,138552,2,0,L|144:152,1,142.5,14|0,0:1|0:0,0:0:0:0:
360,248,138846,1,8,0:0:0:0:
472,248,138993,1,8,0:0:0:0:
320,304,139140,1,10,0:0:0:0:
432,304,139287,1,8,0:0:0:0:
152,224,139434,6,8,L|80:224,1,47.5,10|8,0:1|0:1,0:1:0:0:
240,168,139581,1,10,0:1:0:0:
384,120,139655,1,8,0:1:0:0:
240,96,139728,1,8,0:1:0:0:
96,72,139802,1,8,0:1:0:0:
240,32,139875,2,8,L|296:32,1,47.5,8|8,0:1|0:1,0:1:0:0:
464,32,140022,1,4,0:3:0:0:
464,32,140169,1,4,0:3:0:0:
56,160,140464,6,0,P|48:240|160:296,1,190,14|0,0:0|0:0,0:0:0:0:
248,296,140905,2,0,L|232:176,1,95,10|0,0:0|0:0,0:0:0:0:
372,209,141199,1,10,0:0:0:0:
232,136,141346,2,0,L|328:136,1,95,2|8,0:0|0:0,0:0:0:0:
216,64,141640,1,2,0:0:0:0:
352,120,141787,6,0,L|368:248,1,95,8|0,0:0|0:0,0:0:0:0:
224,208,142081,2,0,L|216:344,1,95,8|0,0:0|0:0,0:0:0:0:
96,288,142375,1,10,0:0:0:0:
216,320,142522,1,2,0:0:0:0:
80,352,142669,1,8,0:1:0:0:
336,344,142816,6,0,P|376:280|288:208,1,190,14|8,0:0|0:0,0:0:0:0:
80,192,143258,2,0,L|88:64,1,95,8|0,0:1|0:0,0:0:0:0:
216,96,143552,1,10,0:0:0:0:
104,104,143699,2,0,L|96:208,1,95,2|8,0:0|0:1,0:0:0:0:
360,336,143993,6,0,L|128:312,1,190,10|8,0:0|0:0,0:0:0:0:
328,224,144434,1,8,0:1:0:0:
184,192,144581,1,2,0:0:0:0:
312,104,144728,1,10,0:0:0:0:
208,96,144875,1,2,0:0:0:0:
344,40,145022,2,0,L|160:24,1,142.5,8|0,0:1|0:0,0:0:0:0:
152,32,145316,5,2,0:0:0:0:
432,32,145905,2,0,P|352:96|456:216,1,285,2|2,0:0|0:0,0:0:0:0:
120,344,146493,5,14,0:1:0:0:
24,288,146640,1,8,0:0:0:0:
120,224,146787,1,8,0:0:0:0:
392,216,146934,1,14,0:1:0:0:
272,176,147081,1,8,0:0:0:0:
160,144,147228,1,8,0:0:0:0:
432,88,147375,1,8,0:1:0:0:
152,48,147522,6,0,P|96:104|160:184,1,190,14|8,0:0|0:1,0:0:0:0:
224,200,147890,1,8,0:1:0:0:
152,240,147964,2,0,L|272:240,1,95,8|8,0:0|0:1,0:0:0:0:
320,240,148184,1,8,0:1:0:0:
120,320,148258,2,0,L|8:320,1,95,8|8,0:0|0:1,0:0:0:0:
152,272,148478,1,8,0:1:0:0:
280,208,148552,2,0,L|208:112,1,95,8|8,0:0|0:1,0:0:0:0:
368,128,148772,1,8,0:1:0:0:
496,72,148846,6,0,L|368:72,1,95,8|8,0:0|0:3,0:0:0:0:
48,72,149140,2,0,L|168:72,1,95,8|8,0:0|0:0,0:0:0:0:
360,216,149434,1,8,0:1:0:0:
136,320,149581,2,0,P|144:232|216:208,1,142.5,8|0,0:1|0:0,0:0:0:0:
384,320,149875,6,8,P|432:264|352:176,1,190,14|0,0:0|0:0,0:0:0:0:
224,176,150243,1,8,0:0:0:0:
64,184,150316,2,0,L|56:64,1,95,14|0,0:1|0:0,0:0:0:0:
352,296,150611,2,0,P|312:208|136:96,1,285,14|8,0:1|0:1,0:0:0:0:
400,48,151199,6,0,L|512:24,2,95,10|2|8,0:0|0:0|0:1,0:0:0:0:
264,88,151640,1,10,0:0:0:0:
488,288,151787,1,8,0:1:0:0:
232,336,151934,1,8,0:1:0:0:
360,296,152008,1,8,0:1:0:0:
496,256,152081,1,8,0:1:0:0:
160,240,152228,6,0,L|32:240,1,95,14|0,0:0|0:0,0:0:0:0:
320,152,152522,1,10,0:0:0:0:
64,88,152669,2,0,L|192:88,1,95,14|8,0:1|0:0,0:0:0:0:
216,88,152890,1,8,0:0:0:0:
159,88,152964,1,8,0:0:0:0:
416,264,153111,2,0,L|256:264,1,142.5,14|8,0:1|0:0,0:0:0:0:
320,216,153405,2,8,L|248:216,1,47.5
48,192,153552,6,0,L|168:192,1,95,14|8,0:1|0:0,0:0:0:0:
288,192,153772,1,8,0:0:0:0:
432,136,153846,2,8,L|376:136,1,47.5,8|8,0:1|0:1,0:1:0:0:
232,136,153993,2,8,L|160:136,1,47.5,8|8,0:1|0:1,0:1:0:0:
328,72,154140,1,4,0:3:0:0:
104,72,154287,1,4,0:3:0:0:
472,336,154581,6,0,P|464:232|360:192,1,190,14|8,0:0|0:0,0:0:0:0:
272,168,155022,1,10,0:0:0:0:
384,128,155169,1,8,0:0:0:0:
240,72,155316,1,10,0:0:0:0:
368,40,155464,1,8,0:0:0:0:
160,176,155611,1,10,0:0:0:0:
288,200,155758,1,8,0:0:0:0:
80,296,155905,5,10,0:0:0:0:
368,232,156052,1,10,0:0:0:0:
32,160,156199,1,8,0:0:0:0:
384,96,156346,2,10,P|432:144|368:168,1,142.5,10|0,0:0|0:0,0:0:0:0:
216,240,156640,1,8,0:1:0:0:
336,240,156787,1,8,0:1:0:0:
56,296,156934,6,0,P|64:192|160:168,1,190,14|8,0:0|0:0,0:0:0:0:
192,160,157302,1,8,0:0:0:0:
48,96,157375,2,0,L|168:96,1,95,14|0,0:0|0:0,0:0:0:0:
392,120,157669,1,8,0:0:0:0:
144,200,157816,2,0,L|32:200,1,95,14|0,0:0|0:0,0:0:0:0:
176,288,158111,2,8,L|248:288,1,47.5
376,184,158258,5,14,0:1:0:0:
224,160,158331,1,8,0:1:0:0:
176,128,158405,1,8,0:1:0:0:
224,96,158478,1,8,0:1:0:0:
376,80,158552,2,0,L|504:80,1,95,8|8,0:3|0:1,0:0:0:0:
288,152,158772,1,8,0:0:0:0:
224,160,158846,1,8,0:1:0:0:
344,208,158993,1,8,0:0:0:0:
72,232,159140,1,8,0:1:0:0:
344,344,159287,6,0,P|448:304|448:216,1,190,14|0,0:0|0:0,0:0:0:0:
320,240,159728,2,0,L|152:208,1,142.5,10|0,0:0|0:0,0:0:0:0:
248,192,160022,1,10,0:0:0:0:
144,168,160169,2,0,L|136:48,1,95,2|8,0:0|0:0,0:0:0:0:
376,88,160464,6,0,L|392:224,1,95,2|8,0:0|0:0,0:0:0:0:
504,208,160758,1,2,0:0:0:0:
352,304,160905,2,0,L|224:288,1,95,8|0,0:0|0:0,0:0:0:0:
120,320,161199,1,10,0:0:0:0:
264,240,161346,2,0,L|328:240,1,47.5,10|8,0:0|0:0,0:0:0:0:
464,240,161493,1,10,0:1:0:0:
120,240,161640,6,0,P|72:200|160:112,1,190,14|8,0:0|0:0,0:0:0:0:
256,112,162081,2,0,L|352:112,1,95,8|0,0:1|0:0,0:0:0:0:
120,192,162375,1,10,0:0:0:0:
344,304,162522,2,0,B|264:304|264:304|344:232,1,142.5,2|0,0:0|0:0,0:0:0:0:
472,72,162816,6,8,L|360:72,1,95,2|0,0:0|0:0,0:0:0:0:
240,80,163111,1,2,0:0:0:0:
384,128,163258,2,0,L|392:256,1,95,10|0,0:1|0:0,0:0:0:0:
232,280,163552,2,8,L|304:280,1,47.5,8|8,0:1|0:1,0:1:0:0:
424,280,163699,1,8,0:0:0:0:
144,336,163846,2,8,L|88:336,1,47.5,8|8,0:1|0:1,0:1:0:0:
272,184,163993,2,8,L|352:184,1,47.5,8|8,0:1|0:1,0:1:0:0:
96,192,164140,5,14,0:0:0:0:
24,128,164287,1,8,0:0:0:0:
96,64,164434,1,8,0:0:0:0:
320,56,164581,1,8,0:1:0:0:
96,312,164728,1,10,0:0:0:0:
224,248,164875,1,8,0:0:0:0:
96,208,165022,1,8,0:1:0:0:
416,176,165169,5,2,0:0:0:0:
296,160,165316,1,8,0:0:0:0:
56,144,165464,1,10,0:1:0:0:
296,128,165611,2,8,L|304:64,1,47.5
240,88,165758,2,8,L|232:16,1,47.5
440,40,165905,1,8,0:1:0:0:
312,248,166052,2,8,L|240:248,1,47.5
96,256,166199,2,8,L|40:256,1,47.5,8|8,0:1|0:1,0:1:0:0:
264,344,166346,6,8,L|328:344,2,47.5,8|8|8,0:3|0:3|0:3,0:3:0:0:
400,288,166640,1,8,0:0:0:0:
152,232,166787,2,0,L|144:112,1,95,10|0,0:1|0:0,0:0:0:0:
16,136,167081,1,8,0:0:0:0:
272,136,167228,2,0,L|376:136,1,95,10|0,0:1|0:0,0:0:0:0:
488,136,167522,1,8,0:0:0:0:
216,296,167669,6,8,L|104:296,1,95,14|0,0:1|0:0,0:1:0:0:
368,192,167964,2,0,L|480:192,1,95,14|0,0:1|0:0,0:0:0:0:
128,128,168258,1,10,0:1:0:0:
424,144,168405,1,8,0:1:0:0:
128,208,168552,1,8,0:1:0:0:
360,320,168699,6,0,B|448:304|456:232|440:200|400:176|320:184|208:232|192:160|240:56|320:104,1,427.5,2|0,0:0|0:0,0:0:0:0:
456,80,169434,1,8,0:1:0:0:
296,64,169508,1,8,0:1:0:0:
144,48,169581,1,8,0:1:0:0:
296,40,169655,1,8,0:1:0:0:
456,32,169728,1,8,0:1:0:0:
296,24,169802,1,8,0:1:0:0:
144,16,169875,1,8,0:1:0:0:
296,16,169949,1,8,0:1:0:0:
456,200,170022,6,0,L|336:200,1,95,14|0,0:0|0:0,0:0:0:0:
136,208,170316,1,8,0:1:0:0:
248,208,170464,2,0,P|240:264|128:288,1,142.5,2|0,0:0|0:0,0:0:0:0:
224,304,170758,2,0,L|344:304,1,95,8|8,0:0|0:1,0:0:0:0:
40,224,171052,6,0,P|48:160|168:120,1,190,10|8,0:0|0:0,0:0:0:0:
368,120,171493,2,0,L|264:120,1,95,8|0,0:1|0:0,0:0:0:0:
392,208,171787,2,0,L|264:208,1,95,10|8,0:0|0:0,0:0:0:0:
72,280,172081,2,0,L|240:280,1,142.5,8|0,0:1|0:0,0:0:0:0:
416,288,172375,6,0,P|456:208|360:144,1,190,14|8,0:0|0:1,0:0:0:0:
256,144,172816,1,8,0:0:0:0:
392,144,172964,2,0,L|400:24,1,95,10|8,0:0|0:0,0:0:0:0:
256,56,173258,1,8,0:1:0:0:
400,56,173405,6,0,L|168:56,1,190,10|0,0:0|0:0,0:0:0:0:
328,144,173846,1,8,0:1:0:0:
208,160,173993,1,8,0:0:0:0:
424,296,174140,2,8,L|352:296,1,47.5,8|8,0:1|0:1,0:1:0:0:
184,288,174287,1,8,0:0:0:0:
312,240,174434,2,8,L|376:240,1,47.5,8|8,0:1|0:1,0:1:0:0:
160,144,174581,2,8,L|96:144,1,47.5,8|8,0:1|0:1,0:1:0:0:
360,152,174728,5,14,0:0:0:0:
472,192,174875,1,8,0:0:0:0:
360,240,175022,1,8,0:1:0:0:
112,320,175169,2,0,P|72:264|136:224,1,142.5,2|0,0:0|0:0,0:0:0:0:
184,192,175464,2,0,L|72:192,1,95,8|8,0:0|0:1,0:0:0:0:
336,328,175758,6,0,P|320:248|216:224,1,190,10|8,0:0|0:0,0:0:0:0:
464,128,176199,2,0,L|472:16,1,95,8|0,0:1|0:0,0:0:0:0:
224,56,176493,2,0,L|336:56,1,95,10|8,0:0|0:0,0:0:0:0:
224,168,176787,2,0,L|384:168,1,142.5,8|0,0:1|0:0,0:0:0:0:
120,344,177081,5,14,0:0:0:0:
32,312,177228,1,8,0:0:0:0:
136,256,177375,1,8,0:1:0:0:
48,224,177522,1,8,0:0:0:0:
336,192,177669,1,10,0:0:0:0:
216,160,177816,1,8,0:0:0:0:
464,80,177964,1,8,0:1:0:0:
208,40,178111,6,0,P|160:80|240:176,1,190,14|8,0:0|0:0,0:0:0:0:
312,192,178552,1,8,0:0:0:0:
176,240,178699,1,8,0:0:0:0:
416,304,178846,1,8,0:1:0:0:
96,304,178993,1,8,0:1:0:0:
480,160,179140,1,8,0:1:0:0:
40,160,179287,5,8,0:1:0:0:
256,192,179434,12,0,185316,0:0:0:0:
