osu file format v14

[General]
AudioFilename: audio.mp3
AudioLeadIn: 0
PreviewTime: 37825
Countdown: 0
SampleSet: Soft
StackLeniency: 0.7
Mode: 2
LetterboxInBreaks: 0
WidescreenStoryboard: 0

[Editor]
DistanceSpacing: 1.5
BeatDivisor: 4
GridSize: 4
TimelineZoom: 2.2

[Metadata]
Title:INHERIT
TitleUnicode:IИHERIT
Artist:ELFENSJoN
ArtistUnicode:ELFENSJóN
Creator:4rcheR-
Version:SUCCEED
Source:
Tags:archer fa featured artist Mappers' Guild mg mpg j-rock jrock rock japanese jp male vocals vocal エルフェンシオン STYX Keisuke Kurose 黒瀬圭亮 Kurose.K doujin アストラル ASTRAL 藤田和哉 kazuya mic かけやん kakeyan みゅー myu Imy Electronic
BeatmapID:3772465
BeatmapSetID:1837280

[Difficulty]
HPDrainRate:6
CircleSize:4
OverallDifficulty:9.5
ApproachRate:9.5
SliderMultiplier:1.40000000596046
SliderTickRate:2

[Events]
//Background and Video events
0,0,"bg.jpg",0,0
//Break Periods
//Storyboard Layer 0 (Background)
//Storyboard Layer 1 (Fail)
//Storyboard Layer 2 (Pass)
//Storyboard Layer 3 (Foreground)
//Storyboard Layer 4 (Overlay)
//Storyboard Sound Samples

[TimingPoints]
1837,232.558139534884,4,2,22,50,1,0
8697,-100,4,2,22,5,0,0
8813,-100,4,2,22,30,0,0
9162,-100,4,2,22,5,0,0
9278,-100,4,2,22,70,0,0
16720,-100,4,2,22,60,0,0
24046,-100,4,2,22,70,0,0
31604,-100,4,2,22,60,0,0
35092,-100,4,2,22,5,0,0
35209,-100,4,2,22,65,0,0
35441,-100,4,2,22,5,0,0
35557,-100,4,2,22,65,0,0
37069,-100,4,2,22,70,0,0
38581,-100,4,2,22,75,0,0
38930,-100,4,2,22,80,0,1
53813,-100,4,2,22,80,0,0
54162,-100,4,2,22,80,0,1
63581,-100,4,2,22,70,0,0
65092,-100,4,2,22,60,0,0
79976,-100,4,2,22,65,0,0
83697,-100,4,2,22,70,0,0
94860,-100,4,2,22,50,0,0
102302,-100,4,2,22,55,0,0
109743,-100,4,2,22,60,0,0
117418,-100,4,2,22,5,0,0
117534,-100,4,2,22,60,0,0
117767,-100,4,2,22,5,0,0
117883,-100,4,2,22,60,0,0
119046,-100,4,2,22,70,0,0
124395,-100,4,2,22,5,0,0
124511,-100,4,2,22,75,0,1
124627,-100,4,2,22,75,0,0
128232,-100,4,2,22,80,0,1
139395,-100,4,2,22,80,0,0
139743,-100,4,2,22,80,0,1
152883,-100,4,2,22,50,0,0
153930,-100,4,2,22,55,0,0
154395,-100,4,2,22,60,0,0
169278,-100,4,2,22,65,0,0
176720,-100,4,2,22,70,0,0
178581,-100,4,2,22,75,0,0
180441,-100,4,2,22,50,0,0
187883,-100,4,2,22,55,0,0
194395,267.857142857143,4,2,22,50,1,0
194662,303.030303030303,4,2,22,45,1,0
194965,307.692307692308,4,2,22,40,1,0
195272,307.692307692308,4,2,22,35,1,0
196502,-100,4,2,22,30,0,0
197733,-100,4,2,22,25,0,0
198964,-100,4,2,22,20,0,0
200195,-100,4,2,22,15,0,0
200502,-100,4,2,22,10,0,0

[Colours]
Combo1 : 128,128,128
Combo2 : 192,192,192
Combo3 : 255,0,0

[HitObjects]
320,280,1836,6,0,P|380:228|304:152,1,210.000000894069,2|2,1:2|1:2,0:0:0:0:
180,148,2302,2,0,L|104:104,2,70.000000298023,10|0|0,3:0|3:0|3:0,0:0:0:0:
256,148,2650,1,0,3:0:0:0:
380,144,2767,6,0,L|452:92,2,70.000000298023,2|0|0,3:2|3:0|3:0,0:0:0:0:
304,144,3116,1,0,3:0:0:0:
180,148,3232,2,0,L|180:224,1,70.000000298023,2|0,3:2|3:0,0:0:0:0:
256,216,3464,1,0,3:0:0:0:
380,220,3581,5,2,3:2:0:0:
456,220,3697,2,0,L|296:220,1,140.000000596046,0|0,3:0|3:0,0:0:0:0:
240,220,4046,1,0,3:0:0:0:
116,224,4162,2,0,L|116:128,1,70.000000298023,2|0,3:2|3:0,0:0:0:0:
192,144,4395,2,0,L|276:144,1,70.000000298023,0|0,3:0|3:0,0:0:0:0:
136,140,4627,6,0,L|60:100,2,70.000000298023,2|0|0,3:2|3:0|3:0,0:0:0:0:
212,140,4976,1,0,3:0:0:0:
408,144,5092,2,0,L|484:100,2,70.000000298023,2|0|0,3:2|3:0|3:2,0:0:0:0:
196,144,5441,5,2,3:2:0:0:
120,144,5557,2,0,P|52:96|144:32,1,210.000000894069,0|0,1:0|1:0,0:0:0:0:
248,36,6023,2,0,L|180:76,2,70.000000298023,10|0|0,3:0|3:0|3:0,0:0:0:0:
324,36,6371,1,0,3:0:0:0:
196,36,6488,6,0,L|196:116,1,70.000000298023,2|0,3:2|3:0,0:0:0:0:
272,108,6720,1,0,3:0:0:0:
192,112,6837,1,0,3:0:0:0:
316,116,6953,2,0,L|316:208,1,70.000000298023,2|0,3:2|3:0,0:0:0:0:
240,192,7185,1,0,3:0:0:0:
112,196,7302,5,2,3:2:0:0:
36,196,7418,2,0,L|36:268,1,70.000000298023,0|0,3:0|3:0,0:0:0:0:
112,268,7650,1,0,3:0:0:0:
188,268,7767,1,0,3:0:0:0:
384,264,7883,2,0,L|452:308,2,70.000000298023,2|0|0,3:2|3:0|3:0,0:0:0:0:
188,280,8348,6,0,P|96:192|124:120,1,210.000000894069,2|0,3:2|0:0,0:0:0:0:
244,128,8813,2,0,P|348:124|420:32,1,210.000000894069,2|0,3:2|0:0,0:0:0:0:
204,52,9278,6,0,P|172:100|220:156,1,140.000000596046,6|0,1:2|1:0,0:0:0:0:
296,156,9627,1,2,1:2:0:0:
100,160,9743,2,0,L|28:160,2,70.000000298023,8|2|0,0:0|1:2|1:0,0:0:0:0:
296,160,10092,6,0,L|296:236,1,70.000000298023,10|0,1:2|0:0,0:0:0:0:
168,232,10325,2,0,L|120:232,1,35.0000001490115,0|0,1:0|1:0,0:0:0:0:
272,228,10441,2,0,L|368:228,1,70.000000298023,10|8,0:0|0:0,0:0:0:0:
144,224,10674,1,8,0:0:0:0:
240,224,10790,1,10,0:0:0:0:
144,224,10906,1,0,1:0:0:0:
356,228,11023,6,0,P|396:200|340:140,1,140.000000596046,6|0,1:2|1:0,0:0:0:0:
144,140,11371,2,0,L|144:60,1,70.000000298023,2|0,1:2|1:0,0:0:0:0:
184,72,11546,1,0,1:0:0:0:
324,72,11604,1,10,0:0:0:0:
116,76,11720,2,0,L|44:76,1,70.000000298023,4|0,1:2|1:0,0:0:0:0:
244,76,11953,6,0,L|344:76,2,70.000000298023,14|0|0,1:2|0:0|1:0,0:0:0:0:
204,76,12243,1,0,1:0:0:0:
348,76,12302,2,0,L|348:168,1,70.000000298023,10|2,0:0|1:2,0:0:0:0:
152,152,12534,1,10,0:0:0:0:
248,152,12650,1,10,0:0:0:0:
152,152,12767,1,10,0:0:0:0:
332,152,12883,1,10,0:0:0:0:
124,152,12999,6,0,P|84:188|144:248,1,140.000000596046,4|0,1:2|1:0,0:0:0:0:
204,244,13348,1,2,1:2:0:0:
400,240,13464,2,0,L|300:240,2,70.000000298023,8|2|0,0:0|1:2|1:0,0:0:0:0:
204,248,13813,6,0,P|160:216|216:160,1,140.000000596046,10|0,0:0|1:0,0:0:0:0:
240,160,14104,1,0,1:0:0:0:
100,160,14162,2,0,L|100:72,1,70.000000298023,10|8,0:0|0:0,0:0:0:0:
296,88,14395,1,10,0:0:0:0:
200,88,14511,1,2,1:2:0:0:
296,84,14627,1,2,1:2:0:0:
88,92,14743,6,0,P|48:128|92:200,1,140.000000596046,6|0,1:2|0:0,0:0:0:0:
276,208,15092,2,0,L|192:208,1,70.000000298023,10|0,0:0|1:0,0:0:0:0:
404,208,15325,1,10,0:0:0:0:
308,208,15441,1,0,1:0:0:0:
404,208,15557,1,0,1:0:0:0:
208,216,15674,6,0,L|56:216,1,140.000000596046,10|0,0:0|1:0,0:0:0:0:
264,216,16023,2,0,L|344:216,1,70.000000298023,10|0,0:0|0:0,0:0:0:0:
140,216,16255,1,10,0:0:0:0:
236,216,16371,1,8,0:0:0:0:
140,216,16488,1,8,0:0:0:0:
240,216,16604,1,8,0:0:0:0:
452,220,16720,6,0,L|240:216,2,210.000000894069,14|0|2,1:0|1:0|1:2,0:0:0:0:
242,216,17650,1,2,0:0:0:0:
164,220,17767,2,0,L|164:80,1,140.000000596046,0|2,1:0|1:2,0:0:0:0:
360,84,18116,2,0,L|212:84,1,140.000000596046,8|2,0:0|0:0,0:0:0:0:
296,84,18464,1,0,0:0:0:0:
100,92,18581,6,0,L|336:92,2,210.000000894069,0|0|2,1:0|1:0|1:2,0:0:0:0:
324,100,19511,1,2,0:0:0:0:
400,96,19627,2,0,L|400:248,1,140.000000596046,0|2,1:0|1:2,0:0:0:0:
204,248,19976,2,0,L|200:160,1,70.000000298023,8|0,0:0|1:0,0:0:0:0:
328,172,20209,2,0,L|328:92,1,70.000000298023,2|0,1:2|1:0,0:0:0:0:
132,100,20441,6,0,L|360:96,2,210.000000894069,2|0|2,1:2|1:0|1:2,0:0:0:0:
356,96,21371,1,2,0:0:0:0:
432,108,21488,2,0,L|432:252,1,140.000000596046,0|2,1:0|1:2,0:0:0:0:
236,256,21837,2,0,L|152:256,1,70.000000298023,8|0,0:0|0:0,0:0:0:0:
244,252,22069,2,0,L|336:252,1,70.000000298023,2|0,0:0|0:0,0:0:0:0:
116,252,22302,5,8,0:0:0:0:
212,252,22418,1,8,0:0:0:0:
116,252,22534,1,2,1:2:0:0:
324,248,22650,2,0,L|404:248,2,70.000000298023,4|0|0,1:2|0:0|1:0,0:0:0:0:
140,252,22999,5,10,0:0:0:0:
348,248,23115,1,4,1:2:0:0:
424,248,23231,1,0,0:0:0:0:
348,248,23347,1,0,1:0:0:0:
152,252,23464,2,0,L|152:164,1,70.000000298023,10|0,0:0|1:0,0:0:0:0:
276,168,23697,2,0,L|276:216,1,35.0000001490115,8|0,0:0|0:0,0:0:0:0:
200,204,23813,2,0,L|200:260,1,35.0000001490115,0|0,1:0|1:0,0:0:0:0:
280,248,23930,2,0,L|324:248,1,35.0000001490115,2|0,1:2|0:0,0:0:0:0:
156,248,24046,6,0,L|4:248,1,140.000000596046,4|0,1:2|1:0,0:0:0:0:
212,252,24395,2,0,L|304:252,1,70.000000298023,10|0,0:0|0:0,0:0:0:0:
156,248,24627,2,0,L|156:148,1,70.000000298023,0|0,1:0|1:0,0:0:0:0:
352,176,24860,2,0,L|432:176,1,70.000000298023,10|0,0:0|0:0,0:0:0:0:
296,172,25092,6,0,L|208:172,1,70.000000298023,0|0,1:0|1:0,0:0:0:0:
28,160,25325,2,0,L|112:160,1,70.000000298023,10|0,0:0|0:0,0:0:0:0:
292,152,25557,1,2,1:2:0:0:
192,148,25674,1,2,1:2:0:0:
292,152,25790,1,8,0:0:0:0:
84,160,25906,6,0,L|248:160,1,140.000000596046,6|0,1:2|1:0,0:0:0:0:
420,164,26255,2,0,L|420:244,1,70.000000298023,10|0,0:0|0:0,0:0:0:0:
292,232,26488,2,0,L|200:232,1,70.000000298023,0|0,1:0|1:0,0:0:0:0:
28,244,26720,2,0,L|28:160,1,70.000000298023,10|0,1:2|0:0,0:0:0:0:
156,180,26953,6,0,L|72:180,1,70.000000298023,0|0,1:0|1:0,0:0:0:0:
280,180,27185,2,0,L|364:180,1,70.000000298023,8|0,0:0|0:0,0:0:0:0:
152,180,27418,1,2,1:2:0:0:
248,180,27534,1,2,1:2:0:0:
152,180,27650,1,8,0:0:0:0:
364,172,27767,6,0,L|508:172,1,140.000000596046,6|0,1:2|0:0,0:0:0:0:
308,172,28116,2,0,L|408:172,1,70.000000298023,10|0,0:0|1:0,0:0:0:0:
184,180,28348,2,0,L|96:180,1,70.000000298023,10|0,0:0|1:0,0:0:0:0:
312,172,28581,2,0,L|216:172,1,70.000000298023,10|0,0:0|1:0,0:0:0:0:
436,176,28813,6,0,L|436:92,1,70.000000298023,10|0,0:0|1:0,0:0:0:0:
240,80,29046,2,0,L|240:172,1,70.000000298023,10|0,0:0|1:0,0:0:0:0:
280,148,29220,1,0,1:0:0:0:
140,152,29278,2,0,L|52:152,1,70.000000298023,10|0,0:0|1:0,0:0:0:0:
252,152,29511,2,0,L|352:152,1,70.000000298023,10|0,0:0|0:0,0:0:0:0:
112,156,29743,6,0,L|32:156,1,70.000000298023,6|0,1:2|1:0,0:0:0:0:
240,152,29976,2,0,L|156:152,1,70.000000298023,8|2,0:0|1:2,0:0:0:0:
368,156,30209,2,0,L|272:156,1,70.000000298023,8|0,0:0|1:0,0:0:0:0:
104,168,30441,2,0,L|24:168,1,70.000000298023,2|8,1:2|0:0,0:0:0:0:
72,172,30616,1,0,0:0:0:0:
228,176,30674,6,0,L|128:176,1,70.000000298023,0|8,0:0|0:0,0:0:0:0:
196,176,30848,1,0,1:0:0:0:
336,176,30906,2,0,L|336:80,1,70.000000298023,0|8,1:0|0:0,0:0:0:0:
140,104,31139,1,10,0:0:0:0:
236,104,31255,1,8,0:0:0:0:
140,104,31371,1,8,0:0:0:0:
40,104,31488,1,8,0:0:0:0:
248,108,31604,6,0,L|464:108,1,210.000000894069,2|0,1:2|1:0,0:0:0:0:
228,108,32302,1,2,0:0:0:0:
152,112,32418,1,0,0:0:0:0:
276,108,32534,1,2,0:0:0:0:
340,148,32650,1,0,0:0:0:0:
276,184,32767,1,0,0:0:0:0:
152,184,32883,1,0,0:0:0:0:
84,220,32999,1,2,0:0:0:0:
84,296,33116,1,0,0:0:0:0:
156,320,33232,1,0,0:0:0:0:
352,324,33348,5,2,1:2:0:0:
352,324,33697,1,0,1:0:0:0:
420,284,33813,1,0,0:0:0:0:
420,208,33930,1,0,0:0:0:0:
348,180,34046,1,0,0:0:0:0:
272,164,34162,1,2,0:0:0:0:
348,144,34278,1,0,0:0:0:0:
152,140,34395,1,2,0:0:0:0:
76,140,34511,1,0,0:0:0:0:
152,140,34627,1,0,0:0:0:0:
76,140,34743,1,0,0:0:0:0:
272,136,34860,2,0,P|308:188|260:252,1,140.000000596046,10|0,1:2|0:0,0:0:0:0:
60,256,35209,6,0,L|208:256,1,140.000000596046,2|0,1:2|0:0,0:0:0:0:
324,256,35557,2,0,L|324:156,1,70.000000298023,0|0,1:0|0:0,0:0:0:0:
196,196,35790,2,0,L|196:96,1,70.000000298023,0|0,1:0|0:0,0:0:0:0:
324,124,36023,2,0,L|248:124,1,70.000000298023,2|0,1:2|0:0,0:0:0:0:
60,124,36255,6,0,L|164:124,1,70.000000298023,2|0,1:2|0:0,0:0:0:0:
328,128,36488,2,0,L|328:32,1,70.000000298023,2|0,1:2|0:0,0:0:0:0:
148,60,36720,1,10,0:0:0:0:
332,60,36837,2,0,L|248:60,1,70.000000298023,2|0,1:2|1:0,0:0:0:0:
68,64,37069,6,0,L|224:64,1,140.000000596046,14|0,1:2|1:0,0:0:0:0:
248,64,37360,1,0,1:0:0:0:
108,68,37418,2,0,L|8:68,1,70.000000298023,8|0,0:0|1:0,0:0:0:0:
220,72,37650,1,8,0:0:0:0:
404,76,37767,2,0,L|304:76,1,70.000000298023,8|2,0:0|1:2,0:0:0:0:
124,76,37999,6,0,P|52:156|176:240,1,280.000001192092,4|0,1:2|0:0,0:0:0:0:
372,228,38581,2,0,L|208:228,1,140.000000596046,6|0,1:2|0:0,0:0:0:0:
456,232,38930,6,0,P|488:196|440:112,1,140.000000596046,6|0,1:2|1:0,0:0:0:0:
248,108,39278,2,0,L|160:108,1,70.000000298023,10|0,0:0|0:0,0:0:0:0:
304,108,39511,2,0,L|392:108,1,70.000000298023,2|0,1:2|1:0,0:0:0:0:
184,108,39743,1,10,0:0:0:0:
396,108,39860,6,0,L|468:108,2,70.000000298023,2|0|0,0:0|1:0|1:0,0:0:0:0:
184,108,40209,2,0,L|112:108,1,70.000000298023,10|0,0:0|0:0,0:0:0:0:
324,112,40441,2,0,L|224:112,1,70.000000298023,2|0,1:2|1:0,0:0:0:0:
64,108,40674,1,10,0:0:0:0:
288,108,40790,6,0,P|328:148|280:208,1,140.000000596046,6|0,1:2|1:0,0:0:0:0:
76,108,41139,2,0,L|76:192,1,70.000000298023,10|0,0:0|0:0,0:0:0:0:
284,192,41371,2,0,L|192:192,1,70.000000298023,2|0,1:2|1:0,0:0:0:0:
404,192,41604,1,10,0:0:0:0:
196,192,41720,6,0,L|280:192,2,70.000000298023,2|0|0,0:0|1:0|1:0,0:0:0:0:
408,188,42069,2,0,L|408:100,1,70.000000298023,10|0,0:0|0:0,0:0:0:0:
196,116,42302,2,0,L|280:116,1,70.000000298023,2|0,1:2|1:0,0:0:0:0:
456,116,42534,1,8,0:0:0:0:
232,112,42650,6,0,L|84:112,1,140.000000596046,6|0,1:2|1:0,0:0:0:0:
304,112,42999,2,0,L|304:200,1,70.000000298023,10|0,0:0|0:0,0:0:0:0:
92,196,43232,2,0,L|8:196,1,70.000000298023,2|0,1:2|1:0,0:0:0:0:
212,200,43464,1,10,0:0:0:0:
424,204,43581,6,0,L|500:204,2,70.000000298023,2|0|0,0:0|1:0|1:0,0:0:0:0:
212,200,43930,2,0,L|136:200,1,70.000000298023,10|0,0:0|0:0,0:0:0:0:
352,200,44162,2,0,L|276:200,1,70.000000298023,2|0,1:2|1:0,0:0:0:0:
92,200,44395,1,8,0:0:0:0:
316,204,44511,6,0,P|364:172|300:140,1,140.000000596046,6|0,1:2|1:0,0:0:0:0:
104,136,44860,2,0,L|184:136,2,70.000000298023,10|0|2,0:0|1:0|1:2,0:0:0:0:
316,136,45209,2,0,L|404:136,1,70.000000298023,8|2,0:0|1:2,0:0:0:0:
196,136,45441,5,2,1:2:0:0:
404,136,45557,2,0,L|312:136,1,70.000000298023,8|0,0:0|1:0,0:0:0:0:
292,136,45732,1,0,1:0:0:0:
144,136,45790,2,0,L|144:232,1,70.000000298023,8|0,0:0|1:0,0:0:0:0:
356,224,46023,1,8,0:0:0:0:
180,224,46139,1,8,0:0:0:0:
356,224,46255,1,8,0:0:0:0:
148,228,46371,6,0,P|116:264|168:332,1,140.000000596046,4|0,1:0|1:0,0:0:0:0:
384,336,46720,2,0,L|476:336,1,70.000000298023,14|0,1:2|1:0,0:0:0:0:
256,340,46953,2,0,L|336:340,1,70.000000298023,10|0,0:0|1:0,0:0:0:0:
284,340,47127,1,0,1:0:0:0:
136,340,47185,1,10,0:0:0:0:
326,340,47302,5,2,1:2:0:0:
116,332,47418,2,0,L|28:332,1,70.000000298023,8|0,0:0|1:0,0:0:0:0:
256,332,47650,2,0,L|332:332,1,70.000000298023,10|0,0:0|1:0,0:0:0:0:
116,324,47883,2,0,L|64:324,1,35.0000001490115,10|0,0:0|1:0,0:0:0:0:
228,324,47999,2,0,L|288:324,1,35.0000001490115,8|0,0:0|1:0,0:0:0:0:
112,320,48116,2,0,L|48:320,1,35.0000001490115,8|0,0:0|1:0,0:0:0:0:
244,324,48232,6,0,L|408:324,1,140.000000596046,6|0,1:2|1:0,0:0:0:0:
172,320,48581,2,0,L|172:224,1,70.000000298023,8|0,0:0|0:0,0:0:0:0:
296,252,48813,2,0,L|376:252,1,70.000000298023,2|0,1:2|1:0,0:0:0:0:
156,256,49046,2,0,L|240:256,1,70.000000298023,8|0,0:0|0:0,0:0:0:0:
436,256,49278,6,0,L|352:256,1,70.000000298023,2|0,1:2|1:0,0:0:0:0:
156,260,49511,2,0,L|156:168,1,70.000000298023,8|0,0:0|0:0,0:0:0:0:
280,188,49743,2,0,L|280:112,1,70.000000298023,2|0,1:2|1:0,0:0:0:0:
88,120,49976,1,8,0:0:0:0:
312,116,50092,6,0,P|352:164|308:224,1,140.000000596046,6|0,1:2|1:0,0:0:0:0:
104,228,50441,2,0,L|192:228,1,70.000000298023,8|0,0:0|1:0,0:0:0:0:
384,224,50674,2,0,L|284:224,1,70.000000298023,0|0,1:0|1:0,0:0:0:0:
104,228,50906,2,0,L|196:228,1,70.000000298023,8|0,0:0|1:0,0:0:0:0:
384,224,51139,6,0,L|384:152,1,70.000000298023,0|0,1:0|1:0,0:0:0:0:
176,144,51371,1,10,0:0:0:0:
352,144,51488,1,0,1:0:0:0:
176,144,51604,2,0,L|92:144,1,70.000000298023,10|0,0:0|1:0,0:0:0:0:
148,144,51778,1,0,1:0:0:0:
296,144,51837,1,8,0:0:0:0:
72,144,51953,6,0,P|76:84|144:48,1,140.000000596046,6|0,1:2|1:0,0:0:0:0:
352,72,52302,2,0,L|352:160,1,70.000000298023,10|0,0:0|1:0,0:0:0:0:
312,140,52476,1,0,1:0:0:0:
164,136,52534,2,0,L|100:136,2,46.6666668653487,10|0|0,0:0|1:0|1:0,0:0:0:0:
324,140,52767,2,0,L|236:140,1,46.6666668653487,8|0,0:0|1:0,0:0:0:0:
220,140,52922,1,0,1:0:0:0:
376,144,52999,6,0,L|436:144,2,46.6666668653487,10|0|0,0:0|1:0|1:0,0:0:0:0:
216,152,53232,1,8,0:0:0:0:
300,148,53348,1,0,1:0:0:0:
92,140,53464,1,10,0:0:0:0:
176,140,53581,1,0,1:0:0:0:
260,140,53697,1,0,0:0:0:0:
468,216,53813,6,0,L|468:64,1,140.000000596046,6|0,1:0|1:0,0:0:0:0:
244,76,54162,2,0,L|336:76,1,70.000000298023,14|0,0:0|0:0,0:0:0:0:
188,80,54395,2,0,L|92:80,1,70.000000298023,2|0,1:2|1:0,0:0:0:0:
308,84,54627,1,10,0:0:0:0:
100,84,54743,6,0,L|20:84,2,70.000000298023,2|0|0,0:0|1:0|1:0,0:0:0:0:
312,84,55092,2,0,L|312:168,1,70.000000298023,10|0,0:0|1:0,0:0:0:0:
100,164,55325,2,0,L|188:164,1,70.000000298023,2|0,1:2|1:0,0:0:0:0:
360,172,55557,1,8,0:0:0:0:
136,164,55674,6,0,P|96:200|148:256,1,140.000000596046,6|0,1:2|1:0,0:0:0:0:
352,252,56023,2,0,L|264:252,1,70.000000298023,10|0,0:0|0:0,0:0:0:0:
492,252,56255,2,0,L|392:252,1,70.000000298023,2|0,1:2|1:0,0:0:0:0:
232,252,56488,1,10,0:0:0:0:
440,252,56604,6,0,L|512:252,2,70.000000298023,2|0|0,0:0|1:0|1:0,0:0:0:0:
228,248,56953,2,0,L|228:168,1,70.000000298023,10|0,0:2|1:0,0:0:0:0:
436,160,57185,2,0,L|348:160,1,70.000000298023,2|0,1:2|1:0,0:0:0:0:
176,160,57418,1,8,0:0:0:0:
400,160,57534,6,0,P|444:208|400:260,1,140.000000596046,6|0,1:2|1:0,0:0:0:0:
196,268,57883,2,0,L|196:184,1,70.000000298023,10|0,0:0|1:0,0:0:0:0:
388,200,58116,1,2,1:2:0:0:
208,196,58232,1,8,0:0:0:0:
124,196,58348,1,2,1:2:0:0:
332,200,58464,5,2,1:2:0:0:
148,196,58581,2,0,L|44:196,1,70.000000298023,8|0,0:0|1:0,0:0:0:0:
120,196,58755,1,0,1:0:0:0:
268,196,58813,2,0,L|356:196,1,70.000000298023,10|0,0:0|1:0,0:0:0:0:
128,196,59046,1,2,0:0:0:0:
304,196,59162,1,8,0:0:0:0:
128,196,59278,1,8,0:0:0:0:
340,192,59395,6,0,L|484:192,1,140.000000596046,6|0,1:2|1:0,0:0:0:0:
272,196,59743,2,0,L|196:196,1,70.000000298023,8|0,0:0|0:0,0:0:0:0:
328,192,59976,2,0,L|328:112,1,70.000000298023,2|0,1:2|1:0,0:0:0:0:
116,116,60209,2,0,L|28:116,1,70.000000298023,8|0,0:0|1:0,0:0:0:0:
256,112,60441,6,0,L|344:112,1,70.000000298023,2|0,1:2|1:0,0:0:0:0:
116,116,60674,2,0,L|116:204,1,70.000000298023,8|0,0:0|1:0,0:0:0:0:
324,196,60906,1,10,0:0:0:0:
148,200,61023,1,8,0:0:0:0:
324,200,61139,1,8,0:0:0:0:
100,200,61255,6,0,P|64:244|120:312,1,140.000000596046,6|0,1:2|1:0,0:0:0:0:
312,320,61604,2,0,L|216:320,1,70.000000298023,8|0,0:0|1:0,0:0:0:0:
32,316,61837,2,0,L|128:316,1,70.000000298023,8|0,0:0|1:0,0:0:0:0:
312,312,62069,2,0,L|392:312,1,70.000000298023,10|0,0:0|1:0,0:0:0:0:
172,308,62302,6,0,L|268:308,1,70.000000298023,10|0,0:0|1:0,0:0:0:0:
452,308,62534,2,0,L|352:308,1,70.000000298023,8|0,0:0|1:0,0:0:0:0:
172,312,62767,1,10,0:0:0:0:
348,312,62883,1,0,1:0:0:0:
172,312,62999,2,0,L|172:240,1,70.000000298023,8|0,0:0|1:0,0:0:0:0:
384,232,63232,5,10,0:0:0:0:
208,232,63348,1,8,0:0:0:0:
324,232,63464,1,0,1:0:0:0:
100,232,63581,1,12,1:2:0:0:
100,232,63930,1,2,0:0:0:0:
312,240,64162,6,0,P|372:172|292:96,1,210.000000894069,2|0,0:0|0:0,0:0:0:0:
108,232,64627,2,0,P|68:192|116:120,1,140.000000596046,10|8,0:0|0:0,0:0:0:0:
220,120,64976,1,8,0:0:0:0:
428,120,65092,6,0,L|272:120,1,140.000000596046,14|0,1:2|1:0,0:0:0:0:
212,124,65441,1,0,1:0:0:0:
288,124,65557,1,0,1:0:0:0:
76,124,65790,2,0,L|76:212,1,70.000000298023,10|0,0:0|0:0,0:0:0:0:
152,196,66023,2,0,L|252:196,2,70.000000298023,0|0|0,1:0|1:0|1:0,0:0:0:0:
364,200,66488,1,8,0:0:0:0:
288,200,66604,1,8,0:0:0:0:
288,124,66720,1,0,1:0:0:0:
364,124,66837,1,0,0:0:0:0:
168,120,66953,6,0,L|28:120,1,140.000000596046,8|0,1:2|1:0,0:0:0:0:
104,120,67302,1,0,1:0:0:0:
28,120,67418,1,0,1:0:0:0:
236,120,67650,2,0,L|236:200,1,70.000000298023,8|0,0:0|0:0,0:0:0:0:
160,188,67883,2,0,L|160:272,1,70.000000298023,0|0,1:0|1:0,0:0:0:0:
236,260,68116,1,0,1:0:0:0:
460,264,68348,1,8,0:0:0:0:
384,264,68464,1,8,0:0:0:0:
460,264,68581,2,0,L|460:172,1,70.000000298023,0|0,1:0|1:0,0:0:0:0:
252,204,68813,6,0,L|408:204,1,140.000000596046,14|0,1:2|1:0,0:0:0:0:
468,200,69162,1,0,1:0:0:0:
392,200,69278,1,0,1:0:0:0:
180,208,69511,2,0,L|180:112,1,70.000000298023,8|0,0:0|0:0,0:0:0:0:
256,128,69743,2,0,L|172:128,1,70.000000298023,0|0,1:0|1:0,0:0:0:0:
108,128,69976,1,2,1:2:0:0:
320,128,70209,1,8,0:0:0:0:
244,128,70325,1,10,0:0:0:0:
440,128,70441,2,0,L|440:48,1,70.000000298023,4|0,1:2|1:0,0:0:0:0:
244,64,70674,6,0,L|100:64,1,140.000000596046,10|0,1:2|1:0,0:0:0:0:
28,64,71023,1,0,1:0:0:0:
104,64,71139,1,0,1:0:0:0:
312,68,71371,2,0,L|384:68,1,70.000000298023,12|0,0:0|0:0,0:0:0:0:
304,68,71604,2,0,L|220:68,2,70.000000298023,0|0|0,1:0|1:0|1:0,0:0:0:0:
92,72,72069,1,10,0:0:0:0:
16,76,72185,1,8,0:0:0:0:
16,152,72302,1,0,1:0:0:0:
92,152,72418,1,0,1:0:0:0:
300,156,72534,6,0,L|136:156,1,140.000000596046,14|0,1:2|1:0,0:0:0:0:
236,156,72883,1,0,1:0:0:0:
312,156,72999,1,0,1:0:0:0:
100,164,73232,2,0,L|100:248,1,70.000000298023,10|0,0:0|0:0,0:0:0:0:
220,232,73464,2,0,L|304:232,2,70.000000298023,2|0|0,1:2|1:0|1:0,0:0:0:0:
100,236,73813,1,2,0:0:0:0:
296,232,73930,2,0,L|388:232,1,70.000000298023,8|8,0:0|0:0,0:0:0:0:
156,240,74162,2,0,L|156:156,1,70.000000298023,2|0,1:2|1:0,0:0:0:0:
368,164,74395,6,0,L|204:164,1,140.000000596046,12|0,0:0|1:0,0:0:0:0:
152,164,74743,1,0,1:0:0:0:
228,164,74860,1,0,1:0:0:0:
436,164,75092,2,0,L|436:248,1,70.000000298023,10|0,0:0|0:0,0:0:0:0:
316,236,75325,2,0,L|228:236,1,70.000000298023,0|0,1:0|1:0,0:0:0:0:
284,236,75499,1,0,1:0:0:0:
324,236,75557,1,0,1:0:0:0:
112,236,75790,2,0,L|192:236,1,70.000000298023,10|8,0:0|0:0,0:0:0:0:
112,236,76023,2,0,L|32:236,1,70.000000298023,0|0,1:0|1:0,0:0:0:0:
252,236,76255,6,0,P|288:192|240:128,1,140.000000596046,10|0,1:2|1:0,0:0:0:0:
172,128,76604,1,0,1:0:0:0:
248,128,76720,1,0,1:0:0:0:
460,132,76953,2,0,L|460:216,1,70.000000298023,10|0,0:0|0:0,0:0:0:0:
340,208,77185,2,0,L|260:208,2,70.000000298023,2|0|0,1:2|1:0|1:0,0:0:0:0:
460,208,77534,1,2,0:0:0:0:
264,208,77650,2,0,L|188:208,1,70.000000298023,8|8,0:0|0:0,0:0:0:0:
392,208,77883,1,2,1:0:0:0:
84,216,78116,6,0,L|232:216,1,140.000000596046,12|0,1:2|1:0,0:0:0:0:
420,196,78464,2,0,L|272:196,1,140.000000596046,10|0,0:0|0:0,0:0:0:0:
84,196,78813,2,0,L|172:196,1,70.000000298023,10|0,0:0|0:0,0:0:0:0:
272,196,79046,2,0,L|188:196,1,70.000000298023,0|0,1:0|1:0,0:0:0:0:
196,124,79278,2,0,L|276:124,1,70.000000298023,0|0,1:0|1:0,0:0:0:0:
304,124,79453,1,0,1:0:0:0:
164,124,79511,1,10,0:0:0:0:
68,124,79627,1,8,0:0:0:0:
164,124,79743,1,8,0:0:0:0:
68,124,79860,1,8,0:0:0:0:
276,124,79976,6,0,L|492:124,2,210.000000894069,6|0|2,1:2|1:0|1:2,0:0:0:0:
64,120,80906,6,0,L|284:120,2,210.000000894069,10|2|2,1:2|1:2|1:2,0:0:0:0:
276,120,81837,5,0,0:0:0:0:
352,120,81953,2,0,L|352:268,1,140.000000596046,2|0,1:2|0:0,0:0:0:0:
276,264,82302,2,0,L|132:264,1,140.000000596046,0|2,1:0|1:2,0:0:0:0:
444,260,82767,6,0,L|444:100,1,140.000000596046,8|0,0:0|1:0,0:0:0:0:
136,120,83232,2,0,L|56:120,2,70.000000298023,10|0|0,0:0|1:0|1:0,0:0:0:0:
460,116,83697,6,0,L|224:116,1,210.000000894069,14|10,1:2|1:2,0:0:0:0:
404,120,84278,1,0,1:0:0:0:
208,124,84395,2,0,L|112:124,1,70.000000298023,10|0,0:0|1:0,0:0:0:0:
332,120,84627,2,0,L|416:120,1,70.000000298023,10|0,0:0|1:0,0:0:0:0:
276,120,84860,2,0,L|184:120,1,70.000000298023,10|0,0:0|1:0,0:0:0:0:
416,116,85092,5,14,1:2:0:0:
220,120,85209,2,0,L|388:120,1,140.000000596046,10|2,0:0|1:2,0:0:0:0:
204,120,85674,1,0,1:0:0:0:
400,124,85790,2,0,L|320:124,1,70.000000298023,10|0,0:0|1:0,0:0:0:0:
132,124,86023,2,0,L|132:208,1,70.000000298023,10|0,0:0|1:0,0:0:0:0:
328,212,86255,2,0,L|328:304,1,70.000000298023,10|0,0:0|1:0,0:0:0:0:
288,284,86430,1,0,1:0:0:0:
148,284,86488,5,14,1:2:0:0:
344,284,86604,2,0,L|500:284,1,140.000000596046,2|10,1:2|1:2,0:0:0:0:
328,282,87069,1,0,1:0:0:0:
132,288,87185,2,0,L|48:288,1,70.000000298023,10|0,0:0|1:0,0:0:0:0:
260,292,87418,2,0,L|340:292,1,70.000000298023,10|0,0:0|1:0,0:0:0:0:
136,300,87650,2,0,L|136:216,1,70.000000298023,2|0,1:2|1:0,0:0:0:0:
348,224,87883,5,14,1:2:0:0:
152,220,87999,2,0,L|12:220,1,140.000000596046,10|2,0:0|1:2,0:0:0:0:
168,220,88464,1,0,1:0:0:0:
364,216,88581,2,0,L|216:216,2,140.000000596046,10|2|2,0:0|0:0|0:0,0:0:0:0:
240,216,89162,2,0,L|296:216,1,35.0000001490115,0|0,1:0|1:0,0:0:0:0:
416,212,89278,5,14,1:2:0:0:
220,216,89395,2,0,P|180:160|228:108,1,140.000000596046,2|10,1:2|1:2,0:0:0:0:
372,92,89860,1,0,1:0:0:0:
176,96,89976,2,0,L|176:172,1,70.000000298023,10|0,0:0|1:0,0:0:0:0:
372,172,90209,2,0,L|448:172,1,70.000000298023,10|0,0:0|1:0,0:0:0:0:
316,176,90441,2,0,L|240:176,1,70.000000298023,10|0,1:2|1:0,0:0:0:0:
36,184,90674,5,14,1:2:0:0:
232,188,90790,2,0,L|372:188,1,140.000000596046,10|2,0:0|1:2,0:0:0:0:
216,188,91255,1,0,1:0:0:0:
412,192,91371,2,0,L|412:280,1,70.000000298023,10|0,0:0|1:0,0:0:0:0:
216,272,91604,2,0,L|300:272,1,70.000000298023,10|0,0:0|1:0,0:0:0:0:
88,280,91837,2,0,L|88:196,1,70.000000298023,10|0,0:0|1:0,0:0:0:0:
296,204,92069,5,10,1:2:0:0:
100,204,92185,2,0,L|100:120,1,70.000000298023,2|0,1:2|0:0,0:0:0:0:
296,128,92418,2,0,L|204:128,2,70.000000298023,10|0|0,1:2|0:0|1:0,0:0:0:0:
492,128,92767,2,0,L|392:128,1,70.000000298023,10|0,0:0|1:0,0:0:0:0:
228,128,92999,2,0,L|136:128,1,70.000000298023,10|0,0:0|1:0,0:0:0:0:
284,128,93232,2,0,L|360:128,1,70.000000298023,2|0,1:2|1:0,0:0:0:0:
144,128,93464,6,0,P|108:200|160:248,1,140.000000596046,14|0,1:2|1:0,0:0:0:0:
352,248,93813,2,0,L|196:248,1,140.000000596046,10|0,0:0|1:0,0:0:0:0:
424,252,94162,2,0,L|256:248,1,140.000000596046,10|2,0:0|1:2,0:0:0:0:
72,252,94627,1,10,0:0:0:0:
380,256,94860,6,0,P|432:208|308:72,1,280.000001192092,6|2,1:0|0:0,0:0:0:0:
128,80,95557,2,0,L|416:80,1,280.000001192092,2|2,0:0|0:0,0:0:0:0:
408,80,96255,1,0,0:0:0:0:
196,84,96488,6,0,P|80:172|144:280,1,280.000001192092,2|2,0:0|0:0,0:0:0:0:
280,284,97185,1,2,0:0:0:0:
124,288,97418,2,0,P|56:264|144:120,1,280.000001192092,2|0,0:0|0:0,0:0:0:0:
328,112,98116,2,0,L|472:112,1,140.000000596046,2|2,0:0|0:0,0:0:0:0:
160,112,98581,6,0,L|448:112,1,280.000001192092,2|2,1:2|0:0,0:0:0:0:
272,112,99278,2,0,P|172:172|280:252,1,280.000001192092,2|2,0:0|0:0,0:0:0:0:
416,244,99976,1,0,0:0:0:0:
108,244,100209,6,0,L|396:244,1,280.000001192092,2|2,0:0|0:0,0:0:0:0:
176,48,100906,1,2,0:0:0:0:
388,52,101139,2,0,P|452:100|360:248,1,280.000001192092,2|0,0:0|0:0,0:0:0:0:
220,260,101837,2,0,L|68:256,1,140.000000596046,2|2,0:0|0:0,0:0:0:0:
388,268,102302,6,0,L|96:264,1,280.000001192092,2|2,1:2|0:0,0:0:0:0:
260,264,102999,2,0,P|352:224|248:136,1,280.000001192092,2|2,0:0|0:0,0:0:0:0:
104,156,103697,1,0,0:0:0:0:
316,160,103930,6,0,P|320:124|120:64,1,280.000001192092,2|2,0:0|0:0,0:0:0:0:
292,120,104627,1,2,0:0:0:0:
448,120,104860,2,0,L|172:60,1,280.000001192092,2|0,0:0|0:0,0:0:0:0:
324,88,105557,2,0,L|324:240,1,140.000000596046,2|2,0:0|0:0,0:0:0:0:
16,316,106023,6,0,L|324:316,1,280.000001192092,2|2,1:2|0:0,0:0:0:0:
88,296,106720,2,0,L|360:184,2,280.000001192092,2|2|2,0:0|0:0|0:0,0:0:0:0:
396,312,107883,6,0,P|432:280|400:124,1,210.000000894069,2|2,0:0|0:0,0:0:0:0:
184,288,108581,2,0,P|132:224|260:104,1,280.000001192092,2|0,0:0|0:0,0:0:0:0:
320,100,109162,1,0,1:0:0:0:
124,104,109278,1,10,0:0:0:0:
48,104,109395,1,0,1:0:0:0:
124,104,109511,1,0,1:0:0:0:
200,104,109627,1,0,1:0:0:0:
408,104,109743,6,0,P|424:160|392:236,1,140.000000596046,6|0,1:2|1:0,0:0:0:0:
317,241,110092,1,0,1:0:0:0:
164,244,110325,1,0,1:0:0:0:
88,244,110441,2,0,L|88:148,1,70.000000298023,2|0,1:2|0:0,0:0:0:0:
284,180,110674,5,8,0:0:0:0:
436,176,110906,2,0,L|436:88,1,70.000000298023,2|0,1:2|0:0,0:0:0:0:
308,104,111139,2,0,L|212:104,1,70.000000298023,2|0,1:2|1:0,0:0:0:0:
364,100,111371,2,0,L|452:100,1,70.000000298023,2|0,1:2|1:0,0:0:0:0:
236,108,111604,6,0,L|152:108,2,70.000000298023,2|0|0,0:0|1:0|1:0,0:0:0:0:
448,108,112069,2,0,L|448:264,1,140.000000596046,8|2,0:0|1:2,0:0:0:0:
140,232,112534,6,0,L|140:152,1,70.000000298023,8|0,0:0|1:0,0:0:0:0:
216,156,112767,2,0,L|296:156,1,70.000000298023,2|0,1:2|1:0,0:0:0:0:
76,160,112999,2,0,L|76:72,1,70.000000298023,10|4,0:0|1:2,0:0:0:0:
276,96,113232,2,0,L|364:96,1,70.000000298023,2|0,0:0|0:0,0:0:0:0:
136,96,113464,5,6,1:2:0:0:
69,109,113580,1,0,1:0:0:0:
42,170,113696,1,0,1:0:0:0:
75,229,113812,1,0,1:0:0:0:
142,236,113929,1,0,1:0:0:0:
75,229,114046,1,0,1:0:0:0:
272,232,114162,1,2,1:2:0:0:
348,232,114278,1,0,1:0:0:0:
136,240,114395,5,8,0:0:0:0:
60,236,114511,1,0,1:0:0:0:
44,200,114569,1,0,1:0:0:0:
64,168,114627,1,0,1:0:0:0:
140,156,114743,1,0,0:0:0:0:
268,160,114860,2,0,L|272:72,1,70.000000298023,0|0,1:0|1:0,0:0:0:0:
144,92,115092,2,0,L|68:92,1,70.000000298023,0|0,1:0|1:0,0:0:0:0:
272,88,115325,5,0,0:0:0:0:
348,88,115441,2,0,L|348:168,1,70.000000298023,0|0,1:0|1:0,0:0:0:0:
40,160,115790,2,0,L|208:160,1,140.000000596046,12|0,1:2|1:0,0:0:0:0:
488,168,116255,6,0,L|320:168,1,140.000000596046,12|0,1:2|1:0,0:0:0:0:
272,168,116604,1,0,1:0:0:0:
76,180,116720,2,0,L|76:96,1,70.000000298023,10|0,0:0|1:0,0:0:0:0:
204,108,116953,2,0,L|116:108,1,70.000000298023,2|0,1:2|1:0,0:0:0:0:
344,108,117185,6,0,L|500:108,1,140.000000596046,6|0,1:2|0:0,0:0:0:0:
356,104,117534,2,0,L|204:104,1,140.000000596046,2|0,1:2|0:0,0:0:0:0:
412,104,117883,6,0,P|452:120|400:240,1,210.000000894069,2|0,1:2|1:0,0:0:0:0:
332,240,118348,1,0,0:0:0:0:
408,240,118464,2,0,L|468:240,1,35.0000001490115,0|0,1:0|1:0,0:0:0:0:
300,240,118581,2,0,L|200:240,1,70.000000298023,8|0,0:0|1:0,0:0:0:0:
424,240,118813,1,8,0:0:0:0:
240,240,118930,1,8,0:0:0:0:
448,240,119046,6,0,P|484:204|428:136,1,140.000000596046,6|0,1:2|0:0,0:0:0:0:
248,136,119395,2,0,P|216:116|264:40,1,140.000000596046,10|0,0:0|0:0,0:0:0:0:
376,36,119743,1,2,1:2:0:0:
68,52,119976,6,0,L|68:208,1,140.000000596046,8|0,0:0|0:0,0:0:0:0:
144,196,120325,2,0,L|200:196,1,35.0000001490115,0|0,1:0|1:0,0:0:0:0:
320,200,120441,2,0,L|376:200,1,35.0000001490115,10|8,1:2|0:0,0:0:0:0:
316,196,120557,2,0,L|260:196,1,35.0000001490115,8|0,0:0|1:0,0:0:0:0:
140,192,120674,2,0,L|140:128,1,35.0000001490115,8|0,0:0|1:0,0:0:0:0:
280,148,120790,2,0,L|344:148,1,35.0000001490115,8|0,0:0|1:0,0:0:0:0:
168,144,120906,5,10,0:0:0:0:
68,144,121023,2,0,L|68:232,1,70.000000298023,8|0,0:0|1:0,0:0:0:0:
264,224,121255,1,8,0:0:0:0:
164,224,121371,2,0,L|164:312,1,70.000000298023,8|0,0:0|1:0,0:0:0:0:
360,296,121604,1,10,0:0:0:0:
152,296,121720,6,0,L|152:204,1,70.000000298023,4|0,1:2|0:0,0:0:0:0:
236,188,121953,1,0,1:0:0:0:
432,180,122069,2,0,L|432:80,1,70.000000298023,8|0,0:0|1:0,0:0:0:0:
392,112,122243,1,0,0:0:0:0:
248,112,122302,2,0,L|296:112,1,35.0000001490115,8|8,0:0|0:0,0:0:0:0:
424,112,122418,2,0,L|476:112,1,35.0000001490115,8|0,0:0|0:0,0:0:0:0:
320,112,122534,1,0,1:0:0:0:
244,112,122650,1,0,1:0:0:0:
48,112,122767,5,8,0:0:0:0:
144,116,122883,1,0,1:0:0:0:
48,112,122999,1,0,1:0:0:0:
244,108,123116,1,8,0:0:0:0:
144,116,123232,1,0,1:0:0:0:
244,108,123348,1,0,1:0:0:0:
440,116,123464,2,0,L|440:208,1,70.000000298023,10|0,0:0|1:0,0:0:0:0:
244,196,123697,6,0,L|160:196,1,70.000000298023,10|0,0:0|1:0,0:0:0:0:
300,196,123930,2,0,L|376:196,1,70.000000298023,0|0,1:0|1:0,0:0:0:0:
160,204,124162,2,0,P|116:168|168:124,1,140.000000596046,10|0,0:0|0:0,0:0:0:0:
376,128,124511,6,0,L|152:128,1,210.000000894069,6|2,1:2|0:0,0:0:0:0:
320,128,125092,2,0,L|408:128,2,70.000000298023,2|0|2,0:0|0:0|0:0,0:0:0:0:
192,128,125441,1,2,0:0:0:0:
388,132,125557,6,0,L|388:216,1,70.000000298023,8|0,0:0|1:0,0:0:0:0:
312,200,125790,2,0,L|396:200,1,70.000000298023,2|0,1:2|1:0,0:0:0:0:
184,204,126023,2,0,P|144:240|188:304,1,140.000000596046,10|0,0:0|0:0,0:0:0:0:
392,300,126371,6,0,P|428:276|380:200,1,140.000000596046,6|0,1:2|0:0,0:0:0:0:
268,200,126720,2,0,L|268:120,1,70.000000298023,2|0,0:0|0:0,0:0:0:0:
396,128,126953,2,0,L|308:128,1,70.000000298023,2|0,1:2|1:0,0:0:0:0:
200,128,127185,1,2,1:2:0:0:
396,124,127302,6,0,L|452:124,1,35.0000001490115,10|8,0:0|0:0,0:0:0:0:
292,124,127418,1,8,0:0:0:0:
240,128,127495,2,0,L|240:72,1,46.6666668653487,8|8,0:0|0:0,0:0:0:0:
396,128,127650,2,0,L|396:68,1,46.6666668653487,10|0,1:2|1:0,0:0:0:0:
344,84,127805,1,0,1:0:0:0:
192,128,127883,2,0,L|136:128,2,46.6666668653487,10|0|0,1:2|1:0|1:0,0:0:0:0:
344,128,128116,1,8,1:2:0:0:
140,128,128232,6,0,P|96:180|140:220,1,140.000000596046,6|0,1:2|1:0,0:0:0:0:
264,212,128581,2,0,L|364:212,1,70.000000298023,2|0,1:2|1:0,0:0:0:0:
292,212,128755,1,0,1:0:0:0:
144,212,128813,2,0,L|68:212,2,70.000000298023,10|0|2,0:0|0:0|1:2,0:0:0:0:
356,212,129162,5,2,1:2:0:0:
440,212,129278,2,0,L|440:300,1,70.000000298023,0|0,0:0|1:0,0:0:0:0:
228,288,129511,2,0,L|308:288,1,70.000000298023,0|0,1:2|1:0,0:0:0:0:
88,284,129743,2,0,L|12:284,2,70.000000298023,10|0|0,0:0|1:0|0:0,0:0:0:0:
312,288,130092,6,0,L|476:288,1,140.000000596046,6|0,1:2|1:0,0:0:0:0:
240,288,130441,2,0,L|240:196,1,70.000000298023,10|0,0:0|1:0,0:0:0:0:
368,212,130674,1,2,1:2:0:0:
160,212,130790,2,0,L|160:120,1,70.000000298023,8|2,0:0|1:2,0:0:0:0:
352,144,131023,1,2,1:2:0:0:
144,144,131139,6,0,L|56:144,1,70.000000298023,8|0,0:0|1:0,0:0:0:0:
116,144,131313,1,0,1:0:0:0:
264,144,131371,2,0,L|344:144,1,70.000000298023,8|0,0:0|1:0,0:0:0:0:
124,144,131604,1,8,0:0:0:0:
312,144,131720,1,8,0:0:0:0:
120,144,131837,1,8,0:0:0:0:
344,148,131953,6,0,P|384:184|320:244,1,140.000000596046,4|0,1:2|1:0,0:0:0:0:
260,252,132302,2,0,L|260:168,1,70.000000298023,2|0,1:2|1:0,0:0:0:0:
468,172,132534,2,0,L|376:172,2,70.000000298023,10|0|2,0:0|1:0|1:2,0:0:0:0:
256,172,132883,6,0,L|104:172,1,140.000000596046,2|0,1:2|1:0,0:0:0:0:
244,172,133232,2,0,L|336:172,1,70.000000298023,2|0,1:2|1:0,0:0:0:0:
356,172,133406,1,0,1:0:0:0:
208,172,133464,2,0,L|144:172,1,35.0000001490115,10|0,0:0|1:0,0:0:0:0:
324,168,133581,2,0,L|324:116,1,35.0000001490115,8|0,0:0|1:0,0:0:0:0:
176,136,133697,2,0,L|132:136,1,35.0000001490115,8|0,0:0|1:0,0:0:0:0:
288,136,133813,6,0,L|436:136,2,140.000000596046,6|0|0,1:2|1:0|1:0,0:0:0:0:
76,136,134395,2,0,L|0:136,2,70.000000298023,10|0|0,0:0|1:0|1:0,0:0:0:0:
152,140,134743,1,0,1:0:0:0:
364,148,134860,5,2,0:0:0:0:
448,148,134976,1,0,1:0:0:0:
448,64,135092,1,0,0:0:0:0:
364,64,135209,1,0,1:0:0:0:
156,64,135325,1,10,0:0:0:0:
240,64,135441,2,0,L|288:64,1,35.0000001490115,0|0,1:0|1:0,0:0:0:0:
420,68,135557,1,8,0:0:0:0:
196,64,135674,6,0,L|52:64,1,140.000000596046,6|0,1:2|1:0,0:0:0:0:
268,60,136023,2,0,L|268:136,1,70.000000298023,8|0,0:0|0:0,0:0:0:0:
144,132,136255,2,0,L|144:228,1,70.000000298023,0|0,1:0|1:0,0:0:0:0:
356,208,136488,2,0,L|276:208,1,70.000000298023,8|0,0:0|0:0,0:0:0:0:
76,196,136720,6,0,L|76:288,1,70.000000298023,0|0,1:0|1:0,0:0:0:0:
288,268,136953,1,10,0:0:0:0:
100,268,137069,1,8,0:0:0:0:
288,268,137185,1,2,1:2:0:0:
328,268,137243,1,0,1:0:0:0:
328,224,137302,1,0,1:0:0:0:
288,224,137360,1,0,1:0:0:0:
140,224,137418,1,8,0:0:0:0:
364,224,137534,6,0,P|408:188|364:136,1,140.000000596046,6|0,1:2|1:0,0:0:0:0:
152,128,137883,2,0,L|152:228,1,70.000000298023,10|0,0:0|1:0,0:0:0:0:
192,196,138057,1,0,1:0:0:0:
340,196,138116,2,0,L|408:196,2,46.6666668653487,10|0|0,0:0|1:0|1:0,0:0:0:0:
184,196,138348,2,0,L|116:196,2,46.6666668653487,8|0|0,0:0|1:0|1:0,0:0:0:0:
344,196,138581,5,10,0:0:0:0:
288,196,138658,1,0,1:0:0:0:
232,196,138736,1,0,1:0:0:0:
392,196,138813,1,8,0:0:0:0:
308,196,138930,1,0,1:0:0:0:
100,196,139046,1,10,0:0:0:0:
184,196,139162,1,0,1:0:0:0:
268,196,139278,1,0,0:0:0:0:
56,248,139395,6,0,P|20:212|76:136,1,140.000000596046,6|0,1:0|1:0,0:0:0:0:
276,132,139743,2,0,L|368:132,1,70.000000298023,14|0,1:2|0:0,0:0:0:0:
132,132,139976,2,0,L|40:132,1,70.000000298023,2|0,1:2|1:0,0:0:0:0:
252,132,140209,1,10,0:0:0:0:
44,128,140325,6,0,L|124:128,2,70.000000298023,2|0|0,0:0|1:0|1:0,0:0:0:0:
256,132,140674,2,0,L|256:208,1,70.000000298023,10|0,0:0|1:0,0:0:0:0:
48,212,140906,2,0,L|128:212,2,70.000000298023,2|0|8,1:2|1:0|0:0,0:0:0:0:
272,216,141255,6,0,L|104:216,1,140.000000596046,6|0,1:2|1:0,0:0:0:0:
344,216,141604,2,0,L|344:136,1,70.000000298023,10|0,0:0|0:0,0:0:0:0:
216,144,141837,2,0,L|124:144,1,70.000000298023,2|0,1:2|1:0,0:0:0:0:
336,144,142069,1,10,0:0:0:0:
128,144,142185,5,2,0:0:0:0:
44,148,142302,2,0,L|44:240,1,70.000000298023,0|0,1:0|1:0,0:0:0:0:
252,240,142534,2,0,L|252:152,1,70.000000298023,10|0,0:0|0:0,0:0:0:0:
40,180,142767,2,0,L|132:180,1,70.000000298023,2|0,1:2|1:0,0:0:0:0:
300,180,142999,1,8,0:0:0:0:
76,180,143116,6,0,P|36:148|84:76,1,140.000000596046,6|0,1:2|1:0,0:0:0:0:
280,68,143464,2,0,L|180:68,1,70.000000298023,10|0,0:0|1:0,0:0:0:0:
420,68,143697,2,0,L|340:68,1,70.000000298023,2|8,1:2|0:0,0:0:0:0:
160,68,143930,1,2,1:2:0:0:
368,68,144046,5,2,1:2:0:0:
180,68,144162,2,0,L|84:68,1,70.000000298023,8|0,0:0|1:0,0:0:0:0:
152,68,144337,1,0,1:0:0:0:
300,68,144395,2,0,L|300:156,1,70.000000298023,10|0,0:0|1:0,0:0:0:0:
216,140,144627,1,2,1:2:0:0:
424,136,144743,1,8,0:0:0:0:
232,136,144860,1,10,0:0:0:0:
456,136,144976,6,0,L|300:136,1,140.000000596046,4|0,1:2|1:0,0:0:0:0:
104,136,145325,2,0,L|104:224,1,70.000000298023,8|0,0:0|0:0,0:0:0:0:
228,208,145557,2,0,L|312:208,1,70.000000298023,2|0,1:2|1:0,0:0:0:0:
88,212,145790,2,0,L|88:128,1,70.000000298023,8|0,0:0|0:0,0:0:0:0:
300,136,146023,6,0,L|204:136,1,70.000000298023,2|0,1:2|1:0,0:0:0:0:
440,136,146255,2,0,L|440:216,1,70.000000298023,8|0,0:0|0:0,0:0:0:0:
248,212,146488,1,10,0:0:0:0:
60,212,146604,1,8,0:0:0:0:
248,212,146720,1,8,0:0:0:0:
472,220,146837,6,0,L|472:52,1,140.000000596046,6|0,1:2|1:0,0:0:0:0:
264,72,147185,2,0,L|160:72,1,70.000000298023,8|0,0:0|1:0,0:0:0:0:
404,68,147418,2,0,L|308:68,1,70.000000298023,8|0,0:0|1:0,0:0:0:0:
292,68,147592,1,0,1:0:0:0:
144,68,147650,2,0,L|144:140,1,70.000000298023,10|0,0:0|1:0,0:0:0:0:
372,72,147883,6,0,L|292:72,1,70.000000298023,10|0,0:0|1:0,0:0:0:0:
92,68,148116,2,0,L|-8:68,1,70.000000298023,8|2,0:0|1:2,0:0:0:0:
64,68,148290,1,0,1:0:0:0:
212,72,148348,2,0,L|260:72,1,35.0000001490115,8|0,0:0|1:0,0:0:0:0:
100,76,148464,2,0,L|40:76,1,35.0000001490115,0|0,1:0|1:0,0:0:0:0:
212,72,148581,1,10,0:0:0:0:
436,72,148697,6,0,L|436:228,1,140.000000596046,6|0,1:2|1:0,0:0:0:0:
224,212,149046,2,0,L|140:212,1,70.000000298023,10|0,0:0|1:0,0:0:0:0:
364,216,149278,2,0,L|284:216,1,70.000000298023,8|0,0:0|1:0,0:0:0:0:
252,216,149453,1,0,1:0:0:0:
104,220,149511,2,0,L|200:220,1,70.000000298023,10|0,0:0|1:0,0:0:0:0:
384,224,149743,6,0,L|384:144,1,70.000000298023,8|0,0:0|1:0,0:0:0:0:
172,152,149976,2,0,L|244:152,1,70.000000298023,10|0,0:0|1:0,0:0:0:0:
32,156,150209,2,0,L|120:156,1,70.000000298023,8|0,0:0|1:0,0:0:0:0:
292,156,150441,1,10,0:0:0:0:
68,156,150557,6,0,L|224:156,1,140.000000596046,4|0,1:2|1:0,0:0:0:0:
420,160,150906,2,0,L|420:80,1,70.000000298023,8|0,0:0|1:0,0:0:0:0:
208,96,151139,2,0,L|208:188,1,70.000000298023,8|0,0:0|1:0,0:0:0:0:
416,184,151371,2,0,L|316:184,1,70.000000298023,10|0,0:0|1:0,0:0:0:0:
136,192,151604,6,0,L|44:192,1,70.000000298023,10|0,0:0|1:0,0:0:0:0:
276,200,151837,2,0,L|276:112,1,70.000000298023,8|2,0:0|1:2,0:0:0:0:
236,128,152011,1,0,1:0:0:0:
88,136,152069,2,0,L|88:56,1,70.000000298023,8|0,0:0|1:0,0:0:0:0:
300,64,152302,2,0,L|396:64,1,70.000000298023,10|0,0:0|1:0,0:0:0:0:
160,68,152534,5,8,0:0:0:0:
340,68,152650,1,8,0:0:0:0:
240,68,152767,1,0,1:0:0:0:
464,68,152883,1,12,1:2:0:0:
464,68,153232,1,2,0:0:0:0:
268,76,153464,6,0,P|204:132|276:208,1,210.000000894069,2|0,0:0|0:0,0:0:0:0:
400,212,153930,2,0,P|472:256|392:316,1,210.000000894069,2|0,0:0|0:0,0:0:0:0:
188,324,154395,6,0,L|40:324,1,140.000000596046,14|0,1:2|1:0,0:0:0:0:
124,324,154743,1,0,1:0:0:0:
48,324,154860,1,0,1:0:0:0:
256,324,155092,2,0,L|256:248,1,70.000000298023,10|0,0:0|0:0,0:0:0:0:
180,256,155325,2,0,L|180:168,1,70.000000298023,0|0,1:0|1:0,0:0:0:0:
304,188,155557,1,0,1:0:0:0:
92,184,155790,1,8,0:0:0:0:
168,184,155906,1,8,0:0:0:0:
168,108,156023,1,0,1:0:0:0:
92,108,156139,1,0,0:0:0:0:
300,104,156255,6,0,L|440:104,1,140.000000596046,8|0,1:2|1:0,0:0:0:0:
364,104,156604,1,0,1:0:0:0:
440,104,156720,1,0,1:0:0:0:
228,104,156953,2,0,L|228:200,1,70.000000298023,8|0,0:0|0:0,0:0:0:0:
304,176,157185,2,0,L|304:268,1,70.000000298023,0|0,1:0|1:0,0:0:0:0:
176,256,157418,1,0,1:0:0:0:
384,260,157650,1,8,0:0:0:0:
308,260,157767,1,8,0:0:0:0:
308,184,157883,1,0,1:0:0:0:
384,184,157999,1,0,1:0:0:0:
172,192,158116,6,0,P|136:136|188:80,1,140.000000596046,14|0,1:2|1:0,0:0:0:0:
252,80,158464,1,0,1:0:0:0:
328,80,158581,1,2,1:2:0:0:
120,80,158813,2,0,L|120:168,1,70.000000298023,10|0,0:0|0:0,0:0:0:0:
196,156,159046,2,0,L|276:156,1,70.000000298023,0|0,1:0|1:0,0:0:0:0:
392,156,159278,1,2,1:2:0:0:
180,160,159511,2,0,L|180:244,1,70.000000298023,10|8,0:0|0:0,0:0:0:0:
388,236,159743,2,0,L|388:312,1,70.000000298023,2|0,1:2|1:0,0:0:0:0:
176,316,159976,6,0,L|336:316,1,140.000000596046,14|2,1:2|1:2,0:0:0:0:
240,316,160325,1,0,1:0:0:0:
164,316,160441,2,0,L|164:240,1,70.000000298023,2|0,1:2|0:0,0:0:0:0:
360,248,160674,2,0,L|264:248,1,70.000000298023,12|0,0:0|0:0,0:0:0:0:
212,248,160906,2,0,L|212:152,1,70.000000298023,0|0,1:0|1:0,0:0:0:0:
340,176,161139,1,0,1:0:0:0:
32,188,161371,2,0,L|32:104,1,70.000000298023,10|8,0:0|0:0,0:0:0:0:
228,120,161604,2,0,L|152:120,1,70.000000298023,0|0,1:0|1:0,0:0:0:0:
368,120,161837,6,0,L|508:120,1,140.000000596046,14|0,1:2|1:0,0:0:0:0:
432,120,162185,1,0,1:0:0:0:
356,120,162302,1,0,1:0:0:0:
148,116,162534,2,0,L|148:196,1,70.000000298023,10|0,0:0|0:0,0:0:0:0:
224,188,162767,2,0,L|312:188,2,70.000000298023,2|0|0,1:2|1:0|1:0,0:0:0:0:
96,188,163116,1,2,0:0:0:0:
294,188,163232,2,0,L|376:188,1,70.000000298023,8|8,0:0|0:0,0:0:0:0:
156,192,163464,2,0,L|68:192,1,70.000000298023,2|0,1:2|1:0,0:0:0:0:
300,124,163697,6,0,L|444:124,1,140.000000596046,12|2,1:2|1:2,0:0:0:0:
364,124,164046,1,0,1:0:0:0:
288,124,164162,1,0,1:0:0:0:
100,184,164395,2,0,L|184:184,1,70.000000298023,10|0,0:0|0:0,0:0:0:0:
248,184,164627,2,0,L|248:88,1,70.000000298023,0|0,1:0|1:0,0:0:0:0:
120,112,164860,2,0,L|192:112,1,70.000000298023,0|0,1:0|0:0,0:0:0:0:
384,120,165092,2,0,L|384:200,1,70.000000298023,10|8,0:0|0:0,0:0:0:0:
188,192,165325,2,0,L|264:192,1,70.000000298023,0|0,1:0|1:0,0:0:0:0:
468,196,165557,6,0,L|316:196,1,140.000000596046,14|0,1:2|1:0,0:0:0:0:
252,196,165906,1,0,1:0:0:0:
252,120,166023,1,0,1:0:0:0:
328,120,166139,1,0,0:0:0:0:
132,124,166255,2,0,L|40:124,1,70.000000298023,10|0,0:0|0:0,0:0:0:0:
140,124,166488,2,0,L|224:124,1,70.000000298023,0|0,1:0|1:0,0:0:0:0:
84,124,166720,2,0,L|84:44,1,70.000000298023,0|0,1:0|0:0,0:0:0:0:
280,60,166953,2,0,L|192:60,1,70.000000298023,8|8,0:0|0:0,0:0:0:0:
404,60,167185,2,0,L|488:60,1,70.000000298023,0|0,1:0|1:0,0:0:0:0:
264,60,167418,6,0,L|108:60,1,140.000000596046,12|0,1:2|1:0,0:0:0:0:
320,60,167767,1,12,1:2:0:0:
244,60,167883,2,0,L|152:60,1,70.000000298023,0|0,1:0|1:0,0:0:0:0:
372,60,168116,2,0,L|372:144,1,70.000000298023,12|0,1:2|0:0,0:0:0:0:
248,152,168348,2,0,L|248:232,1,70.000000298023,0|0,1:0|1:0,0:0:0:0:
376,224,168581,2,0,L|456:224,1,70.000000298023,0|0,1:0|1:0,0:0:0:0:
408,224,168755,1,0,1:0:0:0:
268,232,168813,2,0,L|184:232,1,70.000000298023,10|8,0:0|0:0,0:0:0:0:
396,232,169046,2,0,L|468:232,1,70.000000298023,8|8,0:0|0:0,0:0:0:0:
256,228,169278,6,0,L|92:228,1,140.000000596046,6|0,1:2|0:0,0:0:0:0:
244,228,169627,2,0,L|408:228,1,140.000000596046,0|0,1:0|0:0,0:0:0:0:
188,228,169976,2,0,L|96:228,1,70.000000298023,2|0,1:2|0:0,0:0:0:0:
244,228,170209,2,0,L|244:144,1,70.000000298023,2|0,1:2|1:0,0:0:0:0:
120,160,170441,2,0,L|216:160,1,70.000000298023,2|0,1:2|0:0,0:0:0:0:
388,164,170674,1,8,0:0:0:0:
80,172,170906,2,0,L|80:84,1,70.000000298023,10|8,0:0|0:0,0:0:0:0:
292,92,171139,6,0,L|124:92,1,140.000000596046,0|2,1:0|1:2,0:0:0:0:
280,92,171488,2,0,L|368:92,2,70.000000298023,0|0|0,1:0|0:0|1:0,0:0:0:0:
240,92,171778,1,0,1:0:0:0:
96,92,171837,2,0,L|16:92,1,70.000000298023,10|0,0:0|0:0,0:0:0:0:
104,92,172069,2,0,L|180:92,2,70.000000298023,0|0|0,1:0|1:0|1:0,0:0:0:0:
412,96,172534,2,0,L|312:96,1,70.000000298023,10|8,0:0|0:0,0:0:0:0:
144,96,172767,2,0,L|60:96,1,70.000000298023,8|0,0:0|1:0,0:0:0:0:
284,92,172999,6,0,P|328:132|264:184,1,140.000000596046,2|0,1:2|0:0,0:0:0:0:
160,192,173348,2,0,P|120:232|176:292,1,140.000000596046,0|0,1:0|1:0,0:0:0:0:
356,296,173697,2,0,L|192:296,1,140.000000596046,10|0,0:0|0:0,0:0:0:0:
344,300,174046,6,0,P|380:268|328:192,1,140.000000596046,0|0,1:0|1:0,0:0:0:0:
148,188,174395,2,0,L|244:188,1,70.000000298023,8|8,0:0|0:0,0:0:0:0:
92,192,174627,2,0,L|12:192,1,70.000000298023,0|0,1:0|0:0,0:0:0:0:
232,196,174860,6,0,L|396:196,1,140.000000596046,12|0,1:2|1:0,0:0:0:0:
160,196,175209,2,0,L|316:196,1,140.000000596046,12|0,1:2|1:0,0:0:0:0:
92,196,175557,6,0,L|248:196,1,140.000000596046,12|0,1:2|1:0,0:0:0:0:
308,196,175906,1,0,1:0:0:0:
304,120,176023,1,0,1:0:0:0:
228,120,176139,2,0,L|168:120,1,35.0000001490115,0|0,1:0|1:0,0:0:0:0:
332,120,176255,2,0,L|332:68,1,35.0000001490115,8|0,0:0|1:0,0:0:0:0:
192,84,176371,2,0,L|136:84,1,35.0000001490115,8|0,0:0|1:0,0:0:0:0:
300,84,176488,2,0,L|368:84,1,35.0000001490115,8|0,0:0|1:0,0:0:0:0:
196,84,176604,2,0,L|196:24,1,35.0000001490115,8|0,0:0|1:0,0:0:0:0:
344,48,176720,6,0,L|488:48,1,140.000000596046,4|0,1:2|0:0,0:0:0:0:
288,44,177069,2,0,L|132:44,1,140.000000596046,8|0,0:0|1:0,0:0:0:0:
276,48,177418,2,0,P|324:76|264:132,1,140.000000596046,0|0,1:0|1:0,0:0:0:0:
248,140,177709,1,0,1:0:0:0:
100,144,177767,2,0,P|60:172|116:232,1,140.000000596046,12|0,1:2|0:0,0:0:0:0:
300,232,178116,2,0,L|384:232,1,70.000000298023,8|8,0:0|0:0,0:0:0:0:
244,232,178348,2,0,L|156:232,1,70.000000298023,0|0,1:0|1:0,0:0:0:0:
384,232,178581,5,12,1:2:0:0:
204,232,178697,1,8,0:0:0:0:
384,232,178813,1,8,0:0:0:0:
188,232,178930,2,0,L|188:132,1,70.000000298023,8|0,0:0|0:0,0:0:0:0:
384,156,179162,2,0,L|288:156,1,70.000000298023,8|0,0:0|0:0,0:0:0:0:
104,160,179395,6,0,P|64:144|120:84,1,140.000000596046,8|0,0:0|1:0,0:0:0:0:
140,80,179685,1,0,1:0:0:0:
280,80,179743,2,0,L|384:80,1,70.000000298023,8|0,0:0|1:0,0:0:0:0:
152,80,179976,1,8,0:0:0:0:
56,84,180092,1,0,1:0:0:0:
152,80,180209,1,0,1:0:0:0:
56,84,180325,1,0,1:0:0:0:
252,84,180441,6,0,L|464:84,2,210.000000894069,6|2|2,3:1|0:0|0:0,0:0:0:0:
96,88,181371,2,0,L|96:168,1,70.000000298023,0|0,3:0|3:0,0:0:0:0:
172,164,181604,2,0,L|256:164,1,70.000000298023,0|0,3:0|3:0,0:0:0:0:
116,168,181837,1,0,3:0:0:0:
40,168,181953,1,0,3:0:0:0:
40,244,182069,1,0,3:0:0:0:
116,244,182185,1,0,3:0:0:0:
244,244,182302,6,0,P|320:240|412:136,2,210.000000894069,2|2|2,0:0|0:0|0:0,0:0:0:0:
396,256,183232,2,0,L|396:172,1,70.000000298023,0|0,3:0|3:0,0:0:0:0:
320,188,183464,2,0,L|232:188,1,70.000000298023,0|0,3:0|3:0,0:0:0:0:
376,192,183697,2,0,P|408:160|384:76,1,140.000000596046,0|0,3:0|3:0,0:0:0:0:
176,52,184162,6,0,L|404:52,2,210.000000894069,2|2|2,1:2|0:0|0:0,0:0:0:0:
332,52,185092,2,0,L|332:144,1,70.000000298023,0|0,3:0|3:0,0:0:0:0:
256,124,185325,2,0,L|176:124,1,70.000000298023,0|0,3:0|3:0,0:0:0:0:
312,124,185557,1,2,0:0:0:0:
388,128,185674,1,0,3:0:0:0:
388,204,185790,1,0,3:0:0:0:
312,204,185906,1,0,3:0:0:0:
184,208,186023,6,0,P|108:208|4:108,2,210.000000894069,2|2|2,0:0|0:0|0:0,0:0:0:0:
396,220,186953,2,0,P|428:172|320:92,1,210.000000894069,2|0,0:0|0:0,0:0:0:0:
208,92,187418,1,2,0:0:0:0:
173,95,187476,1,0,0:0:0:0:
145,115,187534,1,0,0:0:0:0:
129,146,187592,1,0,0:0:0:0:
130,180,187650,1,0,0:0:0:0:
148,210,187708,1,0,0:0:0:0:
178,227,187766,1,0,0:0:0:0:
213,228,187824,1,0,0:0:0:0:
356,228,187883,6,0,P|388:168|348:104,1,140.000000596046,6|2,1:0|0:0,0:0:0:0:
204,108,188348,2,0,L|128:108,2,70.000000298023,2|0|2,0:0|0:0|0:0,0:0:0:0:
416,96,188813,6,0,L|260:96,2,140.000000596046,2|2|2,0:0|0:0|0:0,0:0:0:0:
204,96,189511,2,0,L|344:96,2,140.000000596046,2|2|2,0:0|0:0|0:0,0:0:0:0:
416,96,190209,6,0,L|416:244,1,140.000000596046,2|2,0:0|0:0,0:0:0:0:
264,212,190674,1,2,0:0:0:0:
56,212,190906,2,0,L|196:212,2,140.000000596046,2|2|2,0:0|0:0|0:0,0:0:0:0:
364,212,191604,6,0,L|204:212,1,140.000000596046,2|2,1:2|0:0,0:0:0:0:
68,216,192069,1,2,0:0:0:0:
144,216,192185,1,0,0:0:0:0:
220,216,192302,1,2,0:0:0:0:
428,208,192534,2,0,L|280:208,2,140.000000596046,2|2|2,0:0|0:0|0:0,0:0:0:0:
216,212,193232,1,2,0:0:0:0:
424,220,193464,6,0,L|424:68,1,140.000000596046,2|2,0:0|0:0,0:0:0:0:
268,84,193930,2,0,L|116:84,1,140.000000596046,2|2,0:0|0:0,0:0:0:0:
340,88,194395,6,0,L|340:236,1,140.000000596046,2|2,0:0|0:0,0:0:0:0:
92,200,194965,6,0,L|92:356,1,140.000000596046,2|2,0:0|0:0,0:0:0:0:
256,192,195579,12,0,200502,0:0:0:0:
