osu file format v14

[General]
AudioFilename: audio.mp3
AudioLeadIn: 0
PreviewTime: 37825
Countdown: 0
SampleSet: Soft
StackLeniency: 0.7
Mode: 2
LetterboxInBreaks: 0
WidescreenStoryboard: 0

[Editor]
DistanceSpacing: 1.2
BeatDivisor: 4
GridSize: 4
TimelineZoom: 2.2

[Metadata]
Title:INHERIT
TitleUnicode:IИHERIT
Artist:ELFENSJoN
ArtistUnicode:ELFENSJóN
Creator:4rcheR-
Version:SALAD
Source:
Tags:archer fa featured artist Mappers' Guild mg mpg j-rock jrock rock japanese jp male vocals vocal エルフェンシオン STYX Keisuke Kurose 黒瀬圭亮 Kurose.K doujin アストラル ASTRAL 藤田和哉 kazuya mic かけやん kakeyan みゅー myu Imy Electronic
BeatmapID:3773941
BeatmapSetID:1837280

[Difficulty]
HPDrainRate:3
CircleSize:2.8
OverallDifficulty:7
ApproachRate:7
SliderMultiplier:0.80000000596046
SliderTickRate:1

[Events]
//Background and Video events
0,0,"bg.jpg",0,0
//Break Periods
//Storyboard Layer 0 (Background)
//Storyboard Layer 1 (Fail)
//Storyboard Layer 2 (Pass)
//Storyboard Layer 3 (Foreground)
//Storyboard Layer 4 (Overlay)
//Storyboard Sound Samples

[TimingPoints]
1837,232.558139534884,4,2,22,50,1,0
8697,-100,4,2,22,5,0,0
8813,-100,4,2,22,30,0,0
9162,-100,4,2,22,5,0,0
9278,-100,4,2,22,70,0,0
16720,-100,4,2,22,60,0,0
24046,-100,4,2,22,70,0,0
31604,-100,4,2,22,60,0,0
35092,-100,4,2,22,5,0,0
35209,-100,4,2,22,65,0,0
35441,-100,4,2,22,5,0,0
35557,-100,4,2,22,65,0,0
37069,-100,4,2,22,70,0,0
38581,-100,4,2,22,75,0,0
38930,-100,4,2,22,80,0,1
53813,-100,4,2,22,80,0,0
54162,-100,4,2,22,80,0,1
63581,-100,4,2,22,70,0,0
65092,-100,4,2,22,60,0,0
79976,-100,4,2,22,65,0,0
83697,-100,4,2,22,70,0,0
94860,-100,4,2,22,50,0,0
102302,-100,4,2,22,55,0,0
109743,-100,4,2,22,60,0,0
117418,-100,4,2,22,5,0,0
117534,-100,4,2,22,60,0,0
117767,-100,4,2,22,5,0,0
117883,-100,4,2,22,60,0,0
119046,-100,4,2,22,70,0,0
124395,-100,4,2,22,5,0,0
124511,-100,4,2,22,75,0,1
124627,-100,4,2,22,75,0,0
128232,-100,4,2,22,80,0,1
139395,-100,4,2,22,80,0,0
139743,-100,4,2,22,80,0,1
152883,-100,4,2,22,50,0,0
153930,-100,4,2,22,55,0,0
154395,-100,4,2,22,60,0,0
169278,-100,4,2,22,65,0,0
176720,-100,4,2,22,70,0,0
178581,-100,4,2,22,75,0,0
180441,-100,4,2,22,50,0,0
187883,-100,4,2,22,55,0,0
194395,267.857142857143,4,2,22,50,1,0
194662,303.030303030303,4,2,22,45,1,0
194965,307.692307692308,4,2,22,40,1,0
195272,307.692307692308,4,2,22,35,1,0
196502,-100,4,2,22,30,0,0
197733,-100,4,2,22,25,0,0
198964,-100,4,2,22,20,0,0
200195,-100,4,2,22,15,0,0
200502,-100,4,2,22,10,0,0

[Colours]
Combo1 : 128,128,128
Combo2 : 192,192,192
Combo3 : 255,0,0

[HitObjects]
268,264,1836,6,0,P|316:224|252:164,1,160.000001192092,2|2,1:2|1:2,0:0:0:0:
72,168,2767,2,0,L|240:136,1,160.000001192092,2|2,3:2|3:2,0:0:0:0:
84,136,3581,6,0,P|16:184|88:236,1,200.000001490115,2|2,3:2|3:2,0:0:0:0:
280,236,4627,2,0,P|336:200|280:132,1,160.000001192092,2|2,3:2|3:2,0:0:0:0:
152,236,5441,1,2,3:2:0:0:
104,236,5557,6,0,P|52:212|116:160,1,160.000001192092,0|10,1:0|3:0,0:0:0:0:
296,136,6488,2,0,L|124:120,1,160.000001192092,2|2,3:2|3:2,0:0:0:0:
280,112,7302,6,0,P|332:168|256:248,1,200.000001490115,2|2,3:2|3:2,0:0:0:0:
72,244,8348,1,2,3:2:0:0:
72,244,8813,1,2,3:2:0:0:
424,248,9278,5,6,1:2:0:0:
424,248,9511,1,0,1:0:0:0:
328,248,9743,2,0,L|260:248,1,40.000000298023,8|2,0:0|1:2,0:0:0:0:
384,244,10092,6,0,P|400:212|368:160,1,80.000000596046,10|0,1:2|1:0,0:0:0:0:
336,172,10441,1,10,0:0:0:0:
240,168,10674,2,0,L|168:168,1,40.000000298023,8|10,0:0|0:0,0:0:0:0:
408,172,11023,6,0,P|440:132|376:84,1,120.000000894069,6|2,1:2|1:2,0:0:0:0:
308,84,11604,1,10,0:0:0:0:
260,84,11720,1,4,1:2:0:0:
172,84,11953,6,0,L|20:84,1,120.000000894069,14|10,1:2|0:0,0:0:0:0:
148,84,12534,1,10,0:0:0:0:
196,84,12650,1,10,0:0:0:0:
244,84,12767,1,10,0:0:0:0:
36,84,12999,6,0,L|36:196,1,80.000000596046,4|0,1:2|1:0,0:0:0:0:
132,172,13464,2,0,L|188:172,1,40.000000298023,8|2,0:0|1:2,0:0:0:0:
268,176,13813,6,0,P|284:220|244:272,1,80.000000596046,10|0,0:0|1:0,0:0:0:0:
224,252,14162,1,10,0:0:0:0:
128,256,14395,2,0,L|128:200,1,40.000000298023,10|2,0:0|1:2,0:0:0:0:
336,208,14743,6,0,L|480:208,1,120.000000894069,6|10,1:2|0:0,0:0:0:0:
360,208,15325,2,0,L|284:208,1,40.000000298023,10|0,0:0|1:0,0:0:0:0:
224,216,15674,6,0,P|192:176|244:112,1,120.000000894069,10|10,0:0|0:0,0:0:0:0:
316,120,16255,1,10,0:0:0:0:
364,120,16371,1,8,0:0:0:0:
412,120,16488,1,8,0:0:0:0:
204,116,16720,6,0,L|60:116,1,120.000000894069,14|0,1:0|1:0,0:0:0:0:
84,116,17418,1,2,1:2:0:0:
180,116,17650,2,0,P|272:116|304:116,1,120.000000894069,2|2,0:0|1:2,0:0:0:0:
348,116,18116,2,0,L|348:224,1,80.000000596046,8|2,0:0|0:0,0:0:0:0:
252,208,18581,6,0,L|100:208,2,120.000000894069,0|0|2,1:0|1:0|1:2,0:0:0:0:
132,208,19511,2,0,L|132:56,1,120.000000894069,2|2,0:0|1:2,0:0:0:0:
180,92,19976,2,0,L|280:92,1,80.000000596046,8|2,0:0|1:2,0:0:0:0:
356,92,20441,6,0,L|208:92,2,120.000000894069,2|0|2,1:2|1:0|1:2,0:0:0:0:
260,80,21371,2,0,L|116:80,1,120.000000894069,2|2,0:0|1:2,0:0:0:0:
188,80,21837,2,0,L|284:80,1,80.000000596046,8|2,0:0|0:0,0:0:0:0:
60,76,22302,6,0,L|60:144,1,40.000000298023,8|8,0:0|0:0,0:0:0:0:
156,120,22650,2,0,L|280:120,2,120.000000894069,4|10|0,1:2|0:0|1:0,0:0:0:0:
108,120,23464,2,0,L|108:204,1,80.000000596046,10|8,0:0|0:0,0:0:0:0:
156,120,23813,1,0,1:0:0:0:
364,124,24046,6,0,P|404:180|376:216,1,120.000000894069,4|10,1:2|0:0,0:0:0:0:
284,232,24627,2,0,L|176:232,1,80.000000596046,0|10,1:0|0:0,0:0:0:0:
108,240,25092,6,0,L|108:140,1,80.000000596046,0|10,1:0|0:0,0:0:0:0:
204,156,25557,2,0,L|272:156,1,40.000000298023,2|2,1:2|1:2,0:0:0:0:
36,172,25906,6,0,P|8:136|60:64,1,120.000000894069,6|10,1:2|0:0,0:0:0:0:
128,64,26488,2,0,L|240:64,1,80.000000596046,0|10,1:0|1:2,0:0:0:0:
304,68,26953,6,0,L|304:168,1,80.000000596046,0|8,1:0|0:0,0:0:0:0:
208,152,27418,2,0,L|164:152,1,40.000000298023,2|2,1:2|1:2,0:0:0:0:
376,148,27767,6,0,P|404:208|372:256,1,120.000000894069,6|10,1:2|0:0,0:0:0:0:
288,276,28348,2,0,L|392:276,1,80.000000596046,10|10,0:0|0:0,0:0:0:0:
272,276,28813,6,0,L|176:276,2,80.000000596046,10|10|10,0:0|0:0|0:0,0:0:0:0:
368,276,29511,1,10,0:0:0:0:
160,280,29743,6,0,L|4:280,1,120.000000894069,6|2,1:2|1:2,0:0:0:0:
88,280,30209,1,8,0:0:0:0:
296,280,30441,6,0,P|352:292|384:144,1,240.000001788138,2|10,1:2|0:0,0:0:0:0:
348,172,31255,1,8,0:0:0:0:
300,172,31371,1,8,0:0:0:0:
92,160,31604,6,0,L|92:300,1,120.000000894069,2|0,1:2|1:0,0:0:0:0:
236,284,32302,1,2,0:0:0:0:
332,284,32534,2,0,P|376:248|320:168,1,160.000001192092,2|2,0:0|0:0,0:0:0:0:
192,168,33348,6,0,L|344:168,1,120.000000894069,2|0,1:2|1:0,0:0:0:0:
120,172,34162,1,2,0:0:0:0:
216,172,34395,2,0,L|392:172,1,160.000001192092,2|10,0:0|1:2,0:0:0:0:
88,184,35209,6,0,P|124:248|176:264,1,120.000000894069,2|0,1:2|1:0,0:0:0:0:
268,296,35790,2,0,L|360:296,1,80.000000596046,0|2,1:0|1:2,0:0:0:0:
252,296,36255,2,0,L|152:296,1,80.000000596046,2|2,1:2|1:2,0:0:0:0:
76,296,36720,2,0,L|76:236,1,40.000000298023,10|2,0:0|1:2,0:0:0:0:
284,244,37069,6,0,L|404:244,1,120.000000894069,14|8,1:2|0:0,0:0:0:0:
308,244,37650,2,0,L|232:244,1,40.000000298023,8|8,0:0|0:0,0:0:0:0:
60,260,37999,6,0,P|16:228|76:112,1,200.000001490115,4|6,1:2|1:2,0:0:0:0:
360,156,38930,6,0,L|224:156,1,120.000000894069,6|10,1:2|0:0,0:0:0:0:
136,156,39511,2,0,P|120:200|148:248,1,80.000000596046,2|10,1:2|0:0,0:0:0:0:
188,228,39860,6,0,L|312:228,1,120.000000894069,2|10,0:0|0:0,0:0:0:0:
204,228,40441,2,0,L|152:228,1,40.000000298023,2|0,1:2|1:0,0:0:0:0:
380,236,40790,6,0,P|417:193|389:144,1,120.000000894069,6|10,1:2|0:0,0:0:0:0:
283,140,41371,2,0,L|203:140,1,80.000000596046,2|10,1:2|0:0,0:0:0:0:
152,140,41720,6,0,P|111:96|163:60,1,120.000000894069,2|10,0:0|0:0,0:0:0:0:
247,56,42302,2,0,L|296:56,1,40.000000298023,2|0,1:2|1:0,0:0:0:0:
72,228,42650,6,0,P|52:188|96:136,1,120.000000894069,6|10,1:2|0:0,0:0:0:0:
200,124,43232,2,0,L|92:124,1,80.000000596046,2|10,1:2|0:0,0:0:0:0:
172,124,43581,6,0,L|308:124,1,120.000000894069,2|10,0:0|0:0,0:0:0:0:
188,124,44162,2,0,L|140:124,1,40.000000298023,2|0,1:2|1:0,0:0:0:0:
364,128,44511,6,0,L|492:128,1,120.000000894069,6|10,1:2|0:0,0:0:0:0:
380,224,45092,2,0,L|268:224,1,80.000000596046,2|2,1:2|1:2,0:0:0:0:
352,224,45441,1,2,1:2:0:0:
404,224,45557,6,0,L|404:124,1,80.000000596046,8|8,0:0|0:0,0:0:0:0:
300,140,46023,1,8,0:0:0:0:
248,140,46139,1,8,0:0:0:0:
196,140,46255,1,8,0:0:0:0:
144,140,46371,5,4,1:0:0:0:
444,144,46720,2,0,L|444:240,1,80.000000596046,14|10,1:2|0:0,0:0:0:0:
340,228,47185,1,10,0:0:0:0:
236,228,47418,6,0,B|332:228,1,80.000000596046,8|10,0:0|0:0,0:0:0:0:
420,232,47883,2,0,L|420:180,1,40.000000298023,10|8,0:0|0:0,0:0:0:0:
204,172,48232,6,0,L|76:172,1,120.000000894069,6|8,1:2|0:0,0:0:0:0:
188,172,48813,2,0,L|272:172,1,80.000000596046,2|8,1:2|0:0,0:0:0:0:
372,180,49278,6,0,L|456:180,1,80.000000596046,2|8,1:2|0:0,0:0:0:0:
348,180,49743,2,0,L|296:180,1,40.000000298023,2|0,1:2|1:0,0:0:0:0:
92,192,50092,6,0,L|92:64,1,120.000000894069,6|8,1:2|0:0,0:0:0:0:
196,76,50674,2,0,L|296:76,1,80.000000596046,0|8,1:0|0:0,0:0:0:0:
172,76,51139,6,0,L|268:76,1,80.000000596046,0|10,1:0|0:0,0:0:0:0:
356,84,51604,2,0,L|356:136,1,40.000000298023,10|0,0:0|1:0,0:0:0:0:
140,124,51953,6,0,L|8:124,1,120.000000894069,6|10,1:2|0:0,0:0:0:0:
124,116,52534,2,0,L|208:116,1,80.000000596046,10|8,0:0|0:0,0:0:0:0:
308,120,52999,6,0,P|320:148|296:204,1,80.000000596046,10|8,0:0|0:0,0:0:0:0:
204,196,53464,2,0,L|152:196,1,40.000000298023,10|0,0:0|1:0,0:0:0:0:
60,196,53813,5,6,1:0:0:0:
360,328,54162,2,0,L|464:328,2,80.000000596046,14|2|10,0:0|1:2|0:0,0:0:0:0:
308,328,54743,6,0,P|276:296|324:236,1,120.000000894069,2|10,0:0|0:0,0:0:0:0:
412,240,55325,2,0,L|460:240,1,40.000000298023,2|0,1:2|1:0,0:0:0:0:
236,252,55674,6,0,P|204:280|252:348,1,120.000000894069,6|10,1:2|0:0,0:0:0:0:
332,344,56255,2,0,L|248:344,1,80.000000596046,2|10,1:2|0:0,0:0:0:0:
200,344,56604,6,0,P|164:316|220:260,1,120.000000894069,2|10,0:0|0:2,0:0:0:0:
296,256,57185,2,0,L|296:216,1,40.000000298023,2|0,1:2|1:0,0:0:0:0:
80,224,57534,6,0,P|44:252|108:296,1,120.000000894069,6|10,1:2|0:0,0:0:0:0:
180,320,58116,2,0,L|284:320,1,80.000000596046,2|2,1:2|1:2,0:0:0:0:
312,320,58464,6,0,P|336:284|312:216,1,120.000000894069,2|10,1:2|0:0,0:0:0:0:
208,228,59046,2,0,L|160:228,1,40.000000298023,2|8,0:0|0:0,0:0:0:0:
384,236,59395,6,0,L|504:236,1,120.000000894069,6|8,1:2|0:0,0:0:0:0:
400,236,59976,2,0,L|288:236,1,80.000000596046,2|8,1:2|0:0,0:0:0:0:
424,236,60441,6,0,P|444:276|396:308,1,80.000000596046,2|8,1:2|0:0,0:0:0:0:
324,304,60906,2,0,L|264:304,1,40.000000298023,10|8,0:0|0:0,0:0:0:0:
68,276,61255,6,0,P|32:316|84:360,1,120.000000894069,6|8,1:2|0:0,0:0:0:0:
172,364,61837,2,0,L|276:364,1,80.000000596046,8|10,0:0|0:0,0:0:0:0:
356,356,62302,2,0,L|244:356,1,80.000000596046,10|8,0:0|0:0,0:0:0:0:
380,352,62767,1,10,0:0:0:0:
432,348,62883,1,0,1:0:0:0:
380,344,62999,1,8,0:0:0:0:
276,344,63232,6,0,L|276:288,1,40.000000298023,10|8,0:0|0:0,0:0:0:0:
492,300,63581,1,12,1:2:0:0:
492,300,63930,1,2,0:0:0:0:
396,300,64162,2,0,B|224:300,1,160.000001192092,2|10,0:0|0:0,0:0:0:0:
332,300,64860,1,8,0:0:0:0:
124,296,65092,6,0,L|20:296,1,80.000000596046,14|0,1:2|1:0,0:0:0:0:
44,224,65441,1,0,1:0:0:0:
92,224,65557,1,0,1:0:0:0:
188,224,65790,6,0,L|296:224,1,80.000000596046,10|0,0:0|1:0,0:0:0:0:
316,224,66139,1,0,1:0:0:0:
268,224,66255,1,0,1:0:0:0:
172,224,66488,1,8,0:0:0:0:
220,224,66604,1,8,0:0:0:0:
268,224,66720,1,0,1:0:0:0:
476,228,66953,6,0,P|488:192|464:136,1,80.000000596046,8|0,1:2|1:0,0:0:0:0:
428,152,67302,1,0,1:0:0:0:
380,152,67418,1,0,1:0:0:0:
284,152,67650,6,0,P|260:116|300:92,1,80.000000596046,8|0,0:0|1:0,0:0:0:0:
328,92,67999,1,0,1:0:0:0:
376,92,68116,1,0,1:0:0:0:
168,84,68348,1,8,0:0:0:0:
120,84,68464,1,8,0:0:0:0:
72,84,68581,1,0,1:0:0:0:
280,84,68813,6,0,L|364:84,1,80.000000596046,14|0,1:2|1:0,0:0:0:0:
360,84,69162,1,0,1:0:0:0:
312,84,69278,1,0,1:0:0:0:
216,80,69511,6,0,L|112:80,1,80.000000596046,8|0,0:0|1:0,0:0:0:0:
88,80,69860,1,0,1:0:0:0:
136,80,69976,1,2,1:2:0:0:
344,156,70209,1,8,0:0:0:0:
392,156,70325,1,10,0:0:0:0:
440,156,70441,1,4,1:2:0:0:
232,156,70674,6,0,L|128:156,1,80.000000596046,10|0,1:2|1:0,0:0:0:0:
104,156,71023,1,0,1:0:0:0:
152,156,71139,1,0,1:0:0:0:
248,156,71371,6,0,L|360:156,1,80.000000596046,12|0,0:0|1:0,0:0:0:0:
280,156,71720,1,0,1:0:0:0:
232,156,71837,1,0,1:0:0:0:
328,156,72069,1,10,0:0:0:0:
376,156,72185,1,8,0:0:0:0:
328,156,72302,1,0,1:0:0:0:
120,156,72534,6,0,P|100:196|140:228,1,80.000000596046,14|0,1:2|1:0,0:0:0:0:
164,220,72883,1,0,1:0:0:0:
213,222,72999,1,0,1:0:0:0:
117,222,73232,6,0,L|116:136,1,80.000000596046,10|2,0:0|1:2,0:0:0:0:
164,140,73581,1,0,1:0:0:0:
212,140,73697,1,0,1:0:0:0:
420,144,73930,1,8,0:0:0:0:
468,144,74046,1,8,0:0:0:0:
420,144,74162,1,2,1:2:0:0:
216,140,74395,6,0,L|128:140,1,80.000000596046,12|0,0:0|1:0,0:0:0:0:
184,140,74743,1,0,1:0:0:0:
232,140,74860,1,0,1:0:0:0:
328,140,75092,6,0,L|444:140,1,80.000000596046,10|0,0:0|1:0,0:0:0:0:
360,140,75441,1,0,1:0:0:0:
312,140,75557,1,0,1:0:0:0:
216,140,75790,1,10,0:0:0:0:
168,140,75906,1,8,0:0:0:0:
120,140,76023,1,0,1:0:0:0:
328,140,76255,6,0,L|328:248,1,80.000000596046,10|0,1:2|1:0,0:0:0:0:
280,220,76604,1,0,1:0:0:0:
232,220,76720,1,0,1:0:0:0:
136,220,76953,6,0,L|44:220,1,80.000000596046,10|2,0:0|1:2,0:0:0:0:
104,220,77302,1,0,1:0:0:0:
152,220,77418,1,0,1:0:0:0:
360,220,77650,1,8,0:0:0:0:
408,220,77767,1,8,0:0:0:0:
456,220,77883,1,2,1:0:0:0:
248,224,78116,6,0,L|100:220,2,120.000000894069,12|10|10,1:2|0:0|0:0,0:0:0:0:
344,216,79046,6,0,L|408:216,2,40.000000298023,0|0|0,1:0|1:0|1:0,0:0:0:0:
248,216,79511,1,10,0:0:0:0:
200,216,79627,1,8,0:0:0:0:
152,216,79743,1,8,0:0:0:0:
360,216,79976,6,0,P|416:176|344:52,1,240.000001788138,6|2,1:2|1:2,0:0:0:0:
252,56,80906,2,0,L|124:56,2,120.000000894069,10|2|2,1:2|1:2|1:2,0:0:0:0:
348,52,81837,5,0,0:0:0:0:
396,52,81953,2,0,L|396:192,1,120.000000894069,2|0,1:2|1:0,0:0:0:0:
300,172,82534,1,2,1:2:0:0:
204,176,82767,2,0,L|204:284,1,80.000000596046,8|0,0:0|1:0,0:0:0:0:
300,252,83232,1,10,0:0:0:0:
348,252,83348,1,0,1:0:0:0:
396,252,83464,1,0,1:0:0:0:
188,252,83697,6,0,L|64:252,1,120.000000894069,14|10,1:2|1:2,0:0:0:0:
212,252,84395,2,0,L|316:252,2,80.000000596046,10|10|10,0:0|0:0|0:0,0:0:0:0:
420,252,85092,5,14,1:2:0:0:
420,252,85209,2,0,L|304:252,1,80.000000596046,10|2,0:0|1:2,0:0:0:0:
196,248,85790,2,0,L|84:248,2,80.000000596046,10|10|10,0:0|0:0|0:0,0:0:0:0:
404,252,86488,6,0,P|432:200|384:136,1,120.000000894069,14|10,1:2|1:2,0:0:0:0:
264,148,87185,1,10,0:0:0:0:
168,148,87418,1,10,0:0:0:0:
72,148,87650,1,2,1:2:0:0:
280,148,87883,5,14,1:2:0:0:
328,148,87999,2,0,L|328:240,1,80.000000596046,10|2,0:0|1:2,0:0:0:0:
184,216,88581,1,10,0:0:0:0:
280,216,88813,1,2,0:0:0:0:
376,216,89046,1,2,0:0:0:0:
168,212,89278,6,0,L|24:212,1,120.000000894069,14|10,1:2|1:2,0:0:0:0:
192,212,89976,1,10,0:0:0:0:
288,212,90209,1,10,0:0:0:0:
384,212,90441,1,10,1:2:0:0:
176,216,90674,5,14,1:2:0:0:
128,216,90790,2,0,L|128:128,1,80.000000596046,10|2,0:0|1:2,0:0:0:0:
272,132,91371,1,10,0:0:0:0:
176,132,91604,1,10,0:0:0:0:
80,132,91837,1,10,0:0:0:0:
288,128,92069,6,0,L|420:128,1,120.000000894069,10|10,1:2|1:2,0:0:0:0:
264,128,92767,1,10,0:0:0:0:
168,128,92999,1,10,0:0:0:0:
72,128,93232,1,2,1:2:0:0:
280,132,93464,6,0,L|404:132,2,120.000000894069,14|10|10,1:2|0:0|0:0,0:0:0:0:
376,60,94395,2,0,L|460:60,1,80.000000596046,2|10,1:2|0:0,0:0:0:0:
248,60,94860,6,0,L|72:60,1,160.000001192092,6|2,1:0|0:0,0:0:0:0:
184,56,95557,2,0,L|352:56,1,160.000001192092,2|2,0:0|0:0,0:0:0:0:
248,48,96255,1,0,0:0:0:0:
152,48,96488,6,0,P|100:100|160:144,1,160.000001192092,2|2,0:0|0:0,0:0:0:0:
248,140,97185,1,2,0:0:0:0:
344,136,97418,2,0,P|396:172|340:232,1,160.000001192092,2|0,0:0|0:0,0:0:0:0:
252,224,98116,2,0,L|156:224,1,80.000000596046,2|2,0:0|0:0,0:0:0:0:
380,224,98581,6,0,L|380:56,1,160.000001192092,2|2,1:2|0:0,0:0:0:0:
284,60,99278,2,0,L|112:60,1,160.000001192092,2|2,0:0|0:0,0:0:0:0:
220,56,99976,1,0,0:0:0:0:
316,52,100209,6,0,P|360:96|308:172,1,160.000001192092,2|2,0:0|0:0,0:0:0:0:
220,168,100906,1,2,0:0:0:0:
124,168,101139,2,0,L|296:168,1,160.000001192092,2|0,0:0|0:0,0:0:0:0:
380,172,101837,2,0,L|380:256,1,80.000000596046,2|2,0:0|0:0,0:0:0:0:
172,232,102302,6,0,P|124:208|184:140,1,160.000001192092,2|2,1:2|0:0,0:0:0:0:
264,128,102999,2,0,L|432:128,1,160.000001192092,2|2,0:0|0:0,0:0:0:0:
328,132,103697,1,0,0:0:0:0:
232,140,103930,6,0,L|64:140,1,160.000001192092,2|2,0:0|0:0,0:0:0:0:
168,140,104627,1,2,0:0:0:0:
264,144,104860,2,0,P|304:168|260:248,1,160.000001192092,2|0,0:0|0:0,0:0:0:0:
164,260,105557,2,0,L|80:260,1,80.000000596046,2|2,0:0|0:0,0:0:0:0:
292,260,106023,6,0,L|456:260,1,160.000001192092,2|2,1:2|0:0,0:0:0:0:
356,256,106720,2,0,L|192:256,2,160.000001192092,2|2|2,0:0|0:0|0:0,0:0:0:0:
148,252,107883,6,0,L|148:120,1,120.000000894069,2|2,0:0|0:0,0:0:0:0:
292,120,108581,2,0,L|460:120,1,160.000001192092,2|0,0:0|0:0,0:0:0:0:
356,120,109278,1,10,0:0:0:0:
308,120,109395,1,0,1:0:0:0:
260,120,109511,1,0,1:0:0:0:
52,124,109743,6,0,L|52:244,1,120.000000894069,6|0,1:2|1:0,0:0:0:0:
196,240,110325,2,0,L|248:240,1,40.000000298023,0|2,1:0|1:2,0:0:0:0:
332,240,110674,2,0,L|332:152,1,80.000000596046,8|2,0:0|1:2,0:0:0:0:
236,156,111139,1,2,1:2:0:0:
188,156,111255,1,0,1:0:0:0:
140,156,111371,1,2,1:2:0:0:
236,156,111604,5,2,0:0:0:0:
284,156,111720,1,0,1:0:0:0:
332,156,111837,1,0,1:0:0:0:
428,160,112069,2,0,L|428:68,1,80.000000596046,8|2,0:0|1:2,0:0:0:0:
332,84,112534,1,8,0:0:0:0:
380,84,112650,1,0,1:0:0:0:
428,84,112767,1,2,1:2:0:0:
220,88,112999,2,0,L|136:88,1,80.000000596046,10|2,0:0|0:0,0:0:0:0:
348,92,113464,6,0,P|424:136|344:224,1,240.000001788138,6|2,1:2|1:2,0:0:0:0:
248,228,114395,2,0,L|164:228,1,80.000000596046,8|0,0:0|1:0,0:0:0:0:
72,232,114860,2,0,L|72:180,1,40.000000298023,0|0,1:0|1:0,0:0:0:0:
120,192,115092,1,0,1:0:0:0:
216,192,115325,5,0,0:0:0:0:
264,192,115441,2,0,L|264:144,1,40.000000298023,0|0,1:0|1:0,0:0:0:0:
168,148,115790,2,0,L|72:148,1,80.000000596046,12|0,1:2|1:0,0:0:0:0:
296,152,116255,2,0,L|384:152,1,80.000000596046,12|0,1:2|1:0,0:0:0:0:
280,152,116720,1,10,0:0:0:0:
232,152,116837,1,0,1:0:0:0:
184,152,116953,1,2,1:2:0:0:
392,160,117185,6,0,L|392:36,1,120.000000894069,6|2,1:2|1:2,0:0:0:0:
248,64,117883,2,0,P|148:72|72:184,1,240.000001788138,2|8,1:2|0:0,0:0:0:0:
168,180,118813,1,8,0:0:0:0:
376,184,119046,6,0,L|504:184,2,120.000000894069,6|10|2,1:2|0:0|1:2,0:0:0:0:
168,192,119976,6,0,L|168:100,1,80.000000596046,8|0,0:0|0:0,0:0:0:0:
264,116,120441,1,10,1:2:0:0:
312,116,120557,1,8,0:0:0:0:
264,116,120674,1,8,0:0:0:0:
56,116,120906,6,0,L|56:172,1,40.000000298023,10|8,0:0|0:0,0:0:0:0:
152,168,121255,2,0,L|200:168,1,40.000000298023,8|8,0:0|0:0,0:0:0:0:
400,172,121604,6,0,P|408:120|368:16,1,160.000001192092,10|8,0:0|0:0,0:0:0:0:
276,180,122302,1,8,0:0:0:0:
324,180,122418,1,8,0:0:0:0:
372,180,122534,1,0,1:0:0:0:
276,184,122767,6,0,L|144:184,2,120.000000894069,8|8|10,0:0|0:0|0:0,0:0:0:0:
372,196,123697,2,0,P|412:168|364:88,1,160.000001192092,10|10,0:0|0:0,0:0:0:0:
68,56,124511,6,0,L|200:56,1,120.000000894069,6|2,1:2|0:0,0:0:0:0:
284,56,125092,2,0,L|364:56,1,80.000000596046,2|2,0:0|0:0,0:0:0:0:
316,56,125441,6,0,L|184:56,1,120.000000894069,2|2,0:0|1:2,0:0:0:0:
100,60,126023,2,0,L|100:108,1,40.000000298023,10|0,0:0|0:0,0:0:0:0:
308,104,126371,6,0,L|440:104,1,120.000000894069,6|2,1:2|0:0,0:0:0:0:
332,104,126953,2,0,L|240:104,1,80.000000596046,2|2,1:2|1:2,0:0:0:0:
300,104,127302,5,10,0:0:0:0:
348,104,127418,1,8,0:0:0:0:
380,104,127495,1,8,0:0:0:0:
412,104,127573,1,8,0:0:0:0:
444,104,127650,2,0,L|360:104,1,80.000000596046,10|10,1:2|1:2,0:0:0:0:
76,104,128232,6,0,P|56:136|112:200,1,120.000000894069,6|2,1:2|1:2,0:0:0:0:
200,200,128813,2,0,L|288:200,1,80.000000596046,10|2,0:0|1:2,0:0:0:0:
228,200,129162,6,0,L|104:200,1,120.000000894069,2|0,1:2|1:2,0:0:0:0:
212,200,129743,2,0,L|264:200,1,40.000000298023,10|0,0:0|1:0,0:0:0:0:
36,200,130092,6,0,L|36:320,1,120.000000894069,6|10,1:2|0:0,0:0:0:0:
140,328,130674,2,0,L|232:328,1,80.000000596046,2|2,1:2|1:2,0:0:0:0:
272,328,131023,6,0,P|304:276|256:240,1,120.000000894069,2|8,1:2|0:0,0:0:0:0:
164,240,131604,2,0,L|164:296,1,40.000000298023,8|8,0:0|0:0,0:0:0:0:
380,276,131953,6,0,L|500:276,1,120.000000894069,4|2,1:2|1:2,0:0:0:0:
396,276,132534,2,0,L|304:276,1,80.000000596046,10|2,0:0|1:2,0:0:0:0:
264,280,132883,6,0,P|224:248|272:204,1,120.000000894069,2|2,1:2|1:2,0:0:0:0:
364,196,133464,2,0,L|416:196,1,40.000000298023,10|8,0:0|0:0,0:0:0:0:
188,192,133813,6,0,L|104:192,2,80.000000596046,6|0|0,1:2|1:0|1:0,0:0:0:0:
240,192,134395,1,10,0:0:0:0:
344,192,134627,1,0,1:0:0:0:
448,192,134860,6,0,P|468:252|400:312,1,160.000001192092,2|10,0:0|0:0,0:0:0:0:
88,200,135674,6,0,L|224:200,1,120.000000894069,6|8,1:2|0:0,0:0:0:0:
312,208,136255,2,0,L|312:116,1,80.000000596046,0|8,1:0|0:0,0:0:0:0:
208,136,136720,6,0,L|208:48,1,80.000000596046,0|10,1:0|0:0,0:0:0:0:
312,56,137185,2,0,L|364:56,1,40.000000298023,2|0,1:2|1:0,0:0:0:0:
136,60,137534,6,0,P|96:100|140:140,1,120.000000894069,6|10,1:2|0:0,0:0:0:0:
236,144,138116,2,0,L|156:144,1,80.000000596046,10|8,0:0|0:0,0:0:0:0:
372,152,138581,6,0,P|408:232|364:292,1,160.000001192092,10|10,0:0|0:0,0:0:0:0:
320,292,139162,2,0,L|404:292,1,80.000000596046,0|6,1:0|1:0,0:0:0:0:
88,296,139743,6,0,L|88:212,1,80.000000596046,14|2,1:2|1:2,0:0:0:0:
192,208,140209,1,10,0:0:0:0:
244,208,140325,6,0,L|372:208,1,120.000000894069,2|10,0:0|0:0,0:0:0:0:
260,196,140906,2,0,L|208:192,1,40.000000298023,2|0,1:2|1:0,0:0:0:0:
436,204,141255,6,0,P|464:180|424:116,1,120.000000894069,6|10,1:2|0:0,0:0:0:0:
328,116,141837,2,0,L|236:116,1,80.000000596046,2|10,1:2|0:0,0:0:0:0:
196,120,142185,6,0,P|160:144|204:192,1,120.000000894069,2|10,0:0|0:0,0:0:0:0:
304,196,142767,2,0,L|352:196,1,40.000000298023,2|0,1:2|1:0,0:0:0:0:
128,200,143116,6,0,P|88:228|132:272,1,120.000000894069,6|10,1:2|0:0,0:0:0:0:
228,276,143697,2,0,L|316:276,1,80.000000596046,2|2,1:2|1:2,0:0:0:0:
256,276,144046,6,0,L|128:276,1,120.000000894069,2|10,1:2|0:0,0:0:0:0:
32,276,144627,2,0,L|32:320,1,40.000000298023,2|8,1:2|0:0,0:0:0:0:
248,320,144976,6,0,L|376:320,1,120.000000894069,4|8,1:2|0:0,0:0:0:0:
264,320,145557,2,0,P|248:288|264:240,1,80.000000596046,2|8,1:2|0:0,0:0:0:0:
364,248,146023,6,0,L|448:248,1,80.000000596046,2|8,1:2|0:0,0:0:0:0:
340,248,146488,2,0,L|288:248,1,40.000000298023,10|8,0:0|0:0,0:0:0:0:
84,256,146837,6,0,P|52:284|96:344,1,120.000000894069,6|8,1:2|0:0,0:0:0:0:
188,352,147418,2,0,L|280:352,1,80.000000596046,8|10,0:0|0:0,0:0:0:0:
372,352,147883,6,0,L|372:256,1,80.000000596046,10|8,0:0|0:0,0:0:0:0:
268,268,148348,2,0,L|220:268,1,40.000000298023,8|0,0:0|1:0,0:0:0:0:
444,272,148697,6,0,P|480:296|432:352,1,120.000000894069,6|10,1:2|0:0,0:0:0:0:
344,360,149278,2,0,L|260:360,1,80.000000596046,8|10,0:0|0:0,0:0:0:0:
160,356,149743,6,0,L|160:268,1,80.000000596046,8|10,0:0|0:0,0:0:0:0:
264,272,150209,2,0,L|312:272,1,40.000000298023,8|0,0:0|1:0,0:0:0:0:
88,272,150557,6,0,P|56:232|92:180,1,120.000000894069,4|8,1:2|0:0,0:0:0:0:
192,176,151139,2,0,L|288:176,1,80.000000596046,8|10,0:0|0:0,0:0:0:0:
168,176,151604,6,0,L|168:80,1,80.000000596046,10|8,0:0|0:0,0:0:0:0:
272,92,152069,1,8,0:0:0:0:
324,92,152185,1,0,1:0:0:0:
272,92,152302,1,10,0:0:0:0:
176,316,152534,6,0,L|176:272,1,40.000000298023,8|8,0:0|0:0,0:0:0:0:
384,312,152883,1,12,1:2:0:0:
384,312,153232,1,2,0:0:0:0:
288,312,153464,2,0,L|120:312,1,160.000001192092,2|2,0:0|0:0,0:0:0:0:
416,296,154395,6,0,L|504:296,1,80.000000596046,14|0,1:2|1:0,0:0:0:0:
448,224,154743,1,0,1:0:0:0:
400,224,154860,1,0,1:0:0:0:
304,224,155092,6,0,L|196:224,1,80.000000596046,10|0,0:0|1:0,0:0:0:0:
176,224,155441,1,0,1:0:0:0:
224,224,155557,1,0,1:0:0:0:
320,224,155790,1,8,0:0:0:0:
320,224,155906,1,8,0:0:0:0:
272,224,156023,1,0,1:0:0:0:
64,228,156255,6,0,P|52:192|76:136,1,80.000000596046,8|0,1:2|1:0,0:0:0:0:
112,152,156604,1,0,1:0:0:0:
160,152,156720,1,0,1:0:0:0:
256,152,156953,6,0,P|280:116|240:92,1,80.000000596046,8|0,0:0|1:0,0:0:0:0:
212,92,157302,1,0,1:0:0:0:
164,92,157418,1,0,1:0:0:0:
372,84,157650,1,8,0:0:0:0:
420,84,157767,1,8,0:0:0:0:
468,84,157883,1,0,1:0:0:0:
260,84,158116,6,0,L|176:84,1,80.000000596046,14|0,1:2|1:0,0:0:0:0:
180,84,158464,1,0,1:0:0:0:
228,84,158581,1,2,1:2:0:0:
324,80,158813,6,0,L|428:80,1,80.000000596046,10|0,0:0|1:0,0:0:0:0:
452,80,159162,1,0,1:0:0:0:
404,80,159278,1,2,1:2:0:0:
196,156,159511,1,10,0:0:0:0:
148,156,159627,1,8,0:0:0:0:
100,156,159743,1,2,1:2:0:0:
308,156,159976,6,0,L|412:156,1,80.000000596046,14|2,1:2|1:2,0:0:0:0:
436,156,160325,1,0,1:0:0:0:
388,156,160441,1,2,1:2:0:0:
292,156,160674,6,0,L|180:156,1,80.000000596046,12|0,0:0|1:0,0:0:0:0:
260,156,161023,1,0,1:0:0:0:
308,156,161139,1,0,1:0:0:0:
212,156,161371,1,10,0:0:0:0:
164,156,161488,1,8,0:0:0:0:
116,156,161604,1,0,1:0:0:0:
324,156,161837,6,0,P|344:196|304:228,1,80.000000596046,14|0,1:2|1:0,0:0:0:0:
280,220,162185,1,0,1:0:0:0:
232,220,162302,1,0,1:0:0:0:
328,220,162534,6,0,L|408:220,1,80.000000596046,10|2,0:0|1:2,0:0:0:0:
360,140,162883,1,0,1:0:0:0:
312,140,162999,1,0,1:0:0:0:
104,144,163232,1,8,0:0:0:0:
56,144,163348,1,8,0:0:0:0:
104,144,163464,1,2,1:2:0:0:
308,140,163697,6,0,L|396:140,1,80.000000596046,12|2,1:2|1:2,0:0:0:0:
340,140,164046,1,0,1:0:0:0:
292,140,164162,1,0,1:0:0:0:
196,140,164395,6,0,L|80:140,1,80.000000596046,10|0,0:0|1:0,0:0:0:0:
164,140,164743,1,0,1:0:0:0:
212,140,164860,1,0,1:0:0:0:
308,140,165092,1,10,0:0:0:0:
356,140,165209,1,8,0:0:0:0:
404,140,165325,1,0,1:0:0:0:
196,140,165557,6,0,L|196:248,1,80.000000596046,14|0,1:2|1:0,0:0:0:0:
244,220,165906,1,0,1:0:0:0:
292,220,166023,1,0,1:0:0:0:
388,220,166255,6,0,L|480:220,1,80.000000596046,10|0,0:0|1:0,0:0:0:0:
420,220,166604,1,0,1:0:0:0:
372,220,166720,1,0,1:0:0:0:
164,220,166953,1,8,0:0:0:0:
116,220,167069,1,8,0:0:0:0:
68,220,167185,1,0,1:0:0:0:
244,224,167418,6,0,L|392:220,2,120.000000894069,12|12|12,1:2|1:2|1:2,0:0:0:0:
148,216,168348,6,0,L|84:216,2,40.000000298023,0|0|0,1:0|1:0|1:0,0:0:0:0:
244,216,168813,1,10,0:0:0:0:
292,216,168930,1,8,0:0:0:0:
340,216,169046,1,8,0:0:0:0:
132,224,169278,6,0,P|92:192|144:156,1,120.000000894069,6|0,1:2|1:0,0:0:0:0:
276,140,169976,1,2,1:2:0:0:
372,132,170209,6,0,L|416:132,2,40.000000298023,2|0|2,1:2|1:0|1:2,0:0:0:0:
276,132,170674,1,8,0:0:0:0:
68,132,170906,2,0,L|16:132,1,40.000000298023,10|8,0:0|0:0,0:0:0:0:
68,132,171139,6,0,L|200:132,1,120.000000894069,0|0,1:0|1:0,0:0:0:0:
284,240,171720,1,0,1:0:0:0:
332,240,171837,6,0,P|384:184|320:132,1,160.000001192092,10|0,0:0|1:0,0:0:0:0:
132,136,172534,2,0,L|132:88,1,40.000000298023,10|8,0:0|0:0,0:0:0:0:
180,96,172767,1,8,0:0:0:0:
388,96,172999,6,0,P|440:124|376:260,1,240.000001788138,2|10,1:2|0:0,0:0:0:0:
240,252,174046,6,0,L|144:252,1,80.000000596046,0|0,1:0|1:0,0:0:0:0:
112,252,174395,2,0,L|112:168,1,80.000000596046,8|0,0:0|1:0,0:0:0:0:
320,188,174860,6,0,L|440:188,2,120.000000894069,12|12|12,1:2|1:2|1:2,0:0:0:0:
224,192,175790,6,0,L|224:112,1,80.000000596046,0|0,1:0|1:0,0:0:0:0:
320,116,176255,1,8,0:0:0:0:
368,116,176371,1,8,0:0:0:0:
416,116,176488,1,8,0:0:0:0:
208,120,176720,6,0,L|76:120,1,120.000000894069,4|8,1:2|0:0,0:0:0:0:
88,120,177418,1,0,1:0:0:0:
388,116,177767,6,0,P|416:168|380:232,1,120.000000894069,12|8,1:2|0:0,0:0:0:0:
348,224,178232,1,8,0:0:0:0:
300,224,178348,1,0,1:0:0:0:
92,228,178581,6,0,L|92:176,1,40.000000298023,12|8,1:2|0:0,0:0:0:0:
140,188,178813,1,8,0:0:0:0:
188,188,178930,2,0,L|280:188,1,80.000000596046,8|8,0:0|0:0,0:0:0:0:
60,188,179395,6,0,P|36:164|64:88,1,120.000000894069,8|8,0:0|0:0,0:0:0:0:
152,72,179976,1,8,0:0:0:0:
104,72,180092,1,0,1:0:0:0:
56,72,180209,1,0,1:0:0:0:
264,76,180441,6,0,L|400:80,2,120.000000894069,6|2|2,3:1|0:0|0:0,0:0:0:0:
168,72,181371,2,0,P|136:104|184:196,1,160.000001192092,0|0,3:0|3:0,0:0:0:0:
276,204,182069,1,0,3:0:0:0:
372,204,182302,6,0,L|240:204,2,120.000000894069,2|2|2,0:0|0:0|0:0,0:0:0:0:
468,200,183232,2,0,L|468:108,1,80.000000596046,0|0,3:0|3:0,0:0:0:0:
420,116,183581,1,0,3:0:0:0:
372,116,183697,2,0,L|464:116,1,80.000000596046,0|0,3:0|3:0,0:0:0:0:
244,112,184162,6,0,L|116:112,2,120.000000894069,2|2|2,1:2|0:0|0:0,0:0:0:0:
340,108,185092,2,0,P|392:148|340:224,1,160.000001192092,0|2,3:0|0:0,0:0:0:0:
260,216,185790,1,0,3:0:0:0:
164,224,186023,6,0,L|40:224,2,120.000000894069,2|2|2,0:0|0:0|0:0,0:0:0:0:
260,220,186953,2,0,L|424:220,1,160.000001192092,2|2,0:0|0:0,0:0:0:0:
132,220,187883,6,0,L|132:128,1,80.000000596046,6|2,1:0|0:0,0:0:0:0:
228,132,188348,1,2,0:0:0:0:
324,132,188581,1,2,0:0:0:0:
228,132,188813,6,0,L|136:132,2,80.000000596046,2|2|2,0:0|0:0|0:0,0:0:0:0:
324,132,189511,2,0,L|412:132,2,80.000000596046,2|2|2,0:0|0:0|0:0,0:0:0:0:
228,136,190209,5,2,0:0:0:0:
132,136,190441,1,2,0:0:0:0:
36,136,190674,1,2,0:0:0:0:
132,136,190906,2,0,L|224:136,2,80.000000596046,2|2|2,0:0|0:0|0:0,0:0:0:0:
340,136,191604,6,0,L|340:232,1,80.000000596046,2|2,1:2|0:0,0:0:0:0:
244,236,192069,1,2,0:0:0:0:
148,236,192302,1,2,0:0:0:0:
244,236,192534,2,0,L|336:236,2,80.000000596046,2|2|2,0:0|0:0|0:0,0:0:0:0:
148,236,193232,1,2,0:0:0:0:
52,240,193464,6,0,L|52:152,1,80.000000596046,2|2,0:0|0:0,0:0:0:0:
148,148,193930,2,0,L|64:148,1,80.000000596046,2|2,0:0|0:0,0:0:0:0:
248,144,194395,6,0,L|248:240,1,80.000000596046,2|2,0:0|0:0,0:0:0:0:
368,224,194965,1,2,0:0:0:0:
488,220,195272,5,2,0:0:0:0:
256,192,195579,12,0,200502,0:0:0:0:
