osu file format v14

[General]
AudioFilename: audio.mp3
AudioLeadIn: 0
PreviewTime: 163279
Countdown: 0
SampleSet: Normal
StackLeniency: 0.7
Mode: 1
LetterboxInBreaks: 0
WidescreenStoryboard: 1

[Editor]
DistanceSpacing: 1.9
BeatDivisor: 4
GridSize: 32
TimelineZoom: 1.2

[Metadata]
Title:Hyousou wa Hakuen o Matoite
TitleUnicode:氷奏は白焔を纏いて
Artist:ELFENSJoN
ArtistUnicode:ELFENSJóN
Creator:SMOKELIND
Version:Oni
Source:
Tags:Neko Keqing iljaaz Kalibe Sagiri Featured Artist Mappers' Guild MG MPG EINHERJAR FA Rock J-Rock JRock Japanese JP
BeatmapID:2761856
BeatmapSetID:1332833

[Difficulty]
HPDrainRate:5
CircleSize:2
OverallDifficulty:5.5
ApproachRate:10
SliderMultiplier:1.4
SliderTickRate:1

[Events]
//Background and Video events
0,0,"Neko.jpg",0,100
//Break Periods
2,164125,171801
//Storyboard Layer 0 (Background)
//Storyboard Layer 1 (Fail)
//Storyboard Layer 2 (Pass)
//Storyboard Layer 3 (Foreground)
//Storyboard Layer 4 (Overlay)
//Storyboard Sound Samples

[TimingPoints]
863,287.081339712919,4,1,0,77,1,0
863,-166.666666666667,4,1,0,77,0,0
14642,-142.857142857143,4,1,0,77,0,0
16939,-125,4,1,0,77,0,0
23972,-111.111111111111,4,1,0,77,0,0
33015,-142.857142857143,4,1,0,77,0,0
42345,-125,4,1,0,77,0,0
51676,-142.857142857143,4,1,0,77,0,0
60790,-125,4,1,0,77,0,0
69977,-100,4,1,0,77,0,0
106652,-111.111111111111,4,1,0,77,0,0
131771,-142.857142857143,4,1,0,77,0,0
138948,-140.845070422535,4,1,0,77,0,0
139092,-138.888888888889,4,1,0,77,0,0
139235,-135.135135135135,4,1,0,77,0,0
139379,-131.578947368421,4,1,0,77,0,0
139522,-128.205128205128,4,1,0,77,0,0
139666,-125,4,1,0,77,0,0
139810,-121.951219512195,4,1,0,77,0,0
139881,-120.481927710843,4,1,0,77,0,0
139953,-119.047619047619,4,1,0,77,0,0
140024,-117.647058823529,4,1,0,77,0,0
140097,-116.279069767442,4,1,0,77,0,0
140168,-114.942528735632,4,1,0,77,0,0
140240,-113.636363636364,4,1,0,77,0,0
140311,-112.359550561798,4,1,0,77,0,0
140384,-111.111111111111,4,1,0,77,0,0
163350,-125,4,1,0,44,0,0
165073,-142.857142857143,4,1,0,44,0,0
173398,-125,4,1,0,77,0,0
180073,-111.111111111111,4,1,0,77,0,0
182154,-100,4,1,0,77,0,0
205408,-111.111111111111,4,1,0,77,0,0

[Colours]
Combo1 : 255,255,170
Combo2 : 255,198,170

[HitObjects]
256,32,5457,5,0,0:0:0:0:
256,32,6031,1,8,0:0:0:0:
256,32,6461,1,8,0:0:0:0:
256,32,7179,1,0,0:0:0:0:
256,32,7753,1,0,0:0:0:0:
256,32,8327,1,8,0:0:0:0:
256,32,8758,1,8,0:0:0:0:
256,32,9476,1,0,0:0:0:0:
256,32,10050,1,0,0:0:0:0:
256,32,10624,1,8,0:0:0:0:
256,32,11055,1,8,0:0:0:0:
256,32,11772,1,0,0:0:0:0:
256,32,12059,1,0,0:0:0:0:
256,32,12346,1,8,0:0:0:0:
256,32,12921,1,8,0:0:0:0:
256,32,13064,1,0,0:0:0:0:
256,32,13351,1,0,0:0:0:0:
256,32,13782,1,0,0:0:0:0:
256,32,14069,1,0,0:0:0:0:
256,32,14356,1,8,0:0:0:0:
256,32,14642,1,4,0:0:0:0:
256,32,15361,1,0,0:0:0:0:
256,32,15648,1,12,0:0:0:0:
256,32,15935,1,0,0:0:0:0:
256,32,16222,1,0,0:0:0:0:
256,32,16366,1,8,0:0:0:0:
256,32,16509,1,0,0:0:0:0:
256,32,16581,1,8,0:0:0:0:
256,32,16653,1,8,0:0:0:0:
256,32,16796,1,0,0:0:0:0:
256,32,16939,1,12,0:0:0:0:
256,32,17227,1,8,0:0:0:0:
256,32,17370,1,8,0:0:0:0:
256,32,17514,1,8,0:0:0:0:
256,32,17657,1,0,0:0:0:0:
256,32,17801,1,0,0:0:0:0:
256,32,17945,1,8,0:0:0:0:
256,32,18088,1,8,0:0:0:0:
256,32,18232,1,8,0:0:0:0:
256,32,18375,1,8,0:0:0:0:
256,32,18519,1,8,0:0:0:0:
256,32,18662,1,8,0:0:0:0:
256,32,18806,1,0,0:0:0:0:
256,32,18878,1,0,0:0:0:0:
256,32,18949,1,8,0:0:0:0:
256,32,19236,1,8,0:0:0:0:
256,32,19380,1,12,0:0:0:0:
256,32,19667,1,8,0:0:0:0:
256,32,19811,1,12,0:0:0:0:
256,32,20098,1,8,0:0:0:0:
256,32,20240,1,4,0:0:0:0:
256,32,20528,1,0,0:0:0:0:
256,32,20600,1,0,0:0:0:0:
256,32,20672,1,8,0:0:0:0:
256,32,20959,1,8,0:0:0:0:
256,32,21031,1,8,0:0:0:0:
256,32,21102,1,0,0:0:0:0:
256,32,21174,1,0,0:0:0:0:
256,32,21246,1,8,0:0:0:0:
256,32,21390,1,8,0:0:0:0:
256,32,21461,1,8,0:0:0:0:
256,32,21533,1,4,0:0:0:0:
256,32,21677,1,0,0:0:0:0:
256,32,21820,1,8,0:0:0:0:
256,32,21964,1,0,0:0:0:0:
256,32,22107,1,8,0:0:0:0:
256,32,22251,1,0,0:0:0:0:
256,32,22394,1,8,0:0:0:0:
256,32,22538,1,12,0:0:0:0:
256,32,22825,1,0,0:0:0:0:
256,32,22968,1,8,0:0:0:0:
256,32,23040,1,8,0:0:0:0:
256,32,23112,1,0,0:0:0:0:
256,32,23184,1,0,0:0:0:0:
256,32,23256,1,8,0:0:0:0:
256,32,23399,1,8,0:0:0:0:
256,32,23543,1,8,0:0:0:0:
256,32,23614,1,8,0:0:0:0:
256,32,23686,1,8,0:0:0:0:
256,32,23830,1,0,0:0:0:0:
256,32,23973,1,0,0:0:0:0:
256,32,24045,1,0,0:0:0:0:
256,32,24117,1,12,0:0:0:0:
256,32,24404,1,0,0:0:0:0:
256,32,24547,1,0,0:0:0:0:
256,32,24691,1,8,0:0:0:0:
256,32,24834,1,0,0:0:0:0:
256,32,25122,1,0,0:0:0:0:
256,32,25265,1,8,0:0:0:0:
256,32,25409,1,0,0:0:0:0:
256,32,25480,1,8,0:0:0:0:
256,32,25552,1,0,0:0:0:0:
256,32,25696,1,0,0:0:0:0:
256,32,25839,1,8,0:0:0:0:
256,32,25983,1,8,0:0:0:0:
256,32,26126,1,0,0:0:0:0:
256,32,26270,1,0,0:0:0:0:
256,32,26342,1,0,0:0:0:0:
256,32,26413,1,8,0:0:0:0:
256,32,26701,1,0,0:0:0:0:
256,32,26844,1,0,0:0:0:0:
256,32,26988,1,8,0:0:0:0:
256,32,27131,1,4,0:0:0:0:
256,32,27418,1,0,0:0:0:0:
256,32,27562,1,8,0:0:0:0:
256,32,27777,1,8,0:0:0:0:
256,32,27849,1,0,0:0:0:0:
256,32,27992,1,0,0:0:0:0:
256,32,28136,1,8,0:0:0:0:
256,32,28279,1,8,0:0:0:0:
256,32,28423,1,0,0:0:0:0:
256,32,28567,1,0,0:0:0:0:
256,32,28710,1,8,0:0:0:0:
256,32,28997,1,8,0:0:0:0:
256,32,29141,1,0,0:0:0:0:
256,32,29212,1,0,0:0:0:0:
256,32,29284,1,0,0:0:0:0:
256,32,29428,1,12,0:0:0:0:
256,32,29715,1,0,0:0:0:0:
256,32,29858,1,8,0:0:0:0:
256,32,30002,1,0,0:0:0:0:
256,32,30074,1,8,0:0:0:0:
256,32,30145,1,0,0:0:0:0:
256,32,30289,1,0,0:0:0:0:
256,32,30433,1,8,0:0:0:0:
256,32,30576,1,0,0:0:0:0:
256,32,30720,1,12,0:0:0:0:
256,32,31007,1,8,0:0:0:0:
256,32,31150,1,0,0:0:0:0:
256,32,31222,1,8,0:0:0:0:
256,32,31294,1,8,0:0:0:0:
256,32,31437,1,8,0:0:0:0:
256,32,31581,1,0,0:0:0:0:
256,32,31724,1,8,0:0:0:0:
256,32,31868,1,0,0:0:0:0:
256,32,31940,1,8,0:0:0:0:
256,32,32083,1,8,0:0:0:0:
256,32,32155,1,0,0:0:0:0:
256,32,32299,1,8,0:0:0:0:
256,32,32442,1,0,0:0:0:0:
256,32,32586,1,8,0:0:0:0:
256,32,32729,1,4,0:0:0:0:
256,32,33016,1,12,0:0:0:0:
256,32,33303,1,8,0:0:0:0:
256,32,33590,1,0,0:0:0:0:
256,32,33878,1,8,0:0:0:0:
256,32,34021,1,0,0:0:0:0:
256,32,34308,1,8,0:0:0:0:
256,32,34595,1,0,0:0:0:0:
256,32,34882,1,8,0:0:0:0:
256,32,35169,1,0,0:0:0:0:
256,32,35313,1,8,0:0:0:0:
256,32,35600,1,8,0:0:0:0:
256,32,35887,1,0,0:0:0:0:
256,32,36174,1,8,0:0:0:0:
256,32,36318,1,0,0:0:0:0:
256,32,36605,1,8,0:0:0:0:
256,32,36892,1,0,0:0:0:0:
256,32,37179,1,8,0:0:0:0:
256,32,37466,1,0,0:0:0:0:
256,32,37610,1,8,0:0:0:0:
256,32,37897,1,8,0:0:0:0:
256,32,38040,1,0,0:0:0:0:
256,32,38614,1,0,0:0:0:0:
256,32,38901,1,0,0:0:0:0:
256,32,38973,1,0,0:0:0:0:
256,32,39045,1,8,0:0:0:0:
256,32,39332,1,0,0:0:0:0:
256,32,39619,1,8,0:0:0:0:
256,32,39906,1,4,0:0:0:0:
256,32,40193,1,8,0:0:0:0:
256,32,40337,1,0,0:0:0:0:
256,32,40624,1,0,0:0:0:0:
256,32,40911,1,8,0:0:0:0:
256,32,41198,1,0,0:0:0:0:
256,32,41342,1,8,0:0:0:0:
256,32,41485,1,8,0:0:0:0:
256,32,41629,1,8,0:0:0:0:
256,32,41772,1,8,0:0:0:0:
256,32,41916,1,8,0:0:0:0:
256,32,41988,1,8,0:0:0:0:
256,32,42059,1,0,0:0:0:0:
256,32,42346,1,0,0:0:0:0:
256,32,42490,1,12,0:0:0:0:
256,32,42777,1,0,0:0:0:0:
256,32,42921,1,0,0:0:0:0:
256,32,43064,1,8,0:0:0:0:
256,32,43208,1,0,0:0:0:0:
256,32,43495,1,0,0:0:0:0:
256,32,43638,1,8,0:0:0:0:
256,32,43782,1,0,0:0:0:0:
256,32,43854,1,8,0:0:0:0:
256,32,43925,1,0,0:0:0:0:
256,32,44069,1,0,0:0:0:0:
256,32,44212,1,8,0:0:0:0:
256,32,44356,1,0,0:0:0:0:
256,32,44500,1,8,0:0:0:0:
256,32,44787,1,8,0:0:0:0:
256,32,45074,1,0,0:0:0:0:
256,32,45217,1,0,0:0:0:0:
256,32,45361,1,8,0:0:0:0:
256,32,45504,1,0,0:0:0:0:
256,32,45791,1,0,0:0:0:0:
256,32,45935,1,8,0:0:0:0:
256,32,46079,1,0,0:0:0:0:
256,32,46150,1,8,0:0:0:0:
256,32,46222,1,0,0:0:0:0:
256,32,46366,1,0,0:0:0:0:
256,32,46509,1,8,0:0:0:0:
256,32,46653,1,0,0:0:0:0:
256,32,46796,1,12,0:0:0:0:
256,32,47083,1,8,0:0:0:0:
256,32,47227,1,0,0:0:0:0:
256,32,47370,1,0,0:0:0:0:
256,32,47514,1,0,0:0:0:0:
256,32,47657,1,8,0:0:0:0:
256,32,47801,1,4,0:0:0:0:
256,32,48088,1,0,0:0:0:0:
256,32,48232,1,8,0:0:0:0:
256,32,48519,1,0,0:0:0:0:
256,32,48662,1,0,0:0:0:0:
256,32,48806,1,8,0:0:0:0:
256,32,49093,1,8,0:0:0:0:
256,32,49380,1,12,0:0:0:0:
256,32,49523,1,0,0:0:0:0:
256,32,49811,1,8,0:0:0:0:
256,32,49954,1,0,0:0:0:0:
256,32,50098,1,0,0:0:0:0:
256,32,50241,1,8,0:0:0:0:
256,32,50385,1,0,0:0:0:0:
256,32,50528,1,8,0:0:0:0:
256,32,50600,1,8,0:0:0:0:
256,32,50672,1,8,0:0:0:0:
256,32,50744,1,8,0:0:0:0:
256,32,50815,1,0,0:0:0:0:
256,32,50959,1,0,0:0:0:0:
256,32,51102,1,0,0:0:0:0:
256,32,51246,1,0,0:0:0:0:
256,32,51390,1,12,0:0:0:0:
256,32,51677,1,0,0:0:0:0:
256,32,51820,1,8,0:0:0:0:
256,32,52107,1,0,0:0:0:0:
256,32,52394,1,8,0:0:0:0:
256,32,52681,1,0,0:0:0:0:
256,32,52968,1,0,0:0:0:0:
256,32,53040,1,0,0:0:0:0:
256,32,53112,1,8,0:0:0:0:
256,32,53256,1,0,0:0:0:0:
256,32,53399,1,8,0:0:0:0:
256,32,53543,1,0,0:0:0:0:
256,32,53686,1,8,0:0:0:0:
256,32,53973,1,0,0:0:0:0:
256,32,54117,1,8,0:0:0:0:
256,32,54404,1,0,0:0:0:0:
256,32,54691,1,8,0:0:0:0:
256,32,54978,1,0,0:0:0:0:
256,32,55050,1,0,0:0:0:0:
256,32,55122,1,8,0:0:0:0:
256,32,55409,1,8,0:0:0:0:
256,32,55696,1,8,0:0:0:0:
256,32,55983,1,0,0:0:0:0:
256,32,56270,1,8,0:0:0:0:
256,32,56413,1,0,0:0:0:0:
256,32,56557,1,8,0:0:0:0:
256,32,56701,1,0,0:0:0:0:
256,32,56988,1,8,0:0:0:0:
256,32,57275,1,0,0:0:0:0:
256,32,57418,1,8,0:0:0:0:
256,32,57705,1,0,0:0:0:0:
256,32,57992,1,8,0:0:0:0:
256,32,58136,1,8,0:0:0:0:
256,32,58279,1,0,0:0:0:0:
256,32,58567,1,8,0:0:0:0:
256,32,58854,1,0,0:0:0:0:
256,32,58997,1,8,0:0:0:0:
256,32,59141,1,0,0:0:0:0:
256,32,59284,1,8,0:0:0:0:
256,32,59428,1,8,0:0:0:0:
256,32,59715,1,8,0:0:0:0:
256,32,59858,1,0,0:0:0:0:
256,32,59930,1,8,0:0:0:0:
256,32,60002,1,8,0:0:0:0:
256,32,60145,1,8,0:0:0:0:
256,32,60289,1,8,0:0:0:0:
256,32,60433,1,8,0:0:0:0:
256,32,60576,1,0,0:0:0:0:
256,32,60720,1,0,0:0:0:0:
256,32,60863,1,8,0:0:0:0:
256,32,61007,1,0,0:0:0:0:
256,32,61294,1,0,0:0:0:0:
256,32,61437,1,8,0:0:0:0:
256,32,61581,1,0,0:0:0:0:
256,32,61868,1,0,0:0:0:0:
256,32,62012,1,8,0:0:0:0:
256,32,62227,1,8,0:0:0:0:
256,32,62299,1,0,0:0:0:0:
256,32,62442,1,0,0:0:0:0:
256,32,62586,1,8,0:0:0:0:
256,32,62729,1,0,0:0:0:0:
256,32,62873,1,0,0:0:0:0:
256,32,63088,1,0,0:0:0:0:
256,32,63160,1,8,0:0:0:0:
256,32,63447,1,0,0:0:0:0:
256,32,63590,1,0,0:0:0:0:
256,32,63734,1,8,0:0:0:0:
256,32,63878,1,0,0:0:0:0:
256,32,64165,1,0,0:0:0:0:
256,32,64308,1,8,0:0:0:0:
256,32,64404,1,8,0:0:0:0:
256,32,64500,1,8,0:0:0:0:
256,32,64595,1,0,0:0:0:0:
256,32,64882,1,0,0:0:0:0:
256,32,65169,1,8,0:0:0:0:
256,32,65313,1,8,0:0:0:0:
256,32,65528,1,0,0:0:0:0:
256,32,65600,1,8,0:0:0:0:
256,32,65744,1,8,0:0:0:0:
256,32,65887,1,8,0:0:0:0:
256,32,66031,1,8,0:0:0:0:
256,32,66174,1,8,0:0:0:0:
256,32,66318,1,0,0:0:0:0:
256,32,66390,1,8,0:0:0:0:
256,32,66461,1,8,0:0:0:0:
256,32,66748,1,8,0:0:0:0:
256,32,67035,1,8,0:0:0:0:
256,32,67179,1,0,0:0:0:0:
256,32,67323,1,0,0:0:0:0:
256,32,67394,1,0,0:0:0:0:
256,32,67466,1,8,0:0:0:0:
256,32,67610,1,0,0:0:0:0:
256,32,67753,1,0,0:0:0:0:
256,32,67897,1,8,0:0:0:0:
256,32,68040,1,0,0:0:0:0:
256,32,68184,1,0,0:0:0:0:
256,32,68256,1,0,0:0:0:0:
256,32,68327,1,8,0:0:0:0:
256,32,68471,1,0,0:0:0:0:
256,32,68614,1,8,0:0:0:0:
256,32,68901,1,8,0:0:0:0:
256,32,69045,1,0,0:0:0:0:
256,32,69189,1,8,0:0:0:0:
256,32,69332,1,0,0:0:0:0:
256,32,69476,1,8,0:0:0:0:
256,32,69619,1,8,0:0:0:0:
256,32,69691,1,8,0:0:0:0:
256,32,69763,1,4,0:0:0:0:
256,32,70050,1,8,0:0:0:0:
256,32,70193,1,0,0:0:0:0:
256,32,70337,1,0,0:0:0:0:
256,32,70480,1,0,0:0:0:0:
256,32,70624,1,8,0:0:0:0:
256,32,70768,1,0,0:0:0:0:
256,32,70839,1,0,0:0:0:0:
256,32,70911,1,8,0:0:0:0:
256,32,71055,1,0,0:0:0:0:
256,32,71198,1,8,0:0:0:0:
256,32,71413,1,8,0:0:0:0:
256,32,71485,1,0,0:0:0:0:
256,32,71629,1,0,0:0:0:0:
256,32,71772,1,8,0:0:0:0:
256,32,71988,1,8,0:0:0:0:
256,32,72059,1,0,0:0:0:0:
256,32,72203,1,0,0:0:0:0:
256,32,72346,1,8,0:0:0:0:
256,32,72490,1,0,0:0:0:0:
256,32,72634,1,0,0:0:0:0:
256,32,72777,1,0,0:0:0:0:
256,32,72921,1,8,0:0:0:0:
256,32,73064,1,0,0:0:0:0:
256,32,73136,1,0,0:0:0:0:
256,32,73208,1,8,0:0:0:0:
256,32,73495,1,8,0:0:0:0:
256,32,73638,1,8,0:0:0:0:
256,32,73782,1,0,0:0:0:0:
256,32,73925,1,0,0:0:0:0:
256,32,74069,1,8,0:0:0:0:
256,32,74356,1,0,0:0:0:0:
256,32,74500,1,0,0:0:0:0:
256,32,74643,1,8,0:0:0:0:
256,32,74787,1,0,0:0:0:0:
256,32,75074,1,0,0:0:0:0:
256,32,75217,1,8,0:0:0:0:
256,32,75361,1,0,0:0:0:0:
256,32,75648,1,0,0:0:0:0:
256,32,75791,1,8,0:0:0:0:
256,32,75935,1,0,0:0:0:0:
256,32,76007,1,8,0:0:0:0:
256,32,76079,1,0,0:0:0:0:
256,32,76222,1,0,0:0:0:0:
256,32,76366,1,8,0:0:0:0:
256,32,76509,1,0,0:0:0:0:
256,32,76653,1,8,0:0:0:0:
256,32,76796,1,8,0:0:0:0:
256,32,76940,1,8,0:0:0:0:
256,32,77083,1,0,0:0:0:0:
256,32,77227,1,8,0:0:0:0:
256,32,77299,1,8,0:0:0:0:
256,32,77370,1,0,0:0:0:0:
256,32,77514,1,8,0:0:0:0:
256,32,77657,1,0,0:0:0:0:
256,32,77801,1,8,0:0:0:0:
256,32,77873,1,8,0:0:0:0:
256,32,77945,1,8,0:0:0:0:
256,32,78016,1,8,0:0:0:0:
256,32,78088,1,8,0:0:0:0:
256,32,78232,1,4,0:0:0:0:
256,32,78519,1,4,0:0:0:0:
256,32,78806,1,4,0:0:0:0:
256,32,79093,1,0,0:0:0:0:
256,32,79236,1,8,0:0:0:0:
256,32,79380,1,0,0:0:0:0:
256,32,79523,1,8,0:0:0:0:
256,32,79667,1,8,0:0:0:0:
256,32,79811,1,8,0:0:0:0:
256,32,79954,1,0,0:0:0:0:
256,32,80241,1,0,0:0:0:0:
256,32,80385,1,8,0:0:0:0:
256,32,80600,1,8,0:0:0:0:
256,32,80672,1,0,0:0:0:0:
256,32,80815,1,0,0:0:0:0:
256,32,80959,1,8,0:0:0:0:
256,32,81102,1,0,0:0:0:0:
256,32,81174,1,0,0:0:0:0:
256,32,81246,1,8,0:0:0:0:
256,32,81390,1,0,0:0:0:0:
256,32,81533,1,8,0:0:0:0:
256,32,81820,1,0,0:0:0:0:
256,32,81964,1,0,0:0:0:0:
256,32,82107,1,8,0:0:0:0:
256,32,82251,1,0,0:0:0:0:
256,32,82323,1,0,0:0:0:0:
256,32,82394,1,8,0:0:0:0:
256,32,82538,1,0,0:0:0:0:
256,32,82681,1,8,0:0:0:0:
256,32,82897,1,8,0:0:0:0:
256,32,82968,1,0,0:0:0:0:
256,32,83112,1,0,0:0:0:0:
256,32,83256,1,8,0:0:0:0:
256,32,83543,1,8,0:0:0:0:
256,32,83686,1,0,0:0:0:0:
256,32,83830,1,8,0:0:0:0:
256,32,83973,1,0,0:0:0:0:
256,32,84045,1,0,0:0:0:0:
256,32,84117,1,8,0:0:0:0:
256,32,84260,1,0,0:0:0:0:
256,32,84404,1,8,0:0:0:0:
256,32,84547,1,0,0:0:0:0:
258,32,84834,1,0,0:0:0:0:
258,32,84978,1,8,0:0:0:0:
258,32,85193,1,8,0:0:0:0:
258,32,85265,1,0,0:0:0:0:
258,32,85409,1,0,0:0:0:0:
258,32,85552,1,8,0:0:0:0:
258,32,85696,1,0,0:0:0:0:
258,32,85768,1,0,0:0:0:0:
258,32,85839,1,8,0:0:0:0:
258,32,85983,1,0,0:0:0:0:
258,32,86126,1,8,0:0:0:0:
258,32,86270,1,8,0:0:0:0:
258,32,86413,1,8,0:0:0:0:
258,32,86557,1,8,0:0:0:0:
258,32,86701,1,8,0:0:0:0:
258,32,86844,1,4,0:0:0:0:
256,32,87131,1,0,0:0:0:0:
256,32,87203,1,0,0:0:0:0:
256,32,87275,1,8,0:0:0:0:
256,32,87418,1,8,0:0:0:0:
256,32,87490,1,8,0:0:0:0:
256,32,87562,1,8,0:0:0:0:
256,32,87705,1,8,0:0:0:0:
256,32,87777,1,8,0:0:0:0:
256,32,87849,1,8,0:0:0:0:
256,32,87992,1,0,0:0:0:0:
256,32,88279,1,0,0:0:0:0:
256,32,88423,1,8,0:0:0:0:
256,32,88638,1,8,0:0:0:0:
256,32,88710,1,0,0:0:0:0:
256,32,88854,1,0,0:0:0:0:
256,32,88997,1,8,0:0:0:0:
256,32,89141,1,0,0:0:0:0:
256,32,89284,1,0,0:0:0:0:
256,32,89356,1,0,0:0:0:0:
256,32,89428,1,0,0:0:0:0:
256,32,89571,1,8,0:0:0:0:
256,32,89787,1,8,0:0:0:0:
256,32,89858,1,0,0:0:0:0:
256,32,90002,1,0,0:0:0:0:
256,32,90145,1,8,0:0:0:0:
256,32,90289,1,0,0:0:0:0:
256,32,90576,1,0,0:0:0:0:
256,32,90648,1,0,0:0:0:0:
256,32,90720,1,8,0:0:0:0:
256,32,90863,1,0,0:0:0:0:
256,32,91007,1,0,0:0:0:0:
256,32,91150,1,0,0:0:0:0:
256,32,91294,1,8,0:0:0:0:
256,32,91437,1,0,0:0:0:0:
256,32,91724,1,0,0:0:0:0:
256,32,91796,1,0,0:0:0:0:
256,32,91868,1,8,0:0:0:0:
256,32,92012,1,0,0:0:0:0:
256,32,92155,1,8,0:0:0:0:
256,32,92299,1,0,0:0:0:0:
256,32,92442,1,8,0:0:0:0:
256,32,92586,1,0,0:0:0:0:
256,32,92873,1,0,0:0:0:0:
256,32,93016,1,8,0:0:0:0:
256,32,93160,1,0,0:0:0:0:
256,32,93303,1,8,0:0:0:0:
256,32,93447,1,8,0:0:0:0:
256,32,93590,1,8,0:0:0:0:
256,32,93734,1,0,0:0:0:0:
256,32,93878,1,0,0:0:0:0:
256,32,93949,1,0,0:0:0:0:
256,32,94021,1,0,0:0:0:0:
256,32,94165,1,8,0:0:0:0:
256,32,94236,1,8,0:0:0:0:
256,32,94308,1,8,0:0:0:0:
256,32,94452,1,0,0:0:0:0:
256,32,94523,1,0,0:0:0:0:
256,32,94595,1,0,0:0:0:0:
256,32,94739,1,8,0:0:0:0:
256,32,95026,1,0,0:0:0:0:
256,32,95313,1,8,0:0:0:0:
256,32,95457,1,0,0:0:0:0:
256,32,95600,1,8,0:0:0:0:
256,32,95672,1,0,0:0:0:0:
256,32,95744,1,0,0:0:0:0:
256,32,95887,1,8,0:0:0:0:
256,32,96031,1,0,0:0:0:0:
256,32,96174,1,8,0:0:0:0:
256,32,96246,1,8,0:0:0:0:
256,32,96318,1,8,0:0:0:0:
256,32,96390,1,8,0:0:0:0:
256,32,96461,1,8,0:0:0:0:
256,32,96605,1,4,0:0:0:0:
256,32,96892,1,4,0:0:0:0:
256,32,97179,1,4,0:0:0:0:
256,32,97466,1,0,0:0:0:0:
256,32,97610,1,8,0:0:0:0:
256,32,97825,1,8,0:0:0:0:
256,32,97897,1,0,0:0:0:0:
256,32,98040,1,0,0:0:0:0:
256,32,98184,1,8,0:0:0:0:
256,32,98327,1,0,0:0:0:0:
256,32,98614,1,0,0:0:0:0:
256,32,98758,1,8,0:0:0:0:
256,32,98973,1,8,0:0:0:0:
256,32,99045,1,0,0:0:0:0:
256,32,99189,1,0,0:0:0:0:
256,32,99332,1,8,0:0:0:0:
256,32,99476,1,0,0:0:0:0:
256,32,99763,1,0,0:0:0:0:
256,32,99834,1,0,0:0:0:0:
256,32,99906,1,8,0:0:0:0:
256,32,100193,1,8,0:0:0:0:
256,32,100337,1,8,0:0:0:0:
256,32,100480,1,0,0:0:0:0:
256,32,100624,1,8,0:0:0:0:
256,32,100911,1,8,0:0:0:0:
256,32,101055,1,8,0:0:0:0:
256,32,101198,1,8,0:0:0:0:
256,32,101342,1,8,0:0:0:0:
256,32,101485,1,8,0:0:0:0:
256,32,101629,1,8,0:0:0:0:
256,32,101701,1,0,0:0:0:0:
256,32,101772,1,0,0:0:0:0:
256,32,101916,1,8,0:0:0:0:
256,32,102059,1,0,0:0:0:0:
256,32,102203,1,0,0:0:0:0:
256,32,102346,1,12,0:0:0:0:
256,32,102634,1,0,0:0:0:0:
256,32,102777,1,8,0:0:0:0:
256,32,102921,1,0,0:0:0:0:
256,32,103064,1,0,0:0:0:0:
256,32,103208,1,12,0:0:0:0:
256,32,103495,1,0,0:0:0:0:
256,32,103638,1,8,0:0:0:0:
256,32,103782,1,8,0:0:0:0:
256,32,104069,1,4,0:0:0:0:
256,32,104356,1,0,0:0:0:0:
256,32,104500,1,8,0:0:0:0:
256,32,104643,1,0,0:0:0:0:
256,32,104787,1,8,0:0:0:0:
256,32,104930,1,0,0:0:0:0:
256,32,105074,1,8,0:0:0:0:
256,32,105217,1,4,0:0:0:0:
256,32,105504,1,0,0:0:0:0:
256,32,105648,1,8,0:0:0:0:
256,32,105791,1,0,0:0:0:0:
256,32,105935,1,8,0:0:0:0:
256,32,106007,1,8,0:0:0:0:
256,32,106079,1,8,0:0:0:0:
256,32,106150,1,8,0:0:0:0:
256,32,106222,1,8,0:0:0:0:
256,32,106366,1,0,0:0:0:0:
256,32,106653,1,0,0:0:0:0:
256,32,106796,1,8,0:0:0:0:
256,32,107012,1,8,0:0:0:0:
256,32,107083,1,0,0:0:0:0:
256,32,107227,1,0,0:0:0:0:
256,32,107370,1,8,0:0:0:0:
256,32,107514,1,0,0:0:0:0:
256,32,107801,1,0,0:0:0:0:
256,32,107945,1,8,0:0:0:0:
256,32,108160,1,8,0:0:0:0:
256,32,108232,1,0,0:0:0:0:
256,32,108375,1,0,0:0:0:0:
256,32,108519,1,8,0:0:0:0:
256,32,108662,1,0,0:0:0:0:
256,32,108949,1,0,0:0:0:0:
256,32,109021,1,0,0:0:0:0:
256,32,109093,1,8,0:0:0:0:
256,32,109380,1,0,0:0:0:0:
256,32,109523,1,0,0:0:0:0:
256,32,109667,1,8,0:0:0:0:
256,32,109811,1,0,0:0:0:0:
256,32,109954,1,0,0:0:0:0:
256,32,110026,1,0,0:0:0:0:
256,32,110098,1,0,0:0:0:0:
256,32,110241,1,8,0:0:0:0:
256,32,110385,1,0,0:0:0:0:
256,32,110528,1,0,0:0:0:0:
256,32,110672,1,0,0:0:0:0:
256,32,110815,1,8,0:0:0:0:
256,32,111031,1,0,0:0:0:0:
256,32,111102,1,8,0:0:0:0:
256,32,111390,1,8,0:0:0:0:
256,32,111461,1,0,0:0:0:0:
256,32,111533,1,0,0:0:0:0:
256,32,111677,1,0,0:0:0:0:
256,32,111820,1,0,0:0:0:0:
256,32,111964,1,8,0:0:0:0:
256,32,112107,1,0,0:0:0:0:
256,32,112394,1,0,0:0:0:0:
256,32,112538,1,8,0:0:0:0:
256,32,112610,1,8,0:0:0:0:
256,32,112681,1,0,0:0:0:0:
256,32,112753,1,0,0:0:0:0:
256,32,112825,1,8,0:0:0:0:
256,32,112968,1,8,0:0:0:0:
256,32,113040,1,8,0:0:0:0:
256,32,113112,1,8,0:0:0:0:
256,32,113256,1,8,0:0:0:0:
256,32,113327,1,8,0:0:0:0:
256,32,113399,1,4,0:0:0:0:
256,32,113686,1,0,0:0:0:0:
256,32,113830,1,8,0:0:0:0:
256,32,113973,1,0,0:0:0:0:
256,32,114117,1,0,0:0:0:0:
256,32,114260,1,8,0:0:0:0:
256,32,114404,1,0,0:0:0:0:
256,32,114547,1,0,0:0:0:0:
256,32,114691,1,8,0:0:0:0:
256,32,114834,1,0,0:0:0:0:
256,32,114906,1,8,0:0:0:0:
256,32,114978,1,0,0:0:0:0:
256,32,115122,1,8,0:0:0:0:
256,32,115265,1,0,0:0:0:0:
256,32,115409,1,8,0:0:0:0:
256,32,115696,1,8,0:0:0:0:
256,32,115839,1,0,0:0:0:0:
256,32,115911,1,0,0:0:0:0:
256,32,115983,1,0,0:0:0:0:
256,32,116126,1,8,0:0:0:0:
256,32,116270,1,0,0:0:0:0:
256,32,116342,1,0,0:0:0:0:
256,32,116413,1,0,0:0:0:0:
256,32,116557,1,8,0:0:0:0:
256,32,116701,1,0,0:0:0:0:
256,32,116844,1,0,0:0:0:0:
256,32,116988,1,8,0:0:0:0:
256,32,117131,1,0,0:0:0:0:
256,32,117203,1,0,0:0:0:0:
256,32,117275,1,0,0:0:0:0:
256,32,117418,1,8,0:0:0:0:
256,32,117562,1,0,0:0:0:0:
256,32,117705,1,8,0:0:0:0:
256,32,117992,1,8,0:0:0:0:
256,32,118136,1,8,0:0:0:0:
256,32,118208,1,8,0:0:0:0:
256,32,118279,1,0,0:0:0:0:
256,32,118423,1,8,0:0:0:0:
256,32,118567,1,0,0:0:0:0:
256,32,118710,1,0,0:0:0:0:
256,32,118854,1,8,0:0:0:0:
256,32,118997,1,0,0:0:0:0:
256,32,119069,1,0,0:0:0:0:
256,32,119141,1,0,0:0:0:0:
256,32,119284,1,8,0:0:0:0:
256,32,119428,1,0,0:0:0:0:
256,32,119500,1,0,0:0:0:0:
256,32,119571,1,0,0:0:0:0:
256,32,119715,1,8,0:0:0:0:
256,32,119858,1,8,0:0:0:0:
256,32,120002,1,8,0:0:0:0:
256,32,120145,1,8,0:0:0:0:
256,32,120289,1,8,0:0:0:0:
256,32,120433,1,0,0:0:0:0:
256,32,120504,1,8,0:0:0:0:
256,32,120576,1,0,0:0:0:0:
256,32,120720,1,8,0:0:0:0:
256,32,120863,1,0,0:0:0:0:
256,32,121007,1,0,0:0:0:0:
256,32,121150,1,8,0:0:0:0:
256,32,121294,1,0,0:0:0:0:
256,32,121437,1,8,0:0:0:0:
256,32,121533,1,8,0:0:0:0:
256,32,121629,1,8,0:0:0:0:
256,32,121724,1,8,0:0:0:0:
256,32,122012,1,0,0:0:0:0:
256,32,122299,1,8,0:0:0:0:
256,32,122586,1,4,0:0:0:0:
256,32,122729,1,0,0:0:0:0:
256,32,122873,1,8,0:0:0:0:
256,32,123160,1,0,0:0:0:0:
256,32,123303,1,0,0:0:0:0:
256,32,123447,1,8,0:0:0:0:
256,32,123590,1,0,0:0:0:0:
256,32,123734,1,0,0:0:0:0:
256,32,123878,1,0,0:0:0:0:
256,32,124021,1,8,0:0:0:0:
256,32,124165,1,0,0:0:0:0:
256,32,124236,1,8,0:0:0:0:
256,32,124308,1,0,0:0:0:0:
256,32,124595,1,8,0:0:0:0:
256,32,124739,1,0,0:0:0:0:
256,32,124811,1,0,0:0:0:0:
256,32,124882,1,8,0:0:0:0:
256,32,125169,1,8,0:0:0:0:
256,32,125313,1,0,0:0:0:0:
256,32,125457,1,0,0:0:0:0:
256,32,125600,1,0,0:0:0:0:
256,32,125744,1,8,0:0:0:0:
256,32,125887,1,0,0:0:0:0:
256,32,125959,1,0,0:0:0:0:
256,32,126031,1,8,0:0:0:0:
256,32,126318,1,8,0:0:0:0:
256,32,126461,1,0,0:0:0:0:
256,32,126533,1,8,0:0:0:0:
256,32,126605,1,0,0:0:0:0:
256,32,126892,1,8,0:0:0:0:
256,32,127179,1,8,0:0:0:0:
256,32,127323,1,0,0:0:0:0:
256,32,127466,1,0,0:0:0:0:
256,32,127610,1,8,0:0:0:0:
256,32,127753,1,0,0:0:0:0:
256,32,127897,1,0,0:0:0:0:
256,32,128040,1,8,0:0:0:0:
256,32,128184,1,0,0:0:0:0:
256,32,128256,1,0,0:0:0:0:
256,32,128327,1,0,0:0:0:0:
256,32,128471,1,8,0:0:0:0:
256,32,128614,1,0,0:0:0:0:
256,32,128686,1,0,0:0:0:0:
256,32,128758,1,0,0:0:0:0:
256,32,128901,1,8,0:0:0:0:
256,32,129045,1,8,0:0:0:0:
256,32,129189,1,8,0:0:0:0:
256,32,129332,1,8,0:0:0:0:
256,32,129476,1,8,0:0:0:0:
256,32,129571,1,8,0:0:0:0:
256,32,129667,1,8,0:0:0:0:
256,32,129763,1,8,0:0:0:0:
256,32,129906,1,0,0:0:0:0:
256,32,130337,1,0,0:0:0:0:
256,32,130480,1,0,0:0:0:0:
256,32,130552,1,8,0:0:0:0:
256,32,130624,1,8,0:0:0:0:
256,32,131772,1,4,0:0:0:0:
256,32,132346,1,8,0:0:0:0:
256,32,132777,1,8,0:0:0:0:
256,32,133495,1,0,0:0:0:0:
256,32,133782,1,0,0:0:0:0:
256,32,134069,1,0,0:0:0:0:
256,32,134643,1,8,0:0:0:0:
256,32,135074,1,8,0:0:0:0:
256,32,135792,1,0,0:0:0:0:
256,32,136079,1,0,0:0:0:0:
256,32,136366,1,0,0:0:0:0:
256,32,136940,1,8,0:0:0:0:
256,32,137370,1,8,0:0:0:0:
256,32,138088,1,0,0:0:0:0:
256,32,138375,1,0,0:0:0:0:
256,32,138519,1,0,0:0:0:0:
256,32,138590,1,0,0:0:0:0:
256,32,138662,1,8,0:0:0:0:
256,32,138949,1,8,0:0:0:0:
256,32,139093,1,0,0:0:0:0:
256,32,139236,1,8,0:0:0:0:
256,32,139380,1,8,0:0:0:0:
256,32,139523,1,8,0:0:0:0:
256,32,139667,1,8,0:0:0:0:
256,32,139810,1,8,0:0:0:0:
256,32,139882,1,0,0:0:0:0:
256,32,139954,1,0,0:0:0:0:
256,32,140098,1,8,0:0:0:0:
256,32,140169,1,8,0:0:0:0:
256,32,140241,1,8,0:0:0:0:
256,32,140313,1,8,0:0:0:0:
256,32,140385,1,8,0:0:0:0:
256,32,140528,1,8,0:0:0:0:
256,32,140672,1,8,0:0:0:0:
256,32,140815,1,8,0:0:0:0:
256,32,140959,1,4,0:0:0:0:
256,32,141390,1,0,0:0:0:0:
256,32,141533,1,8,0:0:0:0:
256,32,141820,1,8,0:0:0:0:
256,32,141892,1,8,0:0:0:0:
256,32,141964,1,8,0:0:0:0:
256,32,142107,1,0,0:0:0:0:
256,32,142251,1,0,0:0:0:0:
256,32,142394,1,8,0:0:0:0:
256,32,142538,1,0,0:0:0:0:
256,32,142610,1,0,0:0:0:0:
256,32,142681,1,8,0:0:0:0:
256,32,142968,1,0,0:0:0:0:
256,32,143112,1,0,0:0:0:0:
256,32,143256,1,12,0:0:0:0:
256,32,143399,1,0,0:0:0:0:
256,32,143543,1,0,0:0:0:0:
256,32,143686,1,0,0:0:0:0:
256,32,143758,1,0,0:0:0:0:
256,32,143830,1,8,0:0:0:0:
256,32,144117,1,0,0:0:0:0:
256,32,144260,1,8,0:0:0:0:
256,32,144332,1,0,0:0:0:0:
256,32,144404,1,8,0:0:0:0:
256,32,144547,1,8,0:0:0:0:
256,32,144619,1,0,0:0:0:0:
256,32,144691,1,8,0:0:0:0:
256,32,144834,1,8,0:0:0:0:
256,32,144906,1,0,0:0:0:0:
256,32,144978,1,8,0:0:0:0:
256,32,145122,1,8,0:0:0:0:
256,32,145193,1,0,0:0:0:0:
256,32,145265,1,8,0:0:0:0:
256,32,145409,1,0,0:0:0:0:
256,32,145552,1,12,0:0:0:0:
256,32,145696,1,0,0:0:0:0:
256,32,145983,1,0,0:0:0:0:
256,32,146126,1,8,0:0:0:0:
256,32,146270,1,0,0:0:0:0:
256,32,146413,1,8,0:0:0:0:
256,32,146485,1,8,0:0:0:0:
256,32,146557,1,8,0:0:0:0:
256,32,146700,1,0,0:0:0:0:
256,32,146844,1,0,0:0:0:0:
256,32,146988,1,8,0:0:0:0:
256,32,147131,1,0,0:0:0:0:
256,32,147203,1,0,0:0:0:0:
256,32,147274,1,8,0:0:0:0:
256,32,147561,1,0,0:0:0:0:
256,32,147705,1,0,0:0:0:0:
256,32,147849,1,12,0:0:0:0:
256,32,147992,1,0,0:0:0:0:
256,32,148136,1,0,0:0:0:0:
256,32,148279,1,8,0:0:0:0:
256,32,148423,1,0,0:0:0:0:
256,32,148566,1,0,0:0:0:0:
256,32,148710,1,8,0:0:0:0:
256,32,148853,1,0,0:0:0:0:
256,32,148997,1,0,0:0:0:0:
256,32,149140,1,8,0:0:0:0:
256,32,149284,1,0,0:0:0:0:
256,32,149427,1,0,0:0:0:0:
256,32,149571,1,8,0:0:0:0:
256,32,149643,1,8,0:0:0:0:
256,32,149715,1,8,0:0:0:0:
256,32,149786,1,8,0:0:0:0:
256,32,149858,1,8,0:0:0:0:
256,32,150002,1,8,0:0:0:0:
256,32,150074,1,8,0:0:0:0:
256,32,150145,1,4,0:0:0:0:
256,32,150433,1,0,0:0:0:0:
256,32,150576,1,0,0:0:0:0:
256,32,150719,1,8,0:0:0:0:
256,32,150863,1,0,0:0:0:0:
256,32,151007,1,8,0:0:0:0:
256,32,151079,1,8,0:0:0:0:
256,32,151150,1,8,0:0:0:0:
256,32,151294,1,0,0:0:0:0:
256,32,151581,1,8,0:0:0:0:
256,32,151724,1,0,0:0:0:0:
256,32,151796,1,0,0:0:0:0:
256,32,151868,1,8,0:0:0:0:
256,32,152012,1,0,0:0:0:0:
256,32,152155,1,0,0:0:0:0:
256,32,152299,1,0,0:0:0:0:
256,32,152442,1,12,0:0:0:0:
256,32,152729,1,8,0:0:0:0:
256,32,152873,1,0,0:0:0:0:
256,32,153016,1,8,0:0:0:0:
256,32,153303,1,0,0:0:0:0:
256,32,153375,1,8,0:0:0:0:
256,32,153447,1,0,0:0:0:0:
256,32,153590,1,8,0:0:0:0:
256,32,153734,1,0,0:0:0:0:
256,32,153806,1,0,0:0:0:0:
256,32,153878,1,0,0:0:0:0:
256,32,154021,1,0,0:0:0:0:
256,32,154093,1,0,0:0:0:0:
256,32,154165,1,8,0:0:0:0:
256,32,154308,1,8,0:0:0:0:
256,32,154380,1,8,0:0:0:0:
256,32,154452,1,8,0:0:0:0:
256,32,154595,1,0,0:0:0:0:
256,32,154739,1,8,0:0:0:0:
256,32,154882,1,0,0:0:0:0:
256,32,155026,1,0,0:0:0:0:
256,32,155169,1,8,0:0:0:0:
256,32,155312,1,0,0:0:0:0:
256,32,155456,1,0,0:0:0:0:
256,32,155600,1,8,0:0:0:0:
256,32,155887,1,0,0:0:0:0:
256,32,156031,1,8,0:0:0:0:
256,32,156174,1,0,0:0:0:0:
256,32,156318,1,0,0:0:0:0:
256,32,156390,1,0,0:0:0:0:
256,32,156461,1,8,0:0:0:0:
256,32,156748,1,8,0:0:0:0:
256,32,157035,1,12,0:0:0:0:
256,32,157179,1,0,0:0:0:0:
256,32,157323,1,0,0:0:0:0:
256,32,157466,1,8,0:0:0:0:
256,32,157610,1,0,0:0:0:0:
256,32,157752,1,0,0:0:0:0:
256,32,157897,1,8,0:0:0:0:
256,32,158041,1,0,0:0:0:0:
256,32,158183,1,0,0:0:0:0:
256,32,158327,1,8,0:0:0:0:
256,32,158471,1,0,0:0:0:0:
256,32,158615,1,0,0:0:0:0:
256,32,158758,1,8,0:0:0:0:
256,32,158902,1,8,0:0:0:0:
256,32,158973,1,8,0:0:0:0:
256,32,159044,1,8,0:0:0:0:
256,32,159189,1,8,0:0:0:0:
256,32,159332,1,8,0:0:0:0:
256,32,159404,1,8,0:0:0:0:
256,32,159476,1,0,0:0:0:0:
256,32,159547,1,0,0:0:0:0:
256,32,159619,1,8,0:0:0:0:
256,32,159763,1,0,0:0:0:0:
256,32,159906,1,8,0:0:0:0:
256,32,160050,1,8,0:0:0:0:
256,32,160337,1,8,0:0:0:0:
256,32,160480,1,0,0:0:0:0:
256,32,160552,1,0,0:0:0:0:
256,32,160624,1,8,0:0:0:0:
256,32,160768,1,0,0:0:0:0:
256,32,160839,1,0,0:0:0:0:
256,32,160911,1,8,0:0:0:0:
256,32,161055,1,8,0:0:0:0:
256,32,161198,1,0,0:0:0:0:
256,32,161342,1,8,0:0:0:0:
256,32,161413,1,8,0:0:0:0:
256,32,161485,1,0,0:0:0:0:
256,32,161557,1,0,0:0:0:0:
256,32,161629,1,8,0:0:0:0:
256,32,161772,1,0,0:0:0:0:
256,32,161916,1,8,0:0:0:0:
256,32,161988,1,8,0:0:0:0:
256,32,162059,1,0,0:0:0:0:
256,32,162203,1,0,0:0:0:0:
256,32,162346,1,0,0:0:0:0:
256,32,162418,1,0,0:0:0:0:
256,32,162490,1,8,0:0:0:0:
256,32,162634,1,8,0:0:0:0:
256,32,162705,1,8,0:0:0:0:
256,32,162777,1,4,0:0:0:0:
256,32,163351,1,0,0:0:0:0:
256,32,163495,1,0,0:0:0:0:
256,32,163638,1,0,0:0:0:0:
256,32,163782,1,0,0:0:0:0:
256,32,163925,1,12,0:0:0:0:
256,32,172251,5,0,0:0:0:0:
256,32,172394,1,8,0:0:0:0:
256,32,172681,1,8,0:0:0:0:
256,32,172968,1,4,0:0:0:0:
256,32,173399,1,0,0:0:0:0:
256,32,173686,1,0,0:0:0:0:
256,32,173973,1,0,0:0:0:0:
256,32,174260,1,0,0:0:0:0:
256,32,174547,1,0,0:0:0:0:
256,32,174834,1,0,0:0:0:0:
256,32,175122,1,0,0:0:0:0:
256,32,175409,1,0,0:0:0:0:
256,32,175696,1,0,0:0:0:0:
256,32,175983,1,0,0:0:0:0:
256,32,176270,1,0,0:0:0:0:
256,32,176557,1,8,0:0:0:0:
256,32,176844,1,8,0:0:0:0:
256,32,176988,1,8,0:0:0:0:
256,32,177131,1,8,0:0:0:0:
256,32,177275,1,8,0:0:0:0:
256,32,177418,1,8,0:0:0:0:
256,32,177490,1,8,0:0:0:0:
256,32,177562,1,8,0:0:0:0:
256,32,177705,1,8,0:0:0:0:
256,32,177801,1,8,0:0:0:0:
256,32,177897,1,8,0:0:0:0:
256,32,177992,1,8,0:0:0:0:
256,32,178136,1,0,0:0:0:0:
256,32,178423,1,0,0:0:0:0:
256,32,178567,1,0,0:0:0:0:
256,32,178710,1,0,0:0:0:0:
256,32,178854,1,8,0:0:0:0:
256,32,178925,1,8,0:0:0:0:
256,32,178997,1,8,0:0:0:0:
256,32,179069,1,8,0:0:0:0:
256,32,179141,1,0,0:0:0:0:
256,32,179284,1,0,0:0:0:0:
256,32,179428,1,0,0:0:0:0:
256,32,179715,1,8,0:0:0:0:
256,32,179858,1,0,0:0:0:0:
256,32,180002,1,8,0:0:0:0:
256,32,180145,1,8,0:0:0:0:
256,32,180433,1,8,0:0:0:0:
256,32,180576,1,8,0:0:0:0:
256,32,180720,1,0,0:0:0:0:
256,32,180791,1,8,0:0:0:0:
256,32,180863,1,8,0:0:0:0:
256,32,181006,1,8,0:0:0:0:
256,32,181150,1,0,0:0:0:0:
256,32,181294,1,8,0:0:0:0:
256,32,181437,1,8,0:0:0:0:
256,32,181581,1,4,0:0:0:0:
256,32,181868,1,4,0:0:0:0:
256,32,182155,1,4,0:0:0:0:
256,32,182442,1,0,0:0:0:0:
256,32,182586,1,8,0:0:0:0:
256,32,182729,1,0,0:0:0:0:
256,32,182873,1,0,0:0:0:0:
256,32,183016,1,0,0:0:0:0:
256,32,183160,1,8,0:0:0:0:
256,32,183303,1,0,0:0:0:0:
256,32,183375,1,0,0:0:0:0:
256,32,183447,1,8,0:0:0:0:
256,32,183590,1,0,0:0:0:0:
256,32,183734,1,8,0:0:0:0:
256,32,184021,1,0,0:0:0:0:
256,32,184165,1,0,0:0:0:0:
256,32,184308,1,8,0:0:0:0:
256,32,184452,1,0,0:0:0:0:
256,32,184739,1,0,0:0:0:0:
256,32,184882,1,8,0:0:0:0:
256,32,185026,1,0,0:0:0:0:
256,32,185169,1,0,0:0:0:0:
256,32,185313,1,0,0:0:0:0:
256,32,185457,1,8,0:0:0:0:
256,32,185600,1,0,0:0:0:0:
256,32,185672,1,0,0:0:0:0:
256,32,185744,1,8,0:0:0:0:
256,32,185887,1,0,0:0:0:0:
256,32,186031,1,8,0:0:0:0:
256,32,186318,1,0,0:0:0:0:
256,32,186461,1,0,0:0:0:0:
256,32,186605,1,8,0:0:0:0:
256,32,186748,1,0,0:0:0:0:
256,32,187035,1,0,0:0:0:0:
256,32,187179,1,8,0:0:0:0:
256,32,187323,1,0,0:0:0:0:
256,32,187466,1,8,0:0:0:0:
256,32,187610,1,0,0:0:0:0:
256,32,187753,1,8,0:0:0:0:
256,32,187897,1,0,0:0:0:0:
256,32,188040,1,0,0:0:0:0:
256,32,188112,1,0,0:0:0:0:
256,32,188184,1,0,0:0:0:0:
256,32,188327,1,8,0:0:0:0:
256,32,188614,1,8,0:0:0:0:
256,32,188901,1,8,0:0:0:0:
256,32,189189,1,12,0:0:0:0:
256,32,189332,1,0,0:0:0:0:
256,32,189476,1,8,0:0:0:0:
256,32,189619,1,0,0:0:0:0:
256,32,189763,1,8,0:0:0:0:
256,32,189834,1,0,0:0:0:0:
256,32,189906,1,0,0:0:0:0:
256,32,190050,1,8,0:0:0:0:
256,32,190193,1,0,0:0:0:0:
256,32,190337,1,8,0:0:0:0:
256,32,190409,1,8,0:0:0:0:
256,32,190480,1,0,0:0:0:0:
256,32,190552,1,0,0:0:0:0:
256,32,190624,1,8,0:0:0:0:
256,32,190768,1,0,0:0:0:0:
256,32,190911,1,8,0:0:0:0:
256,32,191055,1,8,0:0:0:0:
256,32,191198,1,8,0:0:0:0:
256,32,191342,1,0,0:0:0:0:
256,32,191629,1,0,0:0:0:0:
256,32,191701,1,0,0:0:0:0:
256,32,191772,1,8,0:0:0:0:
256,32,192059,1,0,0:0:0:0:
256,32,192203,1,0,0:0:0:0:
256,32,192346,1,8,0:0:0:0:
256,32,192490,1,0,0:0:0:0:
256,32,192777,1,0,0:0:0:0:
256,32,192921,1,8,0:0:0:0:
256,32,193208,1,0,0:0:0:0:
256,32,193351,1,0,0:0:0:0:
256,32,193495,1,8,0:0:0:0:
256,32,193782,1,0,0:0:0:0:
256,32,193925,1,0,0:0:0:0:
256,32,194069,1,8,0:0:0:0:
256,32,194212,1,0,0:0:0:0:
256,32,194284,1,0,0:0:0:0:
256,32,194356,1,0,0:0:0:0:
256,32,194500,1,0,0:0:0:0:
256,32,194643,1,8,0:0:0:0:
256,32,194787,1,0,0:0:0:0:
256,32,195074,1,0,0:0:0:0:
256,32,195217,1,8,0:0:0:0:
256,32,195504,1,0,0:0:0:0:
256,32,195648,1,0,0:0:0:0:
256,32,195791,1,8,0:0:0:0:
256,32,195935,1,0,0:0:0:0:
256,32,196079,1,8,0:0:0:0:
256,32,196222,1,8,0:0:0:0:
256,32,196294,1,8,0:0:0:0:
256,32,196366,1,0,0:0:0:0:
256,32,196437,1,0,0:0:0:0:
256,32,196509,1,8,0:0:0:0:
256,32,196653,1,8,0:0:0:0:
256,32,196724,1,8,0:0:0:0:
256,32,196796,1,0,0:0:0:0:
256,32,196868,1,0,0:0:0:0:
256,32,196940,1,8,0:0:0:0:
256,32,197083,1,0,0:0:0:0:
256,32,197370,1,0,0:0:0:0:
256,32,197514,1,8,0:0:0:0:
256,32,197657,1,8,0:0:0:0:
256,32,197801,1,8,0:0:0:0:
256,32,197945,1,8,0:0:0:0:
256,32,198088,1,8,0:0:0:0:
256,32,198232,1,8,0:0:0:0:
256,32,198375,1,4,0:0:0:0:
256,32,198590,1,8,0:0:0:0:
256,32,198662,1,0,0:0:0:0:
256,32,198806,1,8,0:0:0:0:
256,32,198949,1,8,0:0:0:0:
256,32,199093,1,0,0:0:0:0:
256,32,199165,1,0,0:0:0:0:
256,32,199236,1,8,0:0:0:0:
256,32,199380,1,0,0:0:0:0:
256,32,199667,1,8,0:0:0:0:
256,32,199811,1,8,0:0:0:0:
256,32,199882,1,8,0:0:0:0:
256,32,199954,1,8,0:0:0:0:
256,32,200098,1,8,0:0:0:0:
256,32,200169,1,8,0:0:0:0:
256,32,200241,1,8,0:0:0:0:
256,32,200385,1,0,0:0:0:0:
256,32,200457,1,0,0:0:0:0:
256,32,200528,1,0,0:0:0:0:
256,32,200672,1,8,0:0:0:0:
256,32,200815,1,0,0:0:0:0:
256,32,200959,1,0,0:0:0:0:
256,32,201102,1,12,0:0:0:0:
256,32,201389,1,0,0:0:0:0:
256,32,201533,1,8,0:0:0:0:
256,32,201676,1,0,0:0:0:0:
256,32,201820,1,0,0:0:0:0:
256,32,201964,1,12,0:0:0:0:
256,32,202251,1,0,0:0:0:0:
256,32,202394,1,8,0:0:0:0:
256,32,202537,1,12,0:0:0:0:
256,32,202825,1,4,0:0:0:0:
256,32,203112,1,0,0:0:0:0:
256,32,203256,1,8,0:0:0:0:
256,32,203399,1,0,0:0:0:0:
256,32,203543,1,8,0:0:0:0:
256,32,203686,1,0,0:0:0:0:
256,32,203830,1,8,0:0:0:0:
256,32,203973,1,0,0:0:0:0:
256,32,204691,1,8,0:0:0:0:
256,32,204978,1,0,0:0:0:0:
256,32,205122,1,12,0:0:0:0:
256,32,205409,1,0,0:0:0:0:
256,32,205552,1,8,0:0:0:0:
256,32,205768,1,8,0:0:0:0:
256,32,205839,1,0,0:0:0:0:
256,32,205983,1,0,0:0:0:0:
256,32,206126,1,8,0:0:0:0:
256,32,206270,1,0,0:0:0:0:
256,32,206557,1,0,0:0:0:0:
256,32,206701,1,8,0:0:0:0:
256,32,206916,1,8,0:0:0:0:
256,32,206988,1,0,0:0:0:0:
256,32,207131,1,0,0:0:0:0:
256,32,207275,1,8,0:0:0:0:
256,32,207346,1,0,0:0:0:0:
256,32,207418,1,8,0:0:0:0:
256,32,207705,1,0,0:0:0:0:
256,32,207777,1,0,0:0:0:0:
256,32,207849,1,8,0:0:0:0:
256,32,208136,1,0,0:0:0:0:
256,32,208279,1,0,0:0:0:0:
256,32,208423,1,8,0:0:0:0:
256,32,208567,1,0,0:0:0:0:
256,32,208854,1,0,0:0:0:0:
256,32,208997,1,8,0:0:0:0:
256,32,209141,1,0,0:0:0:0:
256,32,209284,1,0,0:0:0:0:
256,32,209356,1,0,0:0:0:0:
256,32,209428,1,0,0:0:0:0:
256,32,209500,1,0,0:0:0:0:
256,32,209571,1,8,0:0:0:0:
256,32,209715,1,0,0:0:0:0:
256,32,210002,1,0,0:0:0:0:
256,32,210145,1,8,0:0:0:0:
256,32,210433,1,0,0:0:0:0:
256,32,210576,1,0,0:0:0:0:
256,32,210720,1,8,0:0:0:0:
256,32,210863,1,0,0:0:0:0:
256,32,210935,1,0,0:0:0:0:
256,32,211007,1,0,0:0:0:0:
256,32,211150,1,0,0:0:0:0:
256,32,211294,1,8,0:0:0:0:
256,32,211509,1,8,0:0:0:0:
256,32,211581,1,0,0:0:0:0:
256,32,211724,1,0,0:0:0:0:
256,32,211868,1,8,0:0:0:0:
256,32,212012,1,0,0:0:0:0:
256,32,212299,1,0,0:0:0:0:
256,32,212442,1,8,0:0:0:0:
256,32,212586,1,0,0:0:0:0:
256,32,212729,1,8,0:0:0:0:
256,32,212873,1,0,0:0:0:0:
256,32,213016,1,8,0:0:0:0:
256,32,213160,1,0,0:0:0:0:
256,32,213303,1,8,0:0:0:0:
256,32,213447,1,0,0:0:0:0:
256,32,213590,1,8,0:0:0:0:
256,32,213734,1,0,0:0:0:0:
256,32,213878,1,8,0:0:0:0:
256,32,214021,1,8,0:0:0:0:
256,32,214165,1,8,0:0:0:0:
256,32,214308,1,0,0:0:0:0:
256,32,214595,1,0,0:0:0:0:
256,32,214739,1,8,0:0:0:0:
256,32,214954,1,8,0:0:0:0:
256,32,215026,1,0,0:0:0:0:
256,32,215169,1,0,0:0:0:0:
256,32,215313,1,8,0:0:0:0:
256,32,215457,1,0,0:0:0:0:
256,32,215744,1,0,0:0:0:0:
256,32,215887,1,8,0:0:0:0:
256,32,216102,1,8,0:0:0:0:
256,32,216174,1,0,0:0:0:0:
256,32,216318,1,0,0:0:0:0:
256,32,216461,1,8,0:0:0:0:
256,32,216605,1,8,0:0:0:0:
256,32,216677,1,8,0:0:0:0:
256,32,216748,1,8,0:0:0:0:
256,32,216892,1,0,0:0:0:0:
256,32,216964,1,0,0:0:0:0:
256,32,217035,1,8,0:0:0:0:
256,32,217323,1,0,0:0:0:0:
256,32,217466,1,0,0:0:0:0:
256,32,217610,1,8,0:0:0:0:
256,32,217753,1,0,0:0:0:0:
256,32,218040,1,0,0:0:0:0:
256,32,218184,1,8,0:0:0:0:
256,32,218471,1,0,0:0:0:0:
256,32,218543,1,0,0:0:0:0:
256,32,218614,1,0,0:0:0:0:
256,32,218686,1,0,0:0:0:0:
256,32,218758,1,8,0:0:0:0:
256,32,218901,1,0,0:0:0:0:
256,32,219260,1,0,0:0:0:0:
256,32,219332,1,8,0:0:0:0:
256,32,219547,1,8,0:0:0:0:
256,32,219619,1,0,0:0:0:0:
256,32,219763,1,0,0:0:0:0:
256,32,219906,1,8,0:0:0:0:
256,32,220050,1,0,0:0:0:0:
256,32,220337,1,0,0:0:0:0:
256,32,220480,1,8,0:0:0:0:
256,32,220696,1,8,0:0:0:0:
256,32,220768,1,0,0:0:0:0:
256,32,220911,1,0,0:0:0:0:
256,32,221055,1,8,0:0:0:0:
256,32,221198,1,0,0:0:0:0:
256,32,221485,1,0,0:0:0:0:
256,32,221629,1,8,0:0:0:0:
256,32,221772,1,0,0:0:0:0:
256,32,221916,1,8,0:0:0:0:
256,32,222059,1,0,0:0:0:0:
256,32,222131,1,0,0:0:0:0:
256,32,222203,1,8,0:0:0:0:
256,32,222346,1,0,0:0:0:0:
256,32,222418,1,0,0:0:0:0:
256,32,222490,1,8,0:0:0:0:
256,32,222634,1,8,0:0:0:0:
256,32,222777,1,8,0:0:0:0:
256,32,222921,1,0,0:0:0:0:
256,32,223064,1,0,0:0:0:0:
256,32,223208,1,8,0:0:0:0:
256,32,223351,1,8,0:0:0:0:
256,32,223567,1,0,0:0:0:0:
256,32,223638,1,8,0:0:0:0:
256,32,223782,1,0,0:0:0:0:
256,32,223925,1,0,0:0:0:0:
256,32,224069,1,8,0:0:0:0:
256,32,224213,1,0,0:0:0:0:
256,32,224356,1,0,0:0:0:0:
256,32,224500,1,8,0:0:0:0:
256,32,224642,1,0,0:0:0:0:
256,32,224787,1,0,0:0:0:0:
256,32,224930,1,8,0:0:0:0:
256,32,225217,1,0,0:0:0:0:
256,32,225361,1,8,0:0:0:0:
256,32,225504,1,12,0:0:0:0:
256,32,225791,1,0,0:0:0:0:
256,32,226079,1,0,0:0:0:0:
256,32,226222,1,8,0:0:0:0:
256,32,226366,1,12,0:0:0:0:
256,32,226653,1,0,0:0:0:0:
256,32,226796,1,8,0:0:0:0:
256,32,226940,1,4,0:0:0:0:
256,32,227227,1,0,0:0:0:0:
256,32,227299,1,8,0:0:0:0:
256,32,227370,1,8,0:0:0:0:
256,32,227514,1,8,0:0:0:0:
256,32,227657,1,8,0:0:0:0:
256,32,227801,1,0,0:0:0:0:
256,32,227945,1,0,0:0:0:0:
256,32,228088,1,8,0:0:0:0:
256,32,228232,1,4,0:0:0:0:
