osu file format v14

[General]
AudioFilename: audio.mp3
AudioLeadIn: 0
PreviewTime: 163279
Countdown: 0
SampleSet: Soft
StackLeniency: 0.4
Mode: 0
LetterboxInBreaks: 0
WidescreenStoryboard: 1

[Editor]
Bookmarks: 33016,67466,106509,140959,163925,205122
DistanceSpacing: 1.4
BeatDivisor: 8
GridSize: 32
TimelineZoom: 2.099996

[Metadata]
Title:Hyousou wa Hakuen o Matoite
TitleUnicode:氷奏は白焔を纏いて
Artist:ELFENSJoN
ArtistUnicode:ELFENSJóN
Creator:SMOKELIND
Version:Keqibe's Extra
Source:
Tags:Neko Keqing iljaaz Kalibe Sagiri Featured Artist Mappers' Guild MG MPG EINHERJAR FA Rock J-Rock JRock Japanese JP
BeatmapID:2761854
BeatmapSetID:1332833

[Difficulty]
HPDrainRate:5.7
CircleSize:4
OverallDifficulty:8.3
ApproachRate:9.3
SliderMultiplier:1.84
SliderTickRate:1

[Events]
//Background and Video events
0,0,"Neko.jpg",0,0
//Break Periods
2,132059,137801
2,164212,171533
//Storyboard Layer 0 (Background)
//Storyboard Layer 1 (Fail)
//Storyboard Layer 2 (Pass)
//Storyboard Layer 3 (Foreground)
//Storyboard Layer 4 (Overlay)
//Storyboard Sound Samples

[TimingPoints]
863,287.081339712919,4,2,7,47,1,0
863,-212.765957446809,4,2,7,47,0,0
14356,-370.370370370372,4,2,7,47,0,0
14643,-175.438596491228,4,2,7,77,0,0
15648,-129.87012987013,4,2,7,77,0,0
19236,-93.4579439252337,4,2,7,77,0,0
20241,-103.092783505155,4,2,7,77,0,0
23830,-370.37037037037,4,2,7,77,0,0
24117,-103.092783505155,4,2,7,77,0,0
32729,-175.438596491228,4,2,7,77,0,0
33303,-129.87012987013,4,2,7,57,0,0
40911,-93.4579439252337,4,2,7,77,0,0
42059,-103.092783505155,4,2,7,77,0,0
51390,-114.942528735632,4,2,7,67,0,0
60576,-175.438596491228,4,2,7,77,0,0
60863,-103.092783505155,4,2,7,77,0,0
67466,-93.4579439252339,4,2,7,77,0,0
69763,-90.9090909090909,4,2,7,87,0,0
78232,-68.0272108843537,4,2,7,87,0,0
78806,-100,4,2,7,87,0,0
83256,-175.438596491228,4,2,7,87,0,0
83543,-93.4579439252336,4,2,7,87,0,0
87992,-100,4,2,7,87,0,0
88423,-93.4579439252336,4,2,7,87,0,0
94452,-78.7401574803149,4,2,7,87,0,0
94739,-114.942528735632,4,2,7,87,0,0
95313,-78.7401574803149,4,2,7,87,0,0
97179,-153.846153846153,4,2,7,87,0,0
97610,-93.4579439252336,4,2,7,87,0,0
104069,-111.111111111111,4,2,7,87,0,0
106366,-212.765957446809,4,2,7,77,0,0
106796,-93.4579439252336,4,2,7,77,0,0
110815,-68.0272108843537,4,2,7,77,0,0
111102,-93.4579439252336,4,2,7,77,0,0
120289,-68.0272108843537,4,2,7,77,0,0
122299,-129.87012987013,4,2,7,77,0,0
122586,-93.4579439252336,4,2,7,77,0,0
131772,-212.765957446809,4,2,7,57,0,0
134643,-588.23529411765,4,2,7,47,0,0
138662,-129.87012987013,4,2,7,67,0,0
139811,-103.092783505155,4,2,7,77,0,0
140959,-93.4579439252336,4,2,7,77,0,0
145122,-222.222222222221,4,2,7,77,0,0
145265,-72.992700729927,4,2,7,77,0,0
145552,-103.092783505155,4,2,7,77,0,0
163351,-212.76595744681,4,2,7,47,0,0
163925,-93.4579439252336,4,2,7,47,0,0
172251,-175.438596491228,4,2,7,67,0,0
176557,-103.092783505155,4,2,7,67,0,0
179141,-129.87012987013,4,2,7,67,0,0
181868,-588.23529411765,4,2,7,87,0,0
182155,-85.4700854700855,4,2,7,87,0,0
191772,-72.992700729927,4,2,7,87,0,0
192059,-85.4700854700855,4,2,7,87,0,0
204260,-129.87012987013,4,2,7,67,0,0
205122,-93.4579439252337,4,2,7,77,0,0
228232,-370.37037037037,4,2,7,77,0,0
228303,-370.37037037037,4,2,7,7,0,0

[Colours]
Combo1 : 255,255,170
Combo2 : 255,198,170

[HitObjects]
68,103,5457,6,0,B|88:65|144:57|144:57|91:78|83:130,1,172.95999736084,2|2,1:0|0:0,0:0:0:0:
94,115,6318,1,0,0:0:0:0:
209,162,6461,1,2,0:0:0:0:
224,178,7179,2,0,B|252:285|206:216|231:335,1,151.339997690735,2|0,0:0|0:0,0:0:0:0:
317,359,7753,6,0,L|451:374,1,129.71999802063,2|0,0:0|0:0,0:0:0:0:
210,309,8327,6,0,L|114:325,1,86.47999868042,2|0,0:0|0:0,0:0:0:0:
124,323,8758,1,2,0:0:0:0:
18,247,9476,6,0,B|-6:201|-6:201|98:232,1,151.339997690735,2|0,0:0|0:0,0:0:0:0:
170,186,10050,6,0,P|181:169|182:140,1,43.23999934021,2|0,0:0|0:0,0:0:0:0:
208,113,10337,2,0,P|206:91|194:73,1,43.23999934021
294,124,10624,2,0,B|368:142|338:116|440:138,2,129.71999802063,2|2|0,0:0|0:0|0:0,0:0:0:0:
69,93,11772,5,2,0:0:0:0:
49,99,11916,1,2,0:0:0:0:
10,156,12059,1,2,0:0:0:0:
50,220,12203,1,2,0:0:0:0:
154,126,12346,6,0,P|169:95|173:28,1,86.47999868042,2|2,0:0|0:0,0:0:0:0:
175,43,12777,1,2,0:0:0:0:
206,176,12921,2,0,P|210:200|236:258,1,86.47999868042,2|0,0:0|0:0,0:0:0:0:
308,285,13351,2,0,P|308:246|324:188,1,86.47999868042,2|0,0:0|0:0,0:0:0:0:
332,139,13782,6,0,P|336:159|351:188,1,43.23999934021,2|0,0:0|0:0,0:0:0:0:
370,358,14069,5,2,0:0:0:0:
370,358,14140,2,0,P|372:339|391:306,1,43.23999934021,2|0,0:0|0:0,0:0:0:0:
442,255,14356,6,0,L|491:250,1,49.6800012128907,10|6,0:0|1:0,0:0:0:0:
248,135,15648,6,0,B|239:122|239:122|286:25|286:25|270:4,2,141.679997189575,6|4|0,1:0|1:0|1:0,0:0:0:0:
225,118,16509,5,2,1:0:0:0:
229,129,16581,1,0,1:0:0:0:
233,139,16653,1,10,0:0:0:0:
127,185,16796,1,10,3:0:0:0:
265,215,16940,6,0,B|359:203|314:246|411:230,1,141.679997189575,6|2,1:0|3:0,0:0:0:0:
475,197,17370,1,10,3:0:0:0:
475,197,17514,1,8,0:0:0:0:
475,197,17657,1,10,0:0:0:0:
475,197,17801,5,8,0:0:0:0:
345,119,17945,2,0,L|355:39,1,70.8399985947876,10|8,0:0|0:0,0:0:0:0:
148,164,18232,5,8,0:0:0:0:
148,164,18375,1,8,0:0:0:0:
148,164,18519,5,8,0:0:0:0:
264,202,18662,1,10,0:0:0:0:
136,78,18806,1,2,1:0:0:0:
136,78,18878,1,0,1:0:0:0:
136,78,18949,1,10,0:0:0:0:
70,252,19093,1,10,3:0:0:0:
154,160,19236,5,14,0:0:0:0:
159,164,19380,1,8,0:0:0:0:
402,229,19667,5,8,0:0:0:0:
395,233,19811,1,10,0:0:0:0:
136,78,20098,5,10,0:0:0:0:
236,157,20241,2,0,B|187:156|155:117|155:117|166:170|142:202,1,178.480004221253,6|0,1:0|1:0,0:0:0:0:
77,240,20600,1,0,1:0:0:0:
62,248,20672,1,10,0:0:0:0:
295,370,20959,5,10,0:0:0:0:
295,370,21031,1,8,0:0:0:0:
295,370,21102,2,0,P|320:369|351:359,1,44.6200010553131,8|8,0:0|0:0,0:0:0:0:
452,335,21246,5,10,0:0:0:0:
452,335,21318,1,8,0:0:0:0:
452,335,21390,2,0,P|432:321|386:313,1,44.6200010553131,10|8,0:0|0:0,0:0:0:0:
217,323,21533,5,4,1:0:0:0:
279,153,21677,1,2,1:0:0:0:
281,236,21820,6,0,B|264:196|264:196|285:133,1,89.2400021106263,8|0,0:0|1:0,0:0:0:0:
178,0,22107,2,0,L|170:94,1,89.2400021106263,8|8,0:0|3:0,0:0:0:0:
0,199,22394,1,8,0:0:0:0:
148,248,22538,6,0,B|30:228|30:228|84:294,1,178.480004221253,4|0,1:0|1:0,0:0:0:0:
221,332,22968,1,8,0:0:0:0:
385,244,23112,5,0,1:0:0:0:
365,233,23184,1,0,1:0:0:0:
335,247,23256,1,8,0:0:0:0:
374,274,23327,1,8,0:0:0:0:
426,270,23399,1,8,0:0:0:0:
449,212,23471,1,8,0:0:0:0:
424,156,23543,1,8,0:0:0:0:
410,161,23614,1,8,0:0:0:0:
408,177,23686,1,0,1:0:0:0:
449,297,23830,6,0,B|457:313|457:313|453:289,1,37.260000909668,2|0,0:0|1:0,0:0:0:0:
429,176,24117,6,0,B|426:168|426:168|291:183,1,133.860003165939,12|0,0:0|3:0,0:0:0:0:
291,183,24404,1,0,1:0:0:0:
235,296,24547,1,0,1:0:0:0:
96,105,24691,5,10,0:0:0:0:
179,187,24834,2,0,B|195:145|195:145|175:87,1,89.2400021106263,2|0,1:0|0:0,0:0:0:0:
73,197,25122,1,0,1:0:0:0:
248,331,25265,2,0,B|301:326|301:326|332:339|332:339|386:333,1,133.860003165939,8|0,0:0|3:0,0:0:0:0:
398,333,25552,5,0,1:0:0:0:
272,203,25696,1,0,1:0:0:0:
272,203,25768,1,0,1:0:0:0:
272,203,25839,2,0,L|265:250,1,44.6200010553131,8|0,0:0|0:0,0:0:0:0:
169,278,25983,5,0,3:0:0:0:
305,111,26126,2,0,L|208:121,1,89.2400021106263,0|0,1:0|1:0,0:0:0:0:
136,110,26342,1,0,1:0:0:0:
124,112,26413,1,10,0:0:0:0:
278,200,26557,1,0,0:0:0:0:
101,318,26701,2,0,B|140:272|206:308|206:308|177:332|180:378,1,178.480004221253,2|10,1:0|0:0,0:0:0:0:
308,273,27131,6,0,B|378:283|382:208|382:208|341:141,1,178.480004221253,2|0,1:0|1:0,0:0:0:0:
255,64,27562,2,0,L|245:118,1,44.6200010553131,10|0,0:0|0:0,0:0:0:0:
47,35,27777,5,0,3:0:0:0:
47,35,27849,2,0,B|98:-1|98:-1|69:67,1,133.860003165939,2|0,1:0|0:0,0:0:0:0:
145,70,28136,2,0,L|250:90,1,89.2400021106263,14|0,0:0|1:0,0:0:0:0:
232,86,28567,5,0,1:0:0:0:
80,138,28710,2,0,P|126:119|88:156,1,133.860003165939,12|0,0:0|0:0,0:0:0:0:
0,181,28997,5,12,0:0:0:0:
139,244,29141,1,0,1:0:0:0:
312,189,29284,1,2,1:0:0:0:
497,232,29428,6,0,B|465:212|465:212|417:229|417:229|392:282|338:281,1,178.480004221253,14|0,0:0|1:0,0:0:0:0:
229,176,29858,2,0,L|316:194,1,89.2400021106263,8|0,0:0|0:0,0:0:0:0:
397,293,30145,5,0,1:0:0:0:
282,174,30289,1,0,1:0:0:0:
213,328,30433,1,8,0:0:0:0:
295,268,30576,1,0,3:0:0:0:
103,209,30720,6,0,B|39:197|39:197|83:231,1,89.2400021106263,4|8,1:0|3:0,0:0:0:0:
213,328,31007,2,0,L|316:320,1,89.2400021106263,12|0,0:0|1:0,0:0:0:0:
301,321,31222,1,8,0:0:0:0:
301,321,31294,5,8,0:0:0:0:
421,244,31437,1,8,3:0:0:0:
483,372,31581,1,8,3:0:0:0:
313,240,31724,5,10,0:0:0:0:
240,213,31868,1,8,0:0:0:0:
207,223,31940,1,8,0:0:0:0:
143,268,32083,1,8,0:0:0:0:
107,278,32155,1,10,0:0:0:0:
33,324,32299,5,14,0:0:0:0:
167,288,32442,5,2,1:0:0:0:
344,353,32586,5,8,0:0:0:0:
442,312,32729,6,0,P|450:286|450:194,1,104.879998719727,6|4,1:0|1:0,0:0:0:0:
452,208,33303,6,0,B|365:178|365:178|404:218,1,141.679997189575,10|2,0:0|1:0,0:0:0:0:
272,93,33734,1,0,1:0:0:0:
199,127,33878,2,0,L|279:108,1,70.8399985947876,2|2,3:0|1:0,0:0:0:0:
99,350,34308,5,2,1:0:0:0:
99,350,34380,1,8,0:0:0:0:
99,350,34452,2,0,P|77:322|95:278,1,70.8399985947876,8|2,0:0|1:0,0:0:0:0:
221,214,34882,5,2,1:0:0:0:
90,288,35026,2,0,L|222:325,1,106.259997892181,8|0,0:0|0:0,0:0:0:0:
210,332,35313,5,0,1:0:0:0:
127,222,35457,1,0,1:0:0:0:
312,106,35600,2,0,L|296:185,1,70.8399985947876,10|0,0:0|0:0,0:0:0:0:
439,312,35887,1,2,1:0:0:0:
318,358,36031,1,0,1:0:0:0:
362,299,36174,1,2,0:0:0:0:
492,371,36318,6,0,L|464:222,1,141.679997189575,2|2,1:0|1:0,0:0:0:0:
476,212,36677,1,8,0:0:0:0:
476,212,36748,1,8,0:0:0:0:
316,96,36892,2,0,P|358:80|404:150,1,141.679997189575,2|2,1:0|1:0,0:0:0:0:
274,294,37323,2,0,P|301:275|359:272,1,70.8399985947876,8|2,0:0|0:0,0:0:0:0:
343,273,37610,6,0,P|290:277|249:194,1,141.679997189575,6|10,1:0|0:0,0:0:0:0:
114,58,38040,1,2,0:0:0:0:
186,28,38184,2,0,L|109:50,1,70.8399985947876,0|0,1:0|1:0,0:0:0:0:
0,273,38614,6,0,B|42:270|81:239|81:239|55:261|59:298,1,141.679997189575,0|0,1:0|1:0,0:0:0:0:
135,299,38973,1,0,1:0:0:0:
135,299,39045,1,8,0:0:0:0:
253,384,39189,2,0,P|223:370|179:362,1,70.8399985947876,0|2,1:0|0:0,0:0:0:0:
298,272,39476,1,0,1:0:0:0:
225,247,39619,6,0,L|389:212,1,141.679997189575,10|6,0:0|1:0,0:0:0:0:
363,217,40193,5,10,0:0:0:0:
500,339,40337,2,0,P|454:347|438:282,1,106.259997892181,2|0,0:0|0:0,0:0:0:0:
425,291,40624,2,0,P|421:329|411:363,1,70.8399985947876,2|0,1:0|0:0,0:0:0:0:
512,220,40911,6,0,P|506:151|481:60,1,147.659995493775,14|0,0:0|0:0,0:0:0:0:
500,38,41198,2,0,P|476:41|452:63,1,49.2199984979248,0|0,1:0|0:0,0:0:0:0:
363,217,41342,5,10,0:0:0:0:
205,136,41485,1,10,0:0:0:0:
64,304,41629,5,10,0:0:0:0:
188,223,41772,1,10,0:0:0:0:
67,5,41916,5,8,0:0:0:0:
33,44,41988,1,8,0:0:0:0:
51,80,42059,6,0,B|101:60|136:90|136:90|166:150|210:133,1,178.480004221253,0|0,1:0|1:0,0:0:0:0:
311,106,42490,6,0,B|294:63|243:62|243:62|291:93|283:142,1,178.480004221253,14|2,0:0|1:0,0:0:0:0:
164,236,42921,1,0,1:0:0:0:
300,340,43064,1,10,0:0:0:0:
222,384,43208,6,0,P|253:347|300:353,1,89.2400021106263,2|0,1:0|0:0,0:0:0:0:
414,232,43495,2,0,L|512:263,1,89.2400021106263,2|8,1:0|0:0,0:0:0:0:
329,105,43782,1,2,0:0:0:0:
327,88,43854,1,0,0:0:0:0:
324,53,43925,1,0,1:0:0:0:
237,153,44069,1,2,1:0:0:0:
416,111,44212,5,8,0:0:0:0:
262,5,44356,1,2,0:0:0:0:
425,117,44500,2,0,L|528:94,1,89.2400021106263,0|0,1:0|1:0,0:0:0:0:
300,240,44787,2,0,B|400:276|400:276|315:296,1,178.480004221253,10|2,0:0|1:0,0:0:0:0:
261,311,45217,1,0,1:0:0:0:
431,266,45361,1,10,0:0:0:0:
307,84,45504,6,0,B|254:118|285:183|307:150|339:204|297:242,1,178.480004221253,2|2,1:0|1:0,0:0:0:0:
452,370,45935,1,8,0:0:0:0:
432,301,46079,1,2,0:0:0:0:
237,384,46222,6,0,B|223:343|223:343|251:295,1,89.2400021106263,0|2,1:0|0:0,0:0:0:0:
419,115,46509,2,0,P|392:168|321:152,1,133.860003165939,8|0,0:0|0:0,0:0:0:0:
274,103,46796,6,0,L|291:10,1,89.2400021106263,6|0,1:0|1:0,0:0:0:0:
160,168,47083,1,10,0:0:0:0:
56,151,47227,6,0,B|126:132|126:132|156:258,1,178.480004221253,2|0,0:0|1:0,0:0:0:0:
297,336,47657,1,8,0:0:0:0:
174,384,47801,6,0,B|256:369|208:350|320:332,1,133.860003165939,2|0,1:0|0:0,0:0:0:0:
344,276,48087,2,0,P|363:296|373:331,1,44.6200010553131,0|0,1:0|0:0,0:0:0:0:
501,217,48232,2,0,P|469:267|460:351,1,133.860003165939,10|0,0:0|0:0,0:0:0:0:
476,357,48519,1,2,1:0:0:0:
372,191,48662,1,0,1:0:0:0:
432,48,48805,6,0,B|418:98|451:153|451:153|430:117|395:108,1,178.480004221253,10|2,0:0|1:0,0:0:0:0:
262,225,49236,1,0,1:0:0:0:
108,16,49380,6,0,P|144:17|175:69,1,89.2400021106263,14|2,0:0|1:0,0:0:0:0:
313,157,49667,1,0,1:0:0:0:
175,282,49811,6,0,P|225:282|249:228,1,89.2400021106263,14|0,0:0|1:0,0:0:0:0:
400,109,50098,2,0,B|292:90|333:171|223:136,1,178.480004221253,2|0,1:0|1:0,0:0:0:0:
19,285,50528,1,8,0:0:0:0:
63,270,50600,1,8,0:0:0:0:
116,282,50672,1,8,0:0:0:0:
141,319,50744,1,8,0:0:0:0:
143,363,50815,5,10,0:0:0:0:
46,197,50959,1,10,3:0:0:0:
198,249,51102,5,10,3:0:0:0:
103,316,51246,1,10,3:0:0:0:
192,256,51390,6,0,P|244:244|297:327,1,160.080001343445,6|2,1:0|0:0,0:0:0:0:
435,383,51820,2,0,P|419:342|417:289,1,80.0400006717224,2|0,1:0|0:0,0:0:0:0:
512,201,52107,1,2,1:0:0:0:
410,300,52251,6,0,P|431:237|427:169,1,120.060001007584,8|0,0:0|0:0,0:0:0:0:
420,164,52538,1,0,0:0:0:0:
510,44,52681,6,0,P|478:72|437:77,1,80.0400006717224,0|0,1:0|0:0,0:0:0:0:
280,156,52968,1,0,1:0:0:0:
310,150,53040,1,0,1:0:0:0:
341,177,53112,1,10,0:0:0:0:
222,65,53256,1,2,1:0:0:0:
294,236,53399,6,0,B|246:236|214:264|214:264|162:245|182:208,1,160.080001343445,10|6,0:0|1:0,0:0:0:0:
287,326,53830,2,0,P|315:352|368:346,1,80.0400006717224,0|2,1:0|0:0,0:0:0:0:
209,283,54117,2,0,B|102:308|102:308|176:330,1,160.080001343445,2|2,1:0|1:0,0:0:0:0:
341,133,54547,1,8,0:0:0:0:
298,68,54691,6,0,P|236:85|246:168,1,160.080001343445,2|0,1:0|1:0,0:0:0:0:
301,217,55050,1,0,1:0:0:0:
310,224,55122,2,0,L|418:200,1,80.0400006717224,8|0,0:0|1:0,0:0:0:0:
209,286,55409,2,0,B|216:326|216:326|193:369,1,80.0400006717224,2|0,3:0|1:0,0:0:0:0:
53,165,55696,2,0,L|127:198,1,80.0400006717224,10|0,0:0|1:0,0:0:0:0:
287,349,55983,5,2,0:0:0:0:
359,331,56126,1,0,1:0:0:0:
496,159,56270,2,0,P|434:149|408:205,1,120.060001007584,12|0,0:0|0:0,0:0:0:0:
390,207,56557,1,2,1:0:0:0:
489,308,56701,2,0,P|520:271|490:228,1,80.0400006717224,2|0,1:0|0:0,0:0:0:0:
355,96,56988,6,0,B|252:82|304:135|189:112,1,160.080001343445,2|0,1:0|1:0,0:0:0:0:
34,257,57418,2,0,P|57:229|111:227,1,80.0400006717224,2|0,0:0|1:0,0:0:0:0:
167,194,57634,1,0,1:0:0:0:
173,199,57705,2,0,P|211:216|228:267,1,80.0400006717224,2|0,3:0|1:0,0:0:0:0:
314,367,57992,5,10,0:0:0:0:
151,281,58136,1,8,0:0:0:0:
313,362,58279,6,0,P|274:357|237:394,1,80.0400006717224,2|0,1:0|1:0,0:0:0:0:
458,233,58567,2,0,P|431:175|339:183,1,160.080001343445,12|0,0:0|1:0,0:0:0:0:
199,7,58997,2,0,L|220:94,1,80.0400006717224,14|2,0:0|0:0,0:0:0:0:
175,145,59284,1,2,1:0:0:0:
378,39,59428,6,0,B|347:14|347:14|297:22,1,80.0400006717224,8|0,0:0|1:0,0:0:0:0:
171,158,59715,2,0,L|187:245,1,80.0400006717224,8|0,0:0|1:0,0:0:0:0:
200,312,59930,1,0,1:0:0:0:
203,322,60002,1,10,0:0:0:0:
77,216,60145,1,10,0:0:0:0:
268,274,60289,1,10,0:0:0:0:
108,384,60433,1,10,0:0:0:0:
171,158,60576,6,0,L|190:256,1,78.6599990397949,2|0,1:0|1:0,0:0:0:0:
133,306,60863,6,0,B|168:257|234:262|234:262|211:284|214:320,1,178.480004221253,14|0,0:0|1:0,0:0:0:0:
75,216,61294,1,2,1:0:0:0:
258,99,61437,1,8,0:0:0:0:
166,44,61581,6,0,P|207:64|263:79,1,89.2400021106263,6|0,1:0|0:0,0:0:0:0:
356,208,61868,1,0,1:0:0:0:
497,67,62012,6,0,P|435:67|431:144,1,133.860003165939,12|8,0:0|0:0,0:0:0:0:
428,145,62299,1,2,1:0:0:0:
283,252,62442,1,2,1:0:0:0:
455,221,62586,5,10,0:0:0:0:
331,113,62729,1,2,1:0:0:0:
193,290,62873,6,0,L|289:259,1,89.2400021106263,2|0,0:0|1:0,0:0:0:0:
84,71,63160,2,0,B|129:111|185:116|185:116|147:112|110:141,1,178.480004221253,14|0,0:0|1:0,0:0:0:0:
260,47,63590,1,2,1:0:0:0:
168,197,63734,1,8,0:0:0:0:
84,71,63878,6,0,B|184:58|145:143|268:136,1,178.480004221253,2|0,1:0|1:0,0:0:0:0:
462,245,64308,5,10,0:0:0:0:
392,218,64415,1,8,0:0:0:0:
354,283,64523,1,8,0:0:0:0:
352,294,64595,5,10,3:0:0:0:
340,305,64702,1,8,3:0:0:0:
321,305,64810,1,8,3:0:0:0:
308,298,64882,6,0,L|323:229,2,66.9300015829697,10|8|8,3:0|3:0|3:0,0:0:0:0:
161,349,65169,5,8,0:0:0:0:
362,173,65313,1,10,0:0:0:0:
362,173,65385,1,0,0:0:0:0:
362,173,65457,2,0,L|352:108,1,44.6200010553131,2|8,3:0|0:0,0:0:0:0:
301,116,65600,2,0,L|310:60,1,44.6200010553131,10|0,0:0|0:0,0:0:0:0:
386,16,65744,5,10,0:0:0:0:
459,221,65887,1,10,0:0:0:0:
308,71,66031,5,8,0:0:0:0:
241,249,66174,2,0,P|183:243|175:163,1,133.860003165939,10|8,0:0|0:0,0:0:0:0:
172,170,66461,2,0,P|211:151|274:148,1,89.2400021106263,8|10,0:0|3:0,0:0:0:0:
387,320,66748,1,8,0:0:0:0:
325,211,66892,1,2,3:0:0:0:
187,343,67035,2,0,P|229:353|274:380,1,89.2400021106263,10|8,0:0|3:0,0:0:0:0:
126,238,67323,1,10,3:0:0:0:
93,233,67394,1,8,3:0:0:0:
66,262,67466,1,12,0:0:0:0:
282,384,67753,5,0,1:0:0:0:
233,244,67897,1,8,0:0:0:0:
336,322,68040,1,0,1:0:0:0:
161,267,68184,5,0,1:0:0:0:
161,267,68256,1,0,1:0:0:0:
161,267,68327,1,8,0:0:0:0:
327,165,68471,1,0,1:0:0:0:
147,75,68614,2,0,B|104:83|104:83|40:75|40:75|-6:87,1,147.659995493775,12|0,0:0|0:0,0:0:0:0:
1,84,68901,6,0,L|133:99,1,98.4399969958497,8|0,0:0|1:0,0:0:0:0:
345,165,69189,6,0,B|368:173|368:173|421:181,1,49.2199984979248,10|0,0:0|0:0,0:0:0:0:
425,88,69332,6,0,B|400:89|400:89|357:103,1,49.2199984979248,10|0,3:0|0:0,0:0:0:0:
470,154,69476,6,0,P|465:133|452:97,1,49.2199984979248,10|8,0:0|0:0,0:0:0:0:
306,59,69619,6,0,P|297:84|293:114,1,49.2199984979248,10|8,0:0|0:0,0:0:0:0:
369,185,69763,6,0,B|276:166|314:224|201:192,1,151.800004632569,6|0,1:0|0:0,0:0:0:0:
221,197,70050,1,10,0:0:0:0:
143,302,70193,2,0,B|176:304|260:283|260:283|200:365,1,202.400006176758,2|2,0:0|1:0,0:0:0:0:
0,260,70624,5,8,0:0:0:0:
191,326,70768,2,0,B|223:325|258:310|258:310|308:342|308:342|366:317|378:268,1,202.400006176758,6|0,1:0|1:0,0:0:0:0:
493,188,71198,5,10,0:0:0:0:
436,357,71342,1,0,0:0:0:0:
436,357,71413,1,8,0:0:0:0:
436,357,71485,2,0,P|475:363|511:299,1,101.200003088379,2|0,1:0|1:0,0:0:0:0:
359,170,71772,2,0,P|320:164|284:228,1,101.200003088379,10|0,0:0|0:0,0:0:0:0:
259,228,71988,2,0,L|271:290,1,50.6000015441895,8|6,0:0|1:0,0:0:0:0:
137,371,72203,6,0,B|119:328|163:282|163:282|90:291|49:240,1,202.400006176758,2|2,1:0|0:0,0:0:0:0:
0,173,72634,1,0,1:0:0:0:
183,263,72777,6,0,B|172:217|172:217|244:191,1,101.200003088379,2|8,1:0|0:0,0:0:0:0:
287,234,73064,2,0,L|122:205,1,151.800004632569,2|0,1:0|0:0,0:0:0:0:
137,207,73351,1,0,1:0:0:0:
264,328,73495,5,8,0:0:0:0:
363,166,73638,2,0,P|364:119|312:78,1,101.200003088379,0|2,0:0|1:0,0:0:0:0:
228,70,73925,5,2,1:0:0:0:
371,170,74069,2,0,B|423:181|423:181|459:122,1,101.200003088379,12|2,0:0|3:0,0:0:0:0:
476,73,74284,1,0,3:0:0:0:
485,56,74356,1,4,1:0:0:0:
362,96,74500,5,2,0:0:0:0:
277,234,74643,1,10,0:0:0:0:
111,139,74787,2,0,B|1:77|67:-52|153:13|78:67,1,202.400006176758,2|2,0:0|1:0,0:0:0:0:
103,39,75217,6,0,L|92:115,1,50.6000015441895,10|0,0:0|0:0,0:0:0:0:
121,268,75361,6,0,B|139:216|126:163|126:163|144:205|207:237,1,202.400006176758,2|2,1:0|1:0,0:0:0:0:
0,347,75791,1,10,0:0:0:0:
160,254,75935,5,2,1:0:0:0:
160,254,76007,2,0,B|240:270|240:270|205:347,1,151.800004632569,8|2,0:0|1:0,0:0:0:0:
316,216,76366,2,0,L|336:321,1,101.200003088379,10|2,0:0|3:0,0:0:0:0:
506,382,76653,5,6,1:0:0:0:
428,311,76796,1,2,1:0:0:0:
512,288,76940,1,10,0:0:0:0:
431,359,77083,5,10,3:0:0:0:
331,260,77227,1,10,0:0:0:0:
460,221,77370,1,2,1:0:0:0:
330,337,77514,5,8,0:0:0:0:
134,224,77657,2,0,L|151:160,2,50.6000015441895,2|0|8,1:0|1:0|0:0,0:0:0:0:
93,238,77873,1,8,0:0:0:0:
151,250,77945,1,8,3:0:0:0:
194,266,78016,1,8,3:0:0:0:
220,263,78088,1,8,0:0:0:0:
352,161,78232,6,0,P|292:194|367:180,1,202.859990559037,4|0,1:0|0:0,0:0:0:0:
352,161,78519,2,0,P|385:221|371:146,1,202.859990559037,6|0,1:0|0:0,0:0:0:0:
219,120,78806,6,0,L|82:138,1,138,6|0,1:0|0:0,0:0:0:0:
101,117,79093,2,0,L|89:168,1,46,2|0,1:0|0:0,0:0:0:0:
237,257,79236,2,0,L|340:278,1,92,10|2,0:0|0:0,0:0:0:0:
377,332,79523,1,2,1:0:0:0:
229,384,79667,1,2,1:0:0:0:
377,332,79811,5,10,0:0:0:0:
512,377,79954,2,0,B|465:339|465:339|502:253,1,138,2|0,1:0|0:0,0:0:0:0:
504,249,80241,2,0,B|522:230|522:230|494:131,1,92,0|8,1:0|0:0,0:0:0:0:
216,26,80600,5,8,0:0:0:0:
216,26,80672,2,0,L|202:124,1,92,10|2,0:0|1:0,0:0:0:0:
254,308,80959,1,8,0:0:0:0:
268,201,81102,6,0,P|244:149|130:158,1,184,2|2,0:0|1:0,0:0:0:0:
0,317,81533,1,10,0:0:0:0:
119,235,81677,1,2,0:0:0:0:
21,211,81820,5,2,1:0:0:0:
130,350,81964,1,2,1:0:0:0:
270,287,82107,1,8,0:0:0:0:
371,342,82251,2,0,B|383:289|328:237|328:237|351:265|348:322,1,184,2|0,1:0|1:0,0:0:0:0:
252,384,82681,1,8,0:0:0:0:
166,164,82897,5,8,0:0:0:0:
166,164,82968,2,0,L|182:61,1,92,2|0,1:0|1:0,0:0:0:0:
312,27,83256,6,0,B|340:34|340:34|362:34|362:34|401:45,1,78.6599990397949,10|0,0:0|0:0,0:0:0:0:
277,101,83543,6,0,B|207:83|207:83|238:-2,1,147.659995493775,6|0,1:0|0:0,0:0:0:0:
205,0,83830,1,10,0:0:0:0:
140,137,83973,1,2,0:0:0:0:
94,24,84117,6,0,L|103:79,1,49.2199984979248,0|0,1:0|0:0,0:0:0:0:
145,214,84260,6,0,B|141:163|141:163|155:212,1,98.4399969958497,2|10,1:0|0:0,0:0:0:0:
36,221,84547,6,0,B|160:209|101:187|246:175,1,196.879993991699,6|0,1:0|1:0,0:0:0:0:
487,261,84978,2,0,B|465:236|465:236|397:220|356:285,1,147.659995493775,10|0,0:0|0:0,0:0:0:0:
370,279,85265,2,0,P|401:232|373:184,1,98.4399969958497,2|0,1:0|1:0,0:0:0:0:
304,39,85552,2,0,L|180:66,1,98.4399969958497,10|10,0:0|3:0,0:0:0:0:
21,169,85839,5,12,0:0:0:0:
120,217,85983,1,2,1:0:0:0:
0,324,86126,1,8,0:0:0:0:
139,331,86270,5,0,1:0:0:0:
31,252,86413,1,8,0:0:0:0:
65,361,86557,5,0,1:0:0:0:
209,255,86701,1,8,0:0:0:0:
316,312,86844,2,0,B|354:308|385:325|385:325|431:288|431:288|449:321|490:340,1,196.879993991699,4|0,1:0|1:0,0:0:0:0:
489,316,87203,1,0,1:0:0:0:
512,304,87275,1,8,0:0:0:0:
360,207,87418,2,0,L|302:194,2,49.2199984979248,8|8|8,0:0|0:0|0:0,0:0:0:0:
478,154,87705,5,8,0:0:0:0:
478,154,87777,1,8,0:0:0:0:
478,154,87849,2,0,L|393:172,1,49.2199984979248,8|0,0:0|0:0,0:0:0:0:
342,190,87992,6,0,P|331:157|352:32,1,138,2|0,1:0|0:0,0:0:0:0:
364,38,88279,2,0,P|352:57|346:106,1,46,2|0,1:0|0:0,0:0:0:0:
222,159,88423,2,0,B|137:142|164:190|70:168,1,147.659995493775,14|0,0:0|3:0,0:0:0:0:
139,275,88710,6,0,B|167:236|167:236|143:161,1,98.4399969958497,2|2,1:0|1:0,0:0:0:0:
265,319,88997,1,10,0:0:0:0:
137,378,89141,6,0,B|173:336|164:297|164:297|219:337|276:316,1,196.879993991699,2|0,1:0|1:0,0:0:0:0:
443,260,89571,1,10,0:0:0:0:
336,167,89715,2,0,L|270:182,2,49.2199984979248,2|0|0,3:0|3:0|1:0,0:0:0:0:
248,292,90002,2,0,L|357:310,1,98.4399969958497,2|8,1:0|0:0,0:0:0:0:
492,140,90289,6,0,P|463:56|398:76,1,147.659995493775,6|0,1:0|0:0,0:0:0:0:
415,73,90576,2,0,L|420:122,1,49.2199984979248,2|0,1:0|1:0,0:0:0:0:
297,245,90720,6,0,B|281:220|281:220|301:140,1,98.4399969958497,10|2,0:0|0:0,0:0:0:0:
188,341,91007,1,2,1:0:0:0:
297,153,91150,1,2,1:0:0:0:
175,234,91294,5,10,0:0:0:0:
340,308,91437,2,0,P|271:240|148:247,1,196.879993991699,2|0,1:0|1:0,0:0:0:0:
52,370,91868,1,10,0:0:0:0:
188,341,92012,6,0,P|225:300|196:242,1,98.4399969958497,2|0,0:0|1:0,0:0:0:0:
94,137,92299,2,0,L|-25:103,1,98.4399969958497,2|8,1:0|0:0,0:0:0:0:
229,145,92586,6,0,B|277:160|339:122|339:122|302:233,1,196.879993991699,6|2,1:0|1:0,0:0:0:0:
490,318,93016,1,10,0:0:0:0:
411,207,93160,2,0,B|392:230|392:230|405:308,1,98.4399969958497,2|2,0:0|1:0,0:0:0:0:
190,350,93447,6,0,L|135:368,2,49.2199984979248,2|0|10,1:0|0:0|0:0,0:0:0:0:
375,277,93734,1,2,1:0:0:0:
390,383,93878,6,0,B|302:366|350:333|243:310,1,147.659995493775,2|0,3:0|0:0,0:0:0:0:
151,272,94165,2,0,B|127:326|127:326|170:350,1,98.4399969958497,10|0,0:0|0:0,0:0:0:0:
418,366,94452,6,0,L|220:330,1,175.259998662872,2|0,1:0|0:0,0:0:0:0:
132,271,94739,2,0,P|101:317|137:361,1,120.060001007584,10|0,0:0|0:0,0:0:0:0:
160,362,95026,2,0,P|190:315|154:271,1,120.060001007584,6|0,1:0|0:0,0:0:0:0:
59,216,95313,6,0,L|-21:229,1,58.4199995542908,10|0,0:0|0:0,0:0:0:0:
146,284,95457,1,2,1:0:0:0:
275,205,95600,6,0,L|193:183,1,58.4199995542908,8|0,0:0|0:0,0:0:0:0:
349,306,95744,1,2,1:0:0:0:
511,188,95887,6,0,P|485:204|449:208,1,58.4199995542908,10|0,0:0|0:0,0:0:0:0:
512,311,96031,2,0,P|476:224|523:79,1,233.679998217163,2|8,1:0|0:0,0:0:0:0:
476,29,96390,1,8,0:0:0:0:
512,12,96461,1,8,0:0:0:0:
504,172,96605,6,0,P|460:236|363:183,1,175.259998662872,8|0,3:0|0:0,0:0:0:0:
472,327,96892,2,0,P|428:263|331:316,1,175.259998662872,8|0,3:0|0:0,0:0:0:0:
207,360,97179,6,0,B|232:357|232:357|216:328|211:295|211:295|179:317,1,119.599994525147,4|0,1:0|1:0,0:0:0:0:
476,305,97610,6,0,L|354:290,1,98.4399969958497,10|0,0:0|0:0,0:0:0:0:
353,273,97825,2,0,L|267:264,1,49.2199984979248,0|2,1:0|1:0,0:0:0:0:
176,350,98040,1,2,1:0:0:0:
97,185,98184,5,8,0:0:0:0:
176,350,98327,2,0,P|214:238|191:142,1,196.879993991699,2|0,1:0|1:0,0:0:0:0:
302,1,98758,6,0,P|282:15|288:105,1,98.4399969958497,10|0,0:0|0:0,0:0:0:0:
292,158,98973,1,8,0:0:0:0:
310,179,99045,1,2,1:0:0:0:
368,80,99189,5,0,1:0:0:0:
196,175,99332,1,14,0:0:0:0:
244,258,99476,2,0,B|117:230|175:280|17:239,1,196.879993991699,0|0,1:0|1:0,0:0:0:0:
196,344,99834,1,0,1:0:0:0:
196,344,99906,2,0,L|323:333,1,98.4399969958497,10|2,0:0|0:0,0:0:0:0:
512,335,100193,5,8,0:0:0:0:
363,221,100337,1,10,0:0:0:0:
289,359,100480,5,0,1:0:0:0:
463,202,100624,2,0,L|440:297,1,98.4399969958497,14|0,0:0|0:0,0:0:0:0:
391,369,100911,5,8,3:0:0:0:
391,369,101055,1,10,0:0:0:0:
318,254,101198,5,8,0:0:0:0:
239,158,101342,1,10,0:0:0:0:
151,314,101485,5,8,0:0:0:0:
5,250,101629,1,2,1:0:0:0:
7,253,101701,1,0,1:0:0:0:
9,257,101772,1,0,1:0:0:0:
12,260,101844,1,0,1:0:0:0:
14,264,101916,5,14,0:0:0:0:
86,292,102059,1,0,1:0:0:0:
102,220,102203,1,2,1:0:0:0:
30,183,102346,2,0,B|73:196|130:218|130:218|105:163|100:119,1,196.879993991699,14|2,0:0|1:0,0:0:0:0:
293,183,102777,5,14,0:0:0:0:
219,277,102921,1,0,1:0:0:0:
293,183,103064,5,2,1:0:0:0:
198,51,103208,2,0,B|170:29|106:38|167:86|211:55|260:63|299:129,1,196.879993991699,14|10,0:0|0:0,0:0:0:0:
371,203,103638,6,0,P|385:222|390:278,1,49.2199984979248,10|0,0:0|0:0,0:0:0:0:
315,368,103782,2,0,P|327:348|329:321,1,49.2199984979248,10|0,0:0|0:0,0:0:0:0:
315,368,104069,6,0,P|230:303|183:344,1,165.599994946289,6|2,1:0|1:0,0:0:0:0:
27,203,104500,1,10,0:0:0:0:
149,212,104643,6,0,L|240:232,1,82.7999974731446,10|10,3:0|3:0,0:0:0:0:
449,203,104930,5,10,3:0:0:0:
451,206,105002,1,0,0:0:0:0:
453,209,105074,1,10,0:0:0:0:
354,262,105217,2,0,B|307:248|290:208|290:208|252:184|205:202,1,165.599994946289,6|0,1:0|1:0,0:0:0:0:
192,378,105648,5,8,0:0:0:0:
192,378,105791,2,0,L|206:324,1,41.3999987365723,4|0,1:0|0:0,0:0:0:0:
244,258,105935,5,10,0:0:0:0:
271,229,106007,1,8,0:0:0:0:
318,221,106079,1,8,0:0:0:0:
367,244,106150,1,8,0:0:0:0:
404,282,106222,1,10,0:0:0:0:
452,308,106294,1,8,0:0:0:0:
512,267,106366,6,0,L|427:283,1,86.47999868042,2|0,1:0|1:0,0:0:0:0:
250,80,106796,6,0,L|348:105,1,98.4399969958497,14|0,0:0|3:0,0:0:0:0:
345,104,107012,1,8,3:0:0:0:
345,104,107083,1,8,3:0:0:0:
211,226,107227,1,0,1:0:0:0:
368,184,107370,5,8,0:0:0:0:
481,356,107514,2,0,P|519:322|504:269,1,98.4399969958497,4|0,1:0|0:0,0:0:0:0:
499,203,107801,2,0,P|426:191|387:304,1,196.879993991699,0|0,1:0|0:0,0:0:0:0:
394,308,108160,1,8,0:0:0:0:
394,308,108232,1,0,1:0:0:0:
211,226,108375,1,0,1:0:0:0:
284,183,108519,5,8,0:0:0:0:
114,306,108662,2,0,B|167:303|205:251|205:251|193:299|225:333,1,196.879993991699,0|0,1:0|1:0,0:0:0:0:
294,358,109021,1,0,1:0:0:0:
352,309,109093,6,0,B|389:271|368:211|368:211|371:270|323:308,1,196.879993991699,12|2,0:0|1:0,0:0:0:0:
445,382,109523,1,0,1:0:0:0:
281,229,109667,1,8,0:0:0:0:
472,98,109811,2,0,B|429:130|383:128|383:128|410:129|435:156,1,147.659995493775,0|0,1:0|0:0,0:0:0:0:
501,172,110098,1,0,1:0:0:0:
319,23,110241,2,0,P|370:12|397:53,1,98.4399969958497,10|2,0:0|0:0,0:0:0:0:
264,212,110528,6,0,L|200:228,1,49.2199984979248,0|0,1:0|0:0,0:0:0:0:
205,237,110672,2,0,L|137:254,1,49.2199984979248,2|0,1:0|0:0,0:0:0:0:
74,308,110815,6,0,B|61:279|61:279|101:232|188:266|188:329,1,202.859990559037,12|0,0:0|3:0,0:0:0:0:
174,331,111102,6,0,B|136:291|184:217|186:271|246:192|199:155,1,196.879993991699,4|8,1:0|0:0,0:0:0:0:
304,98,111533,1,0,3:0:0:0:
165,18,111677,5,0,1:0:0:0:
235,46,111820,1,0,1:0:0:0:
346,187,111964,5,8,0:0:0:0:
474,114,112107,2,0,P|421:97|375:169,1,147.659995493775,0|0,1:0|0:0,0:0:0:0:
426,220,112394,1,0,1:0:0:0:
437,227,112466,1,0,1:0:0:0:
453,230,112538,5,8,0:0:0:0:
431,198,112610,1,8,0:0:0:0:
384,200,112681,1,10,0:0:0:0:
357,241,112753,1,8,3:0:0:0:
365,255,112825,5,8,0:0:0:0:
348,302,112897,1,0,0:0:0:0:
302,315,112968,1,8,3:0:0:0:
264,293,113040,1,8,3:0:0:0:
237,257,113112,1,10,0:0:0:0:
191,246,113184,1,8,0:0:0:0:
171,254,113256,1,8,0:0:0:0:
160,268,113327,1,8,0:0:0:0:
160,275,113399,6,0,L|172:338,1,49.2199984979248,14|0,0:0|0:0,0:0:0:0:
53,186,113543,2,0,L|30:254,1,49.2199984979248,0|0,1:0|0:0,0:0:0:0:
248,103,113686,2,0,L|265:172,1,49.2199984979248,2|0,1:0|0:0,0:0:0:0:
122,3,113830,6,0,B|112:35|112:35|122:70|122:70|106:123,2,98.4399969958497,10|0|2,0:0|1:0|1:0,0:0:0:0:
185,160,114260,1,8,0:0:0:0:
336,71,114404,1,2,1:0:0:0:
293,11,114547,1,0,1:0:0:0:
377,198,114691,6,0,L|429:218,1,49.2199984979248,8|0,0:0|0:0,0:0:0:0:
489,259,114834,1,2,1:0:0:0:
512,232,114906,1,0,1:0:0:0:
499,193,114978,1,0,1:0:0:0:
338,294,115122,6,0,P|320:340|355:398,1,98.4399969958497,10|0,0:0|1:0,0:0:0:0:
277,192,115409,2,0,P|238:161|185:174,1,98.4399969958497,10|0,0:0|1:0,0:0:0:0:
16,334,115696,6,0,L|122:305,1,98.4399969958497,14|0,0:0|1:0,0:0:0:0:
110,308,115911,1,0,1:0:0:0:
110,308,115983,1,2,1:0:0:0:
120,73,116126,6,0,L|87:171,1,98.4399969958497,10|0,0:0|1:0,0:0:0:0:
88,166,116342,1,0,1:0:0:0:
88,166,116413,1,2,1:0:0:0:
26,58,116557,5,8,0:0:0:0:
193,178,116701,2,0,P|248:188|294:112,1,147.659995493775,2|0,1:0|0:0,0:0:0:0:
348,61,116988,2,0,P|327:48|294:42,1,49.2199984979248,8|0,0:0|0:0,0:0:0:0:
435,182,117131,1,0,1:0:0:0:
477,183,117203,1,0,1:0:0:0:
503,146,117275,1,0,1:0:0:0:
321,259,117418,5,10,0:0:0:0:
290,337,117562,1,0,1:0:0:0:
435,250,117705,5,10,0:0:0:0:
364,87,117849,1,0,1:0:0:0:
512,290,117992,6,0,P|470:247|427:255,1,98.4399969958497,14|0,0:0|1:0,0:0:0:0:
385,307,118208,1,0,1:0:0:0:
383,318,118279,1,2,1:0:0:0:
175,187,118423,6,0,L|280:162,1,98.4399969958497,10|0,0:0|1:0,0:0:0:0:
270,164,118638,1,0,1:0:0:0:
270,164,118710,1,2,1:0:0:0:
138,278,118854,1,8,0:0:0:0:
273,364,118997,1,2,1:0:0:0:
298,335,119069,1,0,1:0:0:0:
279,286,119141,5,0,1:0:0:0:
212,243,119284,1,8,0:0:0:0:
76,329,119428,2,0,L|61:381,2,49.2199984979248,2|0|0,1:0|1:0|1:0,0:0:0:0:
18,262,119715,5,10,0:0:0:0:
228,368,119858,1,8,0:0:0:0:
51,384,120002,6,0,L|109:365,1,49.2199984979248,10|0,0:0|0:0,0:0:0:0:
261,178,120145,2,0,L|331:162,1,49.2199984979248,8|0,0:0|0:0,0:0:0:0:
512,343,120289,6,0,P|450:349|428:273,1,135.239993706024,14|0,0:0|1:0,0:0:0:0:
386,227,120504,1,8,0:0:0:0:
380,216,120576,2,0,P|385:185|406:152,1,67.6199968530122,10|0,3:0|0:0,0:0:0:0:
204,5,120720,2,0,P|268:44|248:133,1,135.239993706024,10|0,0:0|1:0,0:0:0:0:
308,167,120935,1,8,3:0:0:0:
303,181,121007,1,10,3:0:0:0:
136,337,121150,2,0,B|185:321|185:321|201:295|201:295|262:274,1,135.239993706024,8|2,0:0|1:0,0:0:0:0:
53,232,121437,5,8,0:0:0:0:
123,212,121544,1,8,0:0:0:0:
174,267,121652,1,8,0:0:0:0:
180,284,121724,5,8,3:0:0:0:
218,312,121831,1,8,3:0:0:0:
265,299,121939,1,8,3:0:0:0:
271,284,122012,5,10,3:0:0:0:
283,271,122118,1,8,3:0:0:0:
305,271,122226,1,8,3:0:0:0:
313,280,122299,5,10,0:0:0:0:
474,335,122586,6,0,P|506:295|480:244,1,98.4399969958497,6|0,1:0|0:0,0:0:0:0:
368,137,122873,1,8,0:0:0:0:
503,110,123016,2,0,B|455:141|394:145|394:145|430:148|463:189,1,196.879993991699
308,36,123447,2,0,P|261:39|236:88,1,98.4399969958497,10|0,0:0|0:0,0:0:0:0:
44,229,123734,6,0,B|80:182|80:182|168:214,1,147.659995493775,0|0,1:0|0:0,0:0:0:0:
172,227,124021,2,0,B|185:259|185:259|264:243,1,98.4399969958497,8|0,0:0|3:0,0:0:0:0:
309,291,124236,1,0,3:0:0:0:
322,301,124308,2,0,P|356:258|330:219,1,98.4399969958497,2|0,1:0|0:0,0:0:0:0:
224,32,124595,2,0,B|200:121|200:121|213:89|252:70,1,147.659995493775,10|0,0:0|0:0,0:0:0:0:
235,79,124882,6,0,B|187:50|141:94|141:94|120:150|49:139,1,196.879993991699,6|10,1:0|0:0,0:0:0:0:
231,273,125313,2,0,L|343:304,1,98.4399969958497,2|0,0:0|1:0,0:0:0:0:
218,358,125600,1,2,0:0:0:0:
360,224,125744,1,8,0:0:0:0:
418,384,125887,1,2,0:0:0:0:
355,219,126031,6,0,P|363:167|415:156,1,98.4399969958497,0|0,1:0|0:0,0:0:0:0:
226,281,126318,2,0,B|147:276|174:330|78:311,1,147.659995493775,8|0,0:0|3:0,0:0:0:0:
78,307,126605,1,2,1:0:0:0:
206,384,126748,1,0,0:0:0:0:
326,155,126892,6,0,B|307:122|261:118|261:118|258:116|258:116|214:143|232:171,1,147.659995493775,10|0,0:0|0:0,0:0:0:0:
202,184,127179,6,0,L|255:202,1,49.2199984979248,14|0,0:0|0:0,0:0:0:0:
369,349,127323,1,2,1:0:0:0:
396,318,127394,1,0,1:0:0:0:
376,270,127466,1,2,1:0:0:0:
463,144,127610,6,0,L|384:173,1,49.2199984979248,10|0,0:0|0:0,0:0:0:0:
262,305,127753,1,2,1:0:0:0:
246,349,127825,1,0,1:0:0:0:
289,384,127897,1,10,3:0:0:0:
339,191,128040,5,12,0:0:0:0:
104,29,128184,2,0,L|122:137,1,98.4399969958497,2|8,1:0|3:0,0:0:0:0:
247,10,128471,5,12,0:0:0:0:
61,199,128614,1,2,1:0:0:0:
24,165,128686,1,0,1:0:0:0:
34,115,128758,1,0,1:0:0:0:
229,212,128901,5,10,0:0:0:0:
111,36,129045,1,8,0:0:0:0:
306,139,129189,5,10,0:0:0:0:
230,352,129332,1,8,0:0:0:0:
146,237,129476,6,0,P|169:217|220:217,1,73.8299977468873,10|8,0:0|0:0,0:0:0:0:
335,313,129690,1,8,0:0:0:0:
343,326,129763,6,0,P|371:344|414:338,1,73.8299977468873,8|8,3:0|3:0,0:0:0:0:
500,214,129977,1,8,3:0:0:0:
506,199,130050,6,0,L|489:125,1,73.8299977468873,8|8,3:0|3:0,0:0:0:0:
355,2,130264,1,8,3:0:0:0:
342,9,130337,6,0,P|320:36|331:83,2,73.8299977468873,2|8|8,1:0|3:0|3:0,0:0:0:0:
393,101,130624,6,0,B|266:91|326:150|183:124,1,196.879993991699,10|0,0:0|0:0,0:0:0:0:
196,118,131198,1,0,3:0:0:0:
201,113,131485,1,0,3:0:0:0:
208,119,131772,1,4,1:0:0:0:
63,327,138519,5,0,1:0:0:0:
65,319,138590,1,0,1:0:0:0:
68,310,138662,2,0,B|146:286|146:286|133:351,1,141.679997189575,8|8,0:0|0:0,0:0:0:0:
27,201,139093,1,8,3:0:0:0:
169,268,139236,5,8,0:0:0:0:
25,384,139380,1,8,0:0:0:0:
150,193,139523,5,8,0:0:0:0:
25,384,139667,1,8,0:0:0:0:
251,288,139811,5,8,0:0:0:0:
290,277,139882,1,8,0:0:0:0:
326,297,139954,1,8,0:0:0:0:
342,335,140026,1,8,0:0:0:0:
345,349,140098,5,8,0:0:0:0:
386,373,140169,1,8,3:0:0:0:
433,355,140241,1,8,3:0:0:0:
446,306,140313,1,8,3:0:0:0:
445,291,140385,6,0,L|427:241,1,44.6200010553131,8|0,0:0|0:0,0:0:0:0:
275,95,140528,2,0,L|252:167,1,44.6200010553131,8|0,0:0|0:0,0:0:0:0:
456,64,140672,6,0,L|388:41,1,44.6200010553131,8|0,0:0|0:0,0:0:0:0:
239,242,140815,2,0,L|309:217,1,44.6200010553131,8|0,0:0|0:0,0:0:0:0:
388,156,140959,5,6,1:0:0:0:
303,73,141102,2,0,B|275:40|277:10|277:10|245:81|307:145,1,196.879993991699,0|2,1:0|1:0,0:0:0:0:
158,218,141533,2,0,P|122:271|32:247,1,147.659995493775,14|0,0:0|0:0,0:0:0:0:
18,267,141820,6,0,P|39:253|78:248,1,49.2199984979248,2|0,1:0|0:0,0:0:0:0:
127,290,141964,2,0,P|133:333|81:379,1,98.4399969958497,2|4,1:0|3:2,0:0:0:0:
36,308,142251,6,0,P|35:278|61:252,1,49.2199984979248,0|0,1:0|0:0,0:0:0:0:
246,201,142394,2,0,L|367:225,1,98.4399969958497,2|0,0:0|1:0,0:0:0:0:
342,220,142610,1,0,1:0:0:0:
342,220,142681,1,14,0:0:0:0:
330,323,142968,5,0,1:0:0:0:
238,277,143112,1,8,3:0:0:0:
383,378,143256,5,4,1:0:0:0:
500,255,143399,2,0,P|495:210|396:90,1,196.879993991699,0|0,1:0|1:0,0:0:0:0:
195,28,143830,6,0,P|183:71|228:31,1,147.659995493775,14|0,0:0|0:0,0:0:0:0:
226,14,144117,2,0,L|212:67,1,49.2199984979248,2|0,1:0|0:0,0:0:0:0:
88,94,144260,5,2,1:0:0:0:
88,94,144332,1,2,1:0:0:0:
88,94,144404,2,0,P|104:102|129:133,1,49.2199984979248,6|0,3:2|0:0,0:0:0:0:
192,218,144547,1,2,1:0:0:0:
192,218,144618,1,2,3:0:0:0:
192,218,144690,2,0,P|166:224|142:245,1,49.2199984979248,2|0,0:0|0:0,0:0:0:0:
44,335,144834,5,2,1:0:0:0:
44,335,144906,1,2,1:0:0:0:
44,335,144978,2,0,P|52:318|83:294,1,49.2199984979248,14|2,0:0|3:0,0:0:0:0:
192,218,145122,6,0,L|197:249,1,20.6999993682862,2|0,1:0|0:0,0:0:0:0:
299,265,145265,6,0,B|315:341|315:341|223:385|223:385|200:304,1,252.080007115906,10|6,0:0|1:0,0:0:0:0:
386,256,145696,6,0,B|472:237|472:237|467:248|467:248|383:274,1,178.480004221253,0|2,1:0|1:0,0:0:0:0:
512,375,146126,2,0,B|449:365|449:365|427:369|427:369|369:360,1,133.860003165939,14|0,0:0|0:0,0:0:0:0:
283,320,146413,6,0,L|227:330,1,44.6200010553131,2|0,1:0|0:0,0:0:0:0:
237,254,146557,2,0,B|228:236|228:236|251:160,1,89.2400021106263,2|4,1:0|3:2,0:0:0:0:
248,169,146844,6,0,L|254:226,1,44.6200010553131,0|0,1:0|0:0,0:0:0:0:
114,293,146988,2,0,L|4:312,1,89.2400021106263,2|0,0:0|1:0,0:0:0:0:
26,308,147203,1,0,1:0:0:0:
26,308,147275,1,14,0:0:0:0:
96,184,147562,5,0,1:0:0:0:
131,75,147705,1,8,3:0:0:0:
96,184,147849,5,12,0:0:0:0:
24,155,147992,1,0,1:0:0:0:
35,232,148136,1,8,3:0:0:0:
193,179,148279,1,12,0:0:0:0:
277,217,148423,1,10,3:0:0:0:
195,281,148567,1,10,3:0:0:0:
257,90,148710,5,14,0:0:0:0:
257,90,148782,1,2,1:0:0:0:
257,90,148854,2,0,L|270:149,1,44.6200010553131,2|0,1:0|0:0,0:0:0:0:
270,142,148997,1,10,3:0:0:0:
270,299,149141,5,14,0:0:0:0:
406,107,149284,2,0,L|388:205,1,89.2400021106263,8|8,3:0|3:0,0:0:0:0:
472,340,149571,5,12,0:0:0:0:
461,326,149643,1,8,0:0:0:0:
455,345,149715,1,8,0:0:0:0:
446,332,149787,1,8,0:0:0:0:
413,342,149858,5,8,0:0:0:0:
372,357,149930,1,8,0:0:0:0:
322,346,150002,1,8,0:0:0:0:
291,311,150074,1,8,0:0:0:0:
271,287,150145,6,0,B|246:265|246:265|187:246|134:300|171:357,1,178.480004221253,6|0,1:0|1:0,0:0:0:0:
140,186,150576,1,10,3:0:0:0:
79,256,150720,6,0,B|105:200|105:200|45:159,1,133.860003165939,14|0,0:0|0:0,0:0:0:0:
45,159,151007,1,2,1:0:0:0:
176,51,151150,6,0,L|282:69,1,89.2400021106263,0|4,1:0|3:2,0:0:0:0:
368,120,151437,1,8,3:0:0:0:
186,45,151581,6,0,B|175:60|175:60|186:135,1,89.2400021106263,2|0,1:0|1:0,0:0:0:0:
211,205,151796,1,0,1:0:0:0:
183,214,151868,2,0,B|255:175|255:175|354:217,1,178.480004221253,12|0,0:0|1:0,0:0:0:0:
343,212,152299,1,8,3:0:0:0:
510,313,152442,6,0,P|437:332|443:236,1,178.480004221253,4|2,1:0|3:0,0:0:0:0:
351,133,152873,1,2,1:0:0:0:
427,88,153016,6,0,P|416:142|345:120,1,133.860003165939,14|2,0:0|0:0,0:0:0:0:
278,64,153303,2,0,L|294:-12,2,59.4933347404175,2|2|0,1:0|0:0|3:0,0:0:0:0:
208,110,153590,5,6,1:0:0:0:
208,110,153662,1,0,0:0:0:0:
208,110,153734,2,0,L|196:65,1,44.6200010553131,10|2,0:0|0:0,0:0:0:0:
128,40,153878,2,0,P|106:31|75:7,1,44.6200010553131,2|2,0:0|0:0,0:0:0:0:
88,19,154021,2,0,P|104:41|127:60,1,44.6200010553131,2|2,1:0|1:0,0:0:0:0:
0,147,154165,6,0,B|31:125|92:132|92:132|27:164,1,133.860003165939,14|2,0:0|0:0,0:0:0:0:
167,193,154452,2,0,B|202:168|259:178|259:178|194:210,1,133.860003165939,10|0,0:0|0:0,0:0:0:0:
346,271,154739,6,0,B|231:253|286:293|159:266,1,178.480004221253,12|8,0:0|3:0,0:0:0:0:
24,327,155169,1,12,0:0:0:0:
24,327,155457,1,8,3:0:0:0:
276,355,155600,6,0,L|384:369,1,89.2400021106263,12|0,0:0|1:0,0:0:0:0:
364,366,155887,1,8,3:0:0:0:
211,166,156031,6,0,L|95:179,1,89.2400021106263,12|0,0:0|1:0,0:0:0:0:
220,263,156318,5,0,1:0:0:0:
220,263,156390,1,0,1:0:0:0:
220,263,156461,2,0,B|202:182|265:220|223:109,1,133.860003165939,8|0,0:0|0:0,0:0:0:0:
230,61,156748,2,0,B|212:142|275:104|233:215,1,133.860003165939,4|0,1:0|0:0,0:0:0:0:
310,248,157035,5,12,0:0:0:0:
332,181,157179,1,0,1:0:0:0:
336,135,157323,1,8,3:0:0:0:
329,257,157466,5,12,0:0:0:0:
407,250,157610,1,0,1:0:0:0:
464,211,157753,1,8,3:0:0:0:
312,265,157897,5,12,0:0:0:0:
413,350,158040,2,0,P|450:371|508:372,1,89.2400021106263,0|8,1:0|3:0,0:0:0:0:
298,243,158327,5,12,0:0:0:0:
187,286,158471,2,0,P|169:302|158:332,1,44.6200010553131,2|0,1:0|0:0,0:0:0:0:
207,375,158614,2,0,P|197:359|195:331,1,44.6200010553131,10|0,3:0|0:0,0:0:0:0:
298,243,158758,6,0,B|289:269|289:269|294:288|294:288|284:310|284:310|285:341,1,89.2400021106263,12|8,0:0|0:0,0:0:0:0:
308,345,158973,1,8,0:0:0:0:
327,352,159045,5,8,0:0:0:0:
375,252,159189,5,8,0:0:0:0:
396,122,159332,5,10,0:0:0:0:
363,24,159476,5,0,1:0:0:0:
360,20,159547,1,0,1:0:0:0:
356,17,159619,2,0,B|318:34|318:34|273:28|273:28|311:69|298:129,1,178.480004221253,8|10,0:0|0:0,0:0:0:0:
112,216,160050,6,0,B|150:215|192:244|192:244|184:187|214:144,1,178.480004221253,10|10,0:0|0:0,0:0:0:0:
220,164,160480,6,0,P|212:185|211:217,1,44.6200010553131,2|2,1:0|1:0,0:0:0:0:
259,365,160624,1,10,0:0:0:0:
303,254,160768,6,0,P|294:233|289:211,1,44.6200010553131,2|2,1:0|1:0,0:0:0:0:
149,326,160911,1,10,0:0:0:0:
337,331,161055,6,0,P|380:335|433:356,1,89.2400021106263,10|2,0:0|1:0,0:0:0:0:
207,231,161342,1,10,0:0:0:0:
207,231,161413,1,8,0:0:0:0:
207,231,161485,1,10,0:0:0:0:
207,231,161557,1,8,0:0:0:0:
207,231,161629,6,0,P|172:237|129:261,1,66.9300015829697,10|8,0:0|0:0,0:0:0:0:
43,289,161843,1,8,0:0:0:0:
109,328,161916,2,0,P|120:297|104:189,1,133.860003165939,10|8,3:0|3:0,0:0:0:0:
37,141,162203,5,10,3:0:0:0:
117,112,162310,5,8,3:0:0:0:
196,130,162418,5,10,3:0:0:0:
237,107,162489,5,2,1:0:0:0:
318,138,162597,5,8,0:3:0:0:
398,121,162705,5,10,3:0:0:0:
440,142,162777,5,10,0:0:0:0:
446,148,163351,6,0,L|451:178,8,21.619999670105,0|0|0|0|0|0|0|0|6,0:0|0:0|0:0|0:0|0:0|0:0|0:0|0:0|1:0,0:0:0:0:
407,345,172251,5,0,1:0:0:0:
346,300,172394,2,0,B|324:282|326:240|326:240|332:271|359:287,1,104.879998719727,8|10,3:0|3:0,0:0:0:0:
343,274,172968,6,0,L|236:304,1,104.879998719727,10|0,3:0|0:0,0:0:0:0:
233,321,173399,2,0,P|220:349|219:379,1,52.4399993598633,0|0,1:0|0:0,0:0:0:0:
174,220,173686,2,0,P|152:207|118:202,1,52.4399993598633,0|0,1:0|0:0,0:0:0:0:
304,137,173973,2,0,P|314:111|311:79,1,52.4399993598633,0|0,1:0|0:0,0:0:0:0:
419,262,174260,6,0,L|489:287,1,52.4399993598633,8|0,3:0|0:0,0:0:0:0:
490,288,174547,1,0,1:0:0:0:
313,90,174834,5,0,1:0:0:0:
380,45,174978,2,0,L|436:61,1,52.4399993598633,0|0,0:0|1:0,0:0:0:0:
256,0,175265,1,0,0:0:0:0:
376,139,175409,2,0,P|331:129|292:167,1,104.879998719727,8|0,3:0|1:0,0:0:0:0:
230,221,175839,1,0,0:0:0:0:
308,189,175983,5,0,1:0:0:0:
213,114,176126,2,0,L|154:94,2,52.4399993598633,0|0|0,0:0|1:0|0:0,0:0:0:0:
57,302,176557,6,0,B|68:261|68:261|43:218|43:218|59:168,1,133.860003165939,12|0,0:0|0:0,0:0:0:0:
64,165,176844,1,8,0:0:0:0:
232,90,176988,1,8,0:0:0:0:
175,222,177131,5,10,0:0:0:0:
295,47,177275,1,8,0:0:0:0:
306,211,177418,5,10,0:0:0:0:
276,179,177490,1,8,0:0:0:0:
227,181,177562,1,8,0:0:0:0:
196,219,177634,1,8,0:0:0:0:
192,233,177705,6,0,L|205:308,1,66.9300015829697,10|8,0:0|0:0,0:0:0:0:
157,371,177921,1,8,0:0:0:0:
157,371,177992,1,10,3:0:0:0:
432,220,178136,6,0,L|336:251,1,89.2400021106263,2|8,1:0|3:0,0:0:0:0:
269,365,178386,6,0,P|282:335|282:297,1,66.9300015829697,8|8,3:0|3:0,0:0:0:0:
224,255,178567,2,0,P|218:234|217:201,1,44.6200010553131,2|0,1:0|0:0,0:0:0:0:
323,120,178710,2,0,P|331:97|333:70,1,44.6200010553131,2|0,1:0|3:0,0:0:0:0:
285,3,178854,5,8,0:0:0:0:
230,16,178925,1,8,0:0:0:0:
205,68,178997,1,8,0:0:0:0:
226,114,179069,1,8,0:0:0:0:
240,123,179141,5,10,3:0:0:0:
351,250,179284,2,0,L|268:229,1,70.8399985947876,0|10,1:0|3:0,0:0:0:0:
221,280,179571,1,0,1:0:0:0:
379,174,179715,1,2,1:0:0:0:
407,101,179858,1,2,1:0:0:0:
512,268,180002,5,12,0:0:0:0:
311,124,180145,1,8,0:0:0:0:
273,188,180289,1,8,0:0:0:0:
412,79,180433,5,12,0:0:0:0:
228,253,180576,1,8,0:0:0:0:
194,185,180720,1,0,1:0:0:0:
373,314,180863,5,12,0:0:0:0:
194,185,181007,2,0,L|287:213,1,70.8399985947876,8|10,0:0|3:0,0:0:0:0:
121,336,181294,5,8,0:0:0:0:
323,133,181437,2,0,P|273:111|241:182,1,141.679997189575,10|0,0:0|3:0,0:0:0:0:
285,235,181868,6,0,L|309:243,1,23.4600001431885,2|0,1:0|0:0,0:0:0:0:
426,293,182155,6,0,B|377:319|320:258|320:258|356:296|348:360,1,215.280000821228,6|2,1:0|1:0,0:0:0:0:
474,201,182586,2,0,L|498:82,1,107.640000410614,10|2,0:0|0:0,0:0:0:0:
495,95,182801,1,0,0:0:0:0:
495,95,182873,1,2,1:0:0:0:
358,9,183016,2,0,P|414:-1|437:49,1,107.640000410614,2|8,1:0|0:0,0:0:0:0:
503,103,183303,6,0,L|317:138,1,161.460000615921,2|0,3:0|0:0,0:0:0:0:
323,138,183590,1,0,1:0:0:0:
64,224,183734,6,0,B|99:191|152:212|156:255|156:255|123:305|167:347,1,215.280000821228,8|2,0:0|1:0,0:0:0:0:
323,138,184165,2,0,P|271:130|248:172,1,107.640000410614,2|8,1:0|0:0,0:0:0:0:
373,340,184452,6,0,B|413:258|524:284|505:340|448:337|419:258,1,215.280000821228,4|0,1:0|0:0,0:0:0:0:
212,95,184882,2,0,P|259:138|232:184,1,107.640000410614,10|2,0:0|0:0,0:0:0:0:
189,222,185098,1,0,0:0:0:0:
189,222,185169,1,2,1:0:0:0:
343,125,185313,1,2,1:0:0:0:
206,22,185457,5,10,0:0:0:0:
332,207,185600,2,0,B|363:129|268:149|312:52,1,161.460000615921,2|0,0:0|0:0,0:0:0:0:
326,47,185887,1,0,1:0:0:0:
145,222,186031,6,0,B|164:178|228:177|228:177|192:193|184:238,1,161.460000615921,8|0,0:0|0:0,0:0:0:0:
259,245,186318,1,2,1:0:0:0:
366,375,186461,2,0,B|380:361|404:364|404:364|317:338,1,107.640000410614,2|8,1:0|0:0,0:0:0:0:
259,245,186748,6,0,B|230:218|185:230|161:264|161:264|156:303|118:330|80:305,1,215.280000821228,6|2,1:0|1:0,0:0:0:0:
306,130,187179,2,0,P|344:82|317:43,1,107.640000410614,10|2,0:0|0:0,0:0:0:0:
234,88,187466,5,2,1:0:0:0:
363,193,187610,1,2,1:0:0:0:
450,188,187753,5,10,0:0:0:0:
269,342,187897,2,0,P|322:294|420:311,1,161.460000615921,2|0,1:0|0:0,0:0:0:0:
415,313,188184,2,0,L|397:378,1,53.820000205307,0|0,1:0|0:0,0:0:0:0:
183,152,188327,6,0,B|153:84|81:109|81:109|95:171,1,161.460000615921,10|0,0:0|0:0,0:0:0:0:
64,218,188614,2,0,B|60:243|46:264|46:264|80:242|89:198,1,107.640000410614,2|0,1:0|1:0,0:0:0:0:
280,40,188901,6,0,B|268:89|268:89|409:128,1,161.460000615921,10|0,0:0|0:0,0:0:0:0:
449,136,189189,1,6,1:0:0:0:
237,243,189332,6,0,B|225:209|225:209|304:186,1,107.640000410614,0|10,1:0|0:0,0:0:0:0:
449,136,189619,1,10,3:0:0:0:
280,40,189763,6,0,P|265:60|267:101,1,53.820000205307,8|0,0:0|1:0,0:0:0:0:
389,246,189906,1,2,1:0:0:0:
412,254,189978,1,0,1:0:0:0:
434,264,190050,1,10,0:0:0:0:
295,384,190193,1,2,1:0:0:0:
434,264,190337,5,8,0:0:0:0:
394,243,190409,1,8,0:0:0:0:
362,252,190480,1,8,3:0:0:0:
338,285,190552,1,8,3:0:0:0:
349,322,190624,1,8,0:0:0:0:
216,198,190768,1,0,1:0:0:0:
364,95,190911,6,0,L|342:170,1,53.820000205307,8|0,0:0|0:0,0:0:0:0:
180,282,191055,2,0,L|191:346,1,53.820000205307,12|0,0:0|0:0,0:0:0:0:
95,78,191198,6,0,L|152:105,1,53.820000205307,8|0,0:0|0:0,0:0:0:0:
294,250,191342,2,0,B|262:252|230:218|230:218|274:264|252:300,1,161.460000615921,0|0,1:0|0:0,0:0:0:0:
189,335,191629,2,0,L|136:354,1,53.820000205307,0|0,1:0|1:0,0:0:0:0:
348,146,191772,6,0,B|392:35|541:71|531:202|434:135,1,252.080007115906,14|2,0:0|1:0,0:0:0:0:
320,41,192203,1,2,1:0:0:0:
118,189,192346,6,0,P|149:185|182:154,1,53.820000205307,8|0,0:0|0:0,0:0:0:0:
325,34,192490,2,0,B|292:-10|246:17|246:17|262:56|230:93,1,161.460000615921,2|0,1:0|0:0,0:0:0:0:
174,43,192777,1,0,1:0:0:0:
356,248,192921,6,0,B|260:269|260:269|294:261|319:225,1,161.460000615921,10|0,0:0|0:0,0:0:0:0:
247,191,193208,1,2,1:0:0:0:
398,98,193351,1,0,1:0:0:0:
335,32,193495,2,0,P|363:93|413:91,1,107.640000410614,10|0,0:0|0:0,0:0:0:0:
509,240,193782,5,2,1:0:0:0:
364,170,193925,1,0,1:0:0:0:
512,248,194069,5,10,0:0:0:0:
353,384,194212,2,0,P|308:337|331:290,1,107.640000410614,2|0,0:0|1:0,0:0:0:0:
380,255,194500,1,2,1:0:0:0:
222,132,194643,5,8,0:0:0:0:
386,262,194787,2,0,B|265:237|310:356|178:306,1,215.280000821228,2|0,1:0|1:0,0:0:0:0:
19,83,195217,2,0,B|61:88|100:55|100:55|61:88|61:122,1,161.460000615921,8|0,0:0|0:0,0:0:0:0:
139,126,195504,1,2,1:0:0:0:
23,228,195648,1,2,1:0:0:0:
190,310,195791,6,0,B|156:255|98:284|98:284|114:359,1,161.460000615921,14|0,0:0|0:0,0:0:0:0:
112,361,196079,1,10,0:0:0:0:
312,215,196222,1,0,3:0:0:0:
319,197,196294,1,0,3:0:0:0:
313,169,196366,1,2,1:0:0:0:
428,303,196509,5,14,0:0:0:0:
301,152,196653,1,10,3:0:0:0:
287,127,196724,1,8,3:0:0:0:
301,97,196796,1,8,3:0:0:0:
192,0,196940,5,10,0:0:0:0:
391,132,197083,2,0,B|364:101|317:109|292:142|292:142|280:181|241:197|208:169,1,215.280000821228,6|0,1:0|1:0,0:0:0:0:
183,105,197442,1,0,1:0:0:0:
183,105,197514,2,0,L|303:136,1,107.640000410614,10|8,0:0|3:0,0:0:0:0:
395,246,197801,5,10,0:0:0:0:
249,355,197945,1,8,0:0:0:0:
205,292,198088,5,10,0:0:0:0:
379,384,198232,1,8,0:0:0:0:
205,292,198375,6,0,P|173:234|214:188,1,107.640000410614,14|0,0:0|3:0,0:0:0:0:
254,156,198590,1,0,3:0:0:0:
254,156,198662,1,2,1:0:0:0:
202,299,198806,6,0,L|73:335,1,107.640000410614,10|8,0:0|3:0,0:0:0:0:
333,177,199093,2,0,L|385:194,1,53.820000205307,2|0,1:0|1:0,0:0:0:0:
457,218,199236,1,8,0:0:0:0:
207,66,199380,6,0,B|180:27|221:-21|303:14|309:88|245:141,1,215.280000821228,6|8,1:0|0:0,0:0:0:0:
56,228,199811,1,10,3:0:0:0:
75,199,199882,1,8,3:0:0:0:
110,183,199954,1,8,3:0:0:0:
160,197,200026,1,8,3:0:0:0:
188,229,200098,1,10,0:0:0:0:
219,257,200169,1,8,0:0:0:0:
265,250,200241,1,8,0:0:0:0:
281,239,200313,1,8,0:0:0:0:
294,217,200385,1,2,1:0:0:0:
285,171,200457,1,0,1:0:0:0:
244,150,200528,1,0,1:0:0:0:
201,171,200600,1,0,1:0:0:0:
199,185,200672,6,0,L|216:304,1,107.640000410614,14|0,0:0|1:0,0:0:0:0:
360,128,200959,1,2,1:0:0:0:
245,2,201102,6,0,B|278:51|355:42|355:42|308:47|282:95,1,215.280000821228,14|2,0:0|1:0,0:0:0:0:
484,242,201533,2,0,B|532:217|501:169|501:169|411:141,1,161.460000615921,14|0,0:0|0:0,0:0:0:0:
356,126,201820,1,2,1:0:0:0:
214,291,201964,6,0,B|209:271|209:271|242:233|286:253|286:253|324:316|377:302,1,215.280000821228,14|2,0:0|1:0,0:0:0:0:
221,151,202394,2,0,L|152:171,1,53.820000205307,10|0,0:0|0:0,0:0:0:0:
62,342,202538,1,10,0:0:0:0:
342,120,202825,6,0,B|407:69|358:-6|358:-6|289:23,1,215.280000821228,2|10,1:0|3:0,0:0:0:0:
431,148,203256,1,10,0:0:0:0:
258,234,203399,1,10,3:0:0:0:
316,289,203543,5,10,3:0:0:0:
350,219,203686,1,10,3:0:0:0:
170,173,203830,5,10,0:0:0:0:
295,307,203973,2,0,B|422:261|375:379|514:350,1,215.280000821228,6|2,1:0|0:0,0:0:0:0:
434,308,204404,5,2,0:0:0:0:
380,362,204547,1,2,0:0:0:0:
295,307,204691,5,2,3:0:0:0:
202,258,204834,1,2,3:0:0:0:
39,373,204978,5,2,3:0:0:0:
202,258,205122,2,0,P|166:218|20:253,1,196.879993991699,6|0,1:0|1:0,0:0:0:0:
132,344,205552,2,0,L|248:325,1,98.4399969958497,8|0,0:0|3:0,0:0:0:0:
304,279,205768,5,0,3:0:0:0:
304,279,205839,2,0,P|321:296|315:349,1,49.2199984979248,0|0,1:0|0:0,0:0:0:0:
305,379,205983,2,0,P|316:363|319:328,1,49.2199984979248,0|0,1:0|0:0,0:0:0:0:
258,196,206126,5,8,0:0:0:0:
353,83,206270,2,0,B|264:76|288:114|204:112,1,147.659995493775,0|0,1:0|0:0,0:0:0:0:
139,115,206557,6,0,P|169:122|196:148,1,49.2199984979248,0|0,1:0|0:0,0:0:0:0:
258,196,206701,1,8,0:0:0:0:
67,223,206844,5,0,3:0:0:0:
62,242,206916,1,0,3:0:0:0:
55,268,206988,1,0,1:0:0:0:
171,207,207131,1,0,1:0:0:0:
235,326,207275,1,8,0:0:0:0:
63,271,207418,6,0,B|112:245|151:294|151:294|189:292|189:292|212:329|249:326,1,196.879993991699,4|0,1:0|1:0,0:0:0:0:
351,376,207777,1,0,1:0:0:0:
351,376,207849,2,0,B|383:354|417:339|417:339|378:286|378:286|345:293|301:320,1,196.879993991699,8|2,0:0|1:0,0:0:0:0:
142,325,208279,6,0,P|115:334|80:352,1,49.2199984979248,2|0,1:0|1:0,0:0:0:0:
227,205,208423,1,10,0:0:0:0:
226,294,208567,6,0,B|247:251|247:251|222:193,1,98.4399969958497,2|0,1:0|0:0,0:0:0:0:
162,89,208854,5,2,1:0:0:0:
309,200,208997,1,10,0:0:0:0:
273,89,209141,5,2,0:0:0:0:
155,196,209284,1,0,1:0:0:0:
142,180,209356,1,0,1:0:0:0:
124,193,209428,1,2,1:0:0:0:
133,203,209500,1,0,1:0:0:0:
141,196,209571,1,8,0:0:0:0:
231,246,209715,6,0,B|297:248|360:210|360:210|332:235|316:289,1,196.879993991699,6|0,1:0|1:0,0:0:0:0:
442,355,210145,2,0,P|394:343|340:343,1,98.4399969958497,8|0,0:0|0:0,0:0:0:0:
181,309,210433,5,0,1:0:0:0:
62,360,210576,1,0,1:0:0:0:
181,309,210720,5,8,0:0:0:0:
321,366,210863,2,0,P|351:371|519:306,1,196.879993991699,2|0,1:0|1:0,0:0:0:0:
452,94,211294,5,8,0:0:0:0:
417,247,211437,1,0,3:0:0:0:
417,247,211509,1,0,3:0:0:0:
417,247,211581,1,2,1:0:0:0:
512,166,211724,1,0,1:0:0:0:
325,157,211868,5,8,0:0:0:0:
438,315,212012,2,0,B|441:197|400:240|399:117,1,196.879993991699,6|0,1:0|1:0,0:0:0:0:
321,17,212442,5,8,0:0:0:0:
328,71,212586,1,0,1:0:0:0:
227,38,212729,5,8,0:0:0:0:
263,104,212873,1,0,1:0:0:0:
128,105,213016,5,8,0:0:0:0:
232,179,213160,2,0,B|224:199|224:199|225:215|225:215|216:238,2,49.2199984979248,0|0|8,1:0|3:0|0:0,0:0:0:0:
443,91,213447,5,0,1:0:0:0:
316,189,213590,2,0,B|314:217|314:217|331:255|331:255|330:303,1,98.4399969958497,8|0,0:0|3:0,0:0:0:0:
342,362,213806,1,0,3:0:0:0:
358,369,213878,1,2,1:0:0:0:
244,307,214021,1,2,1:0:0:0:
113,382,214165,1,10,0:0:0:0:
231,192,214308,6,0,B|250:140|250:140|232:87|155:92|147:161,1,196.879993991699,6|0,1:0|1:0,0:0:0:0:
0,264,214739,2,0,L|101:252,1,98.4399969958497,8|0,0:0|0:0,0:0:0:0:
174,273,214954,1,0,3:0:0:0:
188,274,215026,1,0,1:0:0:0:
288,369,215169,5,0,1:0:0:0:
322,246,215313,1,8,0:0:0:0:
512,316,215457,6,0,B|442:331|442:331|436:248,1,147.659995493775,0|0,1:0|0:0,0:0:0:0:
456,240,215744,1,0,1:0:0:0:
345,68,215887,2,0,B|309:88|309:88|419:69,1,147.659995493775,8|0,0:0|3:0,0:0:0:0:
429,68,216174,2,0,P|448:85|469:133,1,49.2199984979248,2|0,1:0|0:0,0:0:0:0:
358,191,216318,2,0,P|337:177|321:159,1,49.2199984979248,0|0,1:0|0:0,0:0:0:0:
371,116,216461,6,0,P|372:139|346:170,1,49.2199984979248,8|0,0:0|0:0,0:0:0:0:
193,285,216605,6,0,B|157:312|121:260|218:195|292:278,1,196.879993991699,6|0,1:0|1:0,0:0:0:0:
352,324,216964,1,0,1:0:0:0:
383,368,217035,1,8,0:0:0:0:
179,162,217323,5,0,1:0:0:0:
137,115,217394,1,0,1:0:0:0:
143,62,217466,1,0,1:0:0:0:
172,36,217538,1,0,1:0:0:0:
195,44,217610,1,10,0:0:0:0:
206,138,217753,6,0,P|67:150|25:89,1,196.879993991699,2|0,1:0|1:0,0:0:0:0:
159,256,218184,2,0,P|128:291|71:316,1,98.4399969958497,8|0,0:0|3:0,0:0:0:0:
275,197,218471,5,0,1:0:0:0:
336,229,218543,1,0,1:0:0:0:
357,276,218614,1,0,1:0:0:0:
350,328,218686,1,0,1:0:0:0:
320,348,218758,1,8,0:0:0:0:
268,268,218901,6,0,P|271:226|302:82,1,147.659995493775,4|0,1:0|0:0,0:0:0:0:
263,127,219189,2,0,P|260:107|242:59,1,49.2199984979248,0|0,1:0|0:0,0:0:0:0:
114,11,219332,1,8,0:0:0:0:
101,136,219619,5,2,1:0:0:0:
192,6,219763,1,2,1:0:0:0:
194,10,219834,1,0,0:0:0:0:
197,13,219906,1,10,0:0:0:0:
327,89,220050,2,0,B|453:112|383:144|523:160,1,196.879993991699,6|0,1:0|1:0,0:0:0:0:
270,272,220480,6,0,P|251:324|248:379,1,98.4399969958497,10|0,0:0|0:0,0:0:0:0:
335,162,220768,6,0,B|340:184|340:184|356:218,1,49.2199984979248,2|0,1:0|0:0,0:0:0:0:
238,319,220911,2,0,B|244:292|244:292|254:273,1,49.2199984979248,2|0,1:0|0:0,0:0:0:0:
351,208,221055,5,10,0:0:0:0:
507,343,221198,2,0,P|466:365|327:311,1,196.879993991699,6|0,1:0|1:0,0:0:0:0:
147,217,221629,5,10,0:0:0:0:
42,268,221772,1,0,1:0:0:0:
266,259,221916,5,10,0:0:0:0:
142,214,222059,1,2,1:0:0:0:
429,192,222203,5,10,0:0:0:0:
263,253,222346,1,14,0:0:0:0:
53,197,222490,5,8,0:0:0:0:
194,282,222634,5,8,0:0:0:0:
349,169,222777,5,10,0:0:0:0:
499,253,222921,5,0,1:0:0:0:
483,241,223208,5,10,0:0:0:0:
452,359,223351,1,6,1:0:0:0:
406,175,223495,5,0,3:0:0:0:
407,179,223567,1,8,3:0:0:0:
409,183,223638,1,12,0:0:0:0:
329,226,223782,1,0,1:0:0:0:
240,202,223925,1,0,1:0:0:0:
170,256,224069,2,0,B|139:246|119:231|119:231|82:244|82:244|45:300|-12:294,1,196.879993991699,14|0,0:0|1:0,0:0:0:0:
182,167,224500,5,12,0:0:0:0:
293,119,224643,1,0,1:0:0:0:
393,188,224787,1,0,1:0:0:0:
284,242,224930,2,0,P|273:183|318:38,1,196.879993991699,12|0,0:0|1:0,0:0:0:0:
473,0,225361,5,8,0:0:0:0:
478,4,225504,1,8,0:0:0:0:
205,32,225791,6,0,B|113:18|152:56|52:33,1,147.659995493775,4|0,1:0|0:0,0:0:0:0:
60,35,226079,2,0,L|65:93,1,49.2199984979248,0|0,1:0|0:0,0:0:0:0:
200,194,226222,1,8,0:0:0:0:
75,161,226366,6,0,P|92:166|120:192,1,49.2199984979248,8|0,3:0|0:0,0:0:0:0:
116,185,226653,6,0,P|92:191|72:205,1,49.2199984979248,8|0,3:0|0:0,0:0:0:0:
0,279,226796,1,8,0:0:0:0:
230,290,226940,6,0,B|127:263|127:263|166:354,1,196.879993991699,4|0,1:0|1:0,0:0:0:0:
136,357,227299,1,8,0:0:0:0:
96,372,227370,1,8,0:0:0:0:
219,296,227514,5,8,0:0:0:0:
102,247,227657,5,8,0:0:0:0:
306,189,227801,5,8,3:0:0:0:
102,79,227945,5,8,3:0:0:0:
306,189,228088,5,8,0:0:0:0:
481,34,228232,6,0,L|487:13,1,12.4200003032227,6|0,1:0|0:0,0:0:0:0:
