osu file format v14

[General]
AudioFilename: audio.mp3
AudioLeadIn: 0
PreviewTime: 163279
Countdown: 0
SampleSet: Soft
StackLeniency: 0.4
Mode: 0
LetterboxInBreaks: 0
WidescreenStoryboard: 1

[Editor]
DistanceSpacing: 1.4
BeatDivisor: 8
GridSize: 32
TimelineZoom: 1.799998

[Metadata]
Title:Hyousou wa Hakuen o Matoite
TitleUnicode:氷奏は白焔を纏いて
Artist:ELFENSJoN
ArtistUnicode:ELFENSJóN
Creator:SMOKELIND
Version:Insane
Source:
Tags:Neko Keqing iljaaz Kalibe Sagiri Featured Artist Mappers' Guild MG MPG EINHERJAR FA Rock J-Rock JRock Japanese JP
BeatmapID:2761853
BeatmapSetID:1332833

[Difficulty]
HPDrainRate:4.7
CircleSize:3.6
OverallDifficulty:8.1
ApproachRate:9.1
SliderMultiplier:1.77
SliderTickRate:1

[Events]
//Background and Video events
0,0,"Neko.jpg",0,0
//Break Periods
2,132059,137801
2,164212,171533
//Storyboard Layer 0 (Background)
//Storyboard Layer 1 (Fail)
//Storyboard Layer 2 (Pass)
//Storyboard Layer 3 (Foreground)
//Storyboard Layer 4 (Overlay)
//Storyboard Sound Samples

[TimingPoints]
863,287.081339712919,4,2,7,47,1,0
863,-212.765957446809,4,2,7,47,0,0
14356,-370.370370370372,4,2,7,47,0,0
14643,-175.438596491228,4,2,7,77,0,0
15648,-129.87012987013,4,2,7,77,0,0
16366,-114.942528735632,4,2,7,77,0,0
19236,-93.4579439252337,4,2,7,77,0,0
32729,-175.438596491228,4,2,7,77,0,0
33303,-129.87012987013,4,2,7,57,0,0
40911,-93.4579439252337,4,2,7,77,0,0
42059,-103.092783505155,4,2,7,77,0,0
50815,-129.87012987013,4,2,7,77,0,0
51390,-114.942528735632,4,2,7,67,0,0
60576,-175.438596491228,4,2,7,77,0,0
60863,-103.092783505155,4,2,7,77,0,0
67466,-93.4579439252339,4,2,7,77,0,0
69763,-85.4700854700855,4,2,7,87,0,0
78232,-78.7401574803149,4,2,7,87,0,0
78806,-93.4579439252336,4,2,7,87,0,0
83256,-175.438596491228,4,2,7,87,0,0
83543,-93.4579439252336,4,2,7,87,0,0
95457,-78.7401574803149,4,2,7,87,0,0
97610,-93.4579439252336,4,2,7,87,0,0
106366,-129.87012987013,4,2,7,77,0,0
106796,-93.4579439252336,4,2,7,77,0,0
122299,-129.87012987013,4,2,7,77,0,0
122586,-93.4579439252336,4,2,7,77,0,0
131772,-212.765957446809,4,2,7,57,0,0
134643,-588.23529411765,4,2,7,47,0,0
138662,-129.87012987013,4,2,7,67,0,0
139811,-103.092783505155,4,2,7,77,0,0
140959,-93.4579439252336,4,2,7,77,0,0
163925,-93.4579439252336,4,2,7,47,0,0
172251,-175.438596491228,4,2,7,67,0,0
179141,-129.87012987013,4,2,7,67,0,0
180145,-103.092783505155,4,2,7,67,0,0
181868,-588.23529411765,4,2,7,87,0,0
182155,-85.4700854700855,4,2,7,87,0,0
191772,-93.4579439252336,4,2,7,87,0,0
204260,-93.4579439252336,4,2,7,67,0,0
204691,-129.87012987013,4,2,7,67,0,0
205122,-93.4579439252337,4,2,7,77,0,0
228232,-370.37037037037,4,2,7,77,0,0
228303,-370.37037037037,4,2,7,7,0,0

[Colours]
Combo1 : 255,255,170
Combo2 : 255,198,170

[HitObjects]
42,102,5457,6,0,P|109:78|165:149,1,166.379997461243,2|2,1:0|0:0,0:0:0:0:
186,313,6461,2,0,P|261:334|308:272,1,166.379997461243,2|0,0:0|0:0,0:0:0:0:
308,270,7179,1,2,0:0:0:0:
180,216,7753,6,0,B|84:248|148:280|52:312,1,166.379997461243,2|2,0:0|0:0,0:0:0:0:
189,126,8758,2,0,B|285:158|221:190|317:222,1,166.379997461243,2|0,0:0|0:0,0:0:0:0:
317,222,9476,1,2,0:0:0:0:
449,21,10050,6,0,P|422:87|422:183,1,166.379997461243,2|2,0:0|0:0,0:0:0:0:
449,340,11055,6,0,P|450:257|397:138,1,207.974996826553,2|0,0:0|0:0,0:0:0:0:
261,72,12346,6,0,L|158:57,1,83.1899987306214,2|2,0:0|0:0,0:0:0:0:
177,70,12777,1,2,0:0:0:0:
177,70,12921,2,0,L|164:131,1,41.5949993653107,2|2,0:0|0:0,0:0:0:0:
248,242,13351,2,0,L|239:201,1,41.5949993653107,2|0,0:0|0:0,0:0:0:0:
405,164,13782,5,2,0:0:0:0:
405,164,14069,1,2,0:0:0:0:
405,164,14356,2,0,L|400:203,1,35.842500875061,10|0,0:0|0:0,0:0:0:0:
384,274,14643,6,0,B|204:308|320:114|116:162,1,302.669996305298,6|0,1:0|0:0,0:0:0:0:
36,279,15648,6,0,L|51:164,1,102.21749797237,6|0,1:0|0:0,0:0:0:0:
38,165,15935,2,0,L|24:266,1,102.21749797237,4|0,1:0|0:0,0:0:0:0:
36,279,16222,1,0,1:0:0:0:
121,332,16366,2,0,L|213:312,1,76.9950006461678,2|2,3:0|1:0,0:0:0:0:
217,327,16581,1,0,1:0:0:0:
217,327,16653,2,0,P|239:294|245:252,1,76.9950006461678,10|10,0:0|3:0,0:0:0:0:
177,118,16940,6,0,P|216:70|306:105,1,153.990001292336,6|2,1:0|3:0,0:0:0:0:
360,250,17370,1,10,3:0:0:0:
424,72,17514,1,8,0:0:0:0:
357,227,17657,1,10,0:0:0:0:
280,58,17801,1,8,0:0:0:0:
417,159,17945,6,0,L|517:143,1,76.9950006461678,10|8,0:0|0:0,0:0:0:0:
356,272,18232,1,8,0:0:0:0:
258,132,18375,2,0,L|158:116,1,76.9950006461678,8|8,0:0|0:0,0:0:0:0:
94,270,18662,2,0,L|170:257,1,76.9950006461678,10|2,0:0|1:0,0:0:0:0:
182,238,18878,1,0,1:0:0:0:
182,238,18949,2,0,L|105:225,1,76.9950006461678,10|10,0:0|3:0,0:0:0:0:
253,184,19236,1,14,0:0:0:0:
61,66,19380,6,0,P|76:152|85:279,1,189.389994220276,8|8,0:0|0:0,0:0:0:0:
169,41,19811,2,0,P|213:17|269:31,1,94.694997110138,10|0,0:0|1:0,0:0:0:0:
361,191,20098,1,10,0:0:0:0:
392,19,20241,2,0,P|377:105|368:232,1,189.389994220276,6|0,1:0|1:0,0:0:0:0:
383,224,20600,1,0,1:0:0:0:
383,224,20672,2,0,P|342:205|281:224,1,94.694997110138,10|0,0:0|3:0,0:0:0:0:
197,309,20959,2,0,P|228:296|238:249,3,47.347498555069,10|8|8|8,0:0|0:0|0:0|0:0,0:0:0:0:
211,200,21246,2,0,P|195:184|173:178,1,47.347498555069,10|8,0:0|0:0,0:0:0:0:
45,199,21390,5,10,0:0:0:0:
45,199,21461,1,8,0:0:0:0:
45,199,21533,2,0,P|83:241|103:370,1,189.389994220276,4|8,1:0|0:0,0:0:0:0:
218,213,21964,1,0,1:0:0:0:
315,359,22107,2,0,L|428:335,1,94.694997110138,8|8,0:0|3:0,0:0:0:0:
235,239,22394,1,8,0:0:0:0:
441,146,22538,6,0,L|250:111,1,189.389994220276,4|0,1:0|1:0,0:0:0:0:
114,114,22968,2,0,L|184:103,3,47.347498555069,8|8|0|0,0:0|0:0|1:0|1:0,0:0:0:0:
36,176,23256,2,0,P|29:139|19:105,1,47.347498555069,8|8,0:0|0:0,0:0:0:0:
130,202,23399,2,0,P|124:225|120:248,1,47.347498555069,8|8,0:0|0:0,0:0:0:0:
47,167,23543,2,0,P|43:143|37:120,1,47.347498555069,8|8,0:0|0:0,0:0:0:0:
153,196,23686,5,0,1:0:0:0:
153,196,23830,2,0,B|215:148|302:168,1,142.042495665207,2|0,0:0|1:0,0:0:0:0:
296,189,24117,2,0,P|337:217|406:187,1,94.694997110138,12|0,0:0|3:0,0:0:0:0:
395,187,24332,1,0,3:0:0:0:
395,187,24404,2,0,L|377:302,1,94.694997110138,0|0,1:0|1:0,0:0:0:0:
334,117,24691,1,10,0:0:0:0:
493,33,24834,6,0,L|515:243,1,189.389994220276,2|0,1:0|1:0,0:0:0:0:
394,357,25265,2,0,P|365:317|300:302,1,94.694997110138,8|0,0:0|0:0,0:0:0:0:
156,364,25552,1,0,1:0:0:0:
282,383,25696,1,0,1:0:0:0:
119,288,25839,2,0,P|111:240|96:195,1,94.694997110138,8|0,0:0|0:0,0:0:0:0:
229,75,26126,6,0,P|214:119|207:166,1,94.694997110138,0|0,1:0|1:0,0:0:0:0:
225,184,26342,1,0,1:0:0:0:
225,184,26413,2,0,P|258:207|320:177,1,94.694997110138,10|0,0:0|0:0,0:0:0:0:
396,52,26701,2,0,P|356:60|336:126,1,94.694997110138,2|0,1:0|1:0,0:0:0:0:
469,206,26988,1,10,0:0:0:0:
333,324,27131,6,0,B|261:287|173:280|173:280|195:291|208:307,1,189.389994220276,2|0,1:0|1:0,0:0:0:0:
70,358,27562,2,0,P|38:308|49:258,1,94.694997110138,10|0,0:0|0:0,0:0:0:0:
60,256,27777,1,0,3:0:0:0:
60,256,27849,2,0,P|92:206|81:156,1,94.694997110138,2|0,1:0|1:0,0:0:0:0:
0,0,28136,2,0,P|40:38|104:45,1,94.694997110138,14|0,0:0|1:0,0:0:0:0:
257,43,28423,6,0,P|212:56|179:90,1,94.694997110138,2|0,0:0|1:0,0:0:0:0:
274,246,28710,2,0,P|266:188|262:133,1,94.694997110138,12|0,0:0|0:0,0:0:0:0:
428,42,28997,1,12,0:0:0:0:
362,160,29141,1,0,1:0:0:0:
285,22,29284,1,2,1:0:0:0:
491,147,29428,6,0,P|472:195|448:345,1,189.389994220276,14|0,0:0|1:0,0:0:0:0:
243,353,29858,2,0,P|282:324|344:307,1,94.694997110138,8|0,0:0|0:0,0:0:0:0:
145,196,30145,1,0,1:0:0:0:
222,322,30289,1,0,1:0:0:0:
241,144,30433,1,8,0:0:0:0:
241,144,30576,1,0,3:0:0:0:
60,240,30720,6,0,P|53:183|45:129,1,94.694997110138,4|8,1:0|3:0,0:0:0:0:
222,322,31007,2,0,P|229:265|237:211,1,94.694997110138,12|0,0:0|1:0,0:0:0:0:
255,218,31222,1,8,0:0:0:0:
255,218,31294,2,0,P|299:189|355:201,1,94.694997110138,8|8,0:0|3:0,0:0:0:0:
406,308,31581,1,8,3:0:0:0:
451,119,31724,1,10,0:0:0:0:
447,230,31868,5,8,0:0:0:0:
437,222,31940,2,0,L|431:111,1,94.694997110138,8|8,0:0|0:0,0:0:0:0:
410,116,32155,1,10,0:0:0:0:
268,34,32299,2,0,L|282:143,1,94.694997110138,14|2,0:0|1:0,0:0:0:0:
156,211,32586,1,8,0:0:0:0:
330,233,32729,5,6,1:0:0:0:
330,233,33016,1,4,1:0:0:0:
330,233,33303,6,0,P|288:222|243:253,1,68.1449986482468,10|0,0:0|0:0,0:0:0:0:
209,335,33590,2,0,P|176:342|144:331,1,68.1449986482468,2|0,1:0|1:0,0:0:0:0:
57,252,33878,5,2,3:0:0:0:
57,252,34021,2,0,P|64:283|68:322,1,68.1449986482468,2|0,1:0|0:0,0:0:0:0:
151,237,34308,1,2,1:0:0:0:
151,237,34380,1,0,1:0:0:0:
151,237,34452,1,8,0:0:0:0:
92,108,34595,2,0,P|88:141|81:175,1,68.1449986482468,2|0,1:0|0:0,0:0:0:0:
171,84,34882,2,0,P|195:64|245:65,1,68.1449986482468,2|8,1:0|0:0,0:0:0:0:
300,151,35169,6,0,P|333:148|359:127,1,68.1449986482468,2|0,0:0|1:0,0:0:0:0:
461,33,35457,1,0,1:0:0:0:
461,33,35600,2,0,P|437:62|432:115,1,68.1449986482468,10|0,0:0|0:0,0:0:0:0:
408,208,35887,2,0,P|432:237|437:290,1,68.1449986482468,2|0,1:0|1:0,0:0:0:0:
357,354,36174,5,2,0:0:0:0:
357,354,36318,2,0,L|279:333,1,68.1449986482468,2|0,1:0|0:0,0:0:0:0:
244,233,36605,1,2,1:0:0:0:
244,233,36677,1,0,1:0:0:0:
244,233,36748,1,8,0:0:0:0:
177,337,36892,2,0,L|111:354,1,68.1449986482468,2|0,1:0|0:0,0:0:0:0:
33,298,37179,2,0,P|72:309|88:339,1,68.1449986482468,2|8,1:0|0:0,0:0:0:0:
119,235,37466,1,2,0:0:0:0:
21,135,37610,6,0,P|53:111|145:147,1,136.289997296494,6|10,1:0|0:0,0:0:0:0:
236,206,38040,2,0,P|210:171|260:88,1,136.289997296494,2|0,0:0|1:0,0:0:0:0:
331,192,38471,5,0,0:0:0:0:
331,192,38614,2,0,P|359:211|411:205,1,68.1449986482468,0|0,1:0|3:0,0:0:0:0:
457,113,38901,1,0,1:0:0:0:
457,113,38973,1,0,1:0:0:0:
457,113,39045,2,0,P|441:71|435:38,1,68.1449986482468,8|0,0:0|1:0,0:0:0:0:
329,165,39332,2,0,P|344:123|351:90,1,68.1449986482468,2|0,0:0|1:0,0:0:0:0:
450,202,39619,2,0,P|500:200|524:169,1,68.1449986482468,10|0,0:0|0:0,0:0:0:0:
338,188,39906,6,0,L|350:271,1,68.1449986482468,6|0,1:0|0:0,0:0:0:0:
200,317,40193,1,10,0:0:0:0:
200,317,40337,2,0,L|188:400,1,68.1449986482468,2|0,0:0|1:0,0:0:0:0:
84,267,40624,2,0,L|96:350,1,68.1449986482468,2|0,1:0|0:0,0:0:0:0:
216,214,40911,6,0,B|326:229|240:317|387:331,1,189.389994220276,14|0,0:0|1:0,0:0:0:0:
461,183,41342,1,10,0:0:0:0:
308,259,41485,1,10,0:0:0:0:
350,81,41629,1,10,0:0:0:0:
331,241,41772,1,10,0:0:0:0:
191,123,41916,5,8,0:0:0:0:
191,123,41988,1,8,0:0:0:0:
191,123,42059,2,0,P|145:116|127:235,1,171.690004060661,0|0,1:0|1:0,0:0:0:0:
241,287,42490,2,0,P|204:263|142:263,1,85.8450020303307,14|0,0:0|0:0,0:0:0:0:
332,360,42777,2,0,P|369:336|431:336,1,85.8450020303307,2|0,1:0|1:0,0:0:0:0:
414,191,43064,5,10,0:0:0:0:
414,191,43208,2,0,P|368:238|306:188,1,128.767503045496,2|0,1:0|0:0,0:0:0:0:
306,198,43495,2,0,P|327:157|333:109,1,85.8450020303307,2|8,1:0|0:0,0:0:0:0:
173,42,43782,2,0,P|192:79|200:121,1,85.8450020303307,2|0,0:0|1:0,0:0:0:0:
85,228,44069,2,0,P|46:232|4:193,1,85.8450020303307,2|8,1:0|0:0,0:0:0:0:
99,107,44356,1,2,0:0:0:0:
169,262,44500,6,0,P|224:244|345:246,1,171.690004060661,0|10,1:0|0:0,0:0:0:0:
433,359,44930,1,0,0:0:0:0:
433,359,45074,2,0,P|405:319|396:256,1,85.8450020303307,2|0,1:0|1:0,0:0:0:0:
500,177,45361,1,10,0:0:0:0:
425,51,45504,6,0,P|476:121|477:198,1,128.767503045496,2|0,1:0|0:0,0:0:0:0:
449,184,45791,2,0,P|458:146|433:101,1,85.8450020303307,2|8,1:0|0:0,0:0:0:0:
302,52,46079,2,0,P|263:70|200:81,1,85.8450020303307,2|0,0:0|1:0,0:0:0:0:
63,74,46366,2,0,P|104:83|143:101,1,85.8450020303307,2|8,0:0|0:0,0:0:0:0:
213,170,46653,1,2,3:0:0:0:
17,252,46796,6,0,P|37:164|51:68,1,171.690004060661,6|10,1:0|0:0,0:0:0:0:
166,242,47227,2,0,P|213:257|259:226,1,85.8450020303307,2|0,0:0|1:0,0:0:0:0:
287,123,47514,1,0,1:0:0:0:
343,284,47657,1,8,0:0:0:0:
399,114,47801,6,0,P|373:165|350:291,1,171.690004060661,2|0,1:0|1:0,0:0:0:0:
504,322,48232,2,0,P|473:291|412:282,1,85.8450020303307,10|0,0:0|0:0,0:0:0:0:
239,376,48519,2,0,P|198:364|168:333,1,85.8450020303307,2|0,1:0|1:0,0:0:0:0:
121,155,48806,2,0,P|134:195|138:252,1,85.8450020303307,10|0,0:0|1:0,0:0:0:0:
261,98,49093,2,0,P|248:138|244:195,1,85.8450020303307,2|0,1:0|1:0,0:0:0:0:
407,53,49380,1,14,0:0:0:0:
407,53,49523,2,0,P|420:93|424:150,1,85.8450020303307,2|0,1:0|1:0,0:0:0:0:
285,13,49811,2,0,P|239:2|182:32,1,85.8450020303307,14|0,0:0|1:0,0:0:0:0:
133,158,50098,1,2,1:0:0:0:
45,18,50241,6,0,L|59:116,1,85.8450020303307,8|0,0:0|1:0,0:0:0:0:
23,250,50528,1,8,0:0:0:0:
23,250,50600,1,8,0:0:0:0:
23,250,50672,2,0,L|84:234,1,42.9225010151654,8|8,0:0|0:0,0:0:0:0:
143,275,50815,2,0,P|104:281|83:252,3,68.1449986482468,10|10|10|10,0:0|3:0|3:0|3:0,0:0:0:0:
196,170,51390,6,0,B|274:191|213:249|314:274,1,153.990001292336,6|2,1:0|0:0,0:0:0:0:
369,194,51820,2,0,P|299:225|295:160,1,153.990001292336,2|2,1:0|1:0,0:0:0:0:
466,108,52251,1,8,0:0:0:0:
466,108,52394,2,0,P|455:183|446:274,1,153.990001292336,2|0,1:0|1:0,0:0:0:0:
380,344,52825,2,0,P|340:349|288:361,1,76.9950006461678,0|0,0:0|1:0,0:0:0:0:
285,337,53040,1,0,1:0:0:0:
285,337,53112,1,10,0:0:0:0:
177,339,53256,1,2,1:0:0:0:
285,251,53399,2,0,P|300:211|278:176,1,76.9950006461678,10|10,0:0|3:0,0:0:0:0:
143,166,53686,6,0,L|61:153,1,76.9950006461678,6|0,1:0|1:0,0:0:0:0:
17,261,53973,1,2,0:0:0:0:
17,261,54117,2,0,L|99:248,1,76.9950006461678,2|0,1:0|0:0,0:0:0:0:
155,149,54404,2,0,L|73:136,1,76.9950006461678,2|8,1:0|0:0,0:0:0:0:
239,171,54691,6,0,P|258:125|202:46,1,153.990001292336,2|0,1:0|1:0,0:0:0:0:
176,46,55050,1,0,1:0:0:0:
176,46,55122,2,0,P|218:63|245:92,1,76.9950006461678,8|0,0:0|1:0,0:0:0:0:
312,201,55409,2,0,P|348:188|386:191,1,76.9950006461678,2|0,3:0|1:0,0:0:0:0:
451,312,55696,2,0,P|417:293|379:288,1,76.9950006461678,10|0,0:0|1:0,0:0:0:0:
271,374,55983,6,0,P|282:335|286:295,1,76.9950006461678,2|0,0:0|1:0,0:0:0:0:
188,164,56270,1,12,0:0:0:0:
188,164,56413,1,2,0:0:0:0:
130,273,56557,1,2,1:0:0:0:
130,273,56701,2,0,P|82:280|46:242,1,76.9950006461678,2|0,1:0|0:0,0:0:0:0:
34,131,56988,6,0,B|43:112|43:112|47:172|55:260,1,153.990001292336,2|0,1:0|1:0,0:0:0:0:
120,349,57418,2,0,L|131:264,1,76.9950006461678,2|0,0:0|1:0,0:0:0:0:
282,351,57705,2,0,L|272:274,1,76.9950006461678,2|0,3:0|1:0,0:0:0:0:
252,115,57992,1,10,0:0:0:0:
269,250,58136,1,8,0:0:0:0:
264,89,58279,6,0,P|290:61|354:61,1,76.9950006461678,2|0,1:0|1:0,0:0:0:0:
397,217,58567,2,0,P|360:208|334:180,1,76.9950006461678,12|0,0:0|0:0,0:0:0:0:
420,121,58854,1,0,1:0:0:0:
466,279,58997,2,0,L|457:368,1,76.9950006461678,14|2,0:0|0:0,0:0:0:0:
397,217,59284,1,2,1:0:0:0:
302,345,59427,6,0,L|225:352,1,76.9950006461678,8|0,0:0|1:0,0:0:0:0:
146,178,59715,2,0,L|69:170,1,76.9950006461678,8|0,0:0|1:0,0:0:0:0:
50,189,59930,1,0,1:0:0:0:
50,189,60002,2,0,L|98:194,1,38.4975003230839,10|0,0:0|0:0,0:0:0:0:
178,267,60145,2,0,L|139:263,1,38.4975003230839,10|0,0:0|0:0,0:0:0:0:
246,170,60289,1,10,0:0:0:0:
293,322,60433,1,10,0:0:0:0:
373,152,60576,6,0,L|443:144,1,50.4449993842163,2|0,1:0|1:0,0:0:0:0:
248,66,60863,5,14,0:0:0:0:
248,66,61007,2,0,L|238:159,1,85.8450020303307,2|0,0:0|1:0,0:0:0:0:
79,154,61294,2,0,P|117:127|167:134,1,85.8450020303307,2|8,1:0|0:0,0:0:0:0:
224,261,61581,6,0,P|262:288|350:217,1,171.690004060661,6|0,1:0|1:0,0:0:0:0:
377,63,62012,2,0,P|425:49|468:86,1,85.8450020303307,12|0,0:0|0:0,0:0:0:0:
454,94,62227,1,8,0:0:0:0:
454,94,62299,2,0,L|442:192,1,85.8450020303307,2|2,1:0|1:0,0:0:0:0:
512,332,62586,1,10,0:0:0:0:
377,226,62729,5,2,1:0:0:0:
377,226,62873,2,0,L|389:324,1,85.8450020303307,2|0,0:0|1:0,0:0:0:0:
280,199,63160,1,14,0:0:0:0:
280,199,63303,2,0,P|240:173|188:192,1,85.8450020303307,2|0,0:0|1:0,0:0:0:0:
117,322,63590,2,0,P|151:289|145:234,1,85.8450020303307,2|8,1:0|0:0,0:0:0:0:
74,99,63878,6,0,P|121:151|138:251,1,171.690004060661,2|0,1:0|1:0,0:0:0:0:
176,64,64308,2,0,L|256:52,2,64.383751522748,10|8|8,0:0|0:0|0:0,0:0:0:0:
305,156,64595,2,0,L|224:143,2,64.383751522748,10|8|8,3:0|3:0|3:0,0:0:0:0:
380,32,64882,2,0,L|315:42,2,64.383751522748,10|8|8,3:0|3:0|3:0,0:0:0:0:
482,16,65169,5,8,0:0:0:0:
415,185,65313,1,10,0:0:0:0:
477,44,65457,1,2,3:0:0:0:
477,44,65528,1,8,0:0:0:0:
477,44,65600,2,0,L|484:105,1,42.9225010151654,10|0,0:0|0:0,0:0:0:0:
479,238,65744,1,10,0:0:0:0:
344,125,65887,1,10,0:0:0:0:
379,284,66031,1,8,0:0:0:0:
357,113,66174,6,0,P|311:95|246:95,1,85.8450020303307,10|0,0:0|3:0,0:0:0:0:
253,113,66390,1,8,0:0:0:0:
253,113,66461,2,0,P|213:129|170:134,1,85.8450020303307,8|10,0:0|3:0,0:0:0:0:
38,257,66748,2,0,P|80:261|120:278,1,85.8450020303307,8|2,0:0|3:0,0:0:0:0:
251,379,67035,2,0,P|227:339|221:290,1,85.8450020303307,10|8,0:0|3:0,0:0:0:0:
348,219,67323,5,10,3:0:0:0:
348,219,67394,1,8,3:0:0:0:
348,219,67466,2,0,P|324:259|317:312,1,94.694997110138,12|0,0:0|1:0,0:0:0:0:
262,169,67753,1,0,1:0:0:0:
442,123,67897,2,0,P|466:163|473:216,1,94.694997110138,8|0,0:0|1:0,0:0:0:0:
356,54,68184,1,0,1:0:0:0:
356,54,68256,1,0,1:0:0:0:
356,54,68327,2,0,P|397:14|435:12,1,94.694997110138,8|0,0:0|1:0,0:0:0:0:
262,169,68614,6,0,P|215:172|176:145,1,94.694997110138,12|0,0:0|1:0,0:0:0:0:
96,10,68901,1,8,0:0:0:0:
74,190,69045,1,0,1:0:0:0:
221,16,69188,1,10,0:0:0:0:
250,190,69332,1,10,3:0:0:0:
88,64,69476,2,0,L|82:124,3,47.347498555069,10|8|10|8,0:0|0:0|0:0|0:0,0:0:0:0:
69,211,69763,6,0,P|34:290|130:282,1,207.090000789986,6|10,1:0|0:0,0:0:0:0:
218,127,70193,2,0,P|271:109|330:153,1,103.545000394993,2|0,0:0|1:0,0:0:0:0:
413,291,70480,2,0,P|357:295|310:238,1,103.545000394993,2|8,1:0|0:0,0:0:0:0:
486,84,70768,6,0,P|453:134|424:298,1,207.090000789986,6|0,1:0|1:0,0:0:0:0:
374,90,71198,2,0,P|336:54|270:54,1,103.545000394993,10|0,0:0|0:0,0:0:0:0:
263,66,71413,1,8,0:0:0:0:
263,66,71485,2,0,P|226:101|175:107,1,103.545000394993,2|0,1:0|1:0,0:0:0:0:
12,2,71772,2,0,L|27:145,1,103.545000394993,10|0,0:0|0:0,0:0:0:0:
48,131,71988,5,8,0:0:0:0:
48,131,72059,2,0,L|33:274,1,103.545000394993,6|2,1:0|1:0,0:0:0:0:
146,374,72346,1,8,0:0:0:0:
211,260,72490,2,0,P|260:229|304:252,1,103.545000394993,2|0,0:0|1:0,0:0:0:0:
428,354,72777,2,0,P|380:369|340:338,1,103.545000394993,2|8,1:0|0:0,0:0:0:0:
408,146,73064,6,0,P|344:106|270:209,1,207.090000789986,2|0,1:0|1:0,0:0:0:0:
470,276,73495,2,0,L|489:162,1,103.545000394993,8|0,0:0|0:0,0:0:0:0:
354,30,73782,1,2,1:0:0:0:
229,161,73925,2,0,L|246:263,1,103.545000394993,2|12,1:0|0:0,0:0:0:0:
134,124,74212,6,0,P|92:94|41:96,1,103.545000394993,2|4,3:0|1:0,0:0:0:0:
63,278,74500,1,2,0:0:0:0:
147,95,74643,1,10,0:0:0:0:
246,183,74787,2,0,P|296:184|338:155,1,103.545000394993,2|0,0:0|1:0,0:0:0:0:
397,21,75074,1,2,1:0:0:0:
412,217,75217,1,10,0:0:0:0:
219,159,75361,6,0,P|244:216|263:367,1,207.090000789986,2|2,1:0|1:0,0:0:0:0:
372,214,75791,2,0,P|341:257|270:257,1,103.545000394993,10|2,0:0|1:0,0:0:0:0:
271,243,76007,1,8,0:0:0:0:
271,243,76079,2,0,P|230:208|161:225,1,103.545000394993,0|2,1:0|1:0,0:0:0:0:
108,377,76366,1,10,0:0:0:0:
166,245,76509,1,2,3:0:0:0:
11,131,76653,6,0,P|20:184|28:248,1,103.545000394993,6|2,1:0|1:0,0:0:0:0:
192,35,76940,1,10,0:0:0:0:
44,124,77083,1,10,3:0:0:0:
44,124,77155,1,8,3:0:0:0:
44,124,77227,1,10,0:0:0:0:
215,25,77370,2,0,P|271:29|336:40,1,103.545000394993,2|8,1:0|0:0,0:0:0:0:
425,140,77657,5,2,1:0:0:0:
425,140,77729,1,0,1:0:0:0:
425,140,77801,2,0,L|418:196,1,51.7725001974964,8|8,0:0|0:0,0:0:0:0:
298,253,77945,2,0,L|291:201,1,51.7725001974964,8|8,3:0|3:0,0:0:0:0:
409,282,78088,1,8,0:0:0:0:
207,338,78232,6,0,P|126:315|167:212,1,168.592498713741,4|0,1:0|0:0,0:0:0:0:
118,233,78519,2,0,P|115:322|200:351,1,168.592498713741,6|0,1:0|0:0,0:0:0:0:
207,338,78806,6,0,P|256:322|321:314,1,94.694997110138,6|0,1:0|0:0,0:0:0:0:
408,370,79093,1,2,1:0:0:0:
490,182,79236,2,0,P|441:166|376:158,1,94.694997110138,10|2,0:0|0:0,0:0:0:0:
313,295,79523,1,2,1:0:0:0:
398,159,79667,1,2,1:0:0:0:
405,344,79811,1,10,0:0:0:0:
265,190,79954,6,0,B|167:211|236:280|109:297,1,189.389994220276,2|0,1:0|1:0,0:0:0:0:
19,135,80385,2,0,P|54:170|71:227,1,94.694997110138,8|0,0:0|0:0,0:0:0:0:
104,226,80600,1,8,0:0:0:0:
104,226,80672,2,0,P|121:182|154:149,1,94.694997110138,10|2,0:0|1:0,0:0:0:0:
323,80,80959,1,8,0:0:0:0:
297,188,81102,1,2,0:0:0:0:
398,42,81246,6,0,P|457:30|509:80,1,94.694997110138,0|2,1:0|1:0,0:0:0:0:
385,210,81533,2,0,P|372:255|365:302,1,94.694997110138,10|2,0:0|0:0,0:0:0:0:
219,167,81820,1,2,1:0:0:0:
399,116,81964,2,0,P|411:161|418:208,1,94.694997110138,2|8,1:0|0:0,0:0:0:0:
275,44,82251,6,0,B|223:-9|134:18|134:18|158:23|172:41,1,189.389994220276,2|0,1:0|1:0,0:0:0:0:
120,201,82681,2,0,L|105:95,1,94.694997110138,8|0,0:0|0:0,0:0:0:0:
82,83,82897,1,8,0:0:0:0:
82,83,82968,2,0,L|68:176,1,94.694997110138,2|0,1:0|1:0,0:0:0:0:
128,338,83256,2,0,P|91:325|48:318,1,75.6674990763245,10|0,0:0|0:0,0:0:0:0:
31,342,83543,6,0,P|73:327|121:319,1,94.694997110138,6|0,1:0|1:0,0:0:0:0:
288,378,83830,1,10,0:0:0:0:
203,260,83973,2,0,P|249:267|294:282,1,94.694997110138,2|0,0:0|1:0,0:0:0:0:
427,201,84260,1,2,1:0:0:0:
319,359,84404,1,10,0:0:0:0:
283,171,84547,6,0,P|235:135|127:208,1,189.389994220276,6|0,1:0|1:0,0:0:0:0:
45,338,84978,2,0,P|72:295|70:230,1,94.694997110138,10|0,0:0|0:0,0:0:0:0:
19,81,85265,2,0,P|23:127|49:166,1,94.694997110138,2|0,1:0|1:0,0:0:0:0:
191,201,85552,1,10,0:0:0:0:
191,201,85696,1,10,3:0:0:0:
273,28,85839,6,0,L|387:12,1,94.694997110138,12|2,0:0|1:0,0:0:0:0:
455,195,86126,1,8,0:0:0:0:
389,44,86270,1,0,1:0:0:0:
332,242,86413,2,0,L|218:226,1,94.694997110138,8|0,0:0|1:0,0:0:0:0:
366,141,86701,1,8,0:0:0:0:
412,331,86844,6,0,P|425:280|484:151,1,189.389994220276,4|0,1:0|1:0,0:0:0:0:
462,144,87203,1,0,1:0:0:0:
462,144,87275,2,0,P|481:186|486:239,1,94.694997110138,8|8,0:0|0:0,0:0:0:0:
331,315,87562,2,0,P|305:303|269:295,3,47.347498555069,8|8|8|8,0:0|0:0|0:0|0:0,0:0:0:0:
225,348,87849,1,8,0:0:0:0:
94,205,87992,6,0,P|36:203|85:286,1,189.389994220276,2|2,1:0|1:0,0:0:0:0:
214,232,88423,2,0,P|189:187|182:138,1,94.694997110138,14|2,0:0|3:0,0:0:0:0:
205,121,88638,1,0,3:0:0:0:
205,121,88710,1,2,1:0:0:0:
306,86,88854,1,2,1:0:0:0:
118,17,88997,1,10,0:0:0:0:
325,98,89141,5,2,1:0:0:0:
325,98,89284,2,0,L|460:83,1,94.694997110138,2|0,0:0|1:0,0:0:0:0:
484,241,89571,1,10,0:0:0:0:
484,241,89715,2,0,L|374:228,1,94.694997110138,2|0,3:0|1:0,0:0:0:0:
278,355,90002,2,0,P|310:313|315:260,1,94.694997110138,2|8,1:0|0:0,0:0:0:0:
203,105,90289,6,0,B|122:138|202:213|64:245,1,189.389994220276,6|2,1:0|1:0,0:0:0:0:
54,230,90648,1,0,1:0:0:0:
54,230,90720,2,0,P|62:175|68:117,1,94.694997110138,10|2,0:0|0:0,0:0:0:0:
242,192,91007,1,2,1:0:0:0:
242,192,91150,1,2,1:0:0:0:
205,33,91294,1,10,0:0:0:0:
384,112,91437,5,2,1:0:0:0:
384,112,91581,2,0,L|355:293,1,142.042495665207,2|0,0:0|0:0,0:0:0:0:
374,277,91868,1,10,0:0:0:0:
303,125,92012,2,0,P|262:100|199:116,1,94.694997110138,2|0,0:0|1:0,0:0:0:0:
156,230,92299,2,0,P|202:234|241:209,1,94.694997110138,2|8,1:0|0:0,0:0:0:0:
81,121,92586,6,0,P|108:169|128:319,1,189.389994220276,6|2,1:0|1:0,0:0:0:0:
211,115,93016,1,10,0:0:0:0:
211,115,93160,1,2,0:0:0:0:
275,279,93303,1,2,1:0:0:0:
149,192,93447,1,2,1:0:0:0:
329,124,93590,1,10,0:0:0:0:
175,198,93734,5,2,1:0:0:0:
175,198,93878,2,0,P|154:258|145:358,1,142.042495665207,2|0,3:0|0:0,0:0:0:0:
167,359,94165,2,0,P|218:345|276:336,1,94.694997110138,10|0,0:0|0:0,0:0:0:0:
437,372,94452,1,2,1:0:0:0:
316,283,94595,1,0,1:0:0:0:
491,157,94739,2,0,P|481:202|476:277,1,94.694997110138,10|0,0:0|0:0,0:0:0:0:
396,77,95026,6,0,P|363:52|303:73,1,94.694997110138,6|0,1:0|1:0,0:0:0:0:
209,210,95313,1,10,0:0:0:0:
135,34,95457,2,0,P|87:28|41:73,1,112.394999142494,2|8,1:0|0:0,0:0:0:0:
180,192,95744,1,2,1:0:0:0:
261,10,95887,1,10,0:0:0:0:
380,178,96031,5,2,1:0:0:0:
380,178,96102,1,0,1:0:0:0:
380,178,96174,2,0,L|460:168,1,56.1974995712471,8|8,0:0|0:0,0:0:0:0:
281,268,96318,2,0,L|336:274,1,56.1974995712471,8|8,0:0|0:0,0:0:0:0:
251,129,96461,1,8,0:0:0:0:
126,239,96605,6,0,P|114:154|91:60,1,168.592498713741,8|0,3:0|0:0,0:0:0:0:
84,70,96892,2,0,P|104:152|116:236,1,168.592498713741,8|0,3:0|0:0,0:0:0:0:
126,239,97179,6,0,P|176:204|329:254,1,224.789998284988,4|0,1:0|1:0,0:0:0:0:
465,383,97610,2,0,L|449:268,1,94.694997110138,10|0,0:0|0:0,0:0:0:0:
491,137,97897,1,2,1:0:0:0:
322,244,98040,2,0,L|335:150,1,94.694997110138,2|8,1:0|0:0,0:0:0:0:
209,17,98327,6,0,L|225:218,1,189.389994220276,2|0,1:0|1:0,0:0:0:0:
119,49,98758,2,0,P|87:17|23:17,1,94.694997110138,10|0,0:0|0:0,0:0:0:0:
16,34,98973,1,8,0:0:0:0:
16,34,99045,2,0,P|25:80|34:135,1,94.694997110138,2|0,1:0|1:0,0:0:0:0:
169,282,99332,2,0,P|176:235|186:188,1,94.694997110138,14|0,0:0|1:0,0:0:0:0:
289,328,99619,6,0,P|330:347|373:330,1,94.694997110138,2|0,3:0|1:0,0:0:0:0:
379,297,99834,1,0,1:0:0:0:
379,297,99906,2,0,P|420:277|463:294,1,94.694997110138,10|2,0:0|0:0,0:0:0:0:
297,210,100193,1,8,0:0:0:0:
482,107,100337,2,0,P|471:155|467:215,1,94.694997110138,10|0,0:0|1:0,0:0:0:0:
255,86,100624,6,0,P|195:115|197:237,1,189.389994220276,14|8,0:0|3:0,0:0:0:0:
315,365,101055,1,10,0:0:0:0:
274,199,101198,1,8,0:0:0:0:
161,372,101342,1,10,0:0:0:0:
281,231,101485,1,8,0:0:0:0:
116,203,101629,2,0,P|108:175|106:141,3,47.347498555069,2|0|0|0,1:0|1:0|1:0|1:0,0:0:0:0:
145,70,101916,6,0,L|356:39,1,189.389994220276,14|2,0:0|1:0,0:0:0:0:
373,251,102346,2,0,L|263:226,1,94.694997110138,14|0,0:0|1:0,0:0:0:0:
349,129,102634,1,2,1:0:0:0:
235,299,102777,2,0,L|142:319,1,94.694997110138,14|0,0:0|1:0,0:0:0:0:
231,167,103064,5,2,1:0:0:0:
345,337,103207,2,0,L|437:357,1,94.694997110138,14|0,0:0|1:0,0:0:0:0:
428,204,103495,1,10,0:0:0:0:
428,204,103567,1,8,0:0:0:0:
428,204,103638,1,10,0:0:0:0:
260,290,103782,1,10,0:0:0:0:
260,290,104069,6,0,L|239:91,1,189.389994220276,6|2,1:0|1:0,0:0:0:0:
41,28,104500,1,10,0:0:0:0:
219,108,104643,1,10,3:0:0:0:
93,166,104787,2,0,L|82:270,1,94.694997110138,10|10,3:0|3:0,0:0:0:0:
196,118,105074,1,10,0:0:0:0:
332,235,105217,2,0,L|343:339,1,94.694997110138,6|0,1:0|0:0,0:0:0:0:
412,188,105504,1,0,1:0:0:0:
233,290,105648,2,0,L|222:394,1,94.694997110138,8|4,0:0|1:0,0:0:0:0:
177,204,105935,2,0,P|202:187|238:186,1,47.347498555069,10|8,0:0|0:0,0:0:0:0:
134,298,106079,2,0,P|111:292|92:278,1,47.347498555069,8|8,0:0|0:0,0:0:0:0:
68,127,106222,5,10,0:0:0:0:
68,127,106294,1,8,0:0:0:0:
68,127,106366,2,0,L|86:277,1,136.289997296494,2|0,1:0|1:0,0:0:0:0:
150,82,106796,6,0,P|202:66|288:174,1,189.389994220276,14|8,0:0|3:0,0:0:0:0:
235,252,107227,1,0,1:0:0:0:
394,133,107370,1,8,0:0:0:0:
235,252,107514,6,0,P|185:239|41:224,1,189.389994220276,4|0,1:0|1:0,0:0:0:0:
205,351,107945,2,0,P|254:334|311:318,1,94.694997110138,8|0,0:0|0:0,0:0:0:0:
318,345,108160,1,8,0:0:0:0:
318,345,108232,2,0,P|369:348|414:289,1,94.694997110138,0|0,1:0|1:0,0:0:0:0:
426,146,108519,1,8,0:0:0:0:
254,237,108662,6,0,P|243:178|194:54,1,189.389994220276,0|0,1:0|1:0,0:0:0:0:
188,30,109021,1,0,1:0:0:0:
188,30,109093,2,0,P|213:68|235:139,1,94.694997110138,12|8,0:0|3:0,0:0:0:0:
121,256,109380,1,2,1:0:0:0:
209,130,109523,1,0,1:0:0:0:
232,319,109667,2,0,P|283:325|325:282,1,94.694997110138,8|0,0:0|1:0,0:0:0:0:
339,114,109954,6,0,P|377:88|423:95,1,94.694997110138,2|0,3:0|1:0,0:0:0:0:
330,218,110241,1,10,0:0:0:0:
330,218,110385,2,0,P|284:225|245:199,1,94.694997110138,2|0,0:0|1:0,0:0:0:0:
189,41,110672,1,2,1:0:0:0:
75,196,110815,2,0,L|83:290,1,94.694997110138,12|2,0:0|3:0,0:0:0:0:
133,109,111102,6,0,B|237:148|156:203|258:240,1,189.389994220276,4|8,1:0|0:0,0:0:0:0:
334,80,111533,2,0,P|298:111|282:164,1,94.694997110138,0|0,3:0|1:0,0:0:0:0:
386,232,111820,1,0,1:0:0:0:
323,53,111964,1,8,0:0:0:0:
386,232,112107,6,0,P|392:163|440:45,1,189.389994220276,0|0,1:0|1:0,0:0:0:0:
466,38,112466,1,0,1:0:0:0:
466,38,112538,2,0,P|493:27|520:27,3,47.347498555069,8|8|10|8,0:0|0:0|0:0|3:0,0:0:0:0:
511,152,112825,2,0,P|470:139|398:132,1,94.694997110138,8|8,0:0|3:0,0:0:0:0:
395,155,113040,1,8,3:0:0:0:
395,155,113112,2,0,P|418:157|440:166,3,47.347498555069,10|8|8|8,0:0|0:0|0:0|0:0,0:0:0:0:
352,281,113399,6,0,P|314:260|253:249,1,94.694997110138,14|0,0:0|1:0,0:0:0:0:
163,320,113686,1,2,1:0:0:0:
275,152,113830,2,0,P|233:165|184:202,1,94.694997110138,10|0,0:0|1:0,0:0:0:0:
156,334,114117,1,2,1:0:0:0:
109,137,114261,2,0,P|90:176|83:237,1,94.694997110138,8|2,0:0|1:0,0:0:0:0:
193,140,114547,5,0,1:0:0:0:
259,300,114691,2,0,L|357:279,1,94.694997110138,8|2,0:0|1:0,0:0:0:0:
384,272,114906,1,0,1:0:0:0:
384,272,114978,1,0,1:0:0:0:
471,126,115122,2,0,L|373:105,1,94.694997110138,10|0,0:0|1:0,0:0:0:0:
271,273,115409,2,0,L|363:253,1,94.694997110138,10|0,0:0|1:0,0:0:0:0:
199,181,115696,6,0,P|164:134|160:63,1,94.694997110138,14|0,0:0|1:0,0:0:0:0:
179,76,115911,1,0,1:0:0:0:
179,76,115983,1,2,1:0:0:0:
40,216,116126,2,0,P|75:169|79:98,1,94.694997110138,10|0,0:0|1:0,0:0:0:0:
58,110,116342,1,0,1:0:0:0:
58,110,116413,1,2,1:0:0:0:
159,256,116557,2,0,P|212:268|267:222,1,94.694997110138,8|2,0:0|1:0,0:0:0:0:
284,119,116844,5,0,1:0:0:0:
390,283,116988,2,0,L|400:167,1,94.694997110138,8|0,0:0|1:0,0:0:0:0:
495,119,117275,1,0,1:0:0:0:
275,24,117418,2,0,L|283:118,1,94.694997110138,10|0,0:0|1:0,0:0:0:0:
101,226,117705,2,0,L|109:132,1,94.694997110138,10|0,0:0|1:0,0:0:0:0:
292,211,117992,6,0,L|300:305,1,94.694997110138,14|0,0:0|1:0,0:0:0:0:
305,338,118208,1,0,1:0:0:0:
305,338,118279,1,2,1:0:0:0:
383,173,118423,2,0,P|415:141|490:141,1,94.694997110138,10|0,0:0|1:0,0:0:0:0:
389,279,118710,1,2,1:0:0:0:
306,123,118854,2,0,P|274:91|199:91,1,94.694997110138,8|2,0:0|1:0,0:0:0:0:
203,105,119069,5,0,1:0:0:0:
203,105,119141,1,0,1:0:0:0:
160,264,119284,2,0,P|205:255|239:223,1,94.694997110138,8|2,0:0|1:0,0:0:0:0:
233,189,119500,1,0,1:0:0:0:
233,189,119571,1,0,1:0:0:0:
51,273,119715,2,0,P|59:318|91:352,1,94.694997110138,10|8,0:0|0:0,0:0:0:0:
273,312,120002,2,0,P|235:283|189:281,1,94.694997110138,10|8,0:0|0:0,0:0:0:0:
389,384,120289,6,0,L|375:235,1,142.042495665207,14|8,0:0|0:0,0:0:0:0:
399,219,120576,1,10,3:0:0:0:
250,67,120720,2,0,L|236:208,1,142.042495665207,10|8,0:0|3:0,0:0:0:0:
260,231,121007,1,10,3:0:0:0:
360,74,121150,2,0,P|420:63|482:130,1,142.042495665207,8|0,0:0|0:0,0:0:0:0:
479,131,121437,6,0,L|489:211,2,71.0212478326035,8|8|8,0:0|0:0|0:0,0:0:0:0:
378,225,121724,2,0,L|385:153,2,71.0212478326035,8|8|8,3:0|3:0|3:0,0:0:0:0:
276,139,122012,2,0,L|282:211,2,71.0212478326035,10|8|8,3:0|3:0|3:0,0:0:0:0:
207,252,122299,5,10,0:0:0:0:
207,252,122586,6,0,P|163:281|94:248,1,94.694997110138,6|0,1:0|0:0,0:0:0:0:
68,115,122873,2,0,P|114:111|151:139,1,94.694997110138,8|0,0:0|0:0,0:0:0:0:
207,243,123160,2,0,P|163:272|94:239,1,94.694997110138,0|0,1:0|0:0,0:0:0:0:
68,106,123447,2,0,P|114:102|151:130,1,94.694997110138,10|0,0:0|0:0,0:0:0:0:
337,218,123734,6,0,L|348:120,1,94.694997110138,0|0,1:0|0:0,0:0:0:0:
232,21,124021,2,0,L|242:115,1,94.694997110138,8|0,0:0|3:0,0:0:0:0:
346,207,124308,2,0,L|357:109,1,94.694997110138,2|0,1:0|0:0,0:0:0:0:
241,10,124595,2,0,L|251:104,1,94.694997110138,10|0,0:0|0:0,0:0:0:0:
379,9,124882,6,0,P|437:-1|476:28,1,94.694997110138,6|0,1:0|0:0,0:0:0:0:
495,174,125169,1,10,0:0:0:0:
495,174,125313,2,0,P|437:184|398:155,1,94.694997110138,2|0,0:0|1:0,0:0:0:0:
378,20,125600,2,0,P|436:10|475:39,1,94.694997110138,2|8,0:0|0:0,0:0:0:0:
399,138,125887,1,2,0:0:0:0:
273,26,126031,6,0,L|265:135,1,94.694997110138,0|0,1:0|0:0,0:0:0:0:
170,231,126318,2,0,L|176:325,1,94.694997110138,8|0,0:0|3:0,0:0:0:0:
199,349,126533,1,0,3:0:0:0:
199,349,126605,2,0,P|253:358|290:312,1,94.694997110138,2|0,1:0|0:0,0:0:0:0:
278,217,126892,2,0,P|239:191|195:202,1,94.694997110138,10|0,0:0|0:0,0:0:0:0:
12,316,127179,6,0,L|1:201,1,94.694997110138,14|2,0:0|1:0,0:0:0:0:
27,197,127394,1,0,1:0:0:0:
27,197,127466,1,2,1:0:0:0:
170,308,127610,2,0,L|179:213,1,94.694997110138,10|2,0:0|1:0,0:0:0:0:
283,93,127897,1,10,3:0:0:0:
308,283,128040,2,0,L|298:188,1,94.694997110138,12|2,0:0|1:0,0:0:0:0:
363,54,128327,1,8,3:0:0:0:
206,139,128471,6,0,L|111:129,1,94.694997110138,12|2,0:0|1:0,0:0:0:0:
87,106,128686,1,0,1:0:0:0:
87,106,128758,1,0,1:0:0:0:
275,3,128901,2,0,L|180:12,1,94.694997110138,10|8,0:0|0:0,0:0:0:0:
329,151,129189,1,10,0:0:0:0:
406,3,129332,1,8,0:0:0:0:
511,202,129476,6,0,P|486:182|443:177,2,71.0212478326035,10|8|8,0:0|3:0|3:0,0:0:0:0:
389,292,129763,2,0,P|419:286|449:254,2,71.0212478326035,8|8|8,3:0|3:0|3:0,0:0:0:0:
325,237,130050,2,0,P|308:263|306:306,2,71.0212478326035,8|8|8,3:0|3:0|3:0,0:0:0:0:
315,150,130337,2,0,P|284:155|252:182,2,71.0212478326035,2|8|8,1:0|3:0|3:0,0:0:0:0:
403,189,130624,5,10,0:0:0:0:
410,206,131772,5,4,1:0:0:0:
232,62,138519,5,0,1:0:0:0:
232,62,138590,1,0,1:0:0:0:
232,62,138662,2,0,L|221:146,1,68.1449986482468,8|0,0:0|0:0,0:0:0:0:
345,239,138949,2,0,L|336:171,1,68.1449986482468,8|8,0:0|3:0,0:0:0:0:
250,286,139236,1,8,0:0:0:0:
329,151,139380,1,8,0:0:0:0:
158,130,139523,1,8,0:0:0:0:
256,263,139667,1,8,0:0:0:0:
341,129,139811,6,0,L|387:119,3,42.9225010151654,8|8|8|8,0:0|0:0|0:0|0:0,0:0:0:0:
243,106,140098,2,0,L|197:96,3,42.9225010151654,8|8|8|8,0:0|3:0|3:0|3:0,0:0:0:0:
141,30,140385,5,8,0:0:0:0:
93,207,140528,1,8,0:0:0:0:
147,6,140672,1,8,0:0:0:0:
194,189,140815,1,8,0:0:0:0:
298,19,140959,6,0,P|358:1|422:93,1,189.389994220276,6|0,1:0|0:0,0:0:0:0:
327,195,141390,1,2,1:0:0:0:
216,38,141533,2,0,P|181:10|114:19,1,94.694997110138,14|0,0:0|0:0,0:0:0:0:
57,125,141820,1,2,1:0:0:0:
261,107,141964,6,0,P|252:155|247:209,1,94.694997110138,2|4,1:0|3:2,0:0:0:0:
333,304,142251,1,0,1:0:0:0:
166,235,142394,2,0,P|175:283|180:337,1,94.694997110138,2|0,0:0|1:0,0:0:0:0:
171,352,142610,1,0,1:0:0:0:
171,352,142681,2,0,P|222:359|265:329,1,94.694997110138,14|8,0:0|3:0,0:0:0:0:
300,177,142969,1,0,1:0:0:0:
255,308,143112,1,8,3:0:0:0:
223,126,143256,6,0,P|143:94|111:197,1,189.389994220276,4|0,1:0|0:0,0:0:0:0:
233,217,143686,1,0,1:0:0:0:
297,42,143830,2,0,P|380:23|462:24,1,142.042495665207,14|0,0:0|0:0,0:0:0:0:
452,39,144117,2,0,P|443:85|435:140,1,94.694997110138,2|2,1:0|1:0,0:0:0:0:
452,150,144332,5,2,1:0:0:0:
452,150,144404,1,6,3:2:0:0:
359,243,144547,1,2,1:0:0:0:
359,243,144619,1,2,3:0:0:0:
359,243,144691,2,0,L|261:224,1,94.694997110138,2|2,0:0|1:0,0:0:0:0:
246,246,144906,5,2,1:0:0:0:
246,246,144978,1,14,0:0:0:0:
139,370,145122,1,2,1:0:0:0:
89,192,145265,1,10,0:0:0:0:
163,283,145409,1,0,1:0:0:0:
227,75,145552,6,0,B|333:99|258:170|390:188,1,189.389994220276,6|0,1:0|0:0,0:0:0:0:
395,57,145983,1,2,1:0:0:0:
216,169,146126,2,0,P|167:184|100:141,1,94.694997110138,14|0,0:0|0:0,0:0:0:0:
90,54,146413,1,2,1:0:0:0:
21,232,146557,6,0,L|3:120,1,94.694997110138,2|4,1:0|3:2,0:0:0:0:
108,38,146844,1,0,1:0:0:0:
216,169,146988,2,0,L|200:262,1,94.694997110138,2|0,0:0|1:0,0:0:0:0:
179,280,147203,5,0,1:0:0:0:
179,280,147275,1,14,0:0:0:0:
305,215,147418,1,8,3:0:0:0:
157,295,147562,1,0,1:0:0:0:
347,352,147705,1,8,3:0:0:0:
294,192,147849,6,0,L|278:313,1,94.694997110138,12|0,0:0|1:0,0:0:0:0:
379,134,148136,1,8,3:0:0:0:
183,58,148279,2,0,L|199:179,1,94.694997110138,12|10,0:0|3:0,0:0:0:0:
290,11,148567,1,10,3:0:0:0:
89,0,148710,5,14,0:0:0:0:
89,0,148782,1,2,1:0:0:0:
89,0,148854,2,0,L|73:121,1,94.694997110138,2|10,1:0|3:0,0:0:0:0:
185,257,149141,1,14,0:0:0:0:
160,119,149285,1,8,3:0:0:0:
188,272,149427,1,8,3:0:0:0:
286,109,149571,1,12,0:0:0:0:
309,105,149642,1,8,0:0:0:0:
332,101,149714,1,8,0:0:0:0:
356,97,149786,1,8,0:0:0:0:
379,93,149858,2,0,L|373:165,1,47.347498555069,8|8,0:0|0:0,0:0:0:0:
314,251,150002,2,0,L|311:204,1,47.347498555069,8|8,0:0|0:0,0:0:0:0:
455,79,150145,6,0,L|445:199,1,94.694997110138,6|8,1:0|3:0,0:0:0:0:
322,330,150433,1,0,1:0:0:0:
232,253,150576,1,10,3:0:0:0:
95,364,150720,2,0,P|140:351|173:318,1,94.694997110138,14|0,0:0|1:0,0:0:0:0:
64,147,151007,6,0,L|84:242,1,94.694997110138,2|0,1:0|1:0,0:0:0:0:
141,68,151294,2,0,P|177:41|234:51,1,94.694997110138,4|8,3:2|3:0,0:0:0:0:
336,202,151581,2,0,P|289:206|252:179,1,94.694997110138,2|0,1:0|1:0,0:0:0:0:
249,150,151796,1,0,1:0:0:0:
249,150,151868,1,12,0:0:0:0:
415,64,152012,2,0,L|401:162,1,94.694997110138,8|0,3:0|1:0,0:0:0:0:
320,60,152299,1,8,3:0:0:0:
466,224,152442,6,0,L|442:29,1,189.389994220276,4|2,1:0|3:0,0:0:0:0:
378,172,152873,1,2,1:0:0:0:
251,26,153016,2,0,L|134:12,1,94.694997110138,14|2,0:0|1:0,0:0:0:0:
128,32,153232,1,2,0:0:0:0:
128,32,153303,2,0,L|179:38,1,47.347498555069,2|2,1:0|3:0,0:0:0:0:
347,61,153495,5,2,3:0:0:0:
326,43,153590,2,0,L|331:117,1,47.347498555069,6|0,1:0|0:0,0:0:0:0:
341,221,153734,1,10,0:0:0:0:
341,221,153806,1,2,0:0:0:0:
341,221,153878,2,0,P|362:206|396:199,1,47.347498555069,2|2,0:0|0:0,0:0:0:0:
313,320,154021,2,0,P|290:312|271:298,1,47.347498555069,2|2,1:0|1:0,0:0:0:0:
201,155,154165,2,0,P|146:155|103:202,1,94.694997110138,14|2,0:0|0:0,0:0:0:0:
49,342,154452,2,0,L|40:225,1,94.694997110138,10|0,0:0|1:0,0:0:0:0:
93,61,154739,6,0,P|129:32|208:50,1,94.694997110138,12|0,0:0|1:0,0:0:0:0:
266,158,155026,1,8,3:0:0:0:
419,38,155169,2,0,P|383:9|304:27,1,94.694997110138,12|0,0:0|1:0,0:0:0:0:
260,122,155457,1,8,3:0:0:0:
439,48,155600,6,0,P|450:99|455:160,1,94.694997110138,12|0,0:0|1:0,0:0:0:0:
319,35,155887,1,8,3:0:0:0:
393,213,156031,2,0,P|382:264|377:325,1,94.694997110138,12|0,0:0|1:0,0:0:0:0:
294,165,156318,1,0,1:0:0:0:
294,165,156390,1,0,1:0:0:0:
294,165,156461,2,0,P|257:137|181:146,1,94.694997110138,8|0,0:0|1:0,0:0:0:0:
123,315,156748,2,0,P|169:311|206:283,1,94.694997110138,4|0,1:0|1:0,0:0:0:0:
71,161,157035,6,0,L|57:34,1,94.694997110138,12|0,0:0|1:0,0:0:0:0:
2,217,157323,1,8,3:0:0:0:
156,98,157466,2,0,L|170:-29,1,94.694997110138,12|0,0:0|1:0,0:0:0:0:
257,140,157753,1,8,3:0:0:0:
120,267,157897,2,0,P|77:257|25:254,1,94.694997110138,12|0,0:0|1:0,0:0:0:0:
169,121,158184,5,8,3:0:0:0:
306,248,158328,2,0,P|349:238|401:235,1,94.694997110138,12|0,0:0|1:0,0:0:0:0:
486,129,158614,1,8,3:0:0:0:
307,0,158758,2,0,L|322:113,1,94.694997110138,12|8,0:0|0:0,0:0:0:0:
300,115,158973,1,8,0:0:0:0:
300,115,159045,1,8,0:0:0:0:
377,273,159189,1,8,0:0:0:0:
417,58,159332,5,10,0:0:0:0:
338,198,159476,1,0,1:0:0:0:
338,198,159547,1,0,1:0:0:0:
338,198,159619,1,8,0:0:0:0:
270,63,159763,1,0,1:0:0:0:
270,63,159834,1,0,1:0:0:0:
270,63,159906,1,10,0:0:0:0:
197,216,160050,2,0,L|184:98,1,94.694997110138,10|2,0:0|1:0,0:0:0:0:
67,293,160337,6,0,L|80:175,1,94.694997110138,10|2,0:0|1:0,0:0:0:0:
104,180,160552,1,2,1:0:0:0:
104,180,160624,1,10,0:0:0:0:
191,301,160768,1,2,1:0:0:0:
191,301,160839,1,2,1:0:0:0:
191,301,160911,1,10,0:0:0:0:
259,150,161055,2,0,P|299:131|365:158,1,94.694997110138,10|2,0:0|1:0,0:0:0:0:
420,281,161342,1,10,0:0:0:0:
420,281,161413,1,8,0:0:0:0:
420,281,161485,2,0,L|411:207,1,47.347498555069,10|8,0:0|0:0,0:0:0:0:
488,67,161629,6,0,L|482:145,1,71.0212478326035,10|8,0:0|0:0,0:0:0:0:
382,27,161844,1,10,3:0:0:0:
382,27,161916,2,0,P|355:11|285:43,1,94.694997110138,10|0,3:0|1:0,0:0:0:0:
288,60,162131,1,10,3:0:0:0:
288,60,162203,2,0,P|245:77|206:60,1,71.0212478326035,10|8,3:0|3:0,0:0:0:0:
120,16,162418,1,10,3:0:0:0:
120,16,162490,2,0,P|128:60|137:130,1,94.694997110138,2|2,1:0|1:0,0:0:0:0:
119,131,162705,5,10,3:0:0:0:
119,131,162777,1,10,0:0:0:0:
178,151,163925,5,6,1:0:0:0:
33,258,172251,6,0,L|98:244,1,50.4449993842163,0|8,1:0|3:0,0:0:0:0:
82,247,172537,1,2,0:0:0:0:
230,340,172681,6,0,L|124:323,1,100.889998768433,10|10,3:0|3:0,0:0:0:0:
162,177,173399,6,0,P|187:158|228:154,1,50.4449993842163,0|0,1:0|0:0,0:0:0:0:
325,213,173686,2,0,P|301:205|281:188,1,50.4449993842163,0|0,1:0|0:0,0:0:0:0:
275,57,173973,2,0,P|278:88|261:125,1,50.4449993842163,0|0,1:0|0:0,0:0:0:0:
153,29,174260,6,0,P|132:17|94:20,1,50.4449993842163,8|0,3:0|0:0,0:0:0:0:
48,146,174547,2,0,P|73:145|94:132,1,50.4449993842163,0|0,1:0|0:0,0:0:0:0:
155,20,174834,2,0,P|134:8|96:11,1,50.4449993842163,0|0,1:0|0:0,0:0:0:0:
46,139,175121,2,0,P|71:138|92:125,1,50.4449993842163,0|0,1:0|0:0,0:0:0:0:
229,55,175409,6,0,P|253:52|286:70,1,50.4449993842163,8|0,3:0|0:0,0:0:0:0:
277,204,175696,2,0,P|254:193|239:172,1,50.4449993842163,0|0,1:0|0:0,0:0:0:0:
230,45,175983,2,0,P|254:42|287:60,1,50.4449993842163,0|0,1:0|0:0,0:0:0:0:
282,199,176270,2,0,P|259:188|244:167,1,50.4449993842163,0|0,1:0|0:0,0:0:0:0:
411,94,176557,5,12,0:0:0:0:
411,94,176844,5,8,0:0:0:0:
291,146,176987,1,8,0:0:0:0:
460,218,177131,1,10,0:0:0:0:
272,155,177275,1,8,0:0:0:0:
447,78,177418,5,10,0:0:0:0:
445,93,177489,1,8,0:0:0:0:
443,108,177561,1,8,0:0:0:0:
442,123,177633,1,8,0:0:0:0:
440,138,177705,2,0,L|445:183,1,37.8337495381622,10|8,0:0|0:0,0:0:0:0:
361,256,177921,1,8,0:0:0:0:
361,256,177992,2,0,P|338:244|305:244,1,50.4449993842163,10|2,3:0|1:0,0:0:0:0:
256,296,178208,1,8,3:0:0:0:
269,302,178279,2,0,L|275:254,1,37.8337495381622,8|8,3:0|3:0,0:0:0:0:
178,208,178495,1,8,3:0:0:0:
188,197,178567,2,0,L|193:249,1,50.4449993842163,2|2,1:0|1:0,0:0:0:0:
224,55,178854,6,0,L|258:49,1,25.2224996921082,8|8,0:0|0:0,0:0:0:0:
154,114,178997,2,0,L|120:108,1,25.2224996921082,8|8,0:0|0:0,0:0:0:0:
312,156,179141,6,0,L|325:234,1,68.1449986482468,10|0,3:0|1:0,0:0:0:0:
435,92,179428,2,0,L|422:170,1,68.1449986482468,10|0,3:0|1:0,0:0:0:0:
285,90,179715,2,0,L|296:157,1,68.1449986482468,2|2,1:0|1:0,0:0:0:0:
187,293,180002,5,12,0:0:0:0:
129,119,180145,2,0,P|98:90|40:90,1,85.8450020303307,8|8,0:0|0:0,0:0:0:0:
163,215,180433,1,12,0:0:0:0:
212,39,180576,2,0,P|243:10|301:10,1,85.8450020303307,8|0,0:0|1:0,0:0:0:0:
421,149,180863,5,12,0:0:0:0:
278,86,181007,2,0,L|269:190,1,85.8450020303307,8|10,0:0|3:0,0:0:0:0:
249,336,181294,1,8,0:0:0:0:
111,210,181437,1,10,0:0:0:0:
264,318,181581,2,0,L|363:302,1,85.8450020303307,6|0,1:0|3:0,0:0:0:0:
270,171,181868,5,2,1:0:0:0:
270,171,182155,6,0,B|159:192|256:280|100:300,1,207.090000789986,6|2,1:0|1:0,0:0:0:0:
42,82,182586,1,10,0:0:0:0:
130,205,182729,1,2,0:0:0:0:
166,41,182873,1,2,1:0:0:0:
284,219,183016,2,0,P|335:221|376:177,1,103.545000394993,2|8,1:0|0:0,0:0:0:0:
303,17,183303,5,2,3:0:0:0:
303,17,183375,1,0,3:0:0:0:
303,17,183447,2,0,L|293:130,1,103.545000394993,0|0,1:0|1:0,0:0:0:0:
454,239,183734,2,0,L|444:135,1,103.545000394993,8|0,0:0|0:0,0:0:0:0:
366,293,184021,1,2,1:0:0:0:
292,138,184165,2,0,P|252:107|178:122,1,103.545000394993,2|8,1:0|0:0,0:0:0:0:
174,265,184452,6,0,B|200:291|200:291|183:113,1,207.090000789986,4|0,1:0|0:0,0:0:0:0:
39,27,184882,1,10,0:0:0:0:
105,180,185026,1,2,0:0:0:0:
181,11,185169,2,0,P|238:11|279:52,1,103.545000394993,2|2,1:0|1:0,0:0:0:0:
325,220,185457,1,10,0:0:0:0:
231,134,185600,1,2,0:0:0:0:
398,51,185744,6,0,L|524:38,1,103.545000394993,0|0,1:0|1:0,0:0:0:0:
427,230,186031,2,0,L|324:219,1,103.545000394993,8|0,0:0|0:0,0:0:0:0:
258,60,186318,1,2,1:0:0:0:
394,146,186461,1,2,1:0:0:0:
248,241,186605,1,8,0:0:0:0:
161,57,186748,6,0,P|96:48|61:192,1,207.090000789986,6|2,1:0|1:0,0:0:0:0:
184,295,187179,1,10,0:0:0:0:
163,135,187323,1,2,0:0:0:0:
95,332,187466,2,0,P|59:362|-6:358,1,103.545000394993,2|2,1:0|1:0,0:0:0:0:
38,158,187753,1,10,0:0:0:0:
149,267,187897,1,2,1:0:0:0:
186,63,188040,2,0,P|222:33|287:37,1,103.545000394993,2|0,3:0|1:0,0:0:0:0:
424,152,188327,6,0,P|415:202|409:254,1,103.545000394993,10|0,0:0|0:0,0:0:0:0:
261,359,188614,2,0,P|255:307|246:256,1,103.545000394993,2|0,1:0|1:0,0:0:0:0:
412,145,188901,2,0,P|403:195|397:247,1,103.545000394993,10|0,0:0|0:0,0:0:0:0:
274,99,189189,6,0,P|232:82|172:117,1,103.545000394993,6|0,1:0|1:0,0:0:0:0:
136,277,189476,1,10,0:0:0:0:
43,121,189619,1,10,3:0:0:0:
43,121,189691,1,8,3:0:0:0:
43,121,189763,2,0,P|55:171|65:231,1,103.545000394993,8|2,0:0|1:0,0:0:0:0:
181,104,190050,1,10,0:0:0:0:
261,282,190193,5,2,1:0:0:0:
261,282,190265,1,0,1:0:0:0:
261,282,190337,2,0,L|323:271,1,51.7725001974964,8|8,0:0|0:0,0:0:0:0:
355,153,190480,2,0,L|304:162,1,51.7725001974964,8|8,3:0|3:0,0:0:0:0:
237,286,190624,1,8,0:0:0:0:
292,142,190768,1,0,1:0:0:0:
416,282,190911,5,8,0:0:0:0:
442,97,191055,1,12,0:0:0:0:
402,255,191198,1,8,0:0:0:0:
313,72,191342,6,0,B|255:48|201:72|233:120|175:145|121:120,1,207.090000789986,0|0,1:0|1:0,0:0:0:0:
121,106,191701,1,0,1:0:0:0:
121,106,191772,2,0,P|168:108|208:65,1,94.694997110138,14|0,0:0|0:0,0:0:0:0:
55,28,192059,5,2,1:0:0:0:
15,183,192203,2,0,P|7:135|0:89,1,94.694997110138,2|8,1:0|0:0,0:0:0:0:
115,239,192490,2,0,P|150:268|196:266,1,94.694997110138,2|0,1:0|3:0,0:0:0:0:
262,151,192777,1,0,1:0:0:0:
386,285,192921,6,0,P|351:254|294:254,1,94.694997110138,10|0,0:0|0:0,0:0:0:0:
174,373,193208,2,0,P|220:369|255:338,1,94.694997110138,2|0,1:0|1:0,0:0:0:0:
148,177,193495,2,0,P|167:229|180:284,1,94.694997110138,10|0,0:0|0:0,0:0:0:0:
342,125,193782,2,0,P|324:169|313:214,1,94.694997110138,2|0,1:0|1:0,0:0:0:0:
245,67,194069,5,10,0:0:0:0:
417,165,194212,2,0,P|471:154|539:145,1,94.694997110138,2|0,0:0|1:0,0:0:0:0:
389,292,194500,2,0,P|335:281|267:272,1,94.694997110138,2|8,1:0|0:0,0:0:0:0:
252,119,194787,2,0,P|317:163|260:256,1,189.389994220276,2|0,1:0|1:0,0:0:0:0:
91,285,195217,2,0,P|56:243|63:171,1,94.694997110138,8|0,0:0|0:0,0:0:0:0:
187,38,195504,1,2,1:0:0:0:
151,207,195648,1,2,1:0:0:0:
104,24,195791,2,0,L|4:6,1,94.694997110138,14|2,0:0|0:0,0:0:0:0:
225,127,196079,6,0,L|377:99,1,142.042495665207,10|0,0:0|3:0,0:0:0:0:
391,128,196366,2,0,L|326:141,1,47.347498555069,2|0,1:0|1:0,0:0:0:0:
262,271,196509,1,14,0:0:0:0:
402,221,196653,1,10,3:0:0:0:
402,221,196724,1,8,3:0:0:0:
402,221,196796,2,0,L|355:211,1,47.347498555069,8|8,3:0|3:0,0:0:0:0:
250,297,196940,1,10,0:0:0:0:
110,137,197083,6,0,P|137:186|161:328,1,189.389994220276,6|0,1:0|1:0,0:0:0:0:
131,338,197442,1,0,1:0:0:0:
131,338,197514,2,0,P|85:357|25:322,1,94.694997110138,10|8,0:0|3:0,0:0:0:0:
134,148,197801,5,10,0:0:0:0:
58,308,197945,1,8,0:0:0:0:
24,113,198088,1,10,0:0:0:0:
72,281,198232,1,8,0:0:0:0:
170,70,198375,6,0,L|305:47,1,94.694997110138,14|0,0:0|3:0,0:0:0:0:
420,154,198662,1,2,1:0:0:0:
420,154,198734,1,0,1:0:0:0:
420,154,198806,1,10,0:0:0:0:
277,27,198949,2,0,L|183:42,1,94.694997110138,8|2,3:0|1:0,0:0:0:0:
176,64,199165,1,0,1:0:0:0:
176,64,199236,1,8,0:0:0:0:
341,198,199380,2,0,P|405:180|414:51,1,189.389994220276,6|8,1:0|0:0,0:0:0:0:
277,27,199811,6,0,L|290:89,3,47.347498555069,10|8|8|8,3:0|3:0|3:0|3:0,0:0:0:0:
247,146,200098,1,10,0:0:0:0:
247,146,200169,1,8,0:0:0:0:
247,146,200241,2,0,L|237:212,1,47.347498555069,8|8,0:0|0:0,0:0:0:0:
174,289,200385,5,2,1:0:0:0:
164,267,200456,1,0,1:0:0:0:
149,249,200528,1,0,1:0:0:0:
130,235,200600,1,0,1:0:0:0:
108,226,200672,2,0,P|114:274|119:337,1,94.694997110138,14|0,0:0|1:0,0:0:0:0:
29,185,200959,1,2,1:0:0:0:
214,69,201102,2,0,P|207:117|203:180,1,94.694997110138,14|0,0:0|1:0,0:0:0:0:
125,27,201390,1,2,1:0:0:0:
302,127,201533,6,0,P|352:110|413:100,1,94.694997110138,14|0,0:0|1:0,0:0:0:0:
219,46,201820,1,2,1:0:0:0:
353,226,201964,2,0,P|303:209|242:199,1,94.694997110138,14|0,0:0|1:0,0:0:0:0:
137,312,202251,5,2,1:0:0:0:
96,117,202394,1,10,0:0:0:0:
147,289,202538,1,10,0:0:0:0:
147,289,202825,6,0,L|358:259,1,189.389994220276,2|10,1:0|3:0,0:0:0:0:
412,376,203256,1,10,0:0:0:0:
366,263,203399,1,10,3:0:0:0:
484,191,203543,2,0,L|470:310,1,94.694997110138,10|10,3:0|3:0,0:0:0:0:
333,161,203830,5,10,0:0:0:0:
493,32,203973,1,6,1:0:0:0:
493,32,204691,6,0,L|345:16,1,136.289997296494,2|2,3:0|3:0,0:0:0:0:
219,143,205122,6,0,P|144:179|80:90,1,189.389994220276,6|0,1:0|1:0,0:0:0:0:
320,13,205552,2,0,P|304:60|295:119,1,94.694997110138,8|0,0:0|3:0,0:0:0:0:
319,128,205768,1,0,3:0:0:0:
319,128,205839,2,0,P|335:175|344:234,1,94.694997110138,0|0,1:0|1:0,0:0:0:0:
256,330,206126,1,8,0:0:0:0:
173,175,206270,6,0,B|79:193|137:265|20:283,1,189.389994220276,0|0,1:0|1:0,0:0:0:0:
193,355,206701,2,0,P|235:334|282:327,1,94.694997110138,8|0,0:0|3:0,0:0:0:0:
301,347,206916,1,0,3:0:0:0:
301,347,206988,2,0,P|309:289|325:230,1,94.694997110138,0|0,1:0|1:0,0:0:0:0:
463,140,207275,1,8,0:0:0:0:
288,264,207418,6,0,P|271:158|250:64,1,189.389994220276,4|0,1:0|1:0,0:0:0:0:
217,66,207777,1,0,1:0:0:0:
217,66,207849,2,0,P|229:108|239:164,1,94.694997110138,8|0,0:0|0:0,0:0:0:0:
321,21,208136,1,2,1:0:0:0:
259,168,208279,1,2,1:0:0:0:
345,8,208423,1,10,0:0:0:0:
466,179,208567,6,0,P|425:166|360:158,1,94.694997110138,2|0,1:0|0:0,0:0:0:0:
275,276,208854,1,2,1:0:0:0:
205,100,208997,1,10,0:0:0:0:
178,214,209141,1,2,0:0:0:0:
298,135,209284,1,0,1:0:0:0:
298,135,209356,1,0,1:0:0:0:
298,135,209428,2,0,L|303:79,1,47.347498555069,2|0,1:0|1:0,0:0:0:0:
172,42,209571,2,0,L|176:89,1,47.347498555069,8|0,0:0|0:0,0:0:0:0:
40,223,209715,6,0,L|57:10,1,189.389994220276,6|0,1:0|1:0,0:0:0:0:
148,189,210145,2,0,P|204:189|246:139,1,94.694997110138,8|0,0:0|0:0,0:0:0:0:
298,16,210433,1,0,1:0:0:0:
365,188,210576,1,0,1:0:0:0:
303,0,210720,1,8,0:0:0:0:
383,192,210863,6,0,P|448:199|476:82,1,189.389994220276,2|0,1:0|1:0,0:0:0:0:
281,13,211294,2,0,P|228:84|283:153,1,189.389994220276,8|2,0:0|1:0,0:0:0:0:
385,47,211724,1,0,1:0:0:0:
308,237,211868,1,8,0:0:0:0:
212,75,212012,6,0,P|119:64|20:56,1,189.389994220276,6|0,1:0|1:0,0:0:0:0:
98,252,212442,1,8,0:0:0:0:
86,86,212586,1,0,1:0:0:0:
230,228,212729,1,8,0:0:0:0:
102,116,212873,1,0,1:0:0:0:
297,83,213016,1,8,0:0:0:0:
220,257,213160,6,0,P|209:156|196:48,1,189.389994220276,0|0,1:0|1:0,0:0:0:0:
389,22,213590,2,0,P|378:70|369:147,1,94.694997110138,8|0,0:0|3:0,0:0:0:0:
389,139,213806,1,0,3:0:0:0:
389,139,213878,1,2,1:0:0:0:
492,254,214021,1,2,1:0:0:0:
468,90,214165,1,10,0:0:0:0:
351,273,214308,6,0,B|261:244|331:169|207:149,1,189.389994220276,6|0,1:0|1:0,0:0:0:0:
174,324,214739,2,0,P|202:282|213:217,1,94.694997110138,8|0,0:0|0:0,0:0:0:0:
41,130,215026,2,0,P|67:168|79:214,1,94.694997110138,0|0,1:0|1:0,0:0:0:0:
169,43,215313,1,8,0:0:0:0:
308,231,215457,6,0,B|407:190|328:127|452:107,1,189.389994220276,0|0,1:0|1:0,0:0:0:0:
236,5,215887,2,0,P|271:67|287:159,1,142.042495665207,8|0,0:0|3:0,0:0:0:0:
274,158,216174,1,2,1:0:0:0:
122,117,216318,1,0,1:0:0:0:
291,47,216461,1,8,0:0:0:0:
247,248,216605,6,0,P|164:226|52:221,1,189.389994220276,6|0,1:0|1:0,0:0:0:0:
38,240,216964,1,0,1:0:0:0:
38,240,217035,2,0,P|90:234|152:242,1,94.694997110138,8|0,0:0|0:0,0:0:0:0:
270,354,217323,1,0,1:0:0:0:
244,166,217466,1,0,1:0:0:0:
264,372,217610,1,10,0:0:0:0:
338,171,217753,6,0,P|398:155|445:286,1,189.389994220276,2|0,1:0|1:0,0:0:0:0:
272,280,218184,2,0,P|290:237|296:179,1,94.694997110138,8|0,0:0|3:0,0:0:0:0:
196,120,218471,2,0,P|220:132|255:138,1,47.347498555069,0|0,1:0|1:0,0:0:0:0:
292,14,218614,2,0,P|269:19|248:30,1,47.347498555069,0|0,1:0|1:0,0:0:0:0:
348,127,218758,1,8,0:0:0:0:
144,21,218901,6,0,P|178:109|188:209,1,189.389994220276,4|0,1:0|1:0,0:0:0:0:
12,273,219332,2,0,P|65:223|127:278,1,142.042495665207,8|0,0:0|0:0,0:0:0:0:
119,276,219619,5,2,1:0:0:0:
202,125,219763,1,2,1:0:0:0:
269,313,219906,1,10,0:0:0:0:
348,127,220050,6,0,P|430:122|457:228,1,189.389994220276,6|0,1:0|1:0,0:0:0:0:
369,356,220480,2,0,P|296:355|289:272,1,142.042495665207,10|0,0:0|0:0,0:0:0:0:
294,279,220767,5,2,1:0:0:0:
413,161,220911,1,2,1:0:0:0:
220,145,221055,1,10,0:0:0:0:
418,274,221198,6,0,L|444:73,1,189.389994220276,6|0,1:0|1:0,0:0:0:0:
285,207,221629,2,0,P|238:201|206:167,1,94.694997110138,10|0,0:0|1:0,0:0:0:0:
207,9,221916,2,0,P|160:14|128:47,1,94.694997110138,10|2,0:0|1:0,0:0:0:0:
132,76,222131,1,0,1:0:0:0:
132,76,222203,1,10,0:0:0:0:
294,109,222346,1,14,0:0:0:0:
125,231,222490,5,8,0:0:0:0:
262,99,222634,1,8,0:0:0:0:
262,289,222777,1,10,0:0:0:0:
111,138,222921,6,0,P|64:157|48:288,1,189.389994220276,0|10,1:0|0:0,0:0:0:0:
266,198,223351,2,0,P|232:167|165:169,1,94.694997110138,6|0,1:0|3:0,0:0:0:0:
322,325,223638,6,0,P|375:307|451:299,1,94.694997110138,12|0,0:0|1:0,0:0:0:0:
486,168,223925,1,0,1:0:0:0:
268,42,224069,2,0,P|279:96|278:173,1,94.694997110138,14|0,0:0|1:0,0:0:0:0:
401,209,224356,1,0,1:0:0:0:
196,124,224500,2,0,P|184:178|185:255,1,94.694997110138,12|0,0:0|1:0,0:0:0:0:
269,321,224787,1,0,1:0:0:0:
88,212,224930,2,0,P|99:266|98:343,1,94.694997110138,12|0,0:0|1:0,0:0:0:0:
267,187,225217,1,0,1:0:0:0:
51,105,225361,5,8,0:0:0:0:
262,61,225504,1,8,0:0:0:0:
262,61,225791,6,0,P|315:48|369:42,1,94.694997110138,4|0,1:0|0:0,0:0:0:0:
449,166,226079,1,0,1:0:0:0:
320,15,226222,1,8,0:0:0:0:
299,220,226366,1,8,3:0:0:0:
299,220,226653,5,8,3:0:0:0:
136,146,226796,1,8,0:0:0:0:
248,334,226940,2,0,P|293:322|340:315,1,94.694997110138,4|0,1:0|0:0,0:0:0:0:
145,251,227227,5,0,1:0:0:0:
145,251,227299,1,8,0:0:0:0:
145,251,227370,2,0,P|152:298|158:364,1,94.694997110138,8|8,0:0|0:0,0:0:0:0:
252,162,227657,1,8,0:0:0:0:
56,88,227801,2,0,P|38:174|25:293,1,189.389994220276,8|8,3:0|0:0,0:0:0:0:
151,124,228232,5,6,1:0:0:0:
