osu file format v14

[General]
AudioFilename: audio.mp3
AudioLeadIn: 0
PreviewTime: 163279
Countdown: 0
SampleSet: Soft
StackLeniency: 0.4
Mode: 0
LetterboxInBreaks: 0
WidescreenStoryboard: 0

[Editor]
Bookmarks: 121437,161629,177705
DistanceSpacing: 1.4
BeatDivisor: 8
GridSize: 32
TimelineZoom: 1.599996

[Metadata]
Title:Hyousou wa Hakuen o Matoite
TitleUnicode:氷奏は白焔を纏いて
Artist:ELFENSJoN
ArtistUnicode:ELFENSJóN
Creator:SMOKELIND
Version:Endless
Source:
Tags:Neko Keqing iljaaz Kalibe Sagiri Featured Artist Mappers' Guild MG MPG EINHERJAR FA Rock J-Rock JRock Japanese JP
BeatmapID:2761831
BeatmapSetID:1332833

[Difficulty]
HPDrainRate:5.7
CircleSize:4.2
OverallDifficulty:8.7
ApproachRate:9.7
SliderMultiplier:2.07
SliderTickRate:1

[Events]
//Background and Video events
0,0,"Neko.jpg",0,0
//Break Periods
2,164212,171533
//Storyboard Layer 0 (Background)
//Storyboard Layer 1 (Fail)
//Storyboard Layer 2 (Pass)
//Storyboard Layer 3 (Foreground)
//Storyboard Layer 4 (Overlay)
//Storyboard Sound Samples

[TimingPoints]
863,287.081339712919,4,2,7,47,1,0
863,-212.765957446809,4,2,7,47,0,0
14356,-370.370370370372,4,2,7,47,0,0
14643,-175.438596491228,4,2,7,77,0,0
15648,-129.87012987013,4,2,7,77,0,0
19236,-93.4579439252337,4,2,7,77,0,0
32729,-175.438596491228,4,2,7,77,0,0
33303,-129.87012987013,4,2,7,57,0,0
40911,-93.4579439252337,4,2,7,77,0,0
42059,-103.092783505155,4,2,7,77,0,0
51390,-114.942528735632,4,2,7,67,0,0
60576,-175.438596491228,4,2,7,77,0,0
60863,-103.092783505155,4,2,7,77,0,0
67466,-93.4579439252339,4,2,7,77,0,0
69763,-85.4700854700855,4,2,7,87,0,0
78232,-68.0272108843537,4,2,7,87,0,0
78806,-93.4579439252336,4,2,7,87,0,0
83256,-175.438596491228,4,2,7,87,0,0
83543,-93.4579439252336,4,2,7,87,0,0
94452,-78.7401574803149,4,2,7,87,0,0
94739,-114.942528735632,4,2,7,87,0,0
95313,-78.7401574803149,4,2,7,87,0,0
97610,-93.4579439252336,4,2,7,87,0,0
106366,-129.87012987013,4,2,7,77,0,0
106796,-93.4579439252336,4,2,7,77,0,0
122299,-129.87012987013,4,2,7,77,0,0
122586,-93.4579439252336,4,2,7,77,0,0
131772,-212.765957446809,4,2,7,57,0,0
134643,-588.23529411765,4,2,7,47,0,0
138662,-129.87012987013,4,2,7,67,0,0
139811,-103.092783505155,4,2,7,77,0,0
140959,-93.4579439252336,4,2,7,77,0,0
163925,-93.4579439252336,4,2,7,47,0,0
172251,-175.438596491228,4,2,7,67,0,0
179141,-129.87012987013,4,2,7,67,0,0
181868,-588.23529411765,4,2,7,87,0,0
182155,-85.4700854700855,4,2,7,87,0,0
191772,-93.4579439252336,4,2,7,87,0,0
204260,-129.87012987013,4,2,7,67,0,0
205122,-93.4579439252337,4,2,7,77,0,0
228232,-370.37037037037,4,2,7,77,0,0
228303,-370.37037037037,4,2,7,7,0,0

[Colours]
Combo1 : 255,255,170
Combo2 : 255,198,170

[HitObjects]
74,103,5457,6,0,B|126:89|178:103|139:168|191:181|243:168,1,194.579997030945,2|2,1:0|0:0,0:0:0:0:
392,42,6461,6,0,L|377:205,1,145.934997773209,2|0,0:0|0:0,0:0:0:0:
368,271,7179,6,0,L|354:125,1,145.934997773209,2|0,0:0|0:0,0:0:0:0:
354,125,7753,6,0,P|305:185|195:137,1,194.579997030945,2|2,0:0|0:0,0:0:0:0:
139,78,8758,6,0,P|230:80|263:166,1,194.579997030945,2|0,0:0|0:0,0:0:0:0:
263,166,9476,2,0,L|90:197,1,170.257497402077,2|0,0:0|0:0,0:0:0:0:
80,189,10050,6,0,B|115:254|124:338|124:338|131:281,1,194.579997030945,2|2,0:0|0:0,0:0:0:0:
303,158,11055,2,0,B|268:223|259:307|259:307|252:250,1,194.579997030945,2|0,0:0|0:0,0:0:0:0:
257,92,12346,6,0,P|303:60|350:67,1,97.2899985154724,2|2,0:0|0:0,0:0:0:0:
389,146,12777,1,2,0:0:0:0:
389,146,12921,2,0,P|371:163|337:160,1,48.6449992577362,2|2,0:0|0:0,0:0:0:0:
160,115,13351,2,0,P|178:133|186:164,1,48.6449992577362,2|0,0:0|0:0,0:0:0:0:
62,236,13782,5,2,0:0:0:0:
132,283,14069,1,2,0:0:0:0:
188,222,14356,2,0,P|205:210|234:205,1,41.9175010233765,10|0,0:0|0:0,0:0:0:0:
296,232,14643,6,0,P|236:204|310:44,1,294.974996399231,6|2,1:0|0:0,0:0:0:0:
474,235,15648,6,0,P|441:191|366:230,1,119.542497628704,6|0,1:0|0:0,0:0:0:0:
380,210,15935,2,0,P|435:200|471:245,1,119.542497628704,4|0,1:0|0:0,0:0:0:0:
466,254,16222,1,0,1:0:0:0:
405,314,16366,1,2,3:0:0:0:
286,209,16509,1,2,1:0:0:0:
286,209,16581,1,0,1:0:0:0:
286,209,16653,1,10,0:0:0:0:
245,282,16796,1,10,3:0:0:0:
189,89,16940,5,6,1:0:0:0:
286,209,17227,5,2,3:0:0:0:
52,262,17370,1,10,3:0:0:0:
300,365,17514,5,8,0:0:0:0:
137,297,17657,1,10,0:0:0:0:
382,149,17801,5,8,0:0:0:0:
216,330,17945,1,10,0:0:0:0:
243,62,18088,5,8,0:0:0:0:
334,278,18232,1,8,0:0:0:0:
420,31,18375,5,8,0:0:0:0:
203,249,18519,1,8,0:0:0:0:
93,9,18662,5,10,0:0:0:0:
250,69,18806,1,2,1:0:0:0:
250,69,18878,1,0,1:0:0:0:
250,69,18949,1,10,0:0:0:0:
190,226,19093,1,10,3:0:0:0:
33,166,19236,1,14,0:0:0:0:
351,121,19380,6,0,L|367:295,1,166.117494930496,8|0,0:0|3:0,0:0:0:0:
366,286,19667,1,8,0:0:0:0:
170,217,19811,2,0,L|159:334,1,110.744996620331,10|0,0:0|1:0,0:0:0:0:
263,173,20098,1,10,0:0:0:0:
77,0,20241,2,0,P|13:37|42:173,1,221.489993240662,6|0,1:0|1:0,0:0:0:0:
32,166,20600,1,0,1:0:0:0:
32,166,20672,1,10,0:0:0:0:
148,131,20815,1,0,3:0:0:0:
236,30,20959,5,10,0:0:0:0:
209,34,21030,1,8,0:0:0:0:
182,37,21102,1,8,0:0:0:0:
154,41,21174,1,8,0:0:0:0:
127,44,21246,5,10,0:0:0:0:
166,50,21318,1,8,0:0:0:0:
203,55,21390,1,10,0:0:0:0:
241,60,21462,1,8,0:0:0:0:
277,63,21533,6,0,L|260:194,1,110.744996620331,4|2,1:0|1:0,0:0:0:0:
464,351,21820,5,8,0:0:0:0:
258,198,21964,1,0,1:0:0:0:
361,274,22107,5,8,0:0:0:0:
119,364,22251,1,8,3:0:0:0:
242,319,22394,5,8,0:0:0:0:
0,216,22538,2,0,B|25:140|40:46|40:46|34:82|52:100,1,221.489993240662,4|0,1:0|1:0,0:0:0:0:
180,27,22968,1,8,0:0:0:0:
180,27,23040,1,8,0:0:0:0:
180,27,23112,2,0,P|148:37|130:76,1,55.3724983101654,0|0,1:0|1:0,0:0:0:0:
253,146,23256,6,0,P|234:126|207:119,1,55.3724983101654,8|8,0:0|0:0,0:0:0:0:
194,257,23399,2,0,P|195:229|182:205,1,55.3724983101654,8|8,0:0|0:0,0:0:0:0:
73,296,23543,2,0,P|94:278|102:252,1,55.3724983101654,8|8,0:0|0:0,0:0:0:0:
188,353,23686,5,0,1:0:0:0:
188,353,23758,1,0,1:0:0:0:
188,353,23830,2,0,B|247:364|274:306|274:306|306:292|349:295,1,166.117494930496,2|0,0:0|1:0,0:0:0:0:
331,294,24117,1,12,0:0:0:0:
293,207,24260,1,0,3:0:0:0:
293,207,24332,1,0,3:0:0:0:
293,207,24404,1,0,1:0:0:0:
357,125,24547,1,0,1:0:0:0:
161,70,24691,5,10,0:0:0:0:
203,0,24834,2,0,P|185:72|171:241,1,221.489993240662,2|0,1:0|1:0,0:0:0:0:
11,316,25265,2,0,P|46:274|114:265,1,110.744996620331,8|0,0:0|0:0,0:0:0:0:
98,262,25480,1,0,3:0:0:0:
98,262,25552,1,0,1:0:0:0:
174,338,25696,1,0,1:0:0:0:
351,255,25839,2,0,L|366:134,1,110.744996620331,8|0,0:0|0:0,0:0:0:0:
178,71,26126,5,0,1:0:0:0:
262,0,26270,1,0,1:0:0:0:
262,0,26342,1,0,1:0:0:0:
262,0,26413,2,0,L|275:109,1,110.744996620331,10|0,0:0|0:0,0:0:0:0:
194,247,26701,1,2,1:0:0:0:
273,187,26844,1,0,1:0:0:0:
435,312,26988,5,10,0:0:0:0:
392,384,27131,2,0,L|410:143,1,221.489993240662,2|0,1:0|1:0,0:0:0:0:
280,340,27562,2,0,P|242:369|157:348,1,110.744996620331,10|0,0:0|0:0,0:0:0:0:
181,365,27777,1,0,3:0:0:0:
181,365,27849,1,2,1:0:0:0:
140,231,27992,1,0,1:0:0:0:
291,93,28136,5,14,0:0:0:0:
245,196,28279,1,0,1:0:0:0:
122,117,28423,6,0,P|51:150|23:234,1,166.117494930496,2|0,0:0|0:0,0:0:0:0:
22,228,28710,1,12,0:0:0:0:
396,186,28997,6,0,P|372:175|333:166,1,55.3724983101654,12|0,0:0|0:0,0:0:0:0:
344,168,29141,1,0,1:0:0:0:
282,315,29284,2,0,P|306:304|345:295,1,55.3724983101654,2|0,1:0|0:0,0:0:0:0:
221,112,29428,6,0,B|207:92|188:81|188:81|103:154|167:282,1,221.489993240662,14|0,0:0|1:0,0:0:0:0:
360,372,29858,2,0,P|426:357|459:296,1,110.744996620331,8|0,0:0|0:0,0:0:0:0:
393,91,30145,5,0,1:0:0:0:
462,164,30289,1,0,1:0:0:0:
245,241,30433,1,8,0:0:0:0:
266,130,30576,1,0,3:0:0:0:
69,29,30720,5,4,1:0:0:0:
114,214,30863,1,8,3:0:0:0:
84,12,31007,6,0,L|71:131,1,110.744996620331,12|0,0:0|1:0,0:0:0:0:
71,122,31222,1,8,0:0:0:0:
71,122,31294,1,8,0:0:0:0:
271,252,31437,1,8,3:0:0:0:
63,353,31581,1,8,3:0:0:0:
204,146,31724,1,10,0:0:0:0:
304,163,31868,5,8,0:0:0:0:
304,163,31940,1,8,0:0:0:0:
158,252,32083,1,8,0:0:0:0:
158,252,32155,1,10,0:0:0:0:
331,377,32299,1,14,0:0:0:0:
276,278,32442,1,2,1:0:0:0:
480,113,32586,5,8,0:0:0:0:
376,275,32729,2,0,L|271:265,1,88.4924989197693,6|0,1:0|0:0,0:0:0:0:
276,278,33016,5,4,1:0:0:0:
75,18,33303,6,0,P|106:46|117:133,1,119.542497628704,10|0,0:0|0:0,0:0:0:0:
120,119,33590,1,2,1:0:0:0:
44,275,33734,1,0,1:0:0:0:
37,183,33878,5,2,3:0:0:0:
37,183,34021,2,0,L|44:276,1,79.6949984191361,2|0,1:0|0:0,0:0:0:0:
199,335,34308,1,2,1:0:0:0:
199,335,34380,1,0,1:0:0:0:
199,335,34452,1,8,0:0:0:0:
257,206,34595,2,0,L|352:189,1,79.6949984191361,2|0,1:0|0:0,0:0:0:0:
421,281,34882,1,2,1:0:0:0:
493,88,35026,2,0,L|398:71,1,79.6949984191361,8|2,0:0|0:0,0:0:0:0:
216,45,35313,5,0,1:0:0:0:
216,45,35457,1,0,1:0:0:0:
151,243,35600,2,0,P|117:274|63:267,1,79.6949984191361,10|0,0:0|0:0,0:0:0:0:
190,142,35887,1,2,1:0:0:0:
190,142,36031,1,0,1:0:0:0:
287,293,36174,5,2,0:0:0:0:
287,293,36318,2,0,P|364:318|395:228,1,159.389996838272,2|2,1:0|1:0,0:0:0:0:
403,262,36677,1,0,1:0:0:0:
403,262,36748,1,8,0:0:0:0:
355,113,36892,2,0,P|341:151|336:203,1,79.6949984191361,2|0,1:0|0:0,0:0:0:0:
291,66,37179,1,2,1:0:0:0:
217,215,37323,1,8,0:0:0:0:
217,215,37466,1,2,0:0:0:0:
224,15,37610,6,0,P|248:61|265:152,1,119.542497628704,6|0,1:0|0:0,0:0:0:0:
263,126,37897,1,10,0:0:0:0:
217,215,38040,1,2,0:0:0:0:
95,90,38184,1,0,1:0:0:0:
95,90,38327,2,0,L|115:224,1,119.542497628704,0|0,1:0|0:0,0:0:0:0:
112,208,38614,1,0,1:0:0:0:
286,335,38758,6,0,L|293:233,1,79.6949984191361,0|0,3:0|1:0,0:0:0:0:
291,255,38973,1,0,1:0:0:0:
291,255,39045,1,8,0:0:0:0:
380,170,39189,1,0,1:0:0:0:
380,170,39332,2,0,P|346:147|299:142,1,79.6949984191361,2|0,0:0|1:0,0:0:0:0:
444,253,39619,2,0,P|411:275|372:281,1,79.6949984191361,10|0,0:0|0:0,0:0:0:0:
497,45,39906,6,0,L|484:163,1,119.542497628704,6|0,1:0|0:0,0:0:0:0:
484,163,40193,1,10,0:0:0:0:
409,50,40337,2,0,P|377:24|322:29,1,79.6949984191361,2|0,0:0|1:0,0:0:0:0:
282,141,40624,2,0,P|250:167|195:162,1,79.6949984191361,2|0,1:0|0:0,0:0:0:0:
38,51,40911,6,0,B|9:37|14:0|14:0|115:0|62:198,1,276.862491550827,14|0,0:0|0:0,0:0:0:0:
67,176,41342,5,10,0:0:0:0:
299,280,41485,1,10,0:0:0:0:
413,126,41629,5,10,0:0:0:0:
184,230,41772,1,10,0:0:0:0:
371,384,41916,5,8,0:0:0:0:
378,376,41988,1,8,0:0:0:0:
385,368,42059,2,0,L|400:185,1,150.592503561682,0|0,1:0|0:0,0:0:0:0:
391,211,42346,2,0,L|384:280,1,50.1975011872273,0|0,1:0|0:0,0:0:0:0:
346,76,42490,6,0,P|385:45|463:59,1,100.395002374455,14|0,0:0|0:0,0:0:0:0:
391,211,42777,2,0,P|341:209|303:178,1,100.395002374455,2|0,1:0|1:0,0:0:0:0:
98,61,43064,1,10,0:0:0:0:
211,0,43208,2,0,P|218:52|228:154,1,150.592503561682,2|0,1:0|0:0,0:0:0:0:
214,162,43495,1,2,1:0:0:0:
403,277,43638,1,8,0:0:0:0:
409,206,43782,2,0,P|362:190|302:168,1,100.395002374455,2|0,0:0|1:0,0:0:0:0:
219,329,44069,2,0,P|268:327|306:296,1,100.395002374455,2|8,1:0|0:0,0:0:0:0:
156,230,44356,1,2,0:0:0:0:
407,140,44500,5,0,1:0:0:0:
303,178,44643,1,0,1:0:0:0:
493,320,44787,2,0,L|509:189,1,100.395002374455,10|0,0:0|0:0,0:0:0:0:
300,87,45074,2,0,L|312:186,1,100.395002374455,2|0,1:0|1:0,0:0:0:0:
453,10,45361,1,10,0:0:0:0:
200,136,45504,6,0,B|32:116|32:116|99:85,1,200.790004748909,2|2,1:0|1:0,0:0:0:0:
214,21,45935,1,8,0:0:0:0:
273,160,46079,2,0,L|262:259,1,100.395002374455,2|0,0:0|1:0,0:0:0:0:
40,363,46366,2,0,L|29:263,1,100.395002374455,2|8,0:0|0:0,0:0:0:0:
135,173,46653,1,2,3:0:0:0:
308,358,46796,6,0,P|353:329|421:317,1,100.395002374455,6|0,1:0|1:0,0:0:0:0:
487,107,47083,1,10,0:0:0:0:
370,178,47227,2,0,P|284:130|167:122,1,200.790004748909,2|0,0:0|1:0,0:0:0:0:
58,327,47657,1,8,0:0:0:0:
127,56,47801,6,0,P|159:141|173:266,1,200.790004748909,2|0,1:0|1:0,0:0:0:0:
252,46,48232,2,0,P|297:26|368:14,1,100.395002374455,10|0,0:0|0:0,0:0:0:0:
127,159,48519,2,0,P|82:139|11:127,1,100.395002374455,2|0,1:0|1:0,0:0:0:0:
315,104,48806,2,0,P|301:160|292:215,1,100.395002374455,10|0,0:0|1:0,0:0:0:0:
403,348,49093,5,2,1:0:0:0:
375,237,49236,1,0,1:0:0:0:
190,369,49380,5,14,0:0:0:0:
296,323,49523,1,2,1:0:0:0:
205,254,49667,1,0,1:0:0:0:
330,79,49811,6,0,L|435:56,1,100.395002374455,14|0,0:0|1:0,0:0:0:0:
264,165,50098,1,2,1:0:0:0:
89,6,50241,2,0,L|187:27,1,100.395002374455,8|0,0:0|1:0,0:0:0:0:
24,145,50528,1,8,0:0:0:0:
27,174,50599,1,8,0:0:0:0:
30,204,50671,1,8,0:0:0:0:
34,234,50743,1,8,0:0:0:0:
37,264,50815,1,10,0:0:0:0:
118,324,50959,5,10,3:0:0:0:
191,256,51102,1,10,3:0:0:0:
273,313,51246,1,10,3:0:0:0:
289,184,51390,6,0,B|298:155|298:155|286:310,1,180.090001511375,6|2,1:0|0:0,0:0:0:0:
380,192,51820,2,0,P|352:159|298:154,1,90.0450007556877,2|0,1:0|0:0,0:0:0:0:
389,290,52107,2,0,P|432:282|461:249,1,90.0450007556877,2|8,1:0|0:0,0:0:0:0:
441,49,52394,1,2,1:0:0:0:
441,49,52538,2,0,B|352:61|427:147|284:153,1,180.090001511375
174,21,52968,1,0,1:0:0:0:
174,21,53040,1,0,1:0:0:0:
174,21,53112,1,10,0:0:0:0:
232,130,53256,1,2,1:0:0:0:
69,225,53399,1,10,0:0:0:0:
107,138,53543,1,10,3:0:0:0:
216,329,53686,6,0,L|346:309,1,90.0450007556877,6|0,1:0|1:0,0:0:0:0:
414,160,53973,1,2,0:0:0:0:
414,160,54117,2,0,P|393:196|384:251,1,90.0450007556877,2|0,1:0|0:0,0:0:0:0:
251,121,54404,2,0,P|272:157|281:212,1,90.0450007556877,2|8,1:0|0:0,0:0:0:0:
382,53,54691,2,0,P|449:46|506:142,1,180.090001511375,2|0,1:0|1:0,0:0:0:0:
507,130,55050,1,0,1:0:0:0:
507,130,55122,1,8,0:0:0:0:
451,201,55265,1,0,1:0:0:0:
505,272,55409,1,2,3:0:0:0:
438,332,55552,1,0,1:0:0:0:
262,161,55696,5,10,0:0:0:0:
356,182,55839,1,0,1:0:0:0:
289,255,55983,1,2,0:0:0:0:
237,68,56126,1,0,1:0:0:0:
60,218,56270,6,0,L|73:307,1,90.0450007556877,12|2,0:0|0:0,0:0:0:0:
148,148,56557,1,2,1:0:0:0:
17,133,56701,1,2,1:0:0:0:
85,194,56844,1,0,0:0:0:0:
202,9,56988,6,0,L|209:108,1,90.0450007556877,2|0,1:0|0:0,0:0:0:0:
373,202,57275,1,0,1:0:0:0:
301,60,57418,2,0,L|294:159,1,90.0450007556877,2|0,0:0|1:0,0:0:0:0:
294,149,57634,1,0,1:0:0:0:
294,149,57705,1,2,3:0:0:0:
395,217,57849,1,0,1:0:0:0:
211,284,57992,1,10,0:0:0:0:
237,103,58136,1,8,0:0:0:0:
325,342,58279,6,0,P|388:354|449:273,1,135.067501133532,2|0,1:0|0:0,0:0:0:0:
439,299,58567,2,0,P|387:339|323:328,1,135.067501133532,12|0,0:0|0:0,0:0:0:0:
325,310,58854,1,0,1:0:0:0:
371,50,58997,5,14,0:0:0:0:
261,161,59141,1,2,0:0:0:0:
419,199,59284,1,2,1:0:0:0:
199,10,59428,5,8,0:0:0:0:
339,184,59571,1,0,1:0:0:0:
247,69,59715,5,8,0:0:0:0:
98,238,59858,2,0,L|110:293,1,45.0225003778439,0|0,1:0|1:0,0:0:0:0:
323,161,60002,5,10,0:0:0:0:
129,108,60145,1,10,0:0:0:0:
79,300,60289,1,10,0:0:0:0:
270,351,60433,1,10,0:0:0:0:
199,230,60576,6,0,L|190:332,1,88.4924989197693,2|0,1:0|1:0,0:0:0:0:
182,332,60863,6,0,L|194:189,1,100.395002374455,14|2,0:0|0:0,0:0:0:0:
87,46,61150,1,0,1:0:0:0:
65,154,61294,1,2,1:0:0:0:
292,279,61437,1,8,0:0:0:0:
258,78,61581,6,0,P|309:36|393:73,1,150.592503561682,6|0,1:0|0:0,0:0:0:0:
383,59,61868,1,0,1:0:0:0:
456,292,62012,2,0,P|422:253|349:236,1,100.395002374455,12|0,0:0|0:0,0:0:0:0:
377,235,62227,1,8,0:0:0:0:
377,235,62299,1,2,1:0:0:0:
312,377,62442,1,2,1:0:0:0:
140,195,62586,1,10,0:0:0:0:
246,220,62729,1,2,1:0:0:0:
23,357,62873,6,0,L|12:253,1,100.395002374455,2|0,0:0|1:0,0:0:0:0:
216,60,63160,1,14,0:0:0:0:
143,13,63303,2,0,L|132:112,1,100.395002374455,2|0,0:0|1:0,0:0:0:0:
296,33,63590,1,2,1:0:0:0:
220,298,63734,1,8,0:0:0:0:
107,91,63878,6,0,L|137:295,1,200.790004748909,2|0,1:0|1:0,0:0:0:0:
163,305,64236,1,0,1:0:0:0:
168,286,64308,2,0,P|191:260|235:248,1,75.2962517808409,10|8,0:0|0:0,0:0:0:0:
304,359,64523,1,8,0:0:0:0:
285,377,64595,2,0,P|254:363|235:328,1,75.2962517808409,10|8,3:0|3:0,0:0:0:0:
295,158,64811,1,8,3:0:0:0:
311,169,64882,2,0,L|317:262,1,75.2962517808409,10|8,3:0|3:0,0:0:0:0:
445,329,65098,1,8,3:0:0:0:
459,314,65169,6,0,P|446:298|402:293,1,50.1975011872273,8|0,0:0|0:0,0:0:0:0:
204,343,65313,2,0,P|227:336|244:318,1,50.1975011872273,10|0,0:0|0:0,0:0:0:0:
91,198,65457,1,2,3:0:0:0:
95,217,65528,1,8,0:0:0:0:
97,236,65600,6,0,L|106:166,1,50.1975011872273,10|0,0:0|0:0,0:0:0:0:
366,17,65744,2,0,L|372:66,1,50.1975011872273,10|0,0:0|0:0,0:0:0:0:
186,228,65887,1,10,0:0:0:0:
447,106,66031,6,0,L|434:180,1,50.1975011872273,8|0,0:0|0:0,0:0:0:0:
152,36,66174,2,0,L|165:110,1,50.1975011872273,10|0,0:0|0:0,0:0:0:0:
348,226,66318,1,0,3:0:0:0:
351,206,66390,1,8,0:0:0:0:
355,186,66461,1,8,0:0:0:0:
272,122,66605,1,10,3:0:0:0:
109,322,66748,6,0,L|42:311,1,50.1975011872273,8|0,0:0|0:0,0:0:0:0:
186,228,66892,1,2,3:0:0:0:
403,382,67035,2,0,L|470:371,1,50.1975011872273,10|0,0:0|0:0,0:0:0:0:
272,230,67179,1,8,3:0:0:0:
276,250,67250,1,8,3:0:0:0:
279,270,67322,1,10,3:0:0:0:
283,289,67394,1,8,3:0:0:0:
262,316,67466,6,0,L|269:183,1,110.744996620331,12|0,0:0|1:0,0:0:0:0:
124,123,67753,1,0,1:0:0:0:
419,13,67897,2,0,L|424:123,1,110.744996620331,8|0,0:0|1:0,0:0:0:0:
336,357,68184,1,0,1:0:0:0:
336,357,68256,1,0,1:0:0:0:
336,357,68327,1,8,0:0:0:0:
436,273,68471,1,0,1:0:0:0:
292,47,68614,6,0,P|254:14|168:27,1,110.744996620331,12|0,0:0|1:0,0:0:0:0:
167,310,68901,1,8,0:0:0:0:
236,149,69045,1,0,1:0:0:0:
0,180,69189,1,10,0:0:0:0:
16,259,69332,1,10,3:0:0:0:
154,100,69476,1,10,0:0:0:0:
130,97,69547,1,8,0:0:0:0:
107,94,69619,1,10,0:0:0:0:
84,91,69691,1,8,0:0:0:0:
60,120,69763,6,0,L|180:95,1,121.095000461941,6|0,1:0|1:0,0:0:0:0:
288,324,70050,1,10,0:0:0:0:
220,223,70193,1,2,0:0:0:0:
292,125,70337,1,0,1:0:0:0:
131,259,70480,5,2,1:0:0:0:
367,362,70624,1,8,0:0:0:0:
297,47,70768,2,0,B|204:43|257:134|112:114,1,181.642500692911,6|0,1:0|0:0,0:0:0:0:
140,117,71055,1,0,1:0:0:0:
384,186,71198,2,0,P|360:242|352:309,1,121.095000461941,10|0,0:0|0:0,0:0:0:0:
373,335,71413,5,8,0:0:0:0:
364,318,71485,1,2,1:0:0:0:
171,375,71629,1,0,1:0:0:0:
100,185,71772,1,10,0:0:0:0:
307,119,71988,5,8,0:0:0:0:
293,131,72059,2,0,L|281:236,1,60.5475002309704,6|0,1:0|0:0,0:0:0:0:
267,253,72203,2,0,L|258:194,1,60.5475002309704,2|0,1:0|0:0,0:0:0:0:
173,116,72346,1,8,0:0:0:0:
32,257,72490,5,2,0:0:0:0:
145,299,72634,1,0,1:0:0:0:
282,161,72777,5,2,1:0:0:0:
181,229,72921,1,8,0:0:0:0:
409,336,73064,5,2,1:0:0:0:
409,336,73208,2,0,B|416:252|460:169|460:169|432:201|397:227,1,242.190000923881,0|8,3:0|0:0,0:0:0:0:
412,214,73782,6,0,P|398:193|362:185,1,60.5475002309704,2|0,1:0|0:0,0:0:0:0:
406,228,73925,2,0,P|390:204|361:197,1,60.5475002309704,2|0,1:0|0:0,0:0:0:0:
421,331,74069,1,12,0:0:0:0:
282,161,74212,5,2,3:0:0:0:
282,161,74284,1,0,3:0:0:0:
282,161,74356,2,0,B|253:110|189:126|189:126|165:225|53:188,1,242.190000923881,4|10,1:0|0:0,0:0:0:0:
96,0,74787,2,0,L|112:127,1,121.095000461941,2|0,0:0|1:0,0:0:0:0:
43,340,75074,1,2,1:0:0:0:
5,236,75217,1,10,0:0:0:0:
233,363,75361,6,0,L|361:337,1,121.095000461941,2|0,1:0|0:0,0:0:0:0:
490,219,75648,1,2,1:0:0:0:
452,323,75791,1,10,0:0:0:0:
354,172,75935,1,2,1:0:0:0:
354,172,76007,1,8,0:0:0:0:
354,172,76079,1,0,1:0:0:0:
277,197,76222,1,2,1:0:0:0:
403,241,76366,1,10,0:0:0:0:
383,95,76509,1,2,3:0:0:0:
142,21,76653,5,6,1:0:0:0:
74,231,76796,1,2,1:0:0:0:
185,331,76940,5,10,0:0:0:0:
109,124,77083,1,10,3:0:0:0:
109,124,77155,1,8,3:0:0:0:
109,124,77227,1,10,0:0:0:0:
185,215,77370,1,2,1:0:0:0:
312,6,77514,1,8,0:0:0:0:
215,59,77657,5,2,1:0:0:0:
215,59,77729,1,0,1:0:0:0:
215,59,77801,1,8,0:0:0:0:
211,97,77872,1,8,0:0:0:0:
207,136,77944,1,8,3:0:0:0:
203,174,78016,1,8,3:0:0:0:
199,213,78088,1,8,0:0:0:0:
22,332,78232,6,0,P|48:306|89:297,1,76.0724964596387,4|0,1:0|0:0,0:0:0:0:
85,296,78375,1,10,3:0:0:0:
357,352,78519,6,0,P|320:343|313:242,1,152.144992919277,6|0,1:0|0:0,0:0:0:0:
319,249,78806,6,0,P|304:308|344:340,1,110.744996620331,6|0,1:0|0:0,0:0:0:0:
452,256,79093,1,2,1:0:0:0:
450,76,79236,2,0,P|420:117|342:129,1,110.744996620331,10|2,0:0|0:0,0:0:0:0:
84,77,79523,5,2,1:0:0:0:
223,5,79667,1,2,1:0:0:0:
218,176,79811,1,10,0:0:0:0:
177,85,79953,5,2,1:0:0:0:
177,85,80098,2,0,P|191:156|198:257,1,166.117494930496,0|0,3:0|0:0,0:0:0:0:
198,249,80385,1,8,0:0:0:0:
348,27,80600,5,8,0:0:0:0:
348,27,80672,1,10,0:0:0:0:
293,123,80815,1,2,1:0:0:0:
403,271,80959,1,8,0:0:0:0:
398,160,81102,1,2,0:0:0:0:
288,336,81246,6,0,L|197:318,1,55.3724983101654,0|0,1:0|0:0,0:0:0:0:
233,325,81390,1,2,1:0:0:0:
43,268,81533,2,0,L|161:245,1,110.744996620331,10|2,0:0|0:0,0:0:0:0:
222,34,81820,5,2,1:0:0:0:
302,132,81964,1,2,1:0:0:0:
231,237,82107,1,8,0:0:0:0:
322,340,82251,5,2,1:0:0:0:
322,340,82394,2,0,B|382:342|398:303|398:303|443:327|493:276,1,166.117494930496,0|0,3:0|0:0,0:0:0:0:
469,296,82681,1,8,0:0:0:0:
192,131,82896,1,8,0:0:0:0:
192,131,82968,1,2,1:0:0:0:
293,176,83112,1,0,1:0:0:0:
77,339,83256,6,0,L|90:243,1,88.4924989197693,10|0,0:0|0:0,0:0:0:0:
59,159,83543,6,0,B|78:120|69:97|69:97|89:150|125:181,1,166.117494930496,6|0,1:0|0:0,0:0:0:0:
124,180,83830,1,10,0:0:0:0:
243,179,83973,1,2,0:0:0:0:
182,86,84117,1,0,1:0:0:0:
436,224,84260,5,2,1:0:0:0:
371,35,84404,1,10,0:0:0:0:
180,249,84547,6,0,B|180:319|214:378|214:378|221:327|256:298,1,221.489993240662,6|0,1:0|1:0,0:0:0:0:
441,345,84978,2,0,P|388:378|324:354,1,110.744996620331,10|0,0:0|0:0,0:0:0:0:
219,150,85265,2,0,P|165:142|121:174,1,110.744996620331,2|0,1:0|1:0,0:0:0:0:
328,194,85552,1,10,0:0:0:0:
313,83,85696,1,10,3:0:0:0:
166,331,85839,5,12,0:0:0:0:
428,231,85983,1,2,1:0:0:0:
307,279,86126,5,8,0:0:0:0:
45,179,86270,1,0,1:0:0:0:
167,225,86413,5,8,0:0:0:0:
397,64,86557,1,0,1:0:0:0:
461,370,86701,5,8,0:0:0:0:
288,85,86844,2,0,B|266:43|160:32|145:120|145:120|167:77|209:77,1,221.489993240662,4|0,1:0|1:0,0:0:0:0:
179,123,87203,1,0,1:0:0:0:
179,123,87275,1,8,0:0:0:0:
150,328,87418,5,8,0:0:0:0:
150,328,87490,1,8,0:0:0:0:
150,328,87562,2,0,L|160:264,1,55.3724983101654,8|0,0:0|3:0,0:0:0:0:
83,209,87705,5,8,0:0:0:0:
83,209,87777,1,8,0:0:0:0:
83,209,87849,1,8,0:0:0:0:
313,30,87992,6,0,P|298:111|285:193,1,166.117494930496,2|0,1:0|0:0,0:0:0:0:
285,193,88279,1,2,1:0:0:0:
446,335,88423,5,14,0:0:0:0:
409,230,88567,1,2,3:0:0:0:
409,230,88638,1,0,3:0:0:0:
409,230,88710,1,2,1:0:0:0:
336,314,88854,1,2,1:0:0:0:
213,111,88997,5,10,0:0:0:0:
172,214,89141,1,2,1:0:0:0:
172,214,89284,2,0,L|40:197,1,110.744996620331,2|0,0:0|1:0,0:0:0:0:
259,25,89571,1,10,0:0:0:0:
315,120,89715,1,2,3:0:0:0:
315,120,89787,1,0,3:0:0:0:
315,120,89858,1,0,1:0:0:0:
422,147,90002,5,2,1:0:0:0:
251,315,90145,1,8,0:0:0:0:
191,79,90289,6,0,B|140:69|109:125|109:125|56:75|0:105,1,221.489993240662,6|2,1:0|1:0,0:0:0:0:
0,105,90648,1,0,1:0:0:0:
0,105,90720,1,10,0:0:0:0:
176,277,90863,5,2,0:0:0:0:
170,167,91007,1,2,1:0:0:0:
78,230,91150,1,2,1:0:0:0:
291,338,91294,5,10,0:0:0:0:
372,267,91437,1,2,1:0:0:0:
372,267,91581,2,0,L|356:139,1,110.744996620331,2|0,0:0|1:0,0:0:0:0:
486,29,91868,5,10,0:0:0:0:
380,148,92012,1,2,0:0:0:0:
223,77,92155,1,0,1:0:0:0:
357,46,92299,5,2,1:0:0:0:
224,272,92442,1,8,0:0:0:0:
339,70,92586,6,0,L|352:235,1,166.117494930496,6|0,1:0|0:0,0:0:0:0:
352,235,92873,1,2,1:0:0:0:
79,342,93016,5,10,0:0:0:0:
106,234,93160,1,2,0:0:0:0:
0,101,93303,5,2,1:0:0:0:
20,208,93447,1,2,1:0:0:0:
207,260,93590,5,10,0:0:0:0:
172,25,93734,1,2,1:0:0:0:
172,25,93878,2,0,P|190:23|166:28,1,166.117494930496,2|0,3:0|0:0,0:0:0:0:
185,56,94165,1,10,0:0:0:0:
286,186,94380,5,8,0:0:0:0:
286,186,94452,2,0,P|319:130|274:181,1,197.167498495731,2|0,1:0|0:0,0:0:0:0:
266,185,94739,2,0,P|255:125|316:115,1,135.067501133532,10|0,0:0|0:0,0:0:0:0:
398,205,95026,5,6,1:0:0:0:
140,330,95169,1,0,1:0:0:0:
273,263,95313,5,10,0:0:0:0:
15,138,95456,1,2,1:0:0:0:
136,200,95600,5,8,0:0:0:0:
366,7,95743,1,2,1:0:0:0:
478,321,95887,5,10,0:0:0:0:
242,109,96030,1,2,1:0:0:0:
242,109,96102,1,0,1:0:0:0:
242,109,96174,1,8,0:0:0:0:
279,83,96245,1,8,0:0:0:0:
323,68,96317,1,8,0:0:0:0:
369,66,96389,1,8,0:0:0:0:
413,77,96461,1,8,0:0:0:0:
444,193,96605,6,0,P|419:167|360:158,1,65.7224994985771,8|0,3:0|0:0,0:0:0:0:
168,364,96892,2,0,P|198:351|220:327,1,65.7224994985771,8|0,3:0|0:0,0:0:0:0:
93,76,97179,6,0,B|69:46|69:1|69:1|150:59|95:193,1,262.889997994308,4|0,1:0|1:0,0:0:0:0:
24,282,97610,2,0,P|81:270|151:261,1,110.744996620331,10|0,0:0|0:0,0:0:0:0:
133,263,97825,1,0,1:0:0:0:
133,263,97897,1,2,1:0:0:0:
320,135,98040,2,0,P|265:127|210:116,1,110.744996620331,2|8,1:0|0:0,0:0:0:0:
301,318,98327,6,0,P|363:289|520:259,1,221.489993240662,2|0,1:0|1:0,0:0:0:0:
436,45,98758,2,0,P|428:101|418:191,1,110.744996620331,10|0,0:0|0:0,0:0:0:0:
421,154,98973,1,8,0:0:0:0:
421,154,99045,1,2,1:0:0:0:
369,257,99189,1,0,1:0:0:0:
147,61,99332,2,0,P|154:117|165:207,1,110.744996620331,14|0,0:0|1:0,0:0:0:0:
121,296,99619,6,0,P|185:264|249:296,1,110.744996620331,2|0,3:0|1:0,0:0:0:0:
220,272,99834,1,0,1:0:0:0:
220,272,99906,1,10,0:0:0:0:
305,342,100050,1,2,0:0:0:0:
427,94,100193,5,8,0:0:0:0:
152,184,100337,1,10,0:0:0:0:
266,169,100480,5,0,1:0:0:0:
28,10,100624,2,0,L|1:208,1,166.117494930496,14|0,0:0|0:0,0:0:0:0:
5,174,100911,1,8,3:0:0:0:
181,276,101055,5,10,0:0:0:0:
357,207,101198,1,8,0:0:0:0:
289,32,101341,1,10,0:0:0:0:
113,99,101485,1,8,0:0:0:0:
231,149,101629,5,2,1:0:0:0:
241,147,101700,1,0,1:0:0:0:
252,145,101772,1,0,1:0:0:0:
263,143,101844,1,0,1:0:0:0:
289,167,101916,6,0,L|164:148,1,110.744996620331,14|0,0:0|1:0,0:0:0:0:
179,150,102203,1,2,1:0:0:0:
363,321,102346,2,0,L|488:302,1,110.744996620331,14|0,0:0|1:0,0:0:0:0:
472,304,102634,1,2,1:0:0:0:
185,247,102777,6,0,P|192:304|200:384,1,110.744996620331,14|0,0:0|1:0,0:0:0:0:
197,356,103064,1,2,1:0:0:0:
383,124,103208,2,0,P|375:181|368:261,1,110.744996620331,14|0,0:0|1:0,0:0:0:0:
238,109,103495,1,10,0:0:0:0:
238,109,103567,1,8,0:0:0:0:
238,109,103638,1,10,0:0:0:0:
512,48,103782,1,10,0:0:0:0:
128,320,104069,6,0,B|45:280|128:224|0:192,1,166.117494930496,6|0,1:0|0:0,0:0:0:0:
26,199,104356,1,2,1:0:0:0:
211,121,104500,5,10,0:0:0:0:
166,248,104643,5,10,3:0:0:0:
219,313,104787,1,10,3:0:0:0:
247,235,104930,1,10,3:0:0:0:
7,276,105074,5,10,0:0:0:0:
314,332,105217,2,0,L|497:289,1,166.117494930496,6|0,1:0|0:0,0:0:0:0:
475,294,105504,1,0,1:0:0:0:
423,59,105648,5,8,0:0:0:0:
247,235,105791,1,4,1:0:0:0:
195,0,105935,1,10,0:0:0:0:
167,5,106006,1,8,0:0:0:0:
140,11,106078,1,8,0:0:0:0:
113,17,106150,1,8,0:0:0:0:
86,23,106222,2,0,L|158:35,1,55.3724983101654,10|8,0:0|0:0,0:0:0:0:
357,129,106366,2,0,L|144:158,1,199.23749604784,2|0,1:0|0:0,0:0:0:0:
155,164,106796,6,0,L|278:148,1,110.744996620331,14|0,0:0|3:0,0:0:0:0:
264,149,107012,1,8,3:0:0:0:
264,149,107083,1,8,3:0:0:0:
305,253,107227,5,0,1:0:0:0:
237,57,107370,1,8,0:0:0:0:
96,246,107514,2,0,P|59:194|137:76,1,221.489993240662,4|0,1:0|1:0,0:0:0:0:
305,253,107945,2,0,P|373:253|410:200,1,110.744996620331,8|0,0:0|0:0,0:0:0:0:
401,225,108160,1,8,0:0:0:0:
401,225,108232,1,0,1:0:0:0:
311,132,108375,1,0,1:0:0:0:
202,348,108519,5,8,0:0:0:0:
289,274,108662,2,0,P|172:240|69:236,1,221.489993240662,0|0,1:0|1:0,0:0:0:0:
72,235,109021,1,0,1:0:0:0:
72,235,109093,1,12,0:0:0:0:
21,128,109236,1,8,3:0:0:0:
259,23,109380,5,2,1:0:0:0:
217,175,109523,1,0,1:0:0:0:
419,305,109667,5,8,0:0:0:0:
377,153,109810,1,0,1:0:0:0:
296,229,109954,6,0,L|171:206,1,110.744996620331,2|0,3:0|1:0,0:0:0:0:
0,363,110241,1,10,0:0:0:0:
55,249,110385,2,0,L|163:228,1,110.744996620331,2|0,0:0|1:0,0:0:0:0:
317,336,110672,1,2,1:0:0:0:
377,153,110815,1,12,0:0:0:0:
303,83,110959,5,2,3:0:0:0:
303,83,111031,1,0,3:0:0:0:
303,83,111102,2,0,B|430:70|348:179|513:163,1,221.489993240662,4|8,1:0|0:0,0:0:0:0:
382,268,111533,5,0,3:0:0:0:
294,167,111677,1,0,1:0:0:0:
231,283,111820,1,0,1:0:0:0:
97,110,111964,5,8,0:0:0:0:
149,0,112107,2,0,L|122:215,1,166.117494930496,0|0,1:0|0:0,0:0:0:0:
140,175,112394,2,0,L|149:98,1,55.3724983101654,0|0,1:0|1:0,0:0:0:0:
248,259,112538,1,8,0:0:0:0:
274,255,112610,1,8,0:0:0:0:
301,252,112681,2,0,L|291:175,1,55.3724983101654,10|8,0:0|3:0,0:0:0:0:
403,15,112825,1,8,0:0:0:0:
480,158,112968,5,8,3:0:0:0:
480,158,113040,1,8,3:0:0:0:
480,158,113112,1,10,0:0:0:0:
449,189,113183,1,8,0:0:0:0:
407,200,113255,1,8,0:0:0:0:
366,185,113327,1,8,0:0:0:0:
339,151,113399,6,0,P|294:118|209:142,1,110.744996620331,14|0,0:0|1:0,0:0:0:0:
171,270,113686,1,2,1:0:0:0:
169,92,113830,5,10,0:0:0:0:
41,28,113973,1,0,1:0:0:0:
47,170,114117,1,2,1:0:0:0:
237,335,114260,5,8,0:0:0:0:
359,257,114403,1,2,1:0:0:0:
231,193,114547,1,0,1:0:0:0:
477,319,114691,6,0,L|461:191,1,110.744996620331,8|2,0:0|1:0,0:0:0:0:
463,209,114906,1,0,1:0:0:0:
463,209,114978,1,0,1:0:0:0:
365,0,115122,5,10,0:0:0:0:
160,145,115265,1,0,1:0:0:0:
0,0,115409,5,10,0:0:0:0:
263,70,115552,1,0,1:0:0:0:
79,313,115696,6,0,L|59:204,1,110.744996620331,14|0,0:0|1:0,0:0:0:0:
59,204,115911,1,0,1:0:0:0:
59,204,115983,1,2,1:0:0:0:
263,70,116126,2,0,L|243:179,1,110.744996620331,10|0,0:0|1:0,0:0:0:0:
243,178,116342,1,0,1:0:0:0:
243,178,116413,1,2,1:0:0:0:
401,357,116557,1,8,0:0:0:0:
373,225,116701,6,0,L|383:335,1,110.744996620331,2|0,1:0|1:0,0:0:0:0:
165,377,116988,1,8,0:0:0:0:
275,304,117131,1,0,1:0:0:0:
275,304,117203,1,0,1:0:0:0:
275,304,117275,1,0,1:0:0:0:
88,81,117418,5,10,0:0:0:0:
146,302,117562,1,0,1:0:0:0:
317,377,117705,5,10,0:0:0:0:
117,196,117849,1,0,1:0:0:0:
384,147,117992,6,0,L|509:121,1,110.744996620331,14|0,0:0|1:0,0:0:0:0:
492,124,118208,1,0,1:0:0:0:
492,124,118279,1,2,1:0:0:0:
275,304,118423,2,0,L|150:278,1,110.744996620331,10|0,0:0|1:0,0:0:0:0:
67,135,118710,1,2,1:0:0:0:
281,11,118854,1,8,0:0:0:0:
229,150,118997,5,2,1:0:0:0:
229,150,119069,1,0,1:0:0:0:
229,150,119141,1,0,1:0:0:0:
406,278,119284,2,0,L|386:147,1,110.744996620331,8|2,0:0|1:0,0:0:0:0:
389,168,119500,1,0,1:0:0:0:
389,168,119571,1,0,1:0:0:0:
159,11,119715,5,10,0:0:0:0:
42,184,119858,1,8,0:0:0:0:
217,300,120002,1,10,0:0:0:0:
332,128,120145,1,8,0:0:0:0:
186,152,120289,6,0,L|173:303,1,110.744996620331,14|0,0:0|1:0,0:0:0:0:
176,262,120504,1,8,0:0:0:0:
176,262,120576,1,10,3:0:0:0:
32,73,120720,2,0,L|45:224,1,110.744996620331,10|0,0:0|1:0,0:0:0:0:
41,183,120935,1,8,3:0:0:0:
41,183,121007,1,10,3:0:0:0:
247,26,121150,1,8,0:0:0:0:
142,55,121294,1,2,1:0:0:0:
298,245,121437,6,0,P|338:253|373:222,1,83.0587474652482,8|8,0:0|0:0,0:0:0:0:
404,68,121653,1,8,0:0:0:0:
384,48,121724,2,0,L|391:144,1,83.0587474652482,8|8,3:0|3:0,0:0:0:0:
177,191,121940,1,8,3:0:0:0:
196,210,122011,2,0,L|201:128,1,83.0587474652482,10|8,3:0|3:0,0:0:0:0:
45,24,122227,1,8,3:0:0:0:
64,37,122299,2,0,P|39:0|37:45,1,119.542497628704,10|0,0:0|0:0,0:0:0:0:
45,24,122586,6,0,L|32:147,1,110.744996620331,6|0,1:0|0:0,0:0:0:0:
127,325,122873,1,8,0:0:0:0:
107,216,123016,1,0,0:0:0:0:
331,106,123160,1,0,1:0:0:0:
311,215,123303,1,0,0:0:0:0:
153,43,123447,2,0,L|26:20,1,110.744996620331,10|0,0:0|0:0,0:0:0:0:
202,235,123734,6,0,L|310:215,1,110.744996620331,0|0,1:0|0:0,0:0:0:0:
456,27,124021,1,8,0:0:0:0:
438,157,124165,1,0,3:0:0:0:
438,157,124236,1,0,3:0:0:0:
438,157,124308,1,2,1:0:0:0:
337,64,124452,1,0,0:0:0:0:
207,258,124595,2,0,L|99:238,1,110.744996620331,10|0,0:0|0:0,0:0:0:0:
320,181,124882,6,0,P|296:233|287:300,1,110.744996620331,6|0,1:0|0:0,0:0:0:0:
137,62,125169,1,10,0:0:0:0:
140,164,125313,2,0,P|192:135|252:125,1,110.744996620331,2|0,0:0|1:0,0:0:0:0:
388,324,125600,2,0,P|336:295|276:285,1,110.744996620331,2|8,0:0|0:0,0:0:0:0:
497,205,125887,5,2,0:0:0:0:
434,113,126031,2,0,P|463:190|478:334,1,221.489993240662,0|8,1:0|0:0,0:0:0:0:
323,178,126461,1,0,3:0:0:0:
323,178,126533,1,0,3:0:0:0:
323,178,126605,2,0,P|274:201|209:214,1,110.744996620331,2|0,1:0|0:0,0:0:0:0:
125,45,126892,2,0,P|164:88|178:161,1,110.744996620331,10|0,0:0|0:0,0:0:0:0:
33,331,127179,5,14,0:0:0:0:
206,154,127323,1,2,1:0:0:0:
206,154,127394,1,0,1:0:0:0:
206,154,127466,1,2,1:0:0:0:
288,384,127610,5,10,0:0:0:0:
171,281,127753,1,2,1:0:0:0:
299,235,127897,1,10,3:0:0:0:
33,331,128040,5,12,0:0:0:0:
62,184,128184,1,2,1:0:0:0:
62,184,128256,1,0,1:0:0:0:
62,184,128327,1,8,3:0:0:0:
276,60,128471,5,12,0:0:0:0:
147,205,128614,1,2,1:0:0:0:
147,205,128686,1,0,1:0:0:0:
147,205,128758,1,0,1:0:0:0:
297,306,128901,5,10,0:0:0:0:
512,252,129045,1,8,0:0:0:0:
458,35,129189,1,10,0:0:0:0:
244,89,129332,1,8,0:0:0:0:
377,183,129476,6,0,L|287:167,1,83.0587474652482,10|8,0:0|0:0,0:0:0:0:
135,275,129691,1,8,0:0:0:0:
143,260,129763,2,0,L|257:243,1,110.744996620331,8|2,3:0|1:0,0:0:0:0:
334,282,129978,1,8,3:0:0:0:
322,293,130050,2,0,L|216:274,1,83.0587474652482,8|8,3:0|3:0,0:0:0:0:
445,242,130265,1,8,3:0:0:0:
456,253,130337,2,0,L|310:271,1,110.744996620331,2|0,1:0|1:0,0:0:0:0:
246,88,130624,5,10,0:0:0:0:
38,116,131772,6,0,B|138:69|118:185|266:124|266:124|306:102|311:13|194:-10|149:99|225:145|266:124|266:124|377:81|362:194|473:153|473:153|434:156|412:137,1,778.319988123779,4|0,1:0|0:0,0:0:0:0:
341,215,134643,6,0,L|298:206,1,35.1900002147827,2|0,0:0|0:0,0:0:0:0:
299,213,135074,2,0,L|353:223,1,52.7850003221741,2|0,0:0|0:0,0:0:0:0:
133,295,136366,5,2,0:0:0:0:
133,295,136940,6,0,L|176:286,1,35.1900002147827,2|0,0:0|0:0,0:0:0:0:
175,293,137371,2,0,L|122:303,1,52.7850003221741,2|0,0:0|0:0,0:0:0:0:
334,310,138519,5,0,1:0:0:0:
334,310,138590,1,0,1:0:0:0:
334,310,138662,1,8,0:0:0:0:
51,220,138949,5,8,0:0:0:0:
57,187,139093,1,8,3:0:0:0:
199,268,139236,5,8,0:0:0:0:
215,107,139380,1,8,0:0:0:0:
334,310,139523,5,8,0:0:0:0:
404,28,139667,1,8,0:0:0:0:
481,352,139811,5,8,0:0:0:0:
481,352,139882,1,8,0:0:0:0:
481,352,139954,1,8,0:0:0:0:
481,352,140026,1,8,0:0:0:0:
481,352,140098,5,8,0:0:0:0:
451,347,140169,1,8,3:0:0:0:
421,343,140241,1,8,3:0:0:0:
391,338,140313,1,8,3:0:0:0:
361,334,140385,5,8,0:0:0:0:
136,279,140528,1,8,0:0:0:0:
191,47,140672,1,8,0:0:0:0:
404,90,140815,1,8,0:0:0:0:
271,185,140959,6,0,B|216:202|169:163|169:163|181:158|181:158|138:117|58:134,1,221.489993240662,6|0,1:0|0:0,0:0:0:0:
300,65,141390,1,2,1:0:0:0:
426,287,141533,2,0,P|487:274|515:224,1,110.744996620331,14|0,0:0|0:0,0:0:0:0:
339,136,141820,1,2,1:0:0:0:
232,365,141964,6,0,P|171:352|143:302,1,110.744996620331,2|4,1:0|3:2,0:0:0:0:
318,238,142251,1,0,1:0:0:0:
53,94,142394,2,0,L|67:218,1,110.744996620331,2|0,0:0|1:0,0:0:0:0:
65,204,142610,1,0,1:0:0:0:
65,204,142681,5,14,0:0:0:0:
159,292,142825,1,8,3:0:0:0:
243,210,142969,1,0,1:0:0:0:
162,129,143112,1,8,3:0:0:0:
352,313,143256,6,0,B|412:326|460:294|468:222|434:179|434:179|421:193|396:199,1,221.489993240662,4|0,1:0|0:0,0:0:0:0:
283,59,143686,1,0,1:0:0:0:
50,192,143830,2,0,L|68:328,1,110.744996620331,14|0,0:0|0:0,0:0:0:0:
172,117,144117,5,2,1:0:0:0:
266,194,144260,1,2,1:0:0:0:
266,194,144332,1,2,1:0:0:0:
266,194,144404,1,6,3:2:0:0:
146,229,144547,1,2,1:0:0:0:
184,41,144691,5,2,0:0:0:0:
316,295,144834,1,2,1:0:0:0:
317,294,144906,1,2,1:0:0:0:
317,294,144978,5,14,0:0:0:0:
387,194,145122,1,2,1:0:0:0:
145,355,145265,5,10,0:0:0:0:
40,292,145409,1,0,1:0:0:0:
184,97,145552,6,0,B|200:65|184:41|184:41|152:65|152:153|224:201,1,221.489993240662,6|0,1:0|0:0,0:0:0:0:
309,26,145983,1,2,1:0:0:0:
247,253,146126,2,0,P|201:231|131:217,1,110.744996620331,14|0,0:0|0:0,0:0:0:0:
292,107,146413,1,2,1:0:0:0:
401,335,146557,6,0,P|447:313|517:299,1,110.744996620331,2|4,1:0|3:2,0:0:0:0:
386,175,146844,1,0,1:0:0:0:
191,357,146988,2,0,P|145:335|75:321,1,110.744996620331,2|0,0:0|1:0,0:0:0:0:
86,321,147203,1,0,1:0:0:0:
86,321,147275,5,14,0:0:0:0:
49,204,147418,1,8,3:0:0:0:
137,119,147562,1,0,1:0:0:0:
174,233,147705,1,8,3:0:0:0:
355,45,147849,6,0,L|480:28,1,110.744996620331,12|0,0:0|1:0,0:0:0:0:
267,135,148136,1,8,3:0:0:0:
466,371,148279,5,12,0:0:0:0:
402,177,148423,1,10,3:0:0:0:
265,339,148567,1,10,3:0:0:0:
510,249,148710,5,14,0:0:0:0:
510,249,148782,1,2,1:0:0:0:
510,249,148854,1,2,1:0:0:0:
382,279,148997,1,10,3:0:0:0:
219,23,149141,5,14,0:0:0:0:
283,217,149285,1,8,3:0:0:0:
420,55,149427,1,8,3:0:0:0:
146,153,149571,5,12,0:0:0:0:
122,138,149642,1,8,0:0:0:0:
97,126,149714,1,8,0:0:0:0:
70,119,149786,1,8,0:0:0:0:
43,114,149858,2,0,P|80:104|105:84,1,55.3724983101654,8|8,0:0|0:0,0:0:0:0:
92,255,150002,2,0,P|68:241|41:235,1,55.3724983101654,8|8,0:0|0:0,0:0:0:0:
251,117,150145,5,6,1:0:0:0:
194,237,150289,1,8,3:0:0:0:
361,360,150433,1,0,1:0:0:0:
324,232,150576,1,10,3:0:0:0:
474,64,150720,2,0,P|439:109|363:109,1,110.744996620331,14|0,0:0|1:0,0:0:0:0:
221,4,151007,5,2,1:0:0:0:
278,133,151150,1,0,1:0:0:0:
176,258,151294,2,0,L|43:234,1,110.744996620331,4|8,3:2|3:0,0:0:0:0:
318,337,151581,2,0,L|209:356,1,110.744996620331,2|0,1:0|1:0,0:0:0:0:
209,356,151796,1,0,1:0:0:0:
209,356,151868,5,12,0:0:0:0:
312,195,152012,1,8,3:0:0:0:
133,179,152155,1,0,1:0:0:0:
213,249,152299,1,8,3:0:0:0:
434,115,152442,6,0,L|414:313,1,166.117494930496,4|0,1:0|0:0,0:0:0:0:
432,294,152729,2,0,P|400:287|403:252,1,55.3724983101654,2|0,3:0|0:0,0:0:0:0:
424,100,152873,2,0,P|456:107|453:142,1,55.3724983101654,2|0,1:0|0:0,0:0:0:0:
225,170,153016,2,0,B|135:122|223:78|112:50,1,166.117494930496,14|2,0:0|0:0,0:0:0:0:
122,52,153303,1,2,1:0:0:0:
121,53,153375,1,2,3:0:0:0:
31,258,153495,5,2,3:0:0:0:
51,273,153590,2,0,P|87:255|121:254,1,55.3724983101654,6|0,1:0|0:0,0:0:0:0:
243,369,153734,1,10,0:0:0:0:
237,347,153806,1,2,0:0:0:0:
233,325,153878,2,0,L|245:255,1,55.3724983101654,2|2,0:0|0:0,0:0:0:0:
361,173,154021,2,0,L|370:227,1,55.3724983101654,2|2,1:0|1:0,0:0:0:0:
245,57,154165,2,0,P|299:9|400:60,1,166.117494930496,14|2,0:0|0:0,0:0:0:0:
381,42,154452,2,0,P|346:17|278:29,1,110.744996620331,10|0,0:0|1:0,0:0:0:0:
191,294,154739,5,12,0:0:0:0:
104,140,154882,1,0,1:0:0:0:
280,141,155026,1,8,3:0:0:0:
64,285,155169,5,12,0:0:0:0:
136,22,155312,1,0,1:0:0:0:
326,213,155456,1,8,3:0:0:0:
27,125,155600,5,12,0:0:0:0:
344,28,155743,1,0,1:0:0:0:
269,348,155887,1,8,3:0:0:0:
169,0,156031,6,0,L|152:136,1,110.744996620331,12|0,0:0|1:0,0:0:0:0:
326,213,156318,1,0,1:0:0:0:
326,213,156390,1,0,1:0:0:0:
326,213,156461,2,0,P|288:176|223:176,1,110.744996620331,8|0,0:0|1:0,0:0:0:0:
27,384,156748,2,0,P|81:380|120:343,1,110.744996620331,4|0,1:0|1:0,0:0:0:0:
50,116,157035,5,12,0:0:0:0:
104,249,157179,1,0,1:0:0:0:
242,290,157323,1,8,3:0:0:0:
239,6,157466,5,12,0:0:0:0:
171,149,157610,1,0,1:0:0:0:
242,290,157752,1,8,3:0:0:0:
469,76,157897,5,12,0:0:0:0:
302,127,158041,1,0,1:0:0:0:
242,290,158183,1,8,3:0:0:0:
492,307,158327,5,12,0:0:0:0:
371,237,158471,1,0,1:0:0:0:
242,290,158615,1,8,3:0:0:0:
386,95,158758,5,12,0:0:0:0:
367,331,158901,1,8,0:0:0:0:
367,331,158973,1,8,0:0:0:0:
367,331,159045,1,8,0:0:0:0:
189,175,159189,1,8,0:0:0:0:
113,384,159332,6,0,P|75:354|5:341,1,110.744996620331,10|0,0:0|1:0,0:0:0:0:
15,340,159547,1,0,1:0:0:0:
15,340,159619,1,8,0:0:0:0:
8,99,159763,1,0,1:0:0:0:
8,99,159834,1,0,1:0:0:0:
8,99,159906,1,10,0:0:0:0:
273,181,160050,5,10,0:0:0:0:
115,222,160193,1,2,1:0:0:0:
275,20,160337,6,0,P|221:30|177:63,1,110.744996620331,10|2,0:0|1:0,0:0:0:0:
177,63,160552,1,2,1:0:0:0:
177,63,160624,1,10,0:0:0:0:
353,278,160768,1,2,1:0:0:0:
353,278,160839,1,2,1:0:0:0:
353,278,160911,5,10,0:0:0:0:
453,40,161055,1,10,0:0:0:0:
326,128,161198,5,2,1:0:0:0:
484,298,161342,1,10,0:0:0:0:
480,259,161413,1,8,0:0:0:0:
476,220,161485,1,10,0:0:0:0:
473,182,161557,1,8,0:0:0:0:
469,143,161629,2,0,L|454:250,1,83.0587474652482,10|8,0:0|0:0,0:0:0:0:
283,311,161844,1,10,3:0:0:0:
298,326,161916,2,0,L|282:206,1,110.744996620331,10|0,3:0|1:0,0:0:0:0:
202,94,162131,1,10,3:0:0:0:
218,94,162203,2,0,P|200:131|140:136,1,83.0587474652482,10|8,3:0|3:0,0:0:0:0:
42,51,162418,1,10,3:0:0:0:
42,34,162490,2,0,P|74:50|98:129,1,110.744996620331,2|2,1:0|1:0,0:0:0:0:
13,216,162705,5,10,3:0:0:0:
23,203,162777,1,10,0:0:0:0:
256,192,162849,12,0,163854,0:0:0:0:
256,192,163925,5,6,1:0:0:0:
475,75,172251,6,0,P|451:54|418:52,1,58.9949992798462,0|8,1:0|3:0,0:0:0:0:
424,50,172537,1,2,0:0:0:0:
320,168,172681,5,10,3:0:0:0:
29,113,172968,5,10,3:0:0:0:
29,113,173399,6,0,L|90:104,1,58.9949992798462,0|0,1:0|0:0,0:0:0:0:
177,193,173686,2,0,L|118:184,1,58.9949992798462,0|0,1:0|0:0,0:0:0:0:
21,102,173973,2,0,L|82:93,1,58.9949992798462,0|0,1:0|0:0,0:0:0:0:
273,76,174260,6,0,P|261:105|261:141,1,58.9949992798462,8|0,3:0|0:0,0:0:0:0:
362,216,174547,2,0,P|360:186|348:159,1,58.9949992798462,0|0,1:0|0:0,0:0:0:0:
264,77,174834,2,0,P|252:106|252:142,1,58.9949992798462,0|0,1:0|0:0,0:0:0:0:
353,217,175121,2,0,P|351:187|339:160,1,58.9949992798462,0|0,1:0|0:0,0:0:0:0:
303,312,175409,6,0,P|340:297|385:293,1,58.9949992798462,8|0,3:0|0:0,0:0:0:0:
202,367,175696,2,0,P|165:352|120:348,1,58.9949992798462,0|0,1:0|0:0,0:0:0:0:
296,303,175983,2,0,P|333:288|378:284,1,58.9949992798462,0|0,1:0|0:0,0:0:0:0:
195,358,176270,2,0,P|158:343|113:339,1,58.9949992798462,0|0,1:0|0:0,0:0:0:0:
53,201,176557,5,12,0:0:0:0:
421,114,176844,5,8,0:0:0:0:
404,202,176988,1,8,0:0:0:0:
248,57,177131,5,10,0:0:0:0:
283,278,177275,1,8,0:0:0:0:
112,23,177418,5,10,0:0:0:0:
84,13,177489,1,8,0:0:0:0:
56,19,177561,1,8,0:0:0:0:
35,40,177633,1,8,0:0:0:0:
29,69,177705,2,0,L|35:126,1,44.2462494598846,10|8,0:0|0:0,0:0:0:0:
106,210,177921,1,8,0:0:0:0:
93,222,177992,2,0,L|86:301,1,58.9949992798462,10|2,3:0|1:0,0:0:0:0:
163,338,178208,1,8,3:0:0:0:
175,325,178279,2,0,P|162:309|128:307,1,44.2462494598846,8|8,3:0|3:0,0:0:0:0:
248,367,178495,1,8,3:0:0:0:
265,362,178567,2,0,P|284:325|272:286,1,58.9949992798462,2|2,1:0|1:0,0:0:0:0:
229,203,178782,5,0,3:0:0:0:
229,203,178854,1,8,0:0:0:0:
268,184,178925,1,8,0:0:0:0:
312,187,178997,1,8,0:0:0:0:
349,211,179069,1,8,0:0:0:0:
370,249,179141,2,0,P|359:206|377:153,1,79.6949984191361,10|0,3:0|1:0,0:0:0:0:
495,74,179428,2,0,P|465:108|408:111,1,79.6949984191361,10|0,3:0|1:0,0:0:0:0:
286,36,179715,2,0,P|323:47|348:78,1,79.6949984191361,2|2,1:0|1:0,0:0:0:0:
199,330,180002,5,12,0:0:0:0:
260,105,180145,1,8,0:0:0:0:
291,237,180289,1,8,0:0:0:0:
58,141,180433,5,12,0:0:0:0:
294,0,180576,1,8,0:0:0:0:
316,263,180720,1,0,1:0:0:0:
316,263,180791,1,0,1:0:0:0:
316,263,180863,5,12,0:0:0:0:
148,20,181007,1,8,0:0:0:0:
260,105,181150,1,10,3:0:0:0:
76,330,181294,5,8,0:0:0:0:
122,97,181437,1,10,0:0:0:0:
178,228,181581,5,6,1:0:0:0:
351,52,181868,5,2,1:0:0:0:
351,52,182155,6,0,B|386:12|386:12|460:69|377:217,1,242.190000923881,6|2,1:0|1:0,0:0:0:0:
199,243,182586,1,10,0:0:0:0:
226,125,182729,1,2,0:0:0:0:
53,35,182873,1,2,1:0:0:0:
80,153,183016,1,2,1:0:0:0:
257,7,183160,1,8,0:0:0:0:
156,53,183303,5,2,3:0:0:0:
156,53,183375,1,0,3:0:0:0:
156,53,183447,2,0,P|168:114|173:184,1,121.095000461941,0|0,1:0|1:0,0:0:0:0:
381,360,183734,2,0,P|386:299|397:240,1,121.095000461941,8|0,0:0|0:0,0:0:0:0:
489,34,184021,5,2,1:0:0:0:
373,70,184165,1,2,1:0:0:0:
502,263,184308,1,8,0:0:0:0:
254,200,184452,6,0,B|282:256|295:346|295:346|274:325|271:329,1,181.642500692911,4|0,1:0|0:0,0:0:0:0:
271,329,184739,1,0,0:0:0:0:
36,175,184882,5,10,0:0:0:0:
146,124,185026,1,2,0:0:0:0:
265,300,185169,5,2,1:0:0:0:
155,249,185313,1,2,1:0:0:0:
339,84,185457,5,10,0:0:0:0:
361,202,185600,1,2,0:0:0:0:
487,16,185744,6,0,L|461:155,1,121.095000461941,0|0,1:0|1:0,0:0:0:0:
418,354,186031,2,0,P|378:309|300:299,1,121.095000461941,8|0,0:0|0:0,0:0:0:0:
114,355,186318,5,2,1:0:0:0:
227,277,186461,1,2,1:0:0:0:
274,43,186605,1,8,0:0:0:0:
31,131,186748,6,0,B|-9:126|-9:126|199:100,1,242.190000923881,6|2,1:0|1:0,0:0:0:0:
337,272,187179,5,10,0:0:0:0:
243,194,187323,1,2,0:0:0:0:
470,127,187466,5,2,1:0:0:0:
333,172,187610,1,2,1:0:0:0:
194,12,187753,5,10,0:0:0:0:
301,33,187897,1,2,1:0:0:0:
226,110,188040,2,0,L|246:252,1,121.095000461941,2|0,3:0|1:0,0:0:0:0:
10,79,188327,6,0,P|74:60|131:94,1,121.095000461941,10|0,0:0|0:0,0:0:0:0:
193,331,188614,2,0,P|248:350|303:327,1,121.095000461941,2|0,1:0|1:0,0:0:0:0:
79,258,188901,2,0,L|55:139,1,121.095000461941,10|0,0:0|0:0,0:0:0:0:
344,9,189189,6,0,L|320:127,1,121.095000461941,6|0,1:0|1:0,0:0:0:0:
319,127,189404,1,0,1:0:0:0:
319,127,189476,1,10,0:0:0:0:
272,291,189619,1,10,3:0:0:0:
272,291,189691,1,8,3:0:0:0:
272,291,189763,2,0,P|217:260|153:248,1,121.095000461941,8|2,0:0|1:0,0:0:0:0:
413,270,190050,1,10,0:0:0:0:
243,134,190193,5,2,1:0:0:0:
243,134,190265,1,0,1:0:0:0:
243,134,190337,1,8,0:0:0:0:
216,159,190408,1,8,0:0:0:0:
184,176,190480,1,8,3:0:0:0:
149,183,190552,1,8,3:0:0:0:
113,181,190624,1,8,0:0:0:0:
144,26,190768,1,0,1:0:0:0:
289,313,190911,5,8,0:0:0:0:
149,183,191055,2,0,P|129:210|129:251,1,60.5475002309704,12|0,0:0|0:0,0:0:0:0:
329,115,191198,2,0,P|324:85|305:61,1,60.5475002309704,8|0,0:0|0:0,0:0:0:0:
345,211,191342,6,0,B|468:179|372:98|486:71|486:71|466:82|454:109,1,242.190000923881,0|0,1:0|1:0,0:0:0:0:
470,115,191701,1,0,1:0:0:0:
470,115,191772,1,14,0:0:0:0:
212,340,192059,5,2,1:0:0:0:
167,238,192203,2,0,L|33:213,1,110.744996620331,2|8,1:0|0:0,0:0:0:0:
260,109,192490,5,2,1:0:0:0:
167,47,192634,1,0,3:0:0:0:
168,157,192777,1,0,1:0:0:0:
336,290,192921,6,0,L|470:265,1,110.744996620331,10|0,0:0|0:0,0:0:0:0:
481,45,193208,2,0,P|441:85|434:163,1,110.744996620331,2|0,1:0|1:0,0:0:0:0:
329,364,193495,2,0,P|316:310|277:272,1,110.744996620331,10|0,0:0|0:0,0:0:0:0:
41,152,193782,5,2,1:0:0:0:
12,258,193925,1,0,1:0:0:0:
306,205,194069,5,10,0:0:0:0:
259,26,194212,1,2,0:0:0:0:
93,69,194356,1,0,1:0:0:0:
136,243,194500,1,2,1:0:0:0:
418,73,194643,5,8,0:0:0:0:
290,229,194787,2,0,P|191:199|66:182,1,221.489993240662,2|0,1:0|1:0,0:0:0:0:
0,370,195217,2,0,P|57:342|137:330,1,110.744996620331,8|0,0:0|0:0,0:0:0:0:
320,364,195504,5,2,1:0:0:0:
218,305,195648,1,2,1:0:0:0:
456,177,195791,1,14,0:0:0:0:
435,302,195935,1,2,0:0:0:0:
256,108,196079,6,0,P|212:70|131:97,1,110.744996620331,10|0,0:0|3:0,0:0:0:0:
154,95,196294,1,0,3:0:0:0:
154,95,196366,2,0,P|177:83|210:88,1,55.3724983101654,2|0,1:0|1:0,0:0:0:0:
355,200,196509,1,14,0:0:0:0:
224,255,196653,1,10,3:0:0:0:
224,255,196724,1,8,3:0:0:0:
224,255,196796,1,8,3:0:0:0:
224,255,196868,1,8,3:0:0:0:
224,255,196940,1,10,0:0:0:0:
282,0,197083,6,0,B|397:27|271:100|474:169,1,221.489993240662,6|0,1:0|1:0,0:0:0:0:
432,165,197442,1,0,1:0:0:0:
432,165,197514,2,0,P|408:190|394:228,1,55.3724983101654,10|0,0:0|0:0,0:0:0:0:
380,379,197657,2,0,P|366:354|347:335,1,55.3724983101654,8|0,3:0|0:0,0:0:0:0:
40,245,197801,5,10,0:0:0:0:
228,361,197945,1,8,0:0:0:0:
345,174,198087,1,10,0:0:0:0:
157,57,198232,1,8,0:0:0:0:
327,162,198375,6,0,P|382:140|461:124,1,110.744996620331,14|0,0:0|3:0,0:0:0:0:
189,212,198662,1,2,1:0:0:0:
189,212,198734,1,0,1:0:0:0:
189,212,198806,1,10,0:0:0:0:
404,346,198949,2,0,P|352:325|299:311,1,110.744996620331,8|2,3:0|1:0,0:0:0:0:
279,326,199165,1,0,1:0:0:0:
279,326,199236,1,8,0:0:0:0:
69,350,199380,6,0,B|44:349|17:373|17:373|64:302|68:187,1,221.489993240662,6|8,1:0|0:0,0:0:0:0:
59,32,199811,5,10,3:0:0:0:
46,50,199882,1,8,3:0:0:0:
45,72,199954,1,8,3:0:0:0:
52,98,200026,1,8,3:0:0:0:
79,117,200098,5,10,0:0:0:0:
111,116,200169,1,8,0:0:0:0:
133,91,200241,1,8,0:0:0:0:
166,71,200313,1,8,0:0:0:0:
193,70,200385,5,2,1:0:0:0:
217,83,200457,1,0,1:0:0:0:
232,98,200528,1,0,1:0:0:0:
239,112,200600,1,0,1:0:0:0:
227,136,200672,6,0,L|338:121,1,110.744996620331,14|0,0:0|1:0,0:0:0:0:
336,121,200959,1,2,1:0:0:0:
176,331,201102,2,0,L|51:312,1,110.744996620331,14|0,0:0|1:0,0:0:0:0:
66,314,201390,1,2,1:0:0:0:
330,239,201533,2,0,P|360:288|353:368,1,110.744996620331,14|0,0:0|1:0,0:0:0:0:
362,340,201820,1,2,1:0:0:0:
123,233,201964,2,0,P|126:178|155:131,1,110.744996620331,14|0,0:0|1:0,0:0:0:0:
155,131,202251,5,2,1:0:0:0:
386,50,202394,1,10,0:0:0:0:
371,313,202538,1,10,0:0:0:0:
371,313,202825,6,0,P|286:313|272:217,1,166.117494930496,2|0,1:0|0:0,0:0:0:0:
259,246,203112,1,10,3:0:0:0:
432,68,203256,5,10,0:0:0:0:
318,193,203399,5,10,3:0:0:0:
238,171,203543,1,10,3:0:0:0:
296,112,203686,1,10,3:0:0:0:
237,356,203830,1,10,0:0:0:0:
161,142,203973,6,0,P|71:180|98:277,1,166.117494930496,6|0,1:0|0:0,0:0:0:0:
62,249,204260,2,0,P|53:210|156:131,1,159.389996838272,2|0,0:0|0:0,0:0:0:0:
294,247,204691,5,2,3:0:0:0:
222,229,204834,1,0,3:0:0:0:
273,174,204978,1,2,3:0:0:0:
409,358,205122,6,0,B|425:376|425:376|431:277|466:172,1,221.489993240662,6|0,1:0|1:0,0:0:0:0:
303,14,205552,2,0,P|267:51|173:60,1,110.744996620331,8|0,0:0|3:0,0:0:0:0:
211,66,205768,1,0,3:0:0:0:
211,66,205839,1,0,1:0:0:0:
86,254,205983,5,0,1:0:0:0:
314,340,206126,1,8,0:0:0:0:
311,115,206270,6,0,L|292:339,1,221.489993240662,0|0,1:0|1:0,0:0:0:0:
219,100,206701,2,0,P|182:56|94:69,1,110.744996620331,8|0,0:0|3:0,0:0:0:0:
131,49,206916,1,0,3:0:0:0:
131,49,206988,1,0,1:0:0:0:
104,195,207131,1,0,1:0:0:0:
303,28,207275,1,8,0:0:0:0:
371,238,207418,6,0,P|386:156|458:31,1,221.489993240662,4|0,1:0|1:0,0:0:0:0:
450,29,207777,1,0,1:0:0:0:
450,29,207849,2,0,P|405:72|330:58,1,110.744996620331,8|0,0:0|0:0,0:0:0:0:
138,5,208136,5,2,1:0:0:0:
282,187,208279,1,2,1:0:0:0:
62,247,208423,1,10,0:0:0:0:
164,124,208567,6,0,L|137:328,1,166.117494930496,2|0,1:0|0:0,0:0:0:0:
142,288,208854,1,2,1:0:0:0:
355,129,208997,5,10,0:0:0:0:
367,224,209141,1,2,0:0:0:0:
243,339,209284,5,0,1:0:0:0:
221,336,209355,1,0,1:0:0:0:
199,333,209427,1,2,1:0:0:0:
177,330,209499,1,0,1:0:0:0:
159,311,209571,2,0,L|248:300,1,55.3724983101654,8|0,0:0|0:0,0:0:0:0:
487,248,209715,6,0,L|269:205,1,221.489993240662,6|0,1:0|1:0,0:0:0:0:
135,63,210145,2,0,P|190:91|202:175,1,110.744996620331,8|0,0:0|0:0,0:0:0:0:
13,298,210433,1,0,1:0:0:0:
151,228,210576,1,0,1:0:0:0:
246,384,210720,1,8,0:0:0:0:
108,314,210863,6,0,P|124:217|122:135,1,166.117494930496,2|0,1:0|0:0,0:0:0:0:
123,149,211150,1,0,1:0:0:0:
315,6,211294,2,0,P|377:20|410:98,1,110.744996620331,8|0,0:0|3:0,0:0:0:0:
404,54,211509,1,0,3:0:0:0:
404,54,211581,1,2,1:0:0:0:
357,231,211724,1,0,1:0:0:0:
128,50,211868,1,8,0:0:0:0:
255,150,212012,6,0,B|274:316|274:316|269:276|234:245,1,221.489993240662,6|0,1:0|1:0,0:0:0:0:
31,136,212442,5,8,0:0:0:0:
204,322,212586,1,0,1:0:0:0:
399,200,212729,5,8,0:0:0:0:
119,219,212873,1,0,1:0:0:0:
54,0,213016,5,8,0:0:0:0:
254,214,213160,1,0,1:0:0:0:
509,2,213303,5,8,0:0:0:0:
165,112,213447,1,0,1:0:0:0:
419,384,213590,5,8,0:0:0:0:
485,184,213734,1,0,3:0:0:0:
485,184,213806,1,0,3:0:0:0:
485,184,213878,1,2,1:0:0:0:
307,274,214021,1,2,1:0:0:0:
163,29,214165,5,10,0:0:0:0:
53,275,214308,2,0,B|46:286|28:298|28:298|144:276|69:191|188:162,1,221.489993240662,6|0,1:0|1:0,0:0:0:0:
326,360,214739,2,0,P|287:314|213:292,1,110.744996620331,8|0,0:0|0:0,0:0:0:0:
435,160,215026,1,0,1:0:0:0:
375,277,215169,1,0,1:0:0:0:
200,79,215313,1,8,0:0:0:0:
325,170,215457,6,0,B|342:83|398:5|398:5|373:34|346:45,1,221.489993240662,0|0,1:0|1:0,0:0:0:0:
104,38,215887,2,0,P|167:47|212:108,1,110.744996620331,8|0,0:0|0:0,0:0:0:0:
200,79,216102,1,0,3:0:0:0:
200,79,216174,1,2,1:0:0:0:
157,311,216318,1,0,1:0:0:0:
0,169,216461,1,8,0:0:0:0:
174,330,216605,6,0,B|251:298|325:320|325:320|325:272|361:246,1,221.489993240662,6|0,1:0|1:0,0:0:0:0:
347,258,216964,1,0,1:0:0:0:
347,258,217035,1,8,0:0:0:0:
281,154,217179,1,0,0:0:0:0:
453,15,217323,5,0,1:0:0:0:
406,144,217466,1,0,1:0:0:0:
137,23,217610,5,10,0:0:0:0:
223,223,217753,2,0,B|239:253|239:253|321:176|299:53,1,221.489993240662,2|0,1:0|1:0,0:0:0:0:
141,237,218184,2,0,P|104:274|22:226,1,110.744996620331,8|0,0:0|3:0,0:0:0:0:
65,49,218471,1,0,1:0:0:0:
67,70,218542,1,0,1:0:0:0:
70,92,218614,1,0,1:0:0:0:
72,114,218686,1,0,1:0:0:0:
75,136,218758,1,8,0:0:0:0:
280,239,218901,6,0,L|499:198,1,221.489993240662,4|0,1:0|1:0,0:0:0:0:
233,345,219332,2,0,P|151:294|179:202,1,166.117494930496,8|0,0:0|0:0,0:0:0:0:
157,237,219619,5,2,1:0:0:0:
263,134,219763,1,2,1:0:0:0:
371,323,219906,5,10,0:0:0:0:
476,224,220050,2,0,P|444:281|334:182,1,221.489993240662,6|0,1:0|1:0,0:0:0:0:
188,30,220480,2,0,P|131:21|52:13,1,110.744996620331,10|0,0:0|0:0,0:0:0:0:
26,261,220768,5,2,1:0:0:0:
0,118,220911,1,2,1:0:0:0:
172,312,221055,5,10,0:0:0:0:
223,126,221198,2,0,P|290:94|378:200,1,221.489993240662,6|0,1:0|1:0,0:0:0:0:
151,328,221629,5,10,0:0:0:0:
394,262,221772,1,0,1:0:0:0:
52,227,221916,5,10,0:0:0:0:
295,293,222059,1,2,1:0:0:0:
295,293,222131,1,0,1:0:0:0:
295,293,222203,1,10,0:0:0:0:
219,87,222346,1,14,0:0:0:0:
142,359,222490,5,8,0:0:0:0:
376,173,222634,1,8,0:0:0:0:
102,62,222777,1,10,0:0:0:0:
229,208,222921,6,0,B|284:225|331:186|331:186|319:181|319:181|362:140|442:157,1,221.489993240662,0|10,1:0|0:0,0:0:0:0:
212,0,223351,2,0,P|231:48|249:130,1,110.744996620331,6|0,1:0|3:0,0:0:0:0:
245,105,223567,1,8,3:0:0:0:
245,105,223638,1,12,0:0:0:0:
132,240,223782,5,0,1:0:0:0:
97,85,223925,1,0,1:0:0:0:
327,287,224069,6,0,L|464:255,1,110.744996620331,14|0,0:0|1:0,0:0:0:0:
434,261,224356,1,0,1:0:0:0:
104,117,224500,6,0,L|241:149,1,110.744996620331,12|0,0:0|1:0,0:0:0:0:
211,142,224787,1,0,1:0:0:0:
43,356,224930,6,0,L|150:330,1,110.744996620331,12|0,0:0|1:0,0:0:0:0:
150,330,225217,1,0,1:0:0:0:
331,71,225361,5,8,0:0:0:0:
460,334,225504,6,0,P|467:267|480:203,1,110.744996620331,8|0,0:0|0:0,0:0:0:0:
38,1,225791,2,0,P|47:55|52:110,1,110.744996620331,4|0,1:0|0:0,0:0:0:0:
52,110,226079,1,0,1:0:0:0:
312,325,226222,5,8,0:0:0:0:
170,81,226366,2,0,P|160:135|155:190,1,110.744996620331,8|0,3:0|0:0,0:0:0:0:
155,190,226653,1,8,3:0:0:0:
372,380,226796,5,8,0:0:0:0:
458,100,226940,2,0,B|419:95|374:110|362:161|374:221|374:221|368:188|394:161,1,221.489993240662,4|0,1:0|1:0,0:0:0:0:
380,178,227299,1,8,0:0:0:0:
380,178,227370,1,8,0:0:0:0:
103,356,227514,5,8,0:0:0:0:
61,94,227657,1,8,0:0:0:0:
213,290,227801,5,8,3:0:0:0:
230,138,227945,1,8,3:0:0:0:
343,215,228088,5,8,0:0:0:0:
460,22,228232,6,0,B|300:-43|230:139|230:139|121:14|-10:88|-10:88|121:14|230:139|239:274|104:330|-45:296|-41:111|93:115|92:180,1,1117.80002729004,6|0,1:0|0:0,0:0:0:0:
