osu file format v14

[General]
AudioFilename: audio.mp3
AudioLeadIn: 0
PreviewTime: 69213
Countdown: 0
SampleSet: Soft
StackLeniency: 0.4
Mode: 0
LetterboxInBreaks: 0
EpilepsyWarning: 1
WidescreenStoryboard: 1

[Editor]
DistanceSpacing: 0.9
BeatDivisor: 4
GridSize: 32
TimelineZoom: 2.6

[Metadata]
Title:Hyousou wa Hakuen o Matoite
TitleUnicode:氷奏は白焔を纏いて
Artist:ELFENSJoN
ArtistUnicode:ELFENSJóN
Creator:Affirmation
Version:Normal
Source:osu!
Tags:featured artist fa mappers' guild mg okogeeechann 戎屋 聖一郎 Seiichiro Ebisu YUU 黒瀬 圭亮 Keisuke Kurose ORYO japanese jrock einherjar female vocals
BeatmapID:2335108
BeatmapSetID:1112035

[Difficulty]
HPDrainRate:4.2
CircleSize:3.3
OverallDifficulty:4.6
ApproachRate:5.2
SliderMultiplier:0.999999999999999
SliderTickRate:1

[Events]
//Background and Video events
0,0,"BG.jpg",0,0
//Break Periods
2,108864,110939
2,131973,137494
2,164126,171800
//Storyboard Layer 0 (Background)
//Storyboard Layer 1 (Fail)
//Storyboard Layer 2 (Pass)
//Storyboard Layer 3 (Foreground)
//Storyboard Layer 4 (Overlay)
//Storyboard Sound Samples

[TimingPoints]
5458,287.081339712919,4,2,1,30,1,0
6032,-90.9090909090909,4,2,1,30,0,0
13783,-90.9090909090909,4,2,2,30,0,0
14644,-90.9090909090909,4,2,2,55,0,0
21534,-90.9090909090909,4,2,1,70,0,0
24118,-90.9090909090909,4,2,2,70,0,0
24692,-90.9090909090909,4,2,1,70,0,0
28137,-90.9090909090909,4,2,2,70,0,0
31008,-90.9090909090909,4,2,1,70,0,0
33017,-90.9090909090909,4,2,1,70,0,0
33018,-90.9090909090909,4,2,1,50,0,0
42060,-90.9090909090909,4,2,1,50,0,0
42061,-90.9090909090909,4,2,1,60,0,0
42491,-90.9090909090909,4,2,2,60,0,0
44788,-90.9090909090909,4,2,1,60,0,0
50529,-90.9090909090909,4,2,1,60,0,0
50530,-90.9090909090909,4,2,2,60,0,0
51391,-90.9090909090909,4,2,2,55,0,0
59429,-90.9090909090909,4,2,2,65,0,0
60577,-90.9090909090909,4,2,1,70,0,0
69190,-90.9090909090909,4,2,2,70,0,0
69764,-90.9090909090909,4,2,1,80,0,1
74070,-90.9090909090909,4,2,2,80,0,1
76367,-90.9090909090909,4,2,2,80,0,1
78806,-90.9090909090909,4,2,2,80,0,1
78807,-90.9090909090909,4,2,1,80,0,1
85840,-90.9090909090909,4,2,1,80,0,1
85841,-90.9090909090909,4,2,3,80,0,1
86127,-90.9090909090909,4,2,3,80,0,1
86128,-90.9090909090909,4,2,1,80,0,1
87132,-90.9090909090909,4,2,2,80,0,1
88424,-90.9090909090909,4,2,1,80,0,1
95027,-90.9090909090909,4,2,3,80,0,1
95314,-90.9090909090909,4,2,1,80,0,1
99333,-90.9090909090909,4,2,2,80,0,1
104501,-90.9090909090909,4,2,1,80,0,1
106367,-90.9090909090909,4,2,1,70,0,0
113400,-90.9090909090909,4,2,3,70,0,0
113831,-90.9090909090909,4,2,1,70,0,0
115697,-90.9090909090909,4,2,2,70,0,0
116127,-90.9090909090909,4,2,2,70,0,0
116128,-90.9090909090909,4,2,1,70,0,0
117993,-90.9090909090909,4,2,1,70,0,0
117994,-90.9090909090909,4,2,3,70,0,0
118424,-90.9090909090909,4,2,1,70,0,0
120290,-90.9090909090909,4,2,2,70,0,0
120721,-90.9090909090909,4,2,1,70,0,0
127180,-90.9090909090909,4,2,3,70,0,0
127611,-90.9090909090909,4,2,2,70,0,0
128902,-90.9090909090909,4,2,2,70,0,0
128903,-90.9090909090909,4,2,1,70,0,0
131773,-90.9090909090909,4,2,1,70,0,0
131774,-90.9090909090909,4,2,1,60,0,0
138520,-90.9090909090909,4,2,1,70,0,0
138663,-90.9090909090909,4,2,1,70,0,0
140960,-90.9090909090909,4,2,1,65,0,0
142682,-90.9090909090909,4,2,1,65,0,0
142683,-90.9090909090909,4,2,2,65,0,0
149859,-90.9090909090909,4,2,2,65,0,0
149860,-90.9090909090909,4,2,1,65,0,0
151869,-90.9090909090909,4,2,2,65,0,0
154165,-90.9090909090909,4,2,2,65,0,0
154166,-90.9090909090909,4,2,1,65,0,0
156462,-90.9090909090909,4,2,1,65,0,0
156463,-90.9090909090909,4,2,2,65,0,0
158759,-90.9090909090909,4,2,2,65,0,0
162778,-90.9090909090909,4,2,1,65,0,0
163926,-90.9090909090909,4,2,1,40,0,0
172969,-90.9090909090909,4,2,1,40,0,0
172970,-90.9090909090909,4,2,1,50,0,0
173399,-90.9090909090909,4,2,1,50,0,0
173400,-90.9090909090909,4,2,3,50,0,0
176558,-90.9090909090909,4,2,2,70,0,0
182156,-90.9090909090909,4,2,1,80,0,1
189190,-90.9090909090909,4,2,3,80,0,1
189477,-90.9090909090909,4,2,1,80,0,1
193496,-90.9090909090909,4,2,2,80,0,1
196080,-90.9090909090909,4,2,3,80,0,1
196510,-90.9090909090909,4,2,2,80,0,1
200673,-90.9090909090909,4,2,3,80,0,1
201103,-90.9090909090909,4,2,3,80,0,1
201104,-90.9090909090909,4,2,2,80,0,1
203257,-90.9090909090909,4,2,1,80,0,1
205123,-90.9090909090909,4,2,1,70,0,0
227371,-90.9090909090909,4,2,1,70,0,0
227372,-90.9090909090909,4,2,2,70,0,0
228233,-90.9090909090909,4,2,1,50,0,0
233974,-90.9090909090909,4,2,1,5,0,0

[Colours]
Combo1 : 91,91,91
Combo2 : 151,155,2
Combo3 : 240,150,77
Combo4 : 167,100,221
Combo5 : 113,32,185
Combo6 : 109,63,29
Combo7 : 241,75,80
Combo8 : 180,180,180
SliderBorder : 255,206,248
SliderTrackOverride : 0,0,0

[HitObjects]
84,23,5458,117,2,0:2:0:0:
270,89,6032,2,0,L|439:78,1,165.0000050354,2|2,0:2|0:2,2:0:0:0:
68,116,7755,101,2,0:2:0:0:
254,182,8329,2,0,L|423:171,1,165.0000050354,2|2,0:2|0:2,2:0:0:0:
52,209,10052,5,2,0:2:0:0:
238,275,10626,2,0,L|402:264,1,165.0000050354,2|2,0:2|0:2,2:0:0:0:
36,302,12348,101,2,0:2:0:0:
222,368,12922,2,0,L|386:357,1,165.0000050354,2|2,0:2|0:2,2:0:0:0:
475,237,13784,2,0,P|481:182|470:129,2,110.000003356934,2|0|0,0:2|0:0|0:0,2:0:0:0:
380,266,14645,22,0,P|318:213|237:216,1,165.0000050354,4|0,3:2|0:0,2:0:0:0:
152,267,15363,1,0,0:0:0:0:
66,216,15650,2,0,L|62:106,2,110.000003356934,14|12|12,0:2|0:2|0:2,2:0:0:0:
152,267,16511,2,0,L|150:321,1,55.0000016784668,0|8,3:0|0:2,2:0:0:0:
244,352,16942,6,0,B|267:324|267:324|257:250,1,110.000003356934,4|0,3:2|3:0,2:0:0:0:
238,205,17372,1,0,3:0:0:0:
307,135,17659,1,0,3:0:0:0:
226,77,17946,1,0,3:0:0:0:
226,77,18090,2,0,L|171:82,2,55.0000016784668,8|8|8,0:2|0:2|0:2,2:0:0:0:
312,28,18664,2,0,L|366:33,1,55.0000016784668,2|0,3:2|3:0,2:0:0:0:
411,11,18951,1,12,0:2:0:0:
482,79,19238,102,0,P|479:106|473:133,1,55.0000016784668,12|8,0:2|0:2,2:0:0:0:
506,226,19669,2,0,P|484:243|461:258,1,55.0000016784668,8|8,0:2|0:2,2:0:0:0:
419,346,20099,2,0,P|391:343|364:337,1,55.0000016784668,8|12,0:2|0:2,2:0:0:0:
235,264,20674,2,0,P|182:280|130:296,2,110.000003356934,8|8|8,0:2|0:2|0:2,2:0:0:0:
265,224,21391,1,0,3:0:0:0:
240,179,21535,54,0,P|235:125|238:70,1,110.000003356934,14|10,3:1|0:2,2:0:0:0:
331,34,22109,2,0,P|336:88|333:143,1,110.000003356934,10|8,0:2|0:2,2:0:0:0:
356,187,22540,2,0,L|465:184,1,110.000003356934,6|0,3:1|3:0,2:0:0:0:
498,221,22970,1,2,3:1:0:0:
461,313,23257,2,0,P|466:340|471:366,2,55.0000016784668,2|2|2,3:1|3:1|3:1,2:0:0:0:
417,290,23688,70,0,P|363:296|320:330,1,110.000003356934,2|0,3:1|3:0,2:0:0:0:
286,366,24119,1,14,0:1:0:0:
203,310,24406,2,0,L|203:255,2,55.0000016784668,0|0|10,3:0|3:0|0:2,2:0:0:0:
166,343,24836,2,0,P|112:348|63:325,1,110.000003356934,2|0,3:1|3:0,2:0:0:0:
37,282,25267,1,8,0:2:0:0:
91,199,25554,2,0,P|85:172|75:146,2,55.0000016784668,0|0|8,3:0|3:0|0:2,2:0:0:0:
179,243,26128,37,0,3:0:0:0:
238,164,26415,2,0,L|234:54,2,110.000003356934,10|2|10,0:2|3:1|0:2,2:0:0:0:
278,192,27133,2,0,B|319:177|319:177|384:189,1,110.000003356934,2|0,3:1|3:0,2:0:0:0:
426,215,27564,1,10,0:2:0:0:
384,304,27851,2,0,B|343:319|343:319|278:307,1,110.000003356934,2|14,3:1|0:1,2:0:0:0:
189,263,28425,69,0,2:0:0:0:
100,307,28712,1,14,0:1:0:0:
26,238,28999,2,0,P|20:184|29:130,1,110.000003356934,14|0,0:1|3:0,2:0:0:0:
55,88,29430,2,0,P|135:95|201:48,1,165.0000050354,14|8,0:1|0:2,2:0:0:0:
294,16,30147,1,0,3:0:0:0:
376,70,30434,1,8,0:2:0:0:
296,128,30721,38,0,B|288:183|288:183|300:235,1,110.000003356934,6|10,3:1|0:2,2:0:0:0:
354,318,31296,2,0,P|422:276|502:285,2,165.0000050354,10|2|10,0:2|3:1|0:2,2:0:0:0:
266,365,32444,1,2,3:1:0:0:
183,309,32731,1,14,3:1:0:0:
90,343,33018,38,0,B|71:316|71:316|78:239,1,110.000003356934,4|10,3:2|0:2,2:0:0:0:
129,154,33592,2,0,P|208:157|260:97,1,165.0000050354,0|0,3:0|3:0,2:0:0:0:
334,30,34310,1,0,3:0:0:0:
408,94,34597,2,0,L|400:203,1,110.000003356934,0|0,3:0|3:0,2:0:0:0:
423,247,35028,1,10,0:2:0:0:
357,321,35315,69,0,3:0:0:0:
271,270,35602,2,0,L|161:280,2,110.000003356934,10|0|0,0:2|3:0|2:0,2:0:0:0:
295,226,36320,1,0,3:0:0:0:
240,143,36607,1,0,3:0:0:0:
307,70,36894,2,0,L|416:80,2,110.000003356934,0|0|0,3:0|3:0|0:0,2:0:0:0:
267,40,37611,37,4,3:2:0:0:
173,70,37898,2,0,P|118:69|66:51,1,110.000003356934,10|0,0:2|3:0,2:0:0:0:
24,25,38329,1,0,3:0:0:0:
8,122,38616,2,0,P|9:176|12:231,1,110.000003356934,0|0,3:0|3:0,2:0:0:0:
39,273,39047,1,10,0:2:0:0:
66,315,39190,2,0,L|175:308,1,110.000003356934,0|0,3:0|3:0,2:0:0:0:
214,278,39621,1,10,0:2:0:0:
299,227,39908,70,0,P|352:239|407:243,2,110.000003356934,4|10|0,3:2|0:2|3:0,2:0:0:0:
265,191,40626,1,0,3:0:0:0:
195,121,40913,2,0,P|141:123|103:161,1,110.000003356934,12|0,0:2|3:0,2:0:0:0:
57,179,41343,2,0,L|60:233,1,55.0000016784668,10|0,0:2|3:0,2:0:0:0:
23,266,41631,2,0,L|26:320,1,55.0000016784668,10|8,0:2|0:2,2:0:0:0:
118,356,42061,38,0,B|175:346|162:327|220:318,1,110.000003356934,8|0,3:1|3:0,2:0:0:0:
266,337,42492,1,14,0:1:0:0:
335,267,42779,2,0,P|345:213|331:160,1,110.000003356934,0|8,3:0|0:2,2:0:0:0:
300,121,43209,1,2,3:1:0:0:
211,76,43497,1,0,3:0:0:0:
129,132,43784,2,0,P|74:123|23:104,2,110.000003356934,2|0|0,0:1|3:0|0:0,2:0:0:0:
164,167,44501,69,0,3:0:0:0:
115,253,44788,2,0,L|5:257,2,110.000003356934,10|0|8,0:2|3:0|0:2,2:0:0:0:
154,282,45506,1,2,3:1:0:0:
245,243,45793,1,0,3:0:0:0:
334,287,46080,2,0,P|344:233|325:182,2,110.000003356934,2|0|0,0:1|3:0|0:0,2:0:0:0:
298,320,46798,38,0,P|352:329|406:339,1,110.000003356934,4|10,3:2|0:2,2:0:0:0:
446,311,47229,2,0,P|458:257|446:204,1,110.000003356934,0|0,2:0|0:0,2:0:0:0:
416,160,47659,1,8,0:2:0:0:
385,114,47803,2,0,L|275:122,1,110.000003356934,2|0,3:1|3:0,2:0:0:0:
232,147,48233,1,8,0:2:0:0:
138,113,48520,1,2,3:1:0:0:
62,177,48808,1,8,0:2:0:0:
145,229,49095,70,0,P|140:283|139:338,1,110.000003356934,10|12,3:1|0:2,2:0:0:0:
177,369,49525,2,0,P|230:378|281:358,1,110.000003356934,2|12,3:1|0:2,2:0:0:0:
318,326,49956,1,2,3:1:0:0:
384,252,50243,2,0,L|379:197,1,55.0000016784668,8|0,0:2|3:0,2:0:0:0:
331,185,50530,2,0,L|335:130,1,55.0000016784668,10|8,0:2|0:2,2:0:0:0:
361,87,50817,2,0,P|388:93|416:89,2,55.0000016784668,0|0|0,3:0|3:0|3:0,2:0:0:0:
272,45,51391,22,0,P|218:34|165:49,1,110.000003356934,4|0,3:2|2:0,2:0:0:0:
130,82,51822,1,0,3:0:0:0:
33,59,52109,1,0,3:0:0:0:
8,154,52396,2,0,L|12:318,1,165.0000050354,0|0,3:0|0:0,0:0:0:0:
99,270,53114,2,0,L|97:215,2,55.0000016784668,8|0|8,0:2|3:0|0:2,0:0:0:0:
155,350,53688,6,0,B|195:336|195:336|262:344,1,110.000003356934,4|0,3:2|2:0,2:0:0:0:
306,365,54119,1,0,3:0:0:0:
402,345,54406,1,0,3:0:0:0:
471,274,54693,2,0,P|431:204|353:186,1,165.0000050354,0|8,3:0|0:2,0:0:0:0:
276,248,55410,1,0,3:0:0:0:
183,212,55698,1,8,0:2:0:0:
84,198,55985,102,0,P|68:145|80:92,1,110.000003356934,0|12,3:0|0:2,2:0:0:0:
168,49,56559,2,0,P|176:75|177:103,1,55.0000016784668,0|0,3:0|3:0,2:0:0:0:
263,151,56989,2,0,P|317:150|372:144,1,110.000003356934,0|0,3:0|3:0,2:0:0:0:
415,120,57420,1,0,0:0:0:0:
488,186,57707,2,0,L|485:295,1,110.000003356934,8|8,0:2|0:2,2:0:0:0:
410,360,58281,69,0,3:0:0:0:
329,302,58568,2,0,B|269:310|286:330|225:335,1,110.000003356934,12|0,0:2|3:0,2:0:0:0:
179,319,58999,2,0,L|181:209,1,110.000003356934,12|0,0:2|3:0,2:0:0:0:
170,160,59430,101,8,0:2:0:0:
239,91,59717,2,0,P|267:91|293:98,1,55.0000016784668,8|0,0:2|3:0,2:0:0:0:
340,81,60004,2,0,L|337:26,2,55.0000016784668,8|8|8,0:2|0:2|0:2,2:0:0:0:
412,146,60578,86,0,P|421:201|413:255,1,110.000003356934,8|12,3:1|0:2,2:0:0:0:
385,296,61009,1,0,2:0:0:0:
289,268,61296,1,0,3:0:0:0:
201,314,61583,2,0,L|91:310,1,110.000003356934,0|0,3:0|3:0,2:0:0:0:
51,279,62013,1,12,0:2:0:0:
117,206,62300,2,0,P|120:178|117:151,1,55.0000016784668,0|0,3:0|3:0,2:0:0:0:
84,114,62587,2,0,P|81:86|83:59,1,55.0000016784668,8|0,0:2|3:0,2:0:0:0:
122,28,62875,54,0,L|231:33,1,110.000003356934,0|12,3:0|0:2,2:0:0:0:
269,64,63305,1,0,2:0:0:0:
360,26,63592,1,0,3:0:0:0:
434,89,63879,2,0,P|443:144|434:198,1,110.000003356934,0|0,3:0|3:0,2:0:0:0:
404,237,64310,1,8,0:2:0:0:
471,309,64597,1,0,3:0:0:0:
386,360,64884,1,0,3:0:0:0:
312,293,65171,54,0,L|257:295,1,55.0000016784668,8|0,3:1|3:0,2:0:0:0:
170,345,65602,2,0,L|139:298,1,55.0000016784668,0|0,3:0|3:0,2:0:0:0:
53,248,66032,2,0,L|77:198,1,55.0000016784668,0|0,3:0|3:0,2:0:0:0:
160,143,66463,1,0,3:0:0:0:
240,201,66750,2,0,L|349:195,1,110.000003356934,0|0,3:0|3:0,2:0:0:0:
411,59,67468,70,0,L|301:53,1,110.000003356934,12|0,0:2|3:0,2:0:0:0:
265,18,67898,2,0,L|155:23,1,110.000003356934,12|0,0:2|3:0,2:0:0:0:
113,50,68329,1,12,0:2:0:0:
176,126,68616,1,12,0:2:0:0:
126,211,68903,1,0,3:0:0:0:
191,285,69190,2,0,L|245:280,1,55.0000016784668,2|0,3:2|3:0,2:0:0:0:
280,244,69477,2,0,L|334:248,1,55.0000016784668,8|8,0:2|0:2,2:0:0:0:
379,271,69764,38,0,B|366:246|366:246|375:164,1,110.000003356934,14|8,3:1|0:2,2:0:0:0:
403,124,70195,1,2,0:1:0:0:
314,79,70482,1,2,3:1:0:0:
237,141,70769,2,0,P|182:140|135:112,1,110.000003356934,2|0,3:1|3:0,2:0:0:0:
93,87,71200,1,10,0:2:0:0:
86,185,71487,1,2,3:1:0:0:
30,266,71774,1,10,0:2:0:0:
49,363,72061,22,0,L|103:354,1,55.0000016784668,6|0,3:1|0:0,2:0:0:0:
185,299,72492,2,0,L|293:315,1,110.000003356934,2|2,0:1|3:1,2:0:0:0:
388,285,73066,2,0,B|374:251|374:251|387:178,1,110.000003356934,2|0,3:1|3:0,2:0:0:0:
428,150,73497,1,8,0:2:0:0:
356,81,73784,2,0,L|301:88,1,55.0000016784668,0|0,3:0|3:0,2:0:0:0:
236,161,74214,22,0,P|181:162|131:139,1,110.000003356934,6|2,3:1|3:1,2:0:0:0:
86,120,74645,1,8,0:2:0:0:
44,146,74788,2,0,L|46:255,1,110.000003356934,2|0,0:1|3:0,2:0:0:0:
128,311,75363,2,0,B|149:299|149:299|234:309,1,110.000003356934,6|2,3:1|3:1,2:0:0:0:
275,337,75793,1,8,0:2:0:0:
320,319,75937,2,0,P|334:266|317:214,1,110.000003356934,2|0,3:1|3:0,2:0:0:0:
284,177,76367,1,14,0:1:0:0:
353,107,76654,70,0,L|407:112,1,55.0000016784668,14|0,0:1|3:0,2:0:0:0:
446,143,76942,2,0,L|451:197,1,55.0000016784668,14|8,0:1|0:2,2:0:0:0:
479,238,77229,2,0,L|473:292,1,55.0000016784668,14|8,0:1|0:2,2:0:0:0:
403,363,77659,2,0,B|386:349|386:349|298:355,1,110.000003356934,14|0,0:1|3:0,2:0:0:0:
253,376,78090,1,2,3:2:0:0:
170,321,78377,2,0,P|163:294|164:266,1,55.0000016784668,0|4,0:0|3:2,2:0:0:0:
231,194,78808,102,0,P|232:139|219:85,1,110.000003356934,14|0,3:1|3:0,2:0:0:0:
184,50,79238,1,10,0:2:0:0:
94,91,79525,2,0,P|66:89|39:83,2,55.0000016784668,2|0|8,3:1|3:0|0:2,2:0:0:0:
118,134,79956,2,0,P|113:188|109:243,1,110.000003356934,2|0,3:1|3:0,2:0:0:0:
79,283,80387,1,8,0:2:0:0:
169,324,80674,2,0,L|223:317,1,55.0000016784668,2|0,3:1|3:0,2:0:0:0:
301,256,81104,22,0,B|359:266|340:290|400:299,1,110.000003356934,2|0,3:1|3:0,2:0:0:0:
445,279,81535,1,10,0:2:0:0:
412,185,81822,2,0,P|407:157|407:130,1,55.0000016784668,2|0,3:1|3:0,2:0:0:0:
434,35,82253,2,0,P|380:21|326:25,1,110.000003356934,2|0,3:1|3:0,2:0:0:0:
294,63,82683,1,8,0:2:0:0:
222,130,82970,1,2,3:1:0:0:
127,98,83257,1,10,0:2:0:0:
69,178,83544,22,0,P|71:232|74:287,1,110.000003356934,6|8,3:1|0:2,2:0:0:0:
115,314,83975,1,2,0:1:0:0:
195,257,84262,2,0,P|222:251|249:256,1,55.0000016784668,0|8,3:0|0:2,2:0:0:0:
291,283,84549,2,0,P|344:292|398:282,1,110.000003356934,6|0,3:1|3:0,2:0:0:0:
444,263,84980,1,10,0:2:0:0:
502,183,85267,2,0,L|499:73,1,110.000003356934,2|10,3:1|0:2,2:0:0:0:
410,29,85841,70,0,P|382:33|355:38,1,55.0000016784668,14|0,0:1|3:0,2:0:0:0:
320,73,86128,2,0,P|292:68|265:63,1,55.0000016784668,10|0,0:2|0:0,2:0:0:0:
222,38,86415,1,10,0:2:0:0:
146,102,86702,1,0,0:0:0:0:
146,102,86846,2,0,P|147:156|149:211,1,110.000003356934,12|2,0:2|3:2,2:0:0:0:
124,254,87276,1,8,0:2:0:0:
210,302,87564,2,0,L|206:356,2,55.0000016784668,8|0|0,0:2|3:0|3:0,2:0:0:0:
249,272,87994,102,0,B|274:292|274:292|351:285,1,110.000003356934,6|0,3:1|3:0,2:0:0:0:
394,259,88425,1,10,0:2:0:0:
332,181,88712,2,0,P|326:154|328:126,1,55.0000016784668,2|0,3:1|3:0,2:0:0:0:
363,92,88999,2,0,P|364:64|359:37,1,55.0000016784668,10|0,0:2|0:0,2:0:0:0:
312,20,89286,2,0,L|202:23,1,110.000003356934,2|8,3:1|0:2,2:0:0:0:
162,53,89717,1,2,0:1:0:0:
214,137,90004,1,2,3:1:0:0:
139,202,90291,22,0,L|140:311,1,110.000003356934,6|0,3:1|3:0,2:0:0:0:
115,354,90721,1,10,0:2:0:0:
29,304,91009,2,0,L|29:249,1,55.0000016784668,2|0,3:1|3:0,2:0:0:0:
52,204,91296,2,0,L|52:149,1,55.0000016784668,10|0,0:2|0:0,2:0:0:0:
37,101,91583,22,0,B|68:117|68:117|142:106,1,110.000003356934,2|8,3:1|0:2,2:0:0:0:
184,81,92013,1,2,0:1:0:0:
271,127,92300,1,2,3:1:0:0:
354,74,92587,70,0,P|369:125|357:178,1,110.000003356934,6|0,3:1|3:0,2:0:0:0:
324,215,93018,1,10,0:2:0:0:
254,284,93305,2,0,P|226:283|199:282,1,55.0000016784668,2|0,3:1|3:0,2:0:0:0:
159,252,93592,2,0,P|131:252|104:253,1,55.0000016784668,10|0,0:2|0:0,2:0:0:0:
55,264,93879,1,2,3:1:0:0:
14,173,94166,1,10,0:2:0:0:
87,105,94453,1,2,3:1:0:0:
174,153,94741,1,10,0:2:0:0:
246,85,95028,102,0,P|299:72|350:89,1,110.000003356934,14|10,0:1|0:2,2:0:0:0:
387,122,95458,1,0,3:0:0:0:
453,195,95745,2,0,L|507:192,2,55.0000016784668,0|10|0,3:0|0:2|3:0,2:0:0:0:
443,243,96176,2,0,B|417:226|417:226|338:231,1,110.000003356934,8|8,0:2|0:2,2:0:0:0:
317,276,96607,1,8,0:2:0:0:
219,257,96894,1,8,0:2:0:0:
263,168,97181,22,0,P|271:113|256:61,1,110.000003356934,12|0,3:1|3:0,2:0:0:0:
216,32,97611,1,10,0:2:0:0:
137,91,97898,2,0,P|109:95|82:92,1,55.0000016784668,2|0,3:1|3:0,2:0:0:0:
15,164,98329,2,0,L|19:273,1,110.000003356934,2|0,3:1|3:0,2:0:0:0:
59,303,98760,1,10,0:2:0:0:
152,269,99047,1,2,3:1:0:0:
239,314,99334,1,14,0:1:0:0:
319,256,99621,22,0,B|383:267|362:283|422:291,1,110.000003356934,6|8,3:1|0:2,2:0:0:0:
465,268,100052,2,0,B|453:250|453:250|458:161,1,110.000003356934,0|2,2:0|3:1,2:0:0:0:
481,65,100626,2,0,P|430:46|380:66,1,110.000003356934,6|0,3:1|3:0,2:0:0:0:
346,103,101056,2,0,P|318:100|291:96,1,55.0000016784668,2|2,3:1|3:2,2:0:0:0:
244,80,101343,2,0,P|241:52|237:25,2,55.0000016784668,2|0|2,3:1|3:0|3:1,2:0:0:0:
195,166,101918,70,0,B|170:147|170:147|91:154,1,110.000003356934,14|0,0:1|3:0,2:0:0:0:
56,188,102348,1,14,0:1:0:0:
166,286,102779,2,0,B|191:267|191:267|269:274,1,110.000003356934,14|0,0:1|3:0,2:0:0:0:
305,308,103209,1,14,0:1:0:0:
397,272,103497,2,0,B|402:299|402:299|396:326,2,55.0000016784668,0|2|8,3:0|3:1|0:2,2:0:0:0:
390,173,104071,102,0,P|339:195|286:186,1,110.000003356934,6|0,3:1|0:0,2:0:0:0:
238,172,104501,1,10,0:2:0:0:
143,202,104788,2,0,L|88:197,2,55.0000016784668,2|0|8,0:1|3:0|0:2,2:0:0:0:
174,239,105219,2,0,B|160:275|160:275|169:345,1,110.000003356934,6|0,3:1|3:0,2:0:0:0:
204,380,105650,1,8,0:2:0:0:
287,326,105937,2,0,P|284:298|282:271,2,55.0000016784668,10|8|10,0:2|0:2|0:2,2:0:0:0:
327,354,106367,21,10,3:1:0:0:
256,192,106511,12,0,108664,2:0:0:0:
304,327,112109,22,0,B|278:315|278:315|197:324,1,110.000003356934,0|0,3:0|3:0,2:0:0:0:
154,348,112540,1,8,0:2:0:0:
92,271,112827,2,0,P|89:243|93:216,1,55.0000016784668,0|0,3:0|3:0,2:0:0:0:
129,181,113114,2,0,P|156:178|183:182,1,55.0000016784668,0|0,3:0|3:0,2:0:0:0:
227,204,113401,70,0,L|224:94,1,110.000003356934,14|0,0:1|3:0,2:0:0:0:
259,59,113831,2,0,P|311:45|364:58,1,110.000003356934,10|0,0:2|3:0,2:0:0:0:
399,93,114262,1,10,0:2:0:0:
341,173,114549,1,0,3:0:0:0:
341,173,114693,2,0,L|338:282,1,110.000003356934,10|0,0:2|3:0,2:0:0:0:
297,312,115123,1,10,0:2:0:0:
213,259,115410,1,10,0:2:0:0:
134,317,115698,38,0,P|80:321|34:291,1,110.000003356934,14|0,0:1|3:0,2:0:0:0:
12,247,116128,2,0,L|17:137,1,110.000003356934,10|0,0:2|3:0,2:0:0:0:
56,106,116559,1,10,0:2:0:0:
139,159,116846,2,0,B|198:152|179:123|238:116,1,110.000003356934,0|0,3:0|3:2,2:0:0:0:
281,141,117276,1,0,0:0:0:0:
326,121,117420,2,0,L|322:11,1,110.000003356934,10|10,0:0|0:0,2:0:0:0:
418,34,117994,70,0,L|421:143,1,110.000003356934,14|0,0:1|3:0,2:0:0:0:
390,182,118425,1,10,0:2:0:0:
446,263,118712,1,0,3:0:0:0:
370,326,118999,2,0,P|315:325|268:298,1,110.000003356934,0|10,3:0|0:2,2:0:0:0:
240,257,119430,2,0,L|245:147,2,110.000003356934,0|10|10,3:0|0:2|0:2,2:0:0:0:
145,286,120291,38,0,L|139:176,1,110.000003356934,14|0,0:1|3:0,2:0:0:0:
148,127,120721,1,10,0:2:0:0:
245,147,121009,1,0,3:0:0:0:
322,85,121296,1,0,3:0:0:0:
321,85,121439,2,0,P|373:65|427:68,1,110.000003356934,8|0,0:2|3:0,2:0:0:0:
443,166,122013,2,0,P|391:185|337:182,1,110.000003356934,0|8,3:0|0:2,2:0:0:0:
245,147,122587,70,0,B|255:170|255:170|247:254,2,110.000003356934,12|8|0,3:1|0:2|3:0,2:0:0:0:
168,84,123449,1,8,0:2:0:0:
97,153,123736,2,0,B|89:237|89:237|99:260,1,110.000003356934,0|8,2:0|0:2,2:0:0:0:
176,323,124310,1,0,3:0:0:0:
247,254,124597,1,8,0:2:0:0:
316,324,124884,38,0,P|370:331|424:339,1,110.000003356934,4|8,3:2|0:2,2:0:0:0:
464,308,125315,1,0,0:0:0:0:
417,220,125602,1,0,0:0:0:0:
494,160,125889,2,0,P|498:105|490:50,1,110.000003356934,0|0,0:0|0:0,2:0:0:0:
447,25,126320,1,8,0:2:0:0:
362,76,126607,1,0,3:0:0:0:
269,40,126894,1,8,0:2:0:0:
203,113,127181,70,0,B|163:126|163:126|96:113,1,110.000003356934,14|0,0:1|3:0,2:0:0:0:
51,91,127611,2,0,L|53:200,1,110.000003356934,14|0,0:1|3:0,2:0:0:0:
44,249,128042,1,14,0:1:0:0:
142,238,128329,1,0,3:0:0:0:
141,238,128473,2,0,P|195:246|238:280,1,110.000003356934,14|0,0:1|3:0,2:0:0:0:
274,314,128903,2,0,L|270:368,2,55.0000016784668,10|8|10,0:2|0:2|0:2,2:0:0:0:
351,252,129477,38,0,B|405:249|405:249|453:279|453:279|508:275,2,165.0000050354,8|0|0,0:2|2:0|3:0,2:0:0:0:
274,314,130626,1,0,3:0:0:0:
256,192,130769,12,0,131773,2:0:0:0:
272,87,138664,6,0,L|381:81,1,110.000003356934,8|8,0:2|0:2,2:0:0:0:
415,174,139238,2,0,L|360:176,1,55.0000016784668,8|8,0:2|0:2,2:0:0:0:
324,211,139525,2,0,L|269:208,1,55.0000016784668,8|8,0:2|0:2,2:0:0:0:
226,182,139812,1,0,3:0:0:0:
152,248,140099,1,8,0:2:0:0:
74,186,140387,2,0,P|70:158|71:131,1,55.0000016784668,8|8,0:2|0:2,2:0:0:0:
97,88,140674,2,0,P|118:70|143:58,1,55.0000016784668,8|8,0:2|0:2,2:0:0:0:
191,48,140961,22,0,B|234:81|234:81|342:57,1,165.0000050354,6|2,3:1|3:1,2:0:0:0:
386,34,141535,2,0,L|381:143,1,110.000003356934,12|2,0:2|3:1,2:0:0:0:
357,187,141965,1,0,3:0:0:0:
413,267,142253,1,0,3:0:0:0:
332,324,142540,1,0,3:0:0:0:
332,324,142683,2,0,L|222:318,1,110.000003356934,14|0,0:1|3:0,2:0:0:0:
134,365,143257,22,0,B|98:323|98:323|110:214,1,165.0000050354,6|0,3:1|3:0,2:0:0:0:
142,176,143831,1,14,0:1:0:0:
102,85,144119,1,0,3:0:0:0:
189,39,144406,2,0,P|244:49|293:73,1,110.000003356934,0|0,2:0|2:0,2:0:0:0:
380,26,144980,2,0,P|399:77|403:132,1,110.000003356934,14|0,0:1|3:0,2:0:0:0:
366,224,145554,70,0,B|315:203|315:203|206:216,1,165.0000050354,6|2,3:1|3:1,2:0:0:0:
179,257,146128,2,0,B|70:244,1,110.000003356934,12|2,0:2|3:1,2:0:0:0:
21,256,146559,1,0,3:0:0:0:
8,157,146846,1,0,3:0:0:0:
76,85,147133,1,0,3:0:0:0:
76,85,147276,2,0,B|137:93|113:120|175:127,1,110.000003356934,14|0,0:1|3:0,2:0:0:0:
253,67,147851,102,0,P|305:50|355:69,1,110.000003356934,6|0,3:1|3:0,2:0:0:0:
392,101,148281,2,0,L|387:210,1,110.000003356934,14|0,0:1|3:0,2:0:0:0:
411,254,148712,1,12,0:2:0:0:
332,313,148999,1,2,3:1:0:0:
332,313,149142,2,0,L|222:310,1,110.000003356934,12|0,0:2|3:0,2:0:0:0:
182,339,149573,1,14,0:1:0:0:
146,246,149860,1,10,0:2:0:0:
235,204,150147,22,0,B|277:167|277:167|266:58,1,165.0000050354,6|2,3:1|3:1,2:0:0:0:
275,9,150721,2,0,L|165:19,1,110.000003356934,12|2,0:2|3:1,2:0:0:0:
116,16,151152,1,0,3:0:0:0:
151,108,151439,1,0,3:0:0:0:
77,174,151726,1,0,3:0:0:0:
77,174,151870,2,0,L|80:283,1,110.000003356934,14|0,0:1|3:0,2:0:0:0:
154,350,152444,22,0,P|232:357|284:296,1,165.0000050354,4|0,3:2|3:0,2:0:0:0:
261,252,153018,1,14,0:1:0:0:
323,175,153305,1,2,3:1:0:0:
281,85,153592,2,0,P|226:94|175:112,1,110.000003356934,0|0,0:0|0:0,2:0:0:0:
87,67,154166,2,0,P|67:118|57:172,1,110.000003356934,10|2,0:2|3:1,2:0:0:0:
96,264,154741,70,0,L|260:251,1,165.0000050354,6|2,3:1|3:1,2:0:0:0:
408,261,155602,2,0,P|420:180|399:100,1,165.0000050354,2|6,3:1|3:1,2:0:0:0:
280,12,156463,1,14,0:1:0:0:
188,48,156750,1,2,3:1:0:0:
93,19,157037,102,0,P|91:73|86:128,1,110.000003356934,14|0,0:1|3:0,2:0:0:0:
60,171,157468,2,0,P|115:164|167:180,1,110.000003356934,14|0,0:1|3:0,2:0:0:0:
208,209,157898,2,0,P|214:263|198:315,1,110.000003356934,14|0,0:1|3:0,2:0:0:0:
171,356,158329,2,0,L|280:362,1,110.000003356934,14|0,0:1|3:0,2:0:0:0:
321,334,158760,1,8,0:2:0:0:
412,371,159047,1,8,0:2:0:0:
474,294,159334,102,0,B|481:258|481:258|468:185,1,110.000003356934,2|2,3:1|3:1,2:0:0:0:
396,117,159908,1,2,3:1:0:0:
396,117,160052,1,0,3:0:0:0:
297,127,160339,2,0,B|290:91|290:91|302:18,2,110.000003356934,2|2|0,3:1|3:1|3:0,2:0:0:0:
303,176,161056,1,2,3:1:0:0:
205,158,161343,1,2,3:1:0:0:
116,201,161631,70,0,P|104:254|108:309,1,110.000003356934,2|2,3:1|3:1,2:0:0:0:
191,363,162205,1,2,3:1:0:0:
280,321,162492,1,2,3:1:0:0:
370,362,162779,85,10,0:2:0:0:
256,192,162922,12,0,163926,2:0:0:0:
198,73,172970,102,0,P|276:71|304:143,1,165.0000050354,0|2,3:0|3:2,2:0:0:0:
267,235,173688,1,2,3:2:0:0:
183,181,173975,1,2,3:2:0:0:
126,262,174262,2,0,L|16:256,2,110.000003356934,2|2|2,3:2|3:2|3:2,2:0:0:0:
245,349,175267,6,0,B|331:354|331:354|367:329|352:286,1,165.0000050354,0|2,3:0|3:2,2:0:0:0:
301,200,175985,1,2,3:2:0:0:
371,130,176272,1,2,3:2:0:0:
301,59,176559,2,0,P|246:65|191:71,1,110.000003356934,8|8,0:2|0:2,2:0:0:0:
100,33,177133,1,0,3:0:0:0:
36,108,177420,1,8,0:2:0:0:
99,184,177707,70,0,P|102:238|106:293,1,110.000003356934,8|0,0:2|3:0,2:0:0:0:
201,323,178281,2,0,P|205:268|208:213,1,110.000003356934,0|0,3:0|3:0,2:0:0:0:
278,143,178855,2,0,P|332:142|373:177,1,110.000003356934,8|8,0:2|0:2,2:0:0:0:
418,265,179430,1,0,0:0:0:0:
505,219,179717,1,0,3:0:0:0:
468,127,180004,6,0,L|471:72,1,55.0000016784668,8|8,0:2|0:2,2:0:0:0:
381,31,180434,2,0,L|377:85,1,55.0000016784668,8|8,0:2|0:2,2:0:0:0:
279,104,180865,2,0,L|282:49,1,55.0000016784668,8|8,0:2|0:2,2:0:0:0:
189,14,181296,2,0,L|185:68,1,55.0000016784668,8|8,0:2|0:2,2:0:0:0:
159,111,181583,2,0,B|106:99|106:99|52:113,1,110.000003356934,2|0,3:2|0:0,2:0:0:0:
17,206,182157,38,0,L|21:315,1,110.000003356934,14|0,3:1|3:0,2:0:0:0:
58,348,182587,1,10,0:2:0:0:
138,290,182875,2,0,L|135:235,2,55.0000016784668,2|0|8,3:1|3:0|0:2,2:0:0:0:
174,322,183305,2,0,P|225:338|275:318,1,110.000003356934,2|0,0:1|3:0,2:0:0:0:
312,284,183736,1,10,0:2:0:0:
365,200,184023,2,0,L|419:202,2,55.0000016784668,2|0|8,3:1|3:0|0:2,2:0:0:0:
338,158,184453,22,0,L|228:162,1,110.000003356934,6|0,3:1|3:0,2:0:0:0:
190,194,184884,1,10,0:2:0:0:
108,137,185171,2,0,P|111:109|114:82,2,55.0000016784668,2|0|8,3:1|3:0|0:2,2:0:0:0:
85,181,185602,2,0,P|90:235|97:290,1,110.000003356934,2|0,0:1|3:0,2:0:0:0:
126,330,186032,1,8,0:2:0:0:
209,278,186320,2,0,P|236:285|263:291,1,55.0000016784668,2|0,3:1|3:0,2:0:0:0:
347,344,186750,22,0,B|378:318|378:318|367:249,1,110.000003356934,6|0,3:1|3:0,2:0:0:0:
343,205,187181,1,10,0:2:0:0:
399,123,187468,2,0,P|388:97|370:77,1,55.0000016784668,2|0,3:1|3:0,2:0:0:0:
325,55,187755,2,0,P|297:57|272:68,1,55.0000016784668,10|0,0:2|0:0,2:0:0:0:
232,98,188042,1,2,3:1:0:0:
137,69,188329,1,10,0:2:0:0:
80,150,188616,1,2,3:1:0:0:
139,229,188903,1,10,0:2:0:0:
231,197,189190,70,0,P|286:198|333:225,1,110.000003356934,14|10,0:1|0:2,2:0:0:0:
368,259,189621,1,0,3:0:0:0:
440,191,189908,2,0,P|467:195|494:198,2,55.0000016784668,0|10|0,3:0|0:2|3:0,2:0:0:0:
417,147,190339,1,8,0:2:0:0:
328,102,190626,1,8,0:2:0:0:
239,57,190913,2,0,L|243:2,2,55.0000016784668,0|8|0,3:0|0:2|3:0,2:0:0:0:
203,91,191343,102,0,L|211:201,1,110.000003356934,12|0,3:1|3:0,2:0:0:0:
247,234,191774,1,10,0:2:0:0:
183,310,192061,2,0,P|155:305|128:301,2,55.0000016784668,2|0|8,3:1|3:0|0:2,2:0:0:0:
222,340,192492,2,0,P|276:331|330:322,1,110.000003356934,2|0,3:1|3:0,2:0:0:0:
375,344,192922,1,10,0:2:0:0:
405,249,193209,1,2,3:1:0:0:
348,166,193497,1,14,0:1:0:0:
378,71,193784,22,0,P|326:52|271:50,1,110.000003356934,6|8,3:1|0:2,2:0:0:0:
229,76,194214,1,2,0:1:0:0:
135,43,194501,1,2,3:1:0:0:
61,109,194788,2,0,P|64:163|68:218,1,110.000003356934,6|0,3:1|3:0,2:0:0:0:
48,264,195219,1,10,0:1:0:0:
134,312,195506,2,0,P|130:339|127:366,2,55.0000016784668,2|0|2,3:1|3:0|3:1,2:0:0:0:
213,253,196080,70,0,B|277:261|250:284|314:291,1,110.000003356934,14|0,0:1|3:0,2:0:0:0:
361,276,196511,2,0,L|356:166,1,110.000003356934,14|0,0:1|3:0,2:0:0:0:
334,121,196942,1,14,0:1:0:0:
310,74,197085,2,0,P|258:61|206:79,1,110.000003356934,0|14,3:0|0:1,2:0:0:0:
172,115,197516,1,0,3:0:0:0:
238,188,197803,2,0,L|234:242,1,55.0000016784668,2|8,3:1|0:2,2:0:0:0:
186,252,198090,2,0,L|189:306,1,55.0000016784668,2|8,3:1|0:2,2:0:0:0:
203,354,198377,102,0,P|148:348|93:344,1,110.000003356934,14|0,0:1|3:0,2:0:0:0:
48,366,198808,2,0,P|44:311|38:256,1,110.000003356934,14|0,0:1|3:0,2:0:0:0:
9,216,199238,1,14,0:1:0:0:
30,171,199382,2,0,P|78:146|132:152,1,110.000003356934,0|14,3:0|0:1,2:0:0:0:
176,175,199812,1,0,3:0:0:0:
263,128,200099,1,2,3:1:0:0:
349,175,200387,1,2,3:1:0:0:
435,127,200674,22,0,P|446:181|428:232,1,110.000003356934,14|0,0:1|3:0,2:0:0:0:
396,270,201104,1,14,0:1:0:0:
277,355,201535,2,0,P|266:301|284:250,1,110.000003356934,14|0,0:1|3:0,2:0:0:0:
317,213,201965,1,14,0:1:0:0:
169,198,202396,2,0,L|114:204,1,55.0000016784668,2|8,3:1|0:2,2:0:0:0:
87,108,202827,22,0,L|196:95,1,110.000003356934,6|0,3:1|3:0,2:0:0:0:
242,112,203257,1,10,0:2:0:0:
327,62,203544,2,0,P|323:34|317:7,2,55.0000016784668,2|0|8,0:1|3:0|0:2,2:0:0:0:
351,102,203975,2,0,P|397:132|451:139,1,110.000003356934,6|2,3:1|0:2,2:0:0:0:
495,116,204406,1,2,0:2:0:0:
337,307,205123,70,0,B|269:311|297:277|233:281,1,110.000003356934,14|0,3:1|3:0,2:0:0:0:
195,313,205554,1,8,0:2:0:0:
97,294,205841,2,0,L|42:298,2,55.0000016784668,2|0|8,3:1|3:0|0:2,2:0:0:0:
126,254,206272,2,0,P|135:200|122:147,1,110.000003356934,2|0,3:1|3:0,2:0:0:0:
86,112,206702,1,8,0:2:0:0:
170,60,206989,2,0,L|165:6,2,55.0000016784668,2|0|8,3:1|3:0|0:2,2:0:0:0:
209,88,207420,38,0,P|263:90|316:75,1,110.000003356934,6|0,3:1|3:0,2:0:0:0:
355,44,207851,1,8,0:2:0:0:
439,96,208138,2,0,L|493:88,2,55.0000016784668,2|0|8,3:1|3:0|0:2,2:0:0:0:
406,133,208568,2,0,P|410:187|415:242,1,110.000003356934,2|0,3:1|3:0,2:0:0:0:
401,289,208999,1,8,0:2:0:0:
386,336,209142,2,0,P|333:345|285:322,1,110.000003356934,2|2,0:1|3:1,2:0:0:0:
256,227,209717,70,0,P|202:217|154:240,1,110.000003356934,6|0,3:1|3:0,2:0:0:0:
116,272,210147,1,8,0:2:0:0:
56,192,210434,2,0,L|2:201,2,55.0000016784668,2|0|8,3:1|3:0|0:2,2:0:0:0:
100,171,210865,2,0,B|81:148|81:148|84:67,1,110.000003356934,2|0,3:1|3:0,2:0:0:0:
116,30,211296,1,8,0:2:0:0:
205,68,211583,2,0,P|258:83|309:66,1,110.000003356934,2|8,3:1|0:2,2:0:0:0:
351,39,212013,38,0,L|347:148,1,110.000003356934,6|0,3:1|3:0,2:0:0:0:
324,192,212444,1,10,0:2:0:0:
227,171,212731,2,0,L|172:177,1,55.0000016784668,10|0,0:2|3:0,2:0:0:0:
123,167,213018,1,10,0:2:0:0:
79,191,213162,2,0,P|66:244|80:296,1,110.000003356934,0|0,3:0|3:0,2:0:0:0:
116,331,213592,1,10,0:2:0:0:
202,282,213879,2,0,L|311:294,1,110.000003356934,2|8,3:1|0:2,2:0:0:0:
346,328,214310,70,0,L|455:315,1,110.000003356934,14|0,3:1|3:0,2:0:0:0:
491,281,214741,1,8,0:2:0:0:
449,190,215028,2,0,P|454:163|459:136,2,55.0000016784668,2|0|8,3:1|3:0|0:2,2:0:0:0:
405,213,215458,2,0,P|351:210|309:175,1,110.000003356934,2|0,3:1|3:0,2:0:0:0:
275,139,215889,1,8,0:2:0:0:
206,67,216176,2,0,L|209:12,2,55.0000016784668,2|0|8,3:1|0:0|0:2,2:0:0:0:
170,101,216607,38,0,L|177:210,1,110.000003356934,6|0,3:1|3:0,2:0:0:0:
218,237,217037,1,8,0:2:0:0:
189,332,217324,2,0,P|135:342|82:329,1,110.000003356934,2|8,3:1|0:2,2:0:0:0:
41,301,217755,2,0,L|48:191,1,110.000003356934,2|0,3:1|3:0,2:0:0:0:
31,144,218186,1,8,0:2:0:0:
90,64,218473,2,0,P|89:36|83:9,2,55.0000016784668,0|0|8,3:0|3:0|0:2,2:0:0:0:
133,87,218903,70,0,L|242:80,1,110.000003356934,6|0,3:1|3:0,2:0:0:0:
281,49,219334,1,8,0:2:0:0:
369,89,219621,2,0,P|382:143|373:196,1,110.000003356934,2|8,3:1|0:2,2:0:0:0:
351,241,220052,2,0,L|241:234,1,110.000003356934,2|0,3:1|3:0,2:0:0:0:
193,220,220482,1,10,0:2:0:0:
112,277,220769,2,0,L|114:331,2,55.0000016784668,2|0|8,3:1|0:0|0:2,2:0:0:0:
87,234,221200,38,0,L|92:124,1,110.000003356934,6|0,3:1|3:0,2:0:0:0:
67,81,221631,1,10,0:2:0:0:
156,40,221918,2,0,P|184:43|211:46,1,55.0000016784668,10|0,0:2|3:0,2:0:0:0:
256,25,222205,1,10,0:2:0:0:
303,35,222348,2,0,P|319:88|317:143,1,110.000003356934,0|8,3:0|0:2,2:0:0:0:
311,192,222779,1,10,0:2:0:0:
332,236,222922,2,0,L|441:231,1,110.000003356934,0|10,3:0|0:2,2:0:0:0:
485,254,223353,1,2,3:1:0:0:
499,351,223640,70,0,L|389:346,1,110.000003356934,4|0,3:2|3:0,2:0:0:0:
343,366,224071,1,12,0:2:0:0:
238,260,224501,2,0,L|128:264,1,110.000003356934,4|0,3:2|3:0,2:0:0:0:
82,245,224932,1,12,0:2:0:0:
183,136,225363,2,0,P|183:108|179:81,1,55.0000016784668,0|8,3:0|0:2,2:0:0:0:
272,48,225793,38,0,P|279:102|279:157,1,110.000003356934,4|0,3:2|3:0,2:0:0:0:
267,205,226224,2,0,L|321:202,1,55.0000016784668,8|0,0:2|3:0,2:0:0:0:
409,322,226798,1,4,3:2:0:0:
409,322,226942,2,0,L|299:327,1,110.000003356934,0|0,3:0|3:0,2:0:0:0:
260,358,227372,1,2,3:2:0:0:
164,333,227659,2,0,L|109:337,2,55.0000016784668,8|0|0,0:2|3:0|3:0,2:0:0:0:
221,251,228233,37,12,3:1:0:0:
256,192,228377,12,0,233975,2:0:0:0:
