osu file format v14

[General]
AudioFilename: annabelmyqueen.mp3
AudioLeadIn: 0
PreviewTime: 202938
Countdown: 0
SampleSet: Soft
StackLeniency: 0.7
Mode: 0
LetterboxInBreaks: 0
WidescreenStoryboard: 1

[Editor]
Bookmarks: 62139,137137,137417,137510,160615,160802,160988,161081,161268,161454,235802
DistanceSpacing: 0.3
BeatDivisor: 6
GridSize: 32
TimelineZoom: 1.6

[Metadata]
Title:Hotarubi (REINCARNATE ver)
TitleUnicode:螢火 (REINCARNATE ver)
Artist:ELFENSJoN
ArtistUnicode:ELFENSJóN
Creator:Hanakumo Rin
Version:Twilight
Source:
Tags:dog food annabel japanese pop rock reincarnate remake album folk
BeatmapID:4448144
BeatmapSetID:2116675

[Difficulty]
HPDrainRate:7
CircleSize:4
OverallDifficulty:7.9
ApproachRate:9
SliderMultiplier:1.66
SliderTickRate:1

[Events]
//Background and Video events
0,0,"annabel.jpg",0,0
//Break Periods
2,42191,49217
//Storyboard Layer 0 (Background)
//Storyboard Layer 1 (Fail)
//Storyboard Layer 2 (Pass)
//Storyboard Layer 3 (Foreground)
//Storyboard Layer 4 (Overlay)
//Storyboard Sound Samples

[TimingPoints]
996,372.670807453416,6,2,1,40,1,0
996,-200,6,2,1,40,0,0
11612,-200,6,2,1,25,0,0
12078,-200,6,2,1,5,0,0
12178,372.670807453416,5,2,1,40,1,0
12178,-83.3333333333333,5,2,1,60,0,0
12731,-133.333333333333,5,2,1,45,0,0
26147,-133.333333333333,5,2,1,60,0,0
27078,-100,5,2,1,55,0,0
41991,372.670807453416,6,2,1,40,1,0
50929,-166.666666666667,6,2,1,40,0,0
59879,363.636363636364,6,2,1,40,1,0
60991,-166.666666666667,6,2,1,70,0,0
62115,372.670807453416,6,2,1,70,1,0
62115,-83.3333333333333,6,2,1,70,0,0
91736,-166.666666666667,6,2,1,55,0,0
95649,-166.666666666667,6,2,1,40,0,0
102363,372.670807453416,5,2,1,50,1,0
102729,-133.333333333333,5,2,1,50,0,0
115388,376.175548589342,5,2,1,50,1,0
115388,-133.333333333333,5,2,1,50,0,0
117268,372.670807453416,6,2,1,40,1,0
117268,-200,6,2,1,40,0,0
123976,-200,6,2,1,50,0,1
126212,-166.666666666667,6,2,1,45,0,0
136269,-166.666666666667,6,2,1,65,0,0
137387,-83.3333333333333,6,2,1,70,0,0
153044,386.100386100386,6,2,1,70,1,0
153044,-83.3333333333333,6,2,1,70,0,0
153818,370.37037037037,6,2,1,70,1,0
155299,368.776889981561,6,2,1,70,1,0
155299,-83.3333333333333,6,2,1,70,0,0
157511,377.358490566038,6,2,1,70,1,0
157511,-83.3333333333333,6,2,1,70,0,0
159775,370.828182941904,6,2,1,70,1,0
159775,-83.3333333333333,6,2,1,70,0,0
166449,394.736842105263,6,2,1,70,1,0
166646,384.615384615385,6,2,1,70,1,8
167222,372.670807453416,6,2,1,70,1,8
167967,-83.3333333333333,6,2,1,70,0,8
168712,372.670807453416,6,2,1,70,1,0
168712,-100,6,2,1,55,0,0
171507,398.671096345515,6,2,1,55,1,0
171905,-100,6,2,1,55,0,0
172045,378.310214375788,6,2,1,55,1,0
173936,359.281437125748,6,2,1,55,1,0
174474,380.952380952381,6,2,1,55,1,0
175426,374.414976599064,6,2,1,55,1,0
175987,346.820809248555,6,2,1,55,1,0
176543,372.670807453416,6,2,1,55,1,0
177474,405.405405405405,6,2,1,55,1,0
177676,372.670807453416,6,2,1,55,1,0
180847,342.661336379212,6,2,1,55,1,0
181189,384.615384615385,6,2,1,55,1,0
182150,360.36036036036,6,2,1,55,1,0
183231,376.411543287327,6,2,1,55,1,0
184360,377.358490566038,6,2,1,55,1,0
184926,400,6,2,1,55,1,0
185481,370.37037037037,6,2,1,55,1,0
186592,372.670807453416,6,2,1,55,1,0
197772,-100,6,2,1,40,0,1
200008,398.671096345515,6,2,1,40,1,0
200008,-250,6,2,1,40,0,0
203396,370.37037037037,6,2,1,40,1,0
203396,-250,6,2,1,40,0,0
203951,361.44578313253,6,2,1,40,1,0
203951,-250,6,2,1,40,0,0
204493,372.670807453416,6,2,1,40,1,0
204493,-250,6,2,1,40,0,0
204507,-250,6,2,1,40,0,0
212132,361.445783132531,6,2,1,60,1,0
212132,-83.3333333333333,6,2,1,60,0,0
213035,382.165605095541,6,2,1,50,1,0
213035,-200,6,2,1,50,0,0
213417,372.670807453416,6,2,1,70,1,0
213417,-83.3333333333333,6,2,1,70,0,0
226833,373.831775700935,6,2,1,70,1,0
226833,-83.3333333333333,6,2,1,70,0,0
229075,357.568533969011,6,2,1,70,1,0
229075,-83.3333333333333,6,2,1,70,0,0
229968,418.848167539267,6,2,1,70,1,0
230177,375,6,2,1,70,1,0
230177,-83.3333333333333,6,2,1,70,0,0
231302,372.670807453416,6,2,1,70,1,0
231302,-83.3333333333333,6,2,1,70,0,0
233910,382.165605095541,6,2,1,70,1,0
234097,-166.666666666667,6,2,1,70,0,0
234674,372.670807453416,6,2,1,70,1,0
235792,368.098159509202,6,2,1,65,1,8
235792,-100,6,2,1,65,0,0
237264,382.165605095541,6,2,1,65,1,0
238028,375.234521575985,6,2,1,65,1,0
240279,372.670807453416,6,2,1,65,1,0
242515,367.197062423501,6,2,1,65,1,0
244167,389.61038961039,6,2,1,65,1,0
244751,372.670807453416,6,2,1,65,1,0
246987,363.636363636364,6,2,1,65,1,0
250306,745.341614906832,5,2,1,40,1,0
268939,-200,5,2,1,30,0,0
270802,-200,5,2,1,20,0,0
271920,-200,5,2,1,10,0,0
272852,-200,5,2,1,5,0,0

[Colours]
Combo1 : 206,206,206
Combo2 : 151,255,151
Combo3 : 170,255,255

[HitObjects]
97,312,810,5,2,0:0:0:0:
97,312,903,1,2,0:0:0:0:
97,312,996,2,0,P|109:252|118:132,1,166,6|0,3:2|0:0,0:0:0:0:
112,19,1927,1,0,0:0:0:0:
57,78,2114,1,2,0:0:0:0:
203,10,2486,1,0,0:0:0:0:
203,10,2673,1,2,0:0:0:0:
408,70,3045,5,2,0:0:0:0:
408,70,3138,1,2,0:0:0:0:
408,70,3232,2,0,P|380:85|236:94,1,166,2|0,0:0|0:0,0:0:0:0:
10,163,4163,1,2,0:0:0:0:
92,152,4350,2,0,P|146:159|188:167,1,83,6|0,0:0|0:0,0:0:0:0:
349,159,4909,1,2,0:0:0:0:
292,211,5095,1,2,0:0:0:0:
370,261,5281,1,0,0:0:0:0:
277,229,5468,5,6,0:0:0:0:
246,301,5654,1,0,0:0:0:0:
291,364,5840,1,2,0:0:0:0:
167,247,6027,2,0,P|183:193|192:152,1,83,2|0,0:0|0:0,0:0:0:0:
144,17,6586,1,2,0:0:0:0:
144,17,6958,1,2,0:0:0:0:
144,17,7331,1,0,0:0:0:0:
339,177,7704,6,0,P|403:178|466:262,1,166,6|0,0:0|0:0,0:0:0:0:
222,189,8635,1,0,0:0:0:0:
267,130,8822,1,2,0:0:0:0:
141,209,9008,1,0,0:0:0:0:
286,256,9194,1,0,0:0:0:0:
180,102,9381,2,0,P|189:76|194:55,2,41.5
364,297,9940,6,0,P|411:298|443:283,1,83,2|2,0:3|0:0,0:0:0:0:
284,357,10499,2,0,P|225:345|192:338,1,83,2|0,0:3|0:0,0:0:0:0:
95,362,11058,1,2,0:3:0:0:
152,197,11244,1,2,0:0:0:0:
152,197,11337,1,2,0:0:0:0:
152,197,11430,1,2,0:0:0:0:
65,225,11617,2,2,P|54:158|81:118,1,103.75,2|0,0:0|0:1,0:1:0:0:
69,128,12178,6,0,P|46:233|11:340,1,199.199993920899,6|0,1:0|0:0,0:0:0:0:
182,84,12737,2,0,P|183:53|167:22,1,62.2500023746491,2|0,0:3|0:0,0:0:0:0:
87,38,13109,1,2,0:0:0:0:
188,177,13296,2,0,P|220:190|267:200,1,62.2500023746491,2|0,0:0|0:0,0:0:0:0:
380,87,13668,2,0,P|412:74|459:64,1,62.2500023746491,2|0,0:3|0:0,0:0:0:0:
394,175,14041,5,6,0:0:0:0:
285,4,14227,2,0,P|250:54|247:117,2,124.500004749298,2|2|0,0:0|0:3|0:0,0:0:0:0:
337,77,15159,2,0,P|365:73|396:59,1,62.2500023746491,2|0,0:0|0:0,0:0:0:0:
176,11,15532,2,0,P|147:15|116:28,1,62.2500023746491,2|0,0:3|0:0,0:0:0:0:
474,68,15904,5,6,0:0:0:0:
474,68,16277,1,2,0:0:0:0:
298,144,16463,2,0,P|220:154|160:165,1,124.500004749298,2|0,0:3|0:0,0:0:0:0:
389,228,17022,2,0,P|428:228|483:287,1,124.500004749298,2|2,0:0|0:3,0:0:0:0:
309,305,17581,5,2,0:0:0:0:
257,235,17768,2,0,P|276:164|290:96,1,124.500004749298,2|0,0:1|0:0,0:0:0:0:
151,248,18327,2,0,P|147:312|184:381,1,124.500004749298,2|0,0:3|0:0,0:0:0:0:
364,121,18886,2,0,P|359:90|347:54,1,62.2500023746491,2|0,0:0|0:0,0:0:0:0:
244,194,19258,2,0,P|235:223|230:254,1,62.2500023746491,2|0,0:3|0:0,0:0:0:0:
474,68,19631,5,6,0:0:0:0:
474,68,20004,1,2,0:0:0:0:
301,20,20190,2,0,P|240:16|180:64,1,124.500004749298,2|0,0:3|0:0,0:0:0:0:
90,92,20749,2,0,P|65:80|28:62,1,62.2500023746491,2|0,0:0|0:0,0:0:0:0:
234,192,21122,2,0,P|203:208|177:214,1,62.2500023746491,2|2,0:3|0:0,0:0:0:0:
38,368,21494,6,0,P|54:310|71:231,1,124.500004749298,2|0,0:0|0:0,0:0:0:0:
204,193,22053,2,0,P|196:132|162:70,1,124.500004749298,2|0,0:3|0:0,0:0:0:0:
265,330,22612,2,0,P|317:293|320:226,1,124.500004749298,2|2,0:1|0:3,0:0:0:0:
474,68,23358,5,6,0:0:0:0:
474,68,23730,1,2,0:0:0:0:
369,186,23917,2,0,P|334:181|300:173,1,62.2500023746491,2|0,0:3|0:0,0:0:0:0:
342,104,24289,1,2,0:0:0:0:
187,208,24476,2,0,P|119:200|44:198,1,124.500004749298,2|2,0:1|0:3,0:0:0:0:
63,197,25035,5,2,0:0:0:0:
107,0,25221,2,0,P|70:41|65:118,1,124.500004749298,6|0,0:0|0:0,0:0:0:0:
213,351,25780,2,0,P|250:310|255:233,1,124.500004749298,2|8,0:3|0:1,0:0:0:0:
228,222,26246,1,8,0:1:0:0:
190,204,26339,1,8,0:0:0:0:
437,251,26525,1,8,0:3:0:0:
282,150,26712,1,4,0:3:0:0:
342,302,26898,1,4,0:3:0:0:
448,106,27085,6,0,P|426:60|295:56,1,166,4|2,1:1|0:0,0:0:0:0:
134,95,27643,2,0,P|62:79|15:72,1,83,10|0,0:0|0:0,0:0:0:0:
141,252,28016,1,2,0:0:0:0:
238,132,28202,2,0,P|247:73|215:14,1,124.5,2|0,1:2|0:0,0:0:0:0:
218,17,28575,1,10,0:0:0:0:
93,167,28761,1,2,0:0:0:0:
258,250,28948,6,0,P|331:266|368:279,1,83,2|0,1:2|0:0,0:0:0:0:
327,176,29320,1,0,3:0:0:0:
167,253,29507,1,10,0:0:0:0:
317,343,29693,2,0,P|372:370|454:363,1,124.5,0|0,3:0|0:0,0:0:0:0:
434,369,30066,1,2,1:2:0:0:
404,221,30252,1,2,3:1:0:0:
451,98,30438,2,0,P|448:50|438:-4,1,83,10|0,3:2|3:2,0:0:0:0:
244,194,30811,6,0,P|278:266|265:385,1,166,2|2,1:0|0:0,0:0:0:0:
149,173,31370,2,0,L|181:2,1,166,10|0,0:0|0:0,0:0:0:0:
42,231,31929,2,0,P|76:254|117:260,1,83,2|0,1:2|0:0,0:0:0:0:
251,147,32302,1,10,0:0:0:0:
126,61,32488,2,0,L|140:123,1,41.5,2|2,0:0|0:0,0:0:0:0:
303,227,32674,6,0,P|377:254|471:221,1,166,2|0,1:2|0:0,0:0:0:0:
192,303,33233,2,0,P|117:281|12:268,1,166,10|0,0:0|0:0,0:0:0:0:
282,301,33792,2,0,P|304:349|328:398,1,83,2|0,1:2|0:0,0:0:0:0:
350,151,34165,1,10,0:0:0:0:
196,200,34351,1,2,0:1:0:0:
452,232,34538,5,6,1:0:0:0:
452,232,34910,1,2,0:0:0:0:
384,277,35097,1,10,0:0:0:0:
275,185,35283,1,2,0:0:0:0:
118,283,35469,1,2,0:0:0:0:
244,384,35656,2,0,P|261:336|270:252,1,124.5,2|0,1:2|0:0,0:0:0:0:
270,263,36028,2,0,P|217:247|167:229,1,83,10|2,0:0|0:0,0:0:0:0:
184,231,36308,5,2,0:1:0:0:
177,221,36401,2,0,P|175:139|192:40,1,166,2|0,1:0|0:0,0:0:0:0:
331,117,36960,2,0,P|372:127|421:132,1,83,10|0,0:0|0:0,0:0:0:0:
446,61,37333,1,0,0:0:0:0:
287,315,37519,2,0,P|299:250|270:171,1,124.5,6|0,1:2|0:0,0:0:0:0:
284,194,37892,2,0,P|338:196|395:202,1,83,14|8,0:0|0:1,0:0:0:0:
404,220,38171,1,8,0:1:0:0:
457,211,38264,1,6,1:2:0:0:
457,211,38637,5,2,0:0:0:0:
269,295,38823,2,0,P|215:284|126:347,1,166,10|2,0:0|0:0,0:0:0:0:
241,184,39382,2,0,P|253:142|264:81,1,83,2|0,1:2|0:0,0:0:0:0:
349,87,39755,2,0,P|357:46|368:6,1,83,10|0,0:0|0:0,0:0:0:0:
453,15,40128,5,14,0:0:0:0:
179,92,40314,2,0,P|131:98|38:18,1,166,4|0,1:0|0:0,0:0:0:0:
24,56,41991,1,6,0:0:0:0:
42,114,49817,5,2,0:0:0:0:
42,114,50189,1,2,0:0:0:0:
42,114,50562,1,2,0:0:0:0:
31,216,50935,6,0,P|114:224|181:220,1,149.399995440674,6|0,1:2|0:0,0:0:0:0:
238,169,51680,1,2,0:0:0:0:
43,359,52053,2,0,P|86:337|183:360,1,149.399995440674,2|0,0:0|0:0,0:0:0:0:
250,309,52798,1,2,0:0:0:0:
155,107,53171,6,0,P|173:54|183:-1,2,99.5999969604493,2|0|0,0:0|0:0|0:0,0:0:0:0:
83,149,54289,1,2,0:0:0:0:
272,81,54661,1,2,0:0:0:0:
448,185,55034,1,2,0:0:0:0:
390,262,55407,6,0,P|371:314|350:369,1,99.5999969604493,6|0,0:0|0:0,0:0:0:0:
344,151,55966,1,0,0:0:0:0:
344,151,56152,2,0,P|316:163|292:169,1,49.7999984802247,2|0,0:0|0:0,0:0:0:0:
174,105,56525,2,0,P|131:104|21:43,1,149.399995440674,6|0,0:0|0:0,0:0:0:0:
111,15,57270,1,2,0:0:0:0:
12,263,57643,6,0,P|49:250|71:239,1,49.7999984802247,6|0,0:0|0:0,0:0:0:0:
145,206,58015,2,0,P|182:219|204:230,1,49.7999984802247
265,268,58388,1,2,0:0:0:0:
265,268,58574,1,0,0:0:0:0:
85,109,58761,6,0,P|51:121|18:129,1,49.7999984802247,2|0,0:0|0:0,0:0:0:0:
179,57,59133,2,0,P|190:30|201:3,1,49.7999984802247
79,14,59506,1,2,0:0:0:0:
167,143,59692,5,2,0:0:0:0:
167,143,59786,1,2,0:0:0:0:
167,143,59879,1,6,0:0:0:0:
235,117,60060,1,2,0:0:0:0:
309,143,60242,1,0,0:0:0:0:
350,208,60424,1,2,0:0:0:0:
229,319,60606,1,0,0:0:0:0:
142,273,60788,1,6,0:0:0:0:
14,351,60969,5,14,0:0:0:0:
251,203,61151,2,0,P|261:231|279:262,1,49.7999984802247,4|0,1:0|0:0,0:0:0:0:
270,248,62115,6,0,P|261:179|341:52,1,199.199993920899,6|0,1:0|0:0,0:0:0:0:
455,232,62674,1,0,1:0:0:0:
339,177,62860,1,2,0:0:0:0:
361,267,63046,1,2,0:0:0:0:
467,120,63233,2,0,P|464:68|456:21,1,99.5999969604493,10|0,0:0|0:0,0:0:0:0:
224,90,63605,1,2,0:0:0:0:
382,189,63792,1,10,0:1:0:0:
382,189,63885,1,8,0:1:0:0:
382,189,63978,1,8,0:1:0:0:
348,86,64164,5,10,0:1:0:0:
170,195,64351,1,6,3:1:0:0:
271,318,64537,2,0,P|367:293|464:270,1,199.199993920899,8|2,0:1|1:0,0:0:0:0:
415,359,65096,1,2,0:0:0:0:
476,165,65282,1,0,1:0:0:0:
476,165,65376,1,0,1:0:0:0:
476,165,65469,2,0,P|453:117|438:73,1,99.5999969604493,14|0,0:0|0:0,0:0:0:0:
498,6,65841,1,2,0:0:0:0:
317,186,66028,2,0,P|296:284|260:403,1,199.199993920899,10|10,0:1|0:1,0:0:0:0:
147,198,66587,6,0,P|141:101|65:32,1,199.199993920899,6|0,1:2|0:0,0:0:0:0:
42,117,67146,1,0,1:0:0:0:
215,68,67332,2,0,P|294:83|350:86,1,99.5999969604493,2|2,0:0|0:0,0:0:0:0:
160,284,67705,2,0,P|111:286|53:267,1,99.5999969604493,10|0,0:0|0:0,0:0:0:0:
334,193,68077,2,0,P|406:192|478:299,1,199.199993920899,6|8,0:0|0:1,0:0:0:0:
274,263,68636,1,8,0:1:0:0:
353,298,68823,5,4,1:0:0:0:
237,188,69009,1,8,0:1:0:0:
206,342,69195,1,8,0:1:0:0:
422,218,69382,2,0,P|428:142|447:3,1,199.199993920899,4|0,1:2|1:0,0:0:0:0:
310,139,69941,1,14,0:0:0:0:
135,41,70127,1,2,0:1:0:0:
250,65,70313,1,0,1:0:0:0:
4,157,70500,1,8,0:0:0:0:
67,89,70686,1,8,0:3:0:0:
172,123,70872,1,4,0:3:0:0:
80,378,71059,6,0,P|126:305|94:199,1,199.199993920899,6|2,1:0|0:0,0:0:0:0:
300,8,71618,2,0,P|311:77|340:223,1,199.199993920899,6|2,1:2|0:0,0:0:0:0:
218,307,72177,2,0,P|292:321|388:366,1,149.399995440674,14|0,0:0|0:0,0:0:0:0:
360,349,72550,2,0,P|413:339|475:323,1,99.5999969604493,2|0,0:0|1:0,0:0:0:0:
260,206,72922,1,10,0:0:0:0:
424,231,73109,1,8,0:1:0:0:
243,90,73295,6,0,P|169:100|25:74,1,199.199993920899,6|0,1:2|0:0,0:0:0:0:
299,14,73854,2,0,P|377:32|431:37,1,99.5999969604493,0|0,1:0|0:0,0:0:0:0:
496,174,74227,1,0,1:0:0:0:
496,174,74320,1,0,1:0:0:0:
496,174,74413,2,0,P|453:177|398:200,1,99.5999969604493,14|0,0:0|0:0,0:0:0:0:
265,307,74786,1,6,0:0:0:0:
328,372,74972,1,8,0:1:0:0:
382,299,75158,2,0,P|367:251|355:203,1,99.5999969604493,0|8,1:0|0:1,0:0:0:0:
126,175,75531,6,0,P|161:111|112:-1,1,199.199993920899,6|0,1:0|0:0,0:0:0:0:
34,151,76090,2,0,P|61:305|71:351,1,199.199993920899,6|0,1:0|1:0,0:0:0:0:
313,197,76649,2,0,P|246:163|124:176,1,199.199993920899,14|0,0:0|0:0,0:0:0:0:
292,354,77208,1,10,0:1:0:0:
292,354,77301,1,8,0:1:0:0:
292,354,77394,1,8,0:1:0:0:
193,256,77581,1,10,0:1:0:0:
332,110,77767,6,0,P|404:122|487:131,1,149.399995440674,4|0,1:0|0:0,0:0:0:0:
479,130,78140,1,2,0:1:0:0:
280,22,78326,1,8,0:0:0:0:
129,199,78512,1,8,0:0:0:0:
250,122,78699,1,0,1:0:0:0:
26,21,78885,5,14,0:0:0:0:
143,105,79071,1,8,0:3:0:0:
143,105,79164,1,8,0:3:0:0:
143,105,79258,1,14,0:1:0:0:
183,1,79444,1,8,0:3:0:0:
103,16,79630,1,2,1:0:0:0:
227,78,79817,1,4,0:3:0:0:
68,205,80003,6,0,P|48:281|31:343,1,99.5999969604493,6|0,1:0|0:0,0:0:0:0:
42,301,80562,1,2,1:1:0:0:
248,219,80748,1,2,0:0:0:0:
109,103,80935,1,0,1:0:0:0:
109,103,81028,1,0,1:0:0:0:
109,103,81121,2,0,P|161:125|256:11,1,199.199993920899,14|0,0:0|0:0,0:0:0:0:
457,144,81680,2,0,P|398:139|329:129,1,99.5999969604493,10|0,0:1|0:0,0:0:0:0:
447,48,82053,5,8,0:1:0:0:
183,202,82239,2,0,P|275:209|383:225,1,199.199993920899,6|0,1:0|0:0,0:0:0:0:
206,303,82798,1,4,1:2:0:0:
266,351,82984,1,2,0:0:0:0:
380,224,83171,1,2,1:2:0:0:
228,72,83357,2,0,P|181:129|194:222,1,149.399995440674,14|0,0:0|0:0,0:0:0:0:
182,201,83730,1,2,0:0:0:0:
131,318,83916,2,0,P|80:326|28:336,1,99.5999969604493,8|0,0:1|0:0,0:0:0:0:
64,192,84289,5,8,0:1:0:0:
210,381,84475,2,0,P|205:313|202:174,2,199.199993920899,6|2|0,1:0|0:0|1:2,0:0:0:0:
420,278,85407,1,0,1:0:0:0:
335,131,85593,2,0,P|347:87|344:18,1,99.5999969604493,14|0,0:0|0:0,0:0:0:0:
348,240,85966,1,2,0:0:0:0:
258,66,86152,1,8,0:1:0:0:
258,66,86245,1,8,0:1:0:0:
258,66,86338,2,0,P|241:118|223:181,1,99.5999969604493,8|8,0:1|0:1,0:0:0:0:
32,274,86711,6,0,P|106:257|194:340,1,199.199993920899,6|0,1:0|0:0,0:0:0:0:
470,233,87270,1,4,1:0:0:0:
94,348,87643,1,0,1:0:0:0:
94,348,87736,1,2,1:0:0:0:
94,348,87829,2,0,P|100:290|103:232,1,99.5999969604493,14|0,0:0|0:0,0:0:0:0:
197,80,88202,1,0,1:0:0:0:
123,149,88388,1,8,0:3:0:0:
255,228,88574,1,4,0:3:0:0:
355,90,88761,1,8,0:0:0:0:
174,220,88947,6,0,P|186:309|202:412,1,149.399995440674,6|0,1:2|0:0,0:0:0:0:
194,367,89320,2,0,P|294:336|316:332,1,99.5999969604493,2|0,0:0|1:0,0:0:0:0:
458,226,89692,1,2,0:0:0:0:
340,156,89879,1,0,1:2:0:0:
226,221,90065,2,0,P|205:326|182:404,1,149.399995440674,14|0,0:0|0:0,0:0:0:0:
193,366,90438,1,2,0:0:0:0:
42,266,90624,1,10,0:1:0:0:
158,141,90810,1,2,0:0:0:0:
42,266,90997,1,10,0:1:0:0:
196,47,91183,5,14,0:0:0:0:
116,304,91369,1,8,0:0:0:0:
116,304,91743,2,0,P|123:270|124:205,1,99.5999969604493,2|8,0:1|0:1,0:0:0:0:
154,181,92208,1,8,0:1:0:0:
196,159,92301,1,8,0:0:0:0:
402,210,92487,1,0,1:0:0:0:
220,258,92674,1,14,0:0:0:0:
7,310,92860,1,8,0:3:0:0:
220,258,93046,1,4,0:3:0:0:
402,210,93233,1,4,0:3:0:0:
169,356,93419,5,4,1:0:0:0:
256,192,93512,12,6,95655,0:0:0:0:
80,121,96028,6,0,P|65:68|45:12,2,99.5999969604493,0|2|0,0:0|0:0|0:0,0:0:0:0:
95,224,97146,1,2,0:0:0:0:
156,1,97518,2,0,P|151:47|163:91,1,74.699997720337,2|0,0:0|0:0,0:0:0:0:
156,74,97891,6,0,P|271:80|385:320,1,398.399987841797,2|0,0:0|0:0,0:0:0:0:
388,308,99754,2,0,P|365:316|356:317,1,24.8999992401123,0|0,3:0|0:0,0:0:0:0:
272,231,100127,6,0,P|267:270|266:290,1,49.7999984802247,2|0,0:0|0:0,0:0:0:0:
266,280,100500,1,0,0:0:0:0:
236,161,100686,2,0,P|242:114|244:50,1,99.5999969604493,2|0,0:0|0:0,0:0:0:0:
159,184,101245,2,0,P|141:274|156:386,1,199.199993920899,2|0,0:0|0:0,0:0:0:0:
68,194,102363,6,0,P|62:108|103:34,1,166,6|0,1:2|0:0,0:0:0:0:
159,184,102922,2,0,P|159:242|178:332,1,124.500004749298,2|0,0:3|0:0,0:0:0:0:
245,355,103481,2,0,P|306:340|328:337,1,62.2500023746491,2|0,1:2|0:0,0:0:0:0:
446,266,103853,1,2,0:3:0:0:
344,262,104040,1,2,0:0:0:0:
269,185,104226,2,0,P|289:130|300:42,1,124.500004749298,2|0,1:2|0:0,0:0:0:0:
479,130,104785,2,0,P|442:122|376:170,1,124.500004749298,2|0,0:3|0:0,0:0:0:0:
253,187,105344,2,0,P|213:176|189:168,1,62.2500023746491,2|0,1:2|0:0,0:0:0:0:
118,205,105717,2,0,P|88:195|58:187,1,62.2500023746491,2|2,0:3|0:0,0:0:0:0:
347,245,106089,5,6,1:2:0:0:
347,245,106462,1,2,0:0:0:0:
192,268,106648,2,0,P|128:266|43:268,1,124.500004749298,2|0,0:3|0:0,0:0:0:0:
237,359,107207,2,0,P|252:331|263:302,1,62.2500023746491,2|0,1:2|0:0,0:0:0:0:
230,197,107580,2,0,P|219:167|209:138,1,62.2500023746491,2|0,0:3|0:0,0:0:0:0:
311,110,107953,2,0,P|321:42|361:-3,1,124.500004749298,2|0,1:2|0:0,0:0:0:0:
200,142,108512,2,0,P|138:119|84:95,1,124.500004749298,2|0,0:3|0:0,0:0:0:0:
192,243,109071,2,0,P|221:228|259:217,1,62.2500023746491,2|2,1:0|0:0,0:0:0:0:
327,252,109443,1,2,0:0:0:0:
399,201,109630,1,2,0:0:0:0:
504,306,109816,5,6,1:2:0:0:
504,306,110189,2,0,P|500:263|495:242,1,62.2500023746491,2|2,0:0|0:3,0:0:0:0:
464,155,110561,1,2,0:0:0:0:
424,276,110748,1,2,0:0:0:0:
340,5,110934,2,0,P|347:66|351:128,1,124.500004749298,2|2,1:2|0:3,0:0:0:0:
351,128,111493,1,2,0:0:0:0:
205,223,111679,6,0,P|154:186|70:195,1,124.500004749298,2|0,1:2|0:0,0:0:0:0:
289,233,112238,2,0,P|333:212|356:200,1,62.2500023746491,2|0,0:3|0:0,0:0:0:0:
272,151,112611,1,0,0:0:0:0:
286,313,112797,2,0,P|263:361|253:381,1,62.2500023746491,2|0,1:2|0:0,0:0:0:0:
419,243,113170,2,0,P|459:224|487:215,1,62.2500023746491,2|2,0:3|0:0,0:0:0:0:
489,176,113449,5,2,0:0:0:0:
491,128,113543,2,0,L|467:65,1,62.2500023746491,6|0,1:2|0:0,0:0:0:0:
387,6,113915,1,2,0:0:0:0:
356,163,114102,2,0,P|378:126|382:82,1,62.2500023746491,2|0,0:3|0:0,0:0:0:0:
387,6,114474,1,2,0:0:0:0:
388,241,114661,2,0,P|455:254|530:274,1,124.500004749298,2|2,1:2|0:3,0:0:0:0:
510,268,115388,5,14,0:0:0:0:
208,226,115576,2,0,P|150:199|66:208,1,124.500004749298,4|0,1:0|0:0,0:0:0:0:
252,315,116140,2,0,P|239:342|227:374,2,62.2500023746491,2|0|2,0:0|0:0|0:0,0:0:0:0:
327,278,116704,1,0,0:0:0:0:
292,209,116892,1,2,0:0:0:0:
354,107,117080,5,2,0:0:0:0:
354,107,117174,1,2,0:0:0:0:
354,107,117268,2,0,P|403:99|444:83,2,83,6|0|0,0:0|0:0|0:0,0:0:0:0:
287,43,118386,2,0,P|238:35|197:19,2,83,2|0|0,0:0|0:0|0:0,0:0:0:0:
209,149,119504,6,0,P|199:200|195:211,1,62.25,2|0,0:0|0:0,0:0:0:0:
195,209,119876,2,0,L|153:221,1,41.5
98,175,120249,2,0,L|74:216,1,41.5
18,257,120622,1,2,0:0:0:0:
249,308,120994,1,2,0:0:0:0:
18,257,121367,1,2,0:0:0:0:
198,112,121740,6,0,P|200:163|194:207,1,83,2|0,0:0|0:0,0:0:0:0:
142,245,122299,1,0,0:0:0:0:
142,245,122485,2,0,P|146:269|150:294,1,41.5,2|0,0:0|0:0,0:0:0:0:
198,112,122858,2,0,P|208:63|217:23,2,83,2|0|0,0:0|0:0|0:0,0:0:0:0:
263,280,123976,6,0,P|256:232|268:192,1,83,2|0,0:0|0:0,0:0:0:0:
284,181,124441,1,0,0:0:0:0:
271,165,124535,1,2,0:0:0:0:
256,176,124628,1,0,0:0:0:0:
264,199,124721,1,2,0:0:0:0:
307,237,124814,1,0,0:0:0:0:
382,235,124907,1,2,0:0:0:0:
441,177,125000,1,0,0:0:0:0:
414,90,125094,1,2,0:0:0:0:
355,104,125187,1,0,0:0:0:0:
312,72,125280,1,0,0:0:0:0:
318,26,125373,1,0,0:0:0:0:
345,9,125466,1,2,0:0:0:0:
380,15,125559,1,0,0:0:0:0:
395,25,125653,1,0,0:0:0:0:
402,34,125746,1,0,0:0:0:0:
403,44,125839,2,0,P|412:85|422:124,1,83,2|6,0:0|0:0,0:0:0:0:
469,296,126957,6,0,P|460:269|450:247,1,49.7999984802247,2|0,0:0|0:0,0:0:0:0:
364,282,127330,2,0,P|358:207|303:86,1,199.199993920899,2|0,0:0|0:0,0:0:0:0:
309,94,128261,1,0,0:0:0:0:
225,100,128448,6,0,P|240:55|247:-5,2,99.5999969604493,2|0|0,0:0|0:0|0:0,0:0:0:0:
149,132,129379,2,0,P|113:137|97:137,1,49.7999984802247,0|2,0:0|0:0,0:0:0:0:
28,115,129938,1,2,0:0:0:0:
28,115,130311,1,2,0:0:0:0:
242,185,130684,6,0,P|264:225|273:278,1,99.5999969604493,6|0,0:0|0:0,0:0:0:0:
209,325,131243,1,0,0:0:0:0:
209,325,131429,2,0,P|207:353|197:382,1,49.7999984802247,2|0,0:0|0:0,0:0:0:0:
337,191,131802,2,0,P|343:135|373:98,1,99.5999969604493,2|0,0:0|0:0,0:0:0:0:
472,162,132361,1,0,0:0:0:0:
423,217,132547,1,2,0:0:0:0:
423,217,132733,1,2,0:0:0:0:
266,106,132920,6,0,P|276:55|283:0,2,99.5999969604493,6|0|0,0:0|0:0|0:0,0:0:0:0:
210,156,133851,1,0,0:0:0:0:
154,110,134038,2,0,P|115:118|94:123,1,49.7999984802247,6|0,0:0|0:0,0:0:0:0:
45,74,134410,2,0,P|10:119|3:131,1,49.7999984802247
123,222,134783,1,2,0:0:0:0:
48,187,134969,1,0,0:0:0:0:
0,253,135156,5,4,0:0:0:0:
101,350,135342,1,2,0:0:0:0:
167,299,135528,1,4,0:0:0:0:
264,359,135715,1,2,0:0:0:0:
453,281,135901,1,6,0:0:0:0:
304,201,136087,1,2,0:0:0:0:
185,368,136274,5,14,0:0:0:0:
400,196,136460,2,0,P|396:171|386:149,1,49.7999984802247,4|0,1:0|0:0,0:0:0:0:
385,148,137393,6,0,P|367:101|204:94,1,199.199993920899,6|0,1:0|0:0,0:0:0:0:
26,212,137951,1,0,1:0:0:0:
91,137,138137,2,0,P|74:95|72:19,1,99.5999969604493,2|0,0:0|0:0,0:0:0:0:
261,204,138510,2,0,P|331:203|413:205,1,149.399995440674,10|0,0:0|0:1,0:0:0:0:
410,204,138882,1,8,0:1:0:0:
116,323,139069,2,0,P|171:320|226:320,1,99.5999969604493,10|0,0:1|0:0,0:0:0:0:
328,360,139441,5,10,0:1:0:0:
118,235,139628,1,6,1:0:0:0:
216,320,139814,2,0,P|200:236|251:124,1,199.199993920899,8|2,0:1|1:1,0:0:0:0:
256,24,140373,1,2,0:0:0:0:
132,119,140559,1,2,1:2:0:0:
321,193,140746,2,0,P|383:189|423:182,1,99.5999969604493,14|0,0:0|0:0,0:0:0:0:
489,210,141118,1,2,0:0:0:0:
219,297,141305,2,0,P|268:289|317:286,1,99.5999969604493,10|0,0:1|0:0,0:0:0:0:
321,290,141677,6,0,P|294:288|252:273,1,49.7999984802247,4|0,1:2|0:0,0:0:0:0:
0,183,141864,6,0,P|51:207|194:112,1,199.199993920899,6|0,1:0|0:0,0:0:0:0:
79,41,142423,1,0,1:0:0:0:
36,108,142609,1,2,0:0:0:0:
209,29,142795,1,2,1:2:0:0:
346,122,142982,2,0,P|400:132|465:140,1,99.5999969604493,14|0,0:0|0:0,0:0:0:0:
322,25,143354,1,2,0:0:0:0:
236,195,143541,1,10,0:1:0:0:
236,195,143634,1,8,0:1:0:0:
236,195,143727,1,8,0:1:0:0:
436,57,143913,5,10,0:1:0:0:
361,262,144100,2,0,P|268:283|236:288,1,99.5999969604493,6|0,1:0|0:0,0:0:0:0:
26,213,144472,1,8,0:1:0:0:
159,252,144659,1,2,1:2:0:0:
16,287,144845,1,2,0:0:0:0:
132,130,145031,1,0,1:0:0:0:
263,283,145218,2,0,P|308:226|288:95,1,199.199993920899,14|2,0:0|1:1,0:0:0:0:
169,56,145777,1,8,0:1:0:0:
238,24,145963,1,2,0:1:0:0:
396,155,146149,6,0,P|371:164|335:167,1,49.7999984802247,6|0,0:0|0:0,0:0:0:0:
201,217,146336,6,0,P|90:210|-11:211,1,199.199993920899,6|0,1:0|0:0,0:0:0:0:
260,276,146895,2,0,P|337:282|419:251,1,149.399995440674,6|0,1:0|0:0,0:0:0:0:
404,259,147268,1,0,1:0:0:0:
184,305,147454,2,0,P|139:346|103:397,1,99.5999969604493,14|0,0:0|0:0,0:0:0:0:
294,200,147827,1,2,0:0:0:0:
134,156,148013,1,8,0:1:0:0:
134,156,148106,1,8,0:1:0:0:
134,156,148199,2,0,P|149:88|136:4,1,149.399995440674,8|0,0:1|0:1,0:0:0:0:
138,9,148572,6,0,P|232:31|332:48,1,199.199993920899,6|0,1:2|0:0,0:0:0:0:
503,142,149131,2,0,P|482:190|341:208,1,199.199993920899,4|0,1:2|1:0,0:0:0:0:
243,268,149690,2,0,P|226:318|210:362,1,99.5999969604493,10|0,0:0|0:0,0:0:0:0:
137,140,150063,1,2,0:0:0:0:
298,326,150249,1,8,0:1:0:0:
155,226,150435,2,0,P|96:257|-7:264,1,149.399995440674,2|0,0:0|0:0,0:0:0:0:
14,266,150808,6,0,P|25:182|32:60,1,199.199993920899,6|0,1:0|0:0,0:0:0:0:
221,188,151367,2,0,P|259:106|239:-14,1,199.199993920899,6|0,1:2|1:0,0:0:0:0:
327,232,151926,2,0,P|365:268|510:255,1,199.199993920899,14|0,0:0|0:0,0:0:0:0:
408,79,152485,1,8,0:1:0:0:
408,79,152578,1,8,0:1:0:0:
408,79,152671,2,0,P|396:134|383:188,1,99.5999969604493,8|8,0:1|0:1,0:0:0:0:
208,120,153044,2,0,P|169:202|177:334,1,199.199993920899,6|0,1:2|0:0,0:0:0:0:
257,215,153623,1,0,1:0:0:0:
86,41,153818,5,2,0:0:0:0:
146,159,154003,1,2,1:2:0:0:
285,29,154188,1,14,0:0:0:0:
61,197,154373,5,4,1:1:0:0:
270,125,154558,1,10,0:0:0:0:
314,114,154651,1,8,0:0:0:0:
359,99,154743,1,8,0:3:0:0:
387,21,154929,1,4,0:3:0:0:
387,21,155114,1,4,0:3:0:0:
477,207,155299,6,0,P|479:302|409:373,1,199.199993920899,6|0,1:0|0:0,0:0:0:0:
274,251,155852,1,2,1:0:0:0:
350,267,156036,1,2,0:0:0:0:
252,329,156220,1,2,1:2:0:0:
118,251,156405,2,0,P|130:202|141:154,1,99.5999969604493,10|0,0:0|0:0,0:0:0:0:
175,71,156774,1,2,0:0:0:0:
42,358,156958,2,0,P|21:275|62:185,1,149.399995440674,10|0,0:1|0:0,0:0:0:0:
38,215,157327,1,10,0:1:0:0:
225,136,157511,6,0,P|323:158|425:167,1,199.199993920899,6|0,1:2|0:0,0:0:0:0:
132,164,158077,2,0,P|90:150|-1:153,1,99.5999969604493,6|0,1:2|0:0,0:0:0:0:
151,255,158454,1,2,1:2:0:0:
308,204,158643,2,0,P|333:148|262:11,1,199.199993920899,14|0,0:0|1:0,0:0:0:0:
221,171,159209,2,0,P|223:235|230:286,1,99.5999969604493,10|0,0:1|0:0,0:0:0:0:
374,134,159586,1,10,0:1:0:0:
287,26,159775,6,0,P|248:72|116:50,1,199.199993920899,6|0,1:0|0:0,0:0:0:0:
296,178,160331,1,0,1:0:0:0:
374,134,160516,2,0,P|438:146|500:155,1,99.5999969604493,2|0,0:0|1:0,0:0:0:0:
223,201,160887,2,0,P|129:187|23:187,1,199.199993920899,10|2,0:0|0:0,0:0:0:0:
173,330,161443,1,8,0:1:0:0:
104,268,161629,2,0,P|84:323|57:384,1,99.5999969604493,2|8,0:0|0:1,0:0:0:0:
300,186,161999,6,0,P|304:92|239:-5,1,199.199993920899,6|0,1:0|0:0,0:0:0:0:
234,239,162556,2,0,P|249:297|268:335,1,99.5999969604493,4|0,1:0|0:0,0:0:0:0:
270,337,162927,1,0,1:0:0:0:
483,168,163112,2,0,P|436:127|334:139,1,149.399995440674,14|0,0:0|0:0,0:0:0:0:
352,128,163483,1,0,1:0:0:0:
166,190,163668,1,8,0:0:0:0:
315,247,163854,1,2,0:0:0:0:
231,44,164039,6,0,P|224:77|220:129,1,49.7999984802247,6|0,0:0|0:0,0:0:0:0:
247,348,164224,6,0,P|266:233|282:115,1,199.199993920899,6|2,1:0|0:0,0:0:0:0:
240,64,164781,1,0,1:0:0:0:
367,160,164966,2,0,P|371:105|361:55,1,99.5999969604493,2|0,0:0|1:0,0:0:0:0:
190,189,165337,2,0,P|100:174|32:161,1,149.399995440674,10|0,0:0|0:0,0:0:0:0:
42,163,165708,2,0,P|32:220|15:278,1,99.5999969604493,2|8,0:0|0:1,0:0:0:0:
216,106,166079,2,0,P|204:40|193:-9,1,99.5999969604493,2|8,0:0|0:1,0:0:0:0:
113,24,166449,5,14,0:0:0:0:
376,172,166646,2,0,P|332:260|345:329,1,166,10|2,0:0|0:0,0:0:0:0:
432,305,167408,5,8,0:1:0:0:
432,305,167501,1,8,0:1:0:0:
432,305,167594,1,8,0:0:0:0:
216,226,167781,1,0,1:0:0:0:
491,176,167967,2,0,P|431:171|321:159,1,149.399995440674,14|8,0:0|0:1,0:0:0:0:
342,161,168340,1,8,0:0:0:0:
222,322,168526,1,8,0:0:0:0:
414,206,168712,6,0,P|427:140|385:36,1,166,6|0,1:0|0:0,0:0:0:0:
279,204,169271,2,0,P|288:276|308:374,1,166,2|0,1:2|0:0,0:0:0:0:
188,252,169830,2,0,P|126:234|67:213,1,124.5,10|0,0:0|0:0,0:0:0:0:
70,214,170202,1,2,0:0:0:0:
179,92,170389,2,0,P|206:85|248:68,1,41.5,8|8,0:1|0:1,0:0:0:0:
287,117,170575,2,0,P|360:100|400:92,1,83,2|8,0:0|0:1,0:0:0:0:
479,185,170948,6,0,P|435:191|378:209,1,83,6|0,1:0|0:0,0:0:0:0:
327,232,171320,1,0,0:0:0:0:
218,80,171507,2,0,P|127:83|75:152,1,166,4|0,1:2|1:0,0:0:0:0:
37,276,172045,2,0,P|111:254|174:258,1,124.5,14|0,0:0|0:0,0:0:0:0:
157,255,172423,1,2,0:0:0:0:
333,303,172612,1,12,0:1:0:0:
258,316,172801,1,2,0:0:0:0:
480,259,172990,1,8,0:1:0:0:
405,384,173179,6,0,P|407:342|405:285,2,83,6|2|2,1:2|0:0|0:0,0:0:0:0:
311,373,173747,1,0,1:0:0:0:
480,259,173936,2,0,P|474:149|467:72,1,166,6|10,0:0|0:0,0:0:0:0:
238,95,174474,1,2,0:0:0:0:
298,145,174664,2,0,P|361:139|412:131,1,83,2|8,0:0|0:1,0:0:0:0:
186,33,175045,2,0,P|123:39|72:47,1,83,2|8,0:0|0:1,0:0:0:0:
158,188,175426,6,0,P|121:298|132:370,1,166,6|0,1:2|0:0,0:0:0:0:
219,250,175987,2,0,P|235:182|239:137,2,83,0|2|0,1:0|0:0|0:0,0:0:0:0:
201,91,176420,1,0,1:0:0:0:
201,91,176543,1,14,0:0:0:0:
71,165,176729,1,8,0:1:0:0:
301,82,176915,1,0,1:0:0:0:
77,36,177102,1,8,0:0:0:0:
268,162,177288,1,8,0:0:0:0:
412,103,177474,6,0,L|425:52,1,41.5,6|0,0:0|0:0,0:0:0:0:
322,373,177676,6,0,P|345:327|338:176,1,166,4|0,1:0|0:0,0:0:0:0:
176,268,178235,2,0,P|76:248|-12:237,1,166,2|0,1:2|3:0,0:0:0:0:
214,183,178794,2,0,P|263:195|327:205,1,83,10|0,0:0|0:0,0:0:0:0:
295,200,179353,1,10,0:1:0:0:
340,293,179539,1,2,0:0:0:0:
476,288,179725,1,10,0:1:0:0:
368,165,179912,6,0,P|386:90|388:-8,1,166,0|0,1:0|0:0,0:0:0:0:
168,91,180471,2,0,P|166:143|181:201,2,83,2|0|2,1:2|0:0|0:0,0:0:0:0:
69,156,180932,1,0,1:2:0:0:
69,156,181018,1,14,0:0:0:0:
244,210,181189,1,2,0:1:0:0:
69,156,181381,1,2,0:0:0:0:
244,210,181573,2,0,P|338:229|388:310,1,166,10|8,0:1|0:1,0:0:0:0:
283,298,182150,6,0,P|227:346|120:334,1,166,6|0,1:0|0:0,0:0:0:0:
169,189,182690,2,0,P|182:243|191:299,1,83,2|0,1:2|0:0,0:0:0:0:
67,207,183050,1,0,1:0:0:0:
251,160,183231,2,0,P|218:101|238:-14,1,166,14|0,0:0|0:0,0:0:0:0:
319,63,183795,2,0,P|365:48|409:39,1,83,8|2,0:1|0:0,0:0:0:0:
185,206,184172,5,8,0:1:0:0:
185,206,184266,1,8,0:1:0:0:
185,206,184360,2,0,P|129:205|-3:186,1,166,6|0,1:2|0:0,0:0:0:0:
238,293,184926,2,0,P|271:229|246:127,1,166,6|0,1:2|3:0,0:0:0:0:
83,6,185481,2,0,P|76:67|78:129,1,124.5,14|0,0:0|0:0,0:0:0:0:
78,129,185851,1,2,1:0:0:0:
183,200,186037,1,2,0:1:0:0:
354,50,186222,1,14,0:0:0:0:
468,154,186407,1,2,0:1:0:0:
259,160,186592,6,0,P|216:94|250:-11,1,166,6|0,1:0|0:0,0:0:0:0:
336,143,187151,1,0,1:0:0:0:
294,228,187337,2,0,P|282:277|264:333,1,83,2|0,0:0|1:0,0:0:0:0:
403,211,187710,2,0,P|427:150|478:56,2,166,14|2|2,0:0|0:0|0:0,0:0:0:0:
365,284,188641,5,8,0:1:0:0:
512,378,188828,2,0,P|484:322|472:280,1,83,2|0,1:2|0:0,0:0:0:0:
338,132,189200,2,0,P|314:75|297:30,1,83,2|6,0:0|0:0,0:0:0:0:
449,46,189573,2,0,P|446:92|425:143,1,83,2|2,0:0|0:0,0:0:0:0:
267,210,189852,1,0,1:0:0:0:
267,210,189946,2,0,P|222:173|84:182,1,166,14|2,0:0|0:1,0:0:0:0:
47,252,190505,1,8,0:1:0:0:
102,308,190691,2,0,P|175:297|209:296,1,83,2|8,0:1|0:1,0:0:0:0:
290,201,191064,6,0,P|276:106|250:31,1,166,6|2,1:0|0:0,0:0:0:0:
192,114,191623,1,0,1:0:0:0:
379,217,191809,2,0,P|363:264|338:312,1,83,2|0,0:0|1:0,0:0:0:0:
83,196,192182,2,0,P|113:228|190:249,1,124.5,14|0,0:0|0:0,0:0:0:0:
188,249,192554,2,0,P|178:305|177:359,1,83,2|8,0:0|0:1,0:0:0:0:
317,131,192927,2,0,P|348:109|416:86,1,83,2|0,0:0|1:0,0:0:0:0:
476,289,193300,6,0,P|395:290|315:218,1,166,6|2,1:0|0:1,0:0:0:0:
418,21,193859,2,0,P|424:100|428:143,1,83,2|2,1:2|0:1,0:0:0:0:
447,177,194231,1,2,1:1:0:0:
283,365,194418,2,0,P|313:287|262:203,2,166,14|6|6,0:0|0:0|0:0,0:0:0:0:
31,170,195536,6,0,P|104:176|199:170,1,166,6|0,1:0|0:0,0:0:0:0:
252,108,196095,2,0,P|259:41|247:-6,1,83,2|0,1:2|0:0,0:0:0:0:
59,279,196654,2,0,P|136:313|224:303,1,166,14|2,0:0|0:0,0:0:0:0:
290,266,197213,1,2,0:1:0:0:
290,266,197399,2,0,P|329:320|356:345,1,83,8|8,0:1|0:1,0:0:0:0:
315,155,197772,6,0,P|329:93|342:57,1,83,6|2,1:2|0:0,0:0:0:0:
318,31,198051,1,2,0:0:0:0:
268,40,198144,1,2,0:0:0:0:
240,64,198237,1,0,0:0:0:0:
229,57,198331,1,0,1:2:0:0:
203,63,198424,1,2,0:0:0:0:
187,113,198517,1,0,0:0:0:0:
136,135,198610,1,2,0:0:0:0:
116,185,198703,1,0,0:0:0:0:
139,249,198796,1,2,1:2:0:0:
139,249,198890,2,0,L|100:289,1,41.5,14|2,0:0|0:0,0:0:0:0:
55,332,199076,2,0,L|75:384,1,41.5,8|2,0:1|0:0,0:0:0:0:
218,208,199262,1,2,0:0:0:0:
36,252,199449,1,8,0:1:0:0:
246,300,199635,1,0,3:0:0:0:
116,185,199821,1,0,3:0:0:0:
310,243,200008,2,0,P|391:260|513:275,1,199.2,4|0,1:0|0:0,0:0:0:0:
506,274,202200,5,2,0:0:0:0:
194,205,202998,2,0,P|201:178|203:162,1,33.2
169,104,203396,2,0,P|166:75|179:33,1,66.4,2|0,0:0|0:0,0:0:0:0:
272,0,203951,2,0,P|304:9|338:15,1,66.4
488,43,204493,6,0,P|450:139|239:150,1,332,6|0,1:2|0:0,0:0:0:0:
125,291,206729,2,0,P|149:192|160:85,1,199.2,2|0,0:0|0:0,0:0:0:0:
159,95,208219,1,2,0:0:0:0:
224,52,208406,1,2,0:0:0:0:
292,74,208592,1,2,0:0:0:0:
350,32,208778,1,2,0:0:0:0:
350,32,208965,2,0,P|388:25|430:23,1,66.4,6|0,0:0|0:0,0:0:0:0:
496,107,211201,6,0,P|435:122|361:107,1,132.8,2|0,0:0|0:0,0:0:0:0:
367,109,212132,5,0,1:0:0:0:
67,216,212312,2,0,P|117:209|252:201,1,149.399995440674,14|0,0:0|0:0,0:0:0:0:
215,201,212674,1,8,0:1:0:0:
394,228,212854,1,8,0:0:0:0:
312,292,213035,2,0,P|310:315|300:355,1,62.25,8|0,0:3|0:0,0:0:0:0:
300,352,213417,6,0,P|284:303|264:258,1,99.5999969604493,6|0,1:0|0:0,0:0:0:0:
178,172,213789,1,2,0:0:0:0:
490,275,213976,2,0,P|415:260|370:248,1,99.5999969604493,2|0,1:0|0:0,0:0:0:0:
465,192,214348,1,2,0:0:0:0:
109,264,214535,2,0,P|181:281|253:300,1,149.399995440674,14|8,0:0|0:1,0:0:0:0:
253,300,214907,2,0,P|292:360|320:379,1,99.5999969604493,2|8,0:0|0:1,0:0:0:0:
356,370,215187,1,8,0:1:0:0:
394,343,215280,1,8,0:1:0:0:
262,196,215467,1,8,0:1:0:0:
395,19,215653,6,0,P|445:51|448:196,1,199.199993920899,6|0,1:0|0:0,0:0:0:0:
386,109,216213,1,4,1:2:0:0:
455,311,216398,2,0,P|374:303|292:298,1,149.399995440674,2|0,0:0|0:0,0:0:0:0:
306,298,216772,2,0,P|320:250|324:200,1,99.5999969604493,14|0,0:0|0:0,0:0:0:0:
153,25,217144,1,2,0:0:0:0:
316,103,217331,1,10,0:1:0:0:
132,186,217516,1,2,0:0:0:0:
256,34,217702,1,2,1:0:0:0:
386,185,217889,6,0,P|323:283|321:389,1,199.199993920899,6|0,1:0|0:0,0:0:0:0:
448,258,218448,2,0,P|471:173|485:59,1,199.199993920899,2|0,1:2|1:0,0:0:0:0:
304,128,219007,2,0,P|246:92|156:92,1,149.399995440674,14|0,0:0|0:0,0:0:0:0:
166,89,219379,2,0,P|153:146|129:209,1,99.5999969604493,2|8,0:0|0:1,0:0:0:0:
268,362,219752,2,0,P|259:314|246:235,1,99.5999969604493,2|8,0:0|0:1,0:0:0:0:
399,33,220125,5,6,1:2:0:0:
244,181,220311,1,8,0:1:0:0:
479,178,220497,1,8,0:1:0:0:
299,81,220684,1,4,1:2:0:0:
368,258,220870,1,2,0:0:0:0:
465,91,221056,1,2,1:2:0:0:
281,215,221243,2,0,P|275:265|276:313,1,99.5999969604493,14|0,0:0|0:0,0:0:0:0:
374,150,221615,1,0,1:0:0:0:
141,17,221802,5,10,0:1:0:0:
277,119,221988,5,10,0:1:0:0:
138,339,222174,6,0,P|135:318|136:268,1,49.7999984802247,2|0,1:0|0:0,0:0:0:0:
222,13,222361,6,0,P|201:114|170:205,1,199.199993920899,6|0,1:0|0:0,0:0:0:0:
237,254,222920,1,0,1:0:0:0:
6,332,223106,2,0,P|85:316|136:299,1,99.5999969604493,2|2,0:0|0:0,0:0:0:0:
347,228,223479,2,0,P|416:235|453:357,1,199.199993920899,14|0,0:0|0:0,0:0:0:0:
279,146,224038,2,0,P|298:83|314:33,1,99.5999969604493,10|0,0:1|0:0,0:0:0:0:
398,147,224410,1,10,0:1:0:0:
209,228,224597,6,0,P|118:213|76:210,1,99.5999969604493,6|8,1:2|0:1,0:0:0:0:
67,179,224876,1,8,0:1:0:0:
36,138,224969,2,0,P|101:151|129:154,1,49.7999984802247,8|0,0:1|0:0,0:0:0:0:
241,306,225156,2,0,P|291:309|339:323,1,99.5999969604493,6|8,1:2|0:1,0:0:0:0:
370,366,225435,1,8,0:1:0:0:
413,346,225528,1,8,1:1:0:0:
378,306,225621,1,8,0:1:0:0:
339,323,225715,2,0,P|366:245|383:140,1,149.399995440674,14|0,0:0|0:0,0:0:0:0:
379,179,226087,1,2,1:2:0:0:
206,2,226274,2,0,P|228:70|369:80,1,199.199993920899,6|0,0:0|1:0,0:0:0:0:
223,260,226833,6,0,P|119:240|21:226,1,199.199993920899,6|0,1:0|0:0,0:0:0:0:
277,187,227393,1,0,1:0:0:0:
306,269,227580,2,0,P|324:332|343:386,1,99.5999969604493,2|0,0:0|1:0,0:0:0:0:
412,150,227954,1,14,0:0:0:0:
412,150,228328,1,2,1:2:0:0:
475,86,228515,1,8,0:1:0:0:
282,101,228702,2,0,P|223:102|153:103,1,99.5999969604493,2|0,0:0|1:0,0:0:0:0:
109,69,229075,5,4,1:0:0:0:
25,263,229253,2,0,P|88:249|193:333,2,199.199993920899,2|2|2,0:1|1:0|1:0,0:0:0:0:
173,159,230177,2,0,P|232:180|282:191,1,99.5999969604493,14|0,0:0|0:0,0:0:0:0:
366,327,230552,2,0,P|435:318|477:302,1,99.5999969604493,6|8,1:2|0:1,0:0:0:0:
313,124,230927,1,6,0:0:0:0:
391,248,231114,5,8,0:3:0:0:
391,248,231208,1,8,0:3:0:0:
391,248,231302,2,0,P|385:185|447:60,1,199.199993920899,6|2,1:0|0:0,0:0:0:0:
300,41,231861,1,0,1:0:0:0:
223,150,232047,2,0,P|169:157|113:156,1,99.5999969604493,2|0,0:0|1:0,0:0:0:0:
276,334,232420,2,0,P|375:333|506:328,1,199.199993920899,14|2,0:0|0:0,0:0:0:0:
320,158,232979,1,10,0:1:0:0:
218,250,233165,1,2,0:0:0:0:
407,231,233351,1,10,0:1:0:0:
241,49,233538,5,14,0:0:0:0:
313,320,233724,1,4,1:0:0:0:
313,320,234101,2,0,P|320:281|322:231,1,74.699997720337,2|0,0:0|0:0,0:0:0:0:
322,246,234483,5,8,0:1:0:0:
284,214,234578,1,8,0:1:0:0:
235,229,234674,1,8,0:0:0:0:
0,146,234860,1,8,0:3:0:0:
326,122,235046,1,14,0:0:0:0:
145,212,235233,1,0,1:0:0:0:
92,232,235326,1,8,0:3:0:0:
45,208,235419,1,8,0:3:0:0:
226,116,235605,2,0,L|209:169,1,41.5,4|4,0:3|0:3,0:0:0:0:
123,366,235792,6,0,P|135:321|146:271,2,83,6|2|2,1:0|0:0|0:0,0:0:0:0:
232,232,236344,2,0,P|271:209|394:215,1,166,2|0,1:0|1:0,0:0:0:0:
430,233,236804,1,0,1:0:0:0:
484,216,236896,1,14,0:0:0:0:
484,216,237264,2,0,P|419:204|397:198,1,83,2|8,0:0|0:1,0:0:0:0:
258,275,237646,2,0,P|217:265|176:258,1,83,2|8,0:0|0:1,0:0:0:0:
385,365,238028,6,0,P|442:354|494:333,1,83,6|8,1:0|0:1,0:0:0:0:
380,279,238403,1,2,0:0:0:0:
241,354,238590,2,0,P|160:360|97:323,1,124.5,2|0,1:2|0:0,0:0:0:0:
121,343,238966,1,2,1:2:0:0:
288,211,239153,1,10,0:0:0:0:
121,343,239341,1,2,0:1:0:0:
72,260,239528,2,0,P|79:213|96:155,1,83,2|8,0:0|0:1,0:0:0:0:
278,106,239904,2,0,P|239:134|186:163,1,83,2|8,0:0|0:1,0:0:0:0:
20,105,240279,6,0,P|29:65|158:47,1,166,6|8,1:0|0:1,0:0:0:0:
307,123,240838,2,0,P|380:133|509:143,1,166,6|0,1:2|1:0,0:0:0:0:
232,49,241397,1,14,0:0:0:0:
330,43,241583,2,0,P|321:87|296:142,1,83,10|2,0:1|0:0,0:0:0:0:
160,209,241956,2,0,P|140:262|170:371,1,166,10|8,0:1|0:1,0:0:0:0:
307,282,242515,6,0,P|365:291|405:295,1,83,6|8,1:0|0:1,0:0:0:0:
469,294,242882,1,2,0:0:0:0:
282,195,243065,2,0,P|346:207|476:220,1,166,0|0,1:0|1:0,0:0:0:0:
227,13,243616,2,0,P|190:55|184:184,1,166,14|2,0:0|1:0,0:0:0:0:
88,283,244167,1,8,0:1:0:0:
182,235,244361,1,2,0:1:0:0:
327,200,244556,6,0,P|300:197|259:189,1,41.5,6|0,1:2|0:0,0:0:0:0:
13,306,244751,6,0,P|53:300|148:385,1,166,6|0,1:0|0:0,0:0:0:0:
223,315,245310,1,0,1:2:0:0:
263,280,245403,1,2,0:0:0:0:
300,317,245496,2,0,L|283:375,1,41.5,2|0,0:0|0:0,0:0:0:0:
374,315,245682,1,0,1:0:0:0:
395,276,245775,1,2,0:0:0:0:
441,264,245869,2,0,L|484:250,1,41.5,14|0,0:0|0:0,0:0:0:0:
484,173,246055,2,0,L|443:163,1,41.5,2|0,0:1|0:0,0:0:0:0:
402,154,246241,1,2,0:0:0:0:
377,181,246334,1,2,0:0:0:0:
301,129,246521,2,0,L|275:177,1,41.5,8|2,0:1|0:0,0:0:0:0:
246,205,246707,1,2,0:0:0:0:
265,243,246800,1,8,0:1:0:0:
288,286,246893,1,8,0:1:0:0:
174,203,246987,6,0,L|115:183,1,41.5,6|0,1:0|0:0,0:0:0:0:
66,238,247168,2,0,L|56:187,3,41.5,0|0|2|0,1:0|0:0|0:0|0:0,0:0:0:0:
100,116,247532,2,0,L|132:60,3,41.5,0|0|2|0,1:0|0:0|0:0|0:0,0:0:0:0:
12,19,247896,2,0,L|48:72,1,41.5,0|0,1:0|0:0,0:0:0:0:
163,287,248077,2,0,P|187:240|196:105,1,166,14|0,0:0|0:0,0:0:0:0:
286,4,248623,1,8,0:1:0:0:
275,45,248714,1,8,0:1:0:0:
303,92,248805,1,2,0:0:0:0:
280,146,248896,1,8,0:1:0:0:
294,182,248987,1,2,0:0:0:0:
312,222,249077,1,8,0:1:0:0:
81,190,250306,5,2,0:0:0:0:
81,190,250678,2,0,P|131:196|172:200,1,83
163,199,251236,1,0,0:0:0:0:
190,275,251423,2,0,P|240:281|281:285,1,83
272,284,252045,2,0,L|311:269,1,27.6666666666667,2|2,0:0|0:0,0:0:0:0:
341,245,252293,1,2,0:0:0:0:
404,202,252541,1,2,0:0:0:0:
451,289,252790,2,0,P|463:247|409:104,1,193.666666666667,2|2,0:0|0:1,0:0:0:0:
416,110,254031,5,2,0:0:0:0:
444,29,254404,2,0,P|406:40|349:49,1,83,2|0,0:0|0:0,0:0:0:0:
363,47,254963,1,0,0:0:0:0:
325,116,255149,2,0,P|284:123|244:134,1,83
36,69,255895,2,0,P|61:77|121:79,1,83,2|0,0:0|0:0,0:0:0:0:
130,152,256454,2,0,P|171:131|205:111,1,83
236,49,257013,1,2,0:0:0:0:
236,49,257385,1,0,0:0:0:0:
144,99,257758,6,0,P|127:150|124:192,1,83,2|0,0:0|0:0,0:0:0:0:
214,328,258503,2,0,P|220:361|223:378,1,41.5
140,321,258876,1,2,0:0:0:0:
190,141,259249,1,2,0:0:0:0:
1,207,259621,2,0,P|69:212|100:217,1,83,2|0,0:0|0:0,0:0:0:0:
20,302,260243,2,0,P|83:308|152:295,1,110.666666666667,2|0,0:0|0:0,0:0:0:0:
363,361,261112,6,0,P|371:339|377:320,1,41.5,0|2,0:0|0:0,0:0:0:0:
439,355,261485,2,0,P|454:326|458:270,1,83,2|0,0:0|0:0,0:0:0:0:
472,175,262230,2,0,P|471:145|465:117,1,41.5
384,90,262603,1,2,0:0:0:0:
213,273,262975,1,2,0:0:0:0:
386,181,263348,2,0,P|329:199|290:202,1,83,2|0,0:0|0:0,0:0:0:0:
186,128,263907,2,0,P|216:134|279:138,1,83
90,196,264466,2,0,P|106:213|320:235,1,249,2|0,0:0|0:0,0:0:0:0:
433,290,265833,6,0,L|443:315,1,27.6666666666667,2|2,0:0|0:0,0:0:0:0:
475,313,266082,1,2,0:0:0:0:
256,192,266206,12,0,272852,0:0:0:0:
