osu file format v14

[General]
AudioFilename: audio.mp3
AudioLeadIn: 0
PreviewTime: 58388
Countdown: 0
SampleSet: Soft
StackLeniency: 0.7
Mode: 0
LetterboxInBreaks: 0
WidescreenStoryboard: 0

[Editor]
Bookmarks: 15553,30841,49014,59399,73245,91418,109879,113341,127186,139589,151417,165263,179398,198148,211994,225840,239686,253532,267378,280215
DistanceSpacing: 1.5
BeatDivisor: 4
GridSize: 8
TimelineZoom: 2.799999

[Metadata]
Title:Hexenjagd
TitleUnicode:Hexenjagd
Artist:ELFENSJoN
ArtistUnicode:ELFENSJóN
Creator:Hinsvar
Version:Expert
Source:
Tags:エルフェンシオン EINHERJAR Japanese rock alternative animecore metalcore jrock vrock J-Rock okogeeechann みゅー Myu ORYO 黒瀬 圭亮 Kurose Keisuke female vocals Featured Artist FA Mappers' Guild MG MPG
BeatmapID:2324484
BeatmapSetID:1112621

[Difficulty]
HPDrainRate:6
CircleSize:4.4
OverallDifficulty:9
ApproachRate:9.4
SliderMultiplier:1.6
SliderTickRate:1

[Events]
//Background and Video events
0,0,"hexenjagd.jpg",0,0
//Break Periods
2,139789,150299
//Storyboard Layer 0 (Background)
//Storyboard Layer 1 (Fail)
//Storyboard Layer 2 (Pass)
//Storyboard Layer 3 (Foreground)
//Storyboard Layer 4 (Overlay)
//Storyboard Sound Samples

[TimingPoints]
2602,288.461538461538,6,2,2,50,1,0
9525,-303.030303030303,6,2,2,50,0,0
11255,-200,6,2,2,55,0,0
12914,-200,6,2,2,5,0,0
12986,-149.253731343284,6,2,2,60,0,0
14717,-120.481927710843,6,2,2,65,0,0
15474,-120.481927710843,6,2,2,5,0,0
15553,288.461538461538,6,2,1,70,1,0
15553,-166.666666666667,6,2,1,70,0,0
15841,-142.857142857143,6,2,1,70,0,0
16129,-125,6,2,1,70,0,0
16346,-125,6,2,1,5,0,0
16418,288.461538461538,6,2,1,75,1,0
16418,-100,6,2,1,75,0,0
19014,-100,6,2,1,65,0,0
21610,-66.6666666666667,6,2,1,75,0,0
22475,-100,6,2,1,65,0,0
22908,-200,6,2,1,55,0,0
23341,-100,6,2,1,75,0,0
24278,-100,6,2,1,5,0,0
24350,-100,6,2,1,75,0,0
24422,-100,6,2,1,5,0,0
24494,-100,6,2,1,75,0,0
25937,-100,6,2,1,65,0,0
26802,-100,6,2,1,75,0,0
28533,-66.6666666666667,6,2,1,55,0,0
28749,-66.6666666666667,6,2,1,5,0,0
28821,-66.6666666666667,6,2,1,65,0,0
28893,-66.6666666666667,6,2,1,5,0,0
28966,-200,6,2,1,55,0,0
29182,-200,6,2,1,5,0,0
29254,-133.333333333333,6,2,1,65,0,0
29470,-133.333333333333,6,2,1,5,0,0
29542,-133.333333333333,6,2,1,65,0,0
29759,-133.333333333333,6,2,1,5,0,0
29831,-80,6,2,1,65,0,0
30047,-80,6,2,1,5,0,0
30119,-400,6,2,1,50,0,0
30552,-400,6,2,1,55,0,0
30696,-400,6,2,1,60,0,0
30841,288.461538461538,4,2,1,60,1,0
31273,-133.333333333333,4,2,1,60,0,0
32860,-100,4,2,1,60,0,0
33076,-100,4,2,1,5,0,0
33148,-133.333333333333,4,2,1,60,0,0
35384,-133.333333333333,4,2,1,5,0,0
35456,-100,4,2,1,60,0,0
35889,-133.333333333333,4,2,1,60,0,0
37475,-100,4,2,1,60,0,0
37691,-100,4,2,1,5,0,0
37764,-133.333333333333,4,2,1,60,0,0
39999,-133.333333333333,4,2,1,5,0,0
40071,-100,4,2,1,60,0,0
40504,-133.333333333333,4,2,1,60,0,0
42090,-100,4,2,1,60,0,0
42307,-100,4,2,1,5,0,0
42379,-133.333333333333,4,2,1,60,0,0
44615,-133.333333333333,4,2,1,5,0,0
44687,-100,4,2,1,60,0,0
45264,-133.333333333333,4,2,1,60,0,0
46706,288.461538461538,4,2,1,65,1,0
46706,-133.333333333333,4,2,1,65,0,0
47282,-100,4,2,1,70,0,0
48725,-80,4,2,1,70,0,0
49014,288.461538461538,6,2,1,75,1,0
50167,-200,6,2,1,75,0,0
50744,-100,6,2,1,75,0,0
51898,-200,6,2,1,75,0,0
52475,-100,6,2,1,75,0,0
52836,-100,6,2,1,5,0,0
52908,-100,6,2,1,75,0,0
53124,-100,6,2,1,5,0,0
53196,-100,6,2,1,75,0,0
53557,-100,6,2,1,5,0,0
53629,-200,6,2,1,55,0,0
53773,-200,6,2,1,5,0,0
53845,-200,6,2,1,55,0,0
54134,-200,6,2,1,5,0,0
54206,-100,6,2,1,75,0,0
54566,-100,6,2,1,5,0,0
54638,-100,6,2,1,75,0,0
54855,-100,6,2,1,5,0,0
54927,-100,6,2,1,75,0,0
55288,-100,6,2,1,5,0,0
55360,-100,6,2,1,75,0,0
57667,-200,6,2,1,55,0,0
58821,-133.333333333333,6,2,1,65,0,0
59398,-80,6,2,1,85,0,1
60480,-80,6,2,1,5,0,1
60552,-133.333333333333,6,2,1,75,0,1
61129,-80,6,2,1,85,0,1
62211,-80,6,2,1,5,0,1
62283,-80,6,2,1,75,0,1
62860,-80,6,2,1,85,0,1
63941,-80,6,2,1,5,0,1
64013,-133.333333333333,6,2,1,75,0,1
64590,-80,6,2,1,85,0,1
65456,-80,6,2,1,75,0,1
65744,-80,6,2,1,65,0,1
66033,-80,6,2,1,75,0,1
66321,-80,6,2,1,85,0,1
67403,-80,6,2,1,5,0,1
67475,-133.333333333333,6,2,1,75,0,1
68052,-80,6,2,1,85,0,1
69134,-80,6,2,1,5,0,1
69206,-133.333333333333,6,2,1,75,0,1
69783,-80,6,2,1,85,0,1
70864,-80,6,2,1,5,0,1
70937,-80,6,2,1,75,0,1
71513,-80,6,2,1,85,0,1
72595,-80,6,2,1,5,0,1
72667,-80,6,2,1,75,0,0
73244,-80,6,2,1,85,0,1
74398,-133.333333333333,6,2,1,75,0,1
74975,-80,6,2,1,85,0,1
76129,-80,6,2,1,75,0,1
77788,-80,6,2,1,5,0,1
77860,-133.333333333333,6,2,1,85,0,1
78437,-80,6,2,1,85,0,1
79302,-80,6,2,1,75,0,1
79590,-80,6,2,1,65,0,1
79879,-80,6,2,1,75,0,1
80167,-80,6,2,1,85,0,1
81898,-200,6,2,1,60,0,0
82763,-200,6,2,1,50,0,0
83052,-200,6,2,1,60,0,0
83268,-200,6,2,1,5,0,0
83340,-200,6,2,1,60,0,0
83557,-200,6,2,1,5,0,0
83629,-100,6,2,1,75,0,1
83701,-100,6,2,1,75,0,0
86225,-100,6,2,1,65,0,0
87090,-100,6,2,1,75,0,0
88821,-100,6,2,1,75,0,0
89038,-100,6,2,1,5,0,0
89110,-66.6666666666667,6,2,1,75,0,0
89182,-66.6666666666667,6,2,1,5,0,0
89254,-200,6,2,1,75,0,0
89470,-200,6,2,1,5,0,0
89542,-100,6,2,1,75,0,0
89759,-100,6,2,1,5,0,0
89831,-100,6,2,1,75,0,0
90047,-100,6,2,1,5,0,0
90119,-200,6,2,1,75,0,0
90408,-200,6,2,1,65,0,0
90840,-100,6,2,1,70,0,0
91417,288.461538461538,4,2,1,65,1,0
91417,-114.942528735632,4,2,1,65,0,0
95455,-200,4,2,1,65,0,0
96032,-114.942528735632,4,2,1,65,0,0
96609,-200,4,2,1,65,0,0
97186,-114.942528735632,4,2,1,65,0,0
97763,-200,4,2,1,65,0,0
98267,-200,4,2,1,5,0,0
98340,-114.942528735632,4,2,1,65,0,0
98916,-200,4,2,1,65,0,0
99493,-100,4,2,1,70,0,0
100287,-100,4,2,1,5,0,0
100359,-114.942528735632,4,2,1,50,0,0
100647,-100,4,2,1,70,0,0
100936,-100,4,2,1,75,0,0
107859,-100,4,2,1,65,0,0
108436,-100,4,2,1,75,0,0
108724,-100,4,2,1,65,0,0
109301,-100,4,2,1,75,0,0
109590,-100,4,2,1,65,0,0
109878,288.461538461538,6,2,1,65,1,0
109878,-133.333333333333,6,2,1,65,0,0
113339,-80,6,2,1,85,0,1
114421,-80,6,2,1,5,0,1
114493,-133.333333333333,6,2,1,75,0,1
115070,-80,6,2,1,85,0,1
115286,-80,6,2,1,5,0,1
115358,-80,6,2,1,85,0,1
116152,-80,6,2,1,5,0,1
116224,-133.333333333333,6,2,1,75,0,1
116801,-80,6,2,1,85,0,1
117882,-80,6,2,1,5,0,1
117954,-133.333333333333,6,2,1,75,0,1
118531,-80,6,2,1,85,0,1
119397,-80,6,2,1,75,0,1
119685,-80,6,2,1,65,0,1
119974,-80,6,2,1,75,0,1
120262,-80,6,2,1,85,0,1
121344,-80,6,2,1,5,0,1
121416,-133.333333333333,6,2,1,75,0,1
121993,-80,6,2,1,85,0,1
122209,-80,6,2,1,5,0,1
122281,-80,6,2,1,85,0,1
123075,-80,6,2,1,5,0,1
123147,-133.333333333333,6,2,1,75,0,1
123724,-80,6,2,1,85,0,1
124805,-80,6,2,1,5,0,1
124877,-133.333333333333,6,2,1,75,0,1
125454,-80,6,2,1,85,0,1
126536,-80,6,2,1,5,0,1
126608,-80,6,2,1,75,0,0
127185,-80,6,2,1,85,0,1
127402,-80,6,2,1,5,0,1
127474,-80,6,2,1,85,0,1
128483,-133.333333333333,6,2,1,75,0,1
128916,-80,6,2,1,85,0,1
129998,-80,6,2,1,5,0,1
130070,-80,6,2,1,75,0,1
130863,-80,6,2,1,5,0,1
130935,-80,6,2,1,85,0,1
131728,-80,6,2,1,5,0,1
131801,-133.333333333333,6,2,1,75,0,1
132377,-80,6,2,1,85,0,1
133243,-80,6,2,1,75,0,1
133531,-80,6,2,1,65,0,1
133820,-80,6,2,1,75,0,1
134108,-80,6,2,1,85,0,1
135190,-80,6,2,1,5,0,1
135262,-133.333333333333,6,2,1,85,0,1
135839,-200,6,2,1,65,0,0
136632,-200,6,2,1,5,0,0
136704,-133.333333333333,6,2,1,75,0,0
137498,-133.333333333333,6,2,1,5,0,0
137570,-1000,6,2,2,75,0,0
139589,-1000,6,2,1,50,0,0
150839,-200,6,2,1,55,0,0
161801,-133.333333333333,6,2,1,65,0,0
163892,-133.333333333333,6,2,1,5,0,0
163964,-133.333333333333,6,2,1,65,0,0
164180,-133.333333333333,6,2,1,5,0,0
164252,-133.333333333333,6,2,1,65,0,0
165190,-133.333333333333,6,2,1,5,0,0
165262,-100,6,2,1,70,0,0
166344,-100,6,2,1,5,0,0
166416,-100,6,2,1,70,0,0
166632,-100,6,2,1,5,0,0
166704,-100,6,2,1,70,0,0
166921,-100,6,2,1,5,0,0
166993,-100,6,2,1,70,0,0
167065,-100,6,2,1,5,0,0
167137,-100,6,2,1,70,0,0
168075,-100,6,2,1,5,0,0
168147,-100,6,2,1,70,0,0
168652,-100,6,2,1,5,0,0
168724,-100,6,2,1,70,0,0
169805,-100,6,2,1,5,0,0
169877,-100,6,2,1,70,0,0
170094,-100,6,2,1,5,0,0
170166,-100,6,2,1,70,0,0
170382,-100,6,2,1,5,0,0
170454,-100,6,2,1,70,0,0
170815,-100,6,2,1,5,0,0
170887,-100,6,2,1,70,0,0
173267,-100,6,2,1,5,0,0
173339,-100,6,2,1,70,0,0
173844,-100,6,2,1,5,0,0
173916,-100,6,2,1,70,0,0
174998,-100,6,2,1,5,0,0
175070,-100,6,2,1,70,0,0
177017,-100,6,2,1,5,0,0
177089,-100,6,2,1,70,0,0
177305,-100,6,2,1,5,0,0
177377,-100,6,2,1,75,0,0
181993,-200,6,2,1,75,0,0
182209,-200,6,2,1,5,0,0
182281,-100,6,2,1,75,0,0
184445,-100,6,2,1,5,0,0
184517,-100,6,2,1,75,0,0
184661,-100,6,2,1,5,0,0
184733,-100,6,2,1,75,0,0
184805,-100,6,2,1,5,0,0
184877,-100,6,2,1,75,0,0
185382,-100,6,2,1,5,0,0
185454,-100,6,2,1,65,0,0
185815,-100,6,2,1,5,0,0
185887,-100,6,2,1,65,0,0
186031,-100,6,2,1,75,0,0
191224,-200,6,2,1,65,0,0
191584,-200,6,2,1,5,0,0
191656,-200,6,2,1,65,0,0
192017,-200,6,2,1,5,0,0
192089,-100,6,2,1,65,0,0
192305,-100,6,2,1,5,0,0
192377,-100,6,2,1,65,0,0
192594,-100,6,2,1,5,0,0
192666,-200,6,2,1,65,0,0
192882,-200,6,2,1,5,0,0
192954,-133.333333333333,6,2,1,65,0,0
193315,-133.333333333333,6,2,1,5,0,0
193387,-133.333333333333,6,2,1,65,0,0
193748,-133.333333333333,6,2,1,5,0,0
193820,-100,6,2,1,65,0,0
194036,-100,6,2,1,5,0,0
194108,-100,6,2,1,65,0,0
194180,-100,6,2,1,5,0,0
194252,-133.333333333333,6,2,1,65,0,0
194613,-133.333333333333,6,2,1,5,0,0
194685,-100,6,2,1,65,0,0
195046,-100,6,2,1,5,0,0
195118,-100,6,2,1,65,0,0
195478,-100,6,2,1,5,0,0
195551,-100,6,2,1,65,0,0
195767,-100,6,2,1,5,0,0
195839,-100,6,2,1,65,0,0
196055,-100,6,2,1,5,0,0
196127,-200,6,2,1,65,0,0
196344,-200,6,2,1,5,0,0
196416,-100,6,2,1,75,0,0
196704,-100,6,2,1,65,0,0
196993,-100,6,2,1,75,0,0
197281,-200,6,2,1,65,0,0
198075,-200,6,2,1,5,0,0
198147,-100,6,2,1,75,0,0
199012,-133.333333333333,6,2,1,65,0,0
199877,-100,6,2,1,75,0,0
200743,-133.333333333333,6,2,1,65,0,0
201608,-100,6,2,1,75,0,0
202474,-133.333333333333,6,2,1,65,0,0
203339,-100,6,2,1,75,0,0
204204,-133.333333333333,6,2,1,65,0,0
205070,-100,6,2,1,75,0,0
205935,-133.333333333333,6,2,1,65,0,0
206801,-100,6,2,1,75,0,0
207666,-133.333333333333,6,2,1,65,0,0
208531,-100,6,2,1,75,0,0
209397,-133.333333333333,6,2,1,65,0,0
210262,-100,6,2,1,75,0,0
211416,-100,6,2,1,65,0,0
211993,-100,6,2,1,75,0,0
212858,-133.333333333333,6,2,1,65,0,0
213724,-100,6,2,1,75,0,0
214589,-133.333333333333,6,2,1,75,0,0
215454,-100,6,2,1,75,0,0
216320,-133.333333333333,6,2,1,75,0,0
217185,-100,6,2,1,75,0,0
218627,-100,6,2,1,65,0,0
218916,-100,6,2,1,75,0,0
219781,-133.333333333333,6,2,1,65,0,0
220647,-100,6,2,1,75,0,0
221512,-133.333333333333,6,2,1,65,0,0
222377,-100,6,2,1,75,0,0
223243,-133.333333333333,6,2,1,65,0,0
224108,-100,6,2,1,75,0,0
225839,-80,6,2,1,90,0,1
226055,-80,6,2,1,5,0,1
226127,-80,6,2,1,90,0,1
231031,-133.333333333333,6,2,1,80,0,1
231897,-133.333333333333,6,2,1,90,0,1
232185,-133.333333333333,6,2,1,80,0,1
232762,-80,6,2,1,80,0,0
233195,-100,6,2,1,70,0,0
233627,-133.333333333333,6,2,1,70,0,0
234493,-80,6,2,1,90,0,1
234709,-80,6,2,1,5,0,1
234781,-80,6,2,1,90,0,1
235358,-133.333333333333,6,2,1,75,0,1
236224,-80,6,2,1,90,0,1
236440,-80,6,2,1,5,0,1
236512,-80,6,2,1,90,0,1
237089,-133.333333333333,6,2,1,75,0,1
237954,-80,6,2,1,90,0,1
238820,-80,6,2,1,80,0,0
239685,-80,6,2,1,90,0,1
247474,-133.333333333333,6,2,1,70,0,0
248339,-80,6,2,1,90,0,1
249204,-133.333333333333,6,2,1,70,0,0
250070,-100,6,2,1,70,0,0
251801,-80,6,2,1,70,0,0
253531,-100,6,2,1,75,0,1
253603,-100,6,2,1,75,0,0
254397,-133.333333333333,6,2,1,65,0,0
255262,-100,6,2,1,75,0,0
256127,-133.333333333333,6,2,1,65,0,0
256993,-100,6,2,1,75,0,0
257858,-133.333333333333,6,2,1,65,0,0
258724,-100,6,2,1,75,0,0
259877,-100,6,2,1,55,0,0
260166,-100,6,2,1,65,0,0
260454,-100,6,2,1,75,0,0
261320,-133.333333333333,6,2,1,65,0,0
262185,-100,6,2,1,75,0,0
263051,-133.333333333333,6,2,1,65,0,0
263916,-100,6,2,1,75,0,0
264781,-133.333333333333,6,2,1,65,0,0
265647,-100,6,2,1,75,0,0
266512,-80,6,2,1,75,0,0
266801,-133.333333333333,6,2,1,55,0,0
267089,-133.333333333333,6,2,1,65,0,0
267377,-100,6,2,1,75,0,0
268243,-133.333333333333,6,2,1,65,0,0
269108,-100,6,2,1,75,0,0
269974,-133.333333333333,6,2,1,65,0,0
270839,-100,6,2,1,75,0,0
271704,-133.333333333333,6,2,1,65,0,0
272570,-100,6,2,1,75,0,0
273724,-133.333333333333,6,2,1,55,0,0
274012,-133.333333333333,6,2,1,65,0,0
274301,-100,6,2,1,75,0,0
275166,-133.333333333333,6,2,1,65,0,0
276031,-100,6,2,1,75,0,0
277762,-100,6,2,1,50,0,0

[Colours]
Combo1 : 21,217,173
Combo2 : 255,100,100
Combo3 : 128,237,253
Combo4 : 207,207,207

[HitObjects]
177,178,9525,6,0,B|256:212|330:186|361:109|306:70|242:105,1,263.999999194336,2|0,0:0|0:0,0:0:0:0:
193,264,11255,5,0,0:0:0:0:
70,119,11544,1,2,0:0:0:0:
171,35,11832,2,0,B|244:3|316:56|300:85|384:143|449:102,1,300
478,173,12986,6,0,P|440:204|364:208,2,107.199994929199,2|0|0,0:0|0:0|0:0,0:0:0:0:
387,30,13851,1,0,0:0:0:0:
190,102,14140,2,0,P|243:97|302:135,1,107.199994929199,2|0,0:0|0:0,0:0:0:0:
320,278,14717,6,0,B|266:284|253:331|230:351|209:349|209:349|181:309|133:254|80:307|53:303|21:250,1,348.600005053253,2|0,0:0|0:0,0:0:0:0:
14,193,15553,6,0,B|37:181|37:181|68:184,1,47.9999985351563,10|0,0:0|0:0,0:0:0:0:
174,227,15841,6,0,P|200:242|230:236,1,55.9999982910157,0|0,3:0|3:0,0:0:0:0:
207,363,16129,6,0,B|242:352|251:337|251:337|266:354|300:348,1,96,8|0,0:0|0:0,0:0:0:0:
335,292,16418,5,6,0:0:0:0:
475,353,16562,1,0,3:0:0:0:
455,200,16706,1,8,0:0:0:0:
313,271,16850,1,0,3:0:0:0:
387,136,16994,1,10,0:0:0:0:
436,360,17139,1,0,3:0:0:0:
454,339,17211,1,0,3:0:0:0:
456,311,17283,6,0,B|430:274|430:274|376:263,1,80,10|0,0:0|0:0,0:0:0:0:
224,303,17571,1,8,0:0:0:0:
345,345,17716,1,0,3:0:0:0:
319,354,17788,1,0,3:0:0:0:
293,363,17860,1,8,0:0:0:0:
157,260,18004,2,0,P|147:281|143:307,1,40,0|0,3:0|3:0,0:0:0:0:
75,365,18148,6,0,P|109:336|118:283,1,80,4|0,3:2|3:0,0:0:0:0:
58,252,18365,1,0,3:0:0:0:
31,242,18437,1,10,0:0:0:0:
187,169,18581,1,0,3:0:0:0:
160,177,18653,1,0,3:0:0:0:
133,184,18725,2,0,B|116:136|116:136|139:97,1,80,8|0,0:0|3:0,0:0:0:0:
205,67,18942,1,0,3:0:0:0:
193,23,19014,5,10,0:0:0:0:
372,92,19158,1,2,3:2:0:0:
483,14,19302,5,0,3:0:0:0:
442,155,19446,1,0,3:0:0:0:
318,248,19591,5,0,3:0:0:0:
284,226,19663,1,0,3:0:0:0:
266,190,19735,1,0,3:0:0:0:
285,155,19807,1,0,3:0:0:0:
317,131,19879,6,0,P|335:97|317:49,1,80,4|0,0:0|0:0,0:0:0:0:
123,16,20167,1,8,0:0:0:0:
196,108,20312,1,0,3:0:0:0:
212,85,20384,1,0,3:0:0:0:
237,74,20456,1,8,0:0:0:0:
110,214,20600,1,0,3:0:0:0:
130,172,20672,1,0,3:0:0:0:
112,129,20744,6,0,B|86:97|86:97|27:75,1,80,10|0,0:0|0:0,0:0:0:0:
223,195,21033,1,8,0:0:0:0:
140,291,21177,1,0,3:0:0:0:
124,334,21249,1,0,3:0:0:0:
141,376,21321,1,8,0:0:0:0:
27,276,21466,1,0,3:0:0:0:
252,355,21610,6,0,P|346:335|364:202,1,240.000009155274,4|0,0:0|3:0,0:0:0:0:
474,244,21970,1,0,3:0:0:0:
479,287,22042,6,0,B|387:298|387:298|312:270|312:270|245:274,1,240.000009155274,12|0,0:0|3:0,0:0:0:0:
152,356,22403,1,0,3:0:0:0:
172,344,22475,6,0,P|144:260|190:200,1,160,12|0,0:0|3:0,0:0:0:0:
233,74,22836,1,0,3:0:0:0:
235,90,22908,6,0,B|196:79|196:79|164:111,1,80,12|0,3:2|3:0,0:0:0:0:
83,167,23268,1,0,3:0:0:0:
59,191,23341,6,0,P|67:90|30:39,1,160,4|8,0:0|0:0,0:0:0:0:
236,50,23773,1,0,3:0:0:0:
106,99,23917,1,8,0:0:0:0:
205,237,24062,1,0,3:0:0:0:
214,211,24134,1,0,3:0:0:0:
195,190,24206,6,0,L|143:165,1,40,8|0,0:0|0:0,0:0:0:0:
302,289,24350,2,0,L|242:307,1,40,0|0,3:0|0:0,0:0:0:0:
124,360,24494,1,8,0:0:0:0:
34,190,24639,1,0,3:0:0:0:
75,175,24711,1,0,3:0:0:0:
92,215,24783,1,8,0:0:0:0:
190,312,24927,1,0,3:0:0:0:
377,127,25071,6,0,P|351:158|287:153,1,80,4|0,0:0|3:0,0:0:0:0:
418,200,25288,1,0,3:0:0:0:
444,191,25360,1,8,0:0:0:0:
352,274,25504,1,0,3:0:0:0:
277,85,25648,1,8,0:0:0:0:
142,159,25792,1,0,3:0:0:0:
168,194,25865,1,0,3:0:0:0:
158,236,25937,5,10,0:0:0:0:
316,343,26081,1,0,3:0:0:0:
169,371,26225,5,2,3:2:0:0:
244,186,26369,1,0,3:0:0:0:
70,312,26514,5,0,3:0:0:0:
113,304,26586,1,0,3:0:0:0:
156,296,26658,1,0,3:0:0:0:
199,288,26730,1,0,3:0:0:0:
242,280,26802,6,0,P|263:247|245:187,1,80,4|0,0:0|3:0,0:0:0:0:
210,155,27018,1,0,3:0:0:0:
179,143,27091,1,8,0:0:0:0:
366,214,27235,1,0,3:0:0:0:
355,183,27307,1,0,3:0:0:0:
368,154,27379,1,8,0:0:0:0:
225,255,27523,1,0,3:0:0:0:
215,285,27595,1,0,3:0:0:0:
225,315,27667,6,0,B|255:340|255:340|303:330,1,80,10|0,0:0|0:0,0:0:0:0:
340,275,27884,1,0,3:0:0:0:
378,286,27956,1,8,0:0:0:0:
164,366,28100,1,0,3:0:0:0:
142,325,28172,1,0,3:0:0:0:
109,293,28244,2,0,P|68:277|17:277,1,80,8|0,0:0|3:0,0:0:0:0:
255,173,28533,6,0,P|342:164|436:116,1,180.000006866455,4|0,3:2|0:0,0:0:0:0:
355,194,28821,2,0,P|336:226|325:260,1,60.0000022888184,4|0,0:0|0:0,0:0:0:0:
387,368,28966,6,0,P|412:335|403:304,1,60,4|0,0:0|0:0,0:0:0:0:
305,349,29254,6,0,P|254:361|190:367,1,90.0000034332277,2|0,3:2|0:0,0:0:0:0:
261,273,29542,2,0,P|224:325|179:341,1,90.0000034332277,2|0,3:2|0:0,0:0:0:0:
117,207,29831,6,0,B|162:264|162:264|278:235,1,150,12|0,0:0|0:0,0:0:0:0:
238,165,30119,6,0,P|239:143|244:119,1,40,0|2,3:0|0:0,0:0:0:0:
298,67,30552,1,8,0:0:0:0:
199,8,30696,1,8,0:0:0:0:
25,56,30841,6,0,P|108:89|88:159,1,160,2|0,3:2|0:0,0:0:0:0:
16,298,31273,6,0,P|45:312|88:309,1,60.0000022888184
152,242,31562,1,0,0:0:0:0:
282,370,31706,1,2,0:0:0:0:
249,307,31850,2,0,P|294:266|361:287,1,120.000004577637,0|2,0:0|0:0,0:0:0:0:
504,335,32283,5,0,3:0:0:0:
433,361,32427,1,2,3:2:0:0:
501,308,32571,1,0,3:0:0:0:
403,212,32715,1,2,0:0:0:0:
499,79,32860,6,0,B|481:41|442:30|442:30|414:49|369:55,1,120,10|0,0:0|0:0,0:0:0:0:
309,97,33148,6,0,P|376:92|424:133,1,120.000004577637,2|0,3:2|0:0,0:0:0:0:
388,262,33581,2,0,P|384:293|401:330,1,60.0000022888184,0|0,3:0|0:0,0:0:0:0:
300,221,33869,1,0,0:0:0:0:
286,255,34014,1,0,0:0:0:0:
195,356,34158,6,0,P|193:281|145:237,1,120.000004577637,2|0,0:0|0:0,0:0:0:0:
0,311,34590,1,0,3:0:0:0:
112,353,34735,2,0,P|97:366|48:371,1,60.0000022888184,2|0,3:2|0:0,0:0:0:0:
145,230,35023,1,0,3:0:0:0:
12,134,35167,2,0,B|4:84|4:84|47:98,1,90.0000034332277,8|0,0:0|0:0,0:0:0:0:
102,139,35456,6,0,P|128:69|37:13,1,160,2|0,3:2|0:0,0:0:0:0:
259,42,35889,6,0,P|238:65|242:106,1,60.0000022888184,0|0,3:0|0:0,0:0:0:0:
309,158,36177,1,0,0:0:0:0:
393,159,36321,2,0,P|361:168|330:188,1,60.0000022888184,2|0,0:0|0:0,0:0:0:0:
354,263,36610,5,0,0:0:0:0:
466,358,36754,2,0,P|481:324|481:278,1,60.0000022888184,2|0,0:0|0:0,0:0:0:0:
334,363,37042,2,0,B|371:366|371:366|416:345,1,60.0000022888184,2|0,3:2|0:0,0:0:0:0:
291,292,37331,1,0,3:0:0:0:
168,325,37475,6,0,B|153:270|153:270|189:194,1,120,8|0,0:0|0:0,0:0:0:0:
161,138,37764,6,0,P|228:189|285:194,1,120.000004577637,2|0,3:2|0:0,0:0:0:0:
394,282,38196,2,0,P|423:265|462:254,1,60.0000022888184,0|0,3:0|0:0,0:0:0:0:
475,99,38485,1,0,0:0:0:0:
380,204,38629,1,0,0:0:0:0:
267,107,38773,6,0,P|332:62|387:77,1,120.000004577637,2|0,0:0|0:0,0:0:0:0:
451,178,39206,1,2,3:2:0:0:
474,174,39278,1,0,3:0:0:0:
497,170,39350,1,0,3:0:0:0:
350,240,39494,1,0,3:0:0:0:
509,271,39639,1,0,3:0:0:0:
407,355,39783,2,0,B|371:319|371:319|314:327,1,90.0000034332277,8|0,0:0|0:0,0:0:0:0:
231,357,40071,6,0,P|313:314|290:243,1,160,2|0,3:2|0:0,0:0:0:0:
152,295,40504,2,0,P|131:270|128:225,2,60.0000022888184,0|0|0,3:0|0:0|0:0,0:0:0:0:
158,97,40937,2,0,P|198:138|200:210,1,120.000004577637,2|0,0:0|0:0,0:0:0:0:
96,353,41369,5,2,0:0:0:0:
19,287,41514,2,0,P|53:274|95:276,1,60.0000022888184,0|2,3:0|0:0,0:0:0:0:
191,340,41802,1,0,0:0:0:0:
267,359,41946,1,0,3:0:0:0:
381,273,42090,6,0,B|371:233|351:221|351:221|372:226|404:185,1,120,8|0,0:0|0:0,0:0:0:0:
476,306,42379,6,0,B|460:279|451:248|451:248|465:224|495:196,1,120.000004577637,2|0,3:2|0:0,0:0:0:0:
400,104,42812,2,0,P|372:124|337:120,1,60.0000022888184,0|0,3:0|0:0,0:0:0:0:
495,45,43100,2,0,P|466:29|429:21,1,60.0000022888184
274,71,43389,6,0,P|216:87|137:96,1,120.000004577637,2|0,0:0|0:0,0:0:0:0:
35,203,43821,1,0,3:0:0:0:
43,295,43965,2,0,P|48:261|67:218,1,60.0000022888184,2|0,0:0|0:0,0:0:0:0:
157,182,44254,1,0,3:0:0:0:
231,321,44398,2,0,B|179:308|179:308|124:339,1,90.0000034332277,10|0,0:0|0:0,0:0:0:0:
235,349,44687,6,0,P|326:354|403:326,1,160,2|0,3:2|0:0,0:0:0:0:
374,185,45119,1,0,3:0:0:0:
246,247,45264,6,0,P|274:230|312:233,1,60.0000022888184
434,251,45552,1,2,0:0:0:0:
446,234,45840,1,0,0:0:0:0:
501,315,45985,2,0,P|466:329|445:360,1,60.0000022888184,2|0,0:0|0:0,0:0:0:0:
346,376,46273,1,0,3:0:0:0:
227,244,46417,1,8,0:0:0:0:
352,181,46562,1,8,0:0:0:0:
179,319,46706,6,0,B|167:299|148:285|125:285|104:305|91:330|64:336|38:322|26:299|28:275|44:250,1,210.000008010865,12|0,0:0|0:0,0:0:0:0:
83,185,47282,5,8,0:0:0:0:
175,227,47427,1,8,0:0:0:0:
289,111,47571,1,8,0:0:0:0:
213,319,47715,1,8,0:0:0:0:
154,87,47859,5,4,0:0:0:0:
335,256,48004,1,0,3:0:0:0:
319,247,48076,1,0,3:0:0:0:
308,232,48148,2,0,P|302:209|305:173,1,40,0|0,3:0|0:0,0:0:0:0:
360,76,48292,5,8,0:0:0:0:
227,160,48436,1,0,3:0:0:0:
207,190,48508,1,0,3:0:0:0:
221,223,48581,1,0,3:0:0:0:
48,331,48725,6,0,B|35:247|35:247|-5:272,1,100,10|0,0:0|0:0,0:0:0:0:
207,340,49014,6,0,P|288:367|395:370,1,160,4|0,0:0|0:0,0:0:0:0:
358,144,49446,2,0,P|325:181|316:235,1,80,0|0,3:0|0:0,0:0:0:0:
484,333,49735,1,8,0:0:0:0:
399,218,49879,1,0,3:0:0:0:
483,149,50023,1,0,3:0:0:0:
339,294,50167,6,0,P|318:292|283:279,1,40,0|0,3:0|0:0,0:0:0:0:
157,316,50456,1,0,3:0:0:0:
244,353,50600,1,0,3:0:0:0:
67,256,50744,6,0,P|143:207|219:214,1,160,4|8,3:2|0:0,0:0:0:0:
396,173,51177,2,0,P|306:164|267:93,1,160,4|0,3:2|0:0,0:0:0:0:
108,23,51610,1,0,3:0:0:0:
154,122,51754,1,0,3:0:0:0:
58,163,51898,6,0,P|101:150|123:105,1,80,0|8,3:0|0:0,0:0:0:0:
36,64,52331,1,0,0:0:0:0:
249,6,52475,5,2,3:2:0:0:
171,63,52619,2,0,P|224:83|297:80,1,120,0|0,3:0|0:0,3:0:0:0:
366,67,52908,2,0,P|331:87|347:170,1,120,0|0,3:0|0:0,0:0:0:0:
332,259,53196,1,0,3:0:0:0:
319,279,53268,1,0,3:3:0:0:
299,291,53340,2,0,B|277:258|272:211|272:211|244:204|215:220,1,120,8|0,0:3|0:3,0:3:0:0:
172,161,53629,6,0,P|152:158|136:137,1,40,4|0,0:0|0:0,0:0:0:0:
83,197,53845,2,0,P|107:224|129:266,1,80,2|0,0:0|0:0,0:0:0:0:
110,333,54206,5,4,3:2:0:0:
245,366,54350,2,0,P|290:324|280:238,1,120,0|0,3:0|0:0,0:0:0:0:
370,298,54638,2,0,P|284:298|263:246,1,120,0|0,3:0|0:0,0:0:0:0:
270,194,54927,1,0,3:0:0:0:
305,186,54999,1,0,3:0:0:0:
340,178,55071,2,0,B|372:175|372:175|397:193|397:193|407:167|407:167|451:147,1,120,8|0,0:0|0:0,0:0:0:0:
481,96,55360,5,8,0:0:0:0:
333,65,55504,1,8,0:0:0:0:
480,6,55648,2,0,P|443:27|399:29,1,80,4|0,3:2|0:0,0:0:0:0:
137,17,55937,6,0,P|201:83|186:158,1,160,4|8,3:2|0:0,0:0:0:0:
347,189,56369,2,0,B|313:174|263:205|287:221|240:254|205:240,1,160,4|0,3:2|3:0,0:0:0:0:
21,311,56802,5,8,0:0:0:0:
86,276,56898,1,0,3:0:0:0:
153,308,56994,1,0,3:0:0:0:
208,357,57090,1,0,3:0:0:0:
278,383,57187,1,0,3:0:0:0:
350,366,57283,1,0,3:0:0:0:
335,292,57379,5,0,3:0:0:0:
304,273,57475,1,0,3:0:0:0:
273,278,57571,1,0,3:0:0:0:
200,307,57667,6,0,P|216:280|210:218,1,80,4|0,0:0|0:0,0:0:0:0:
170,111,58244,1,2,0:0:0:0:
29,215,58533,1,2,0:0:0:0:
176,284,58821,6,0,B|216:300|247:278|235:264|266:244|308:257,1,120.000004577637,0|2,0:0|0:0,0:0:0:0:
494,34,59398,6,0,P|431:83|445:221,1,200,4|2,0:0|3:2,0:0:0:0:
318,353,59831,1,8,0:0:0:0:
150,211,59975,2,0,P|206:219|269:254,1,100,2|0,3:2|3:0,0:0:0:0:
334,201,60191,1,0,3:0:0:0:
350,186,60263,2,0,P|280:160|299:80,1,150,6|0,0:0|0:0,0:0:0:0:
302,24,60552,6,0,B|317:56|317:56|307:94,1,60.0000022888184,8|0,0:0|0:0,0:0:0:0:
196,132,60840,1,0,0:0:0:0:
101,82,60985,1,0,3:0:0:0:
66,287,61129,6,0,P|148:200|219:226,1,200,4|2,0:0|3:2,0:0:0:0:
421,323,61562,1,8,0:0:0:0:
286,354,61706,1,2,3:2:0:0:
406,206,61850,1,0,3:0:0:0:
432,163,61922,1,0,3:0:0:0:
399,125,61994,2,0,P|321:119|309:48,1,150,6|0,0:0|0:0,0:0:0:0:
365,14,62283,5,8,0:0:0:0:
188,58,62427,1,0,3:0:0:0:
272,198,62571,5,0,3:0:0:0:
351,223,62715,1,0,3:0:0:0:
150,336,62860,6,0,B|137:267|193:225|193:225|174:191|112:178,1,200,4|2,0:0|3:2,0:0:0:0:
75,31,63292,1,8,0:0:0:0:
260,89,63437,2,0,P|221:123|162:115,1,100,2|0,3:2|3:0,0:0:0:0:
36,178,63653,1,0,3:0:0:0:
19,194,63725,2,0,P|89:181|173:224,1,150,6|0,0:0|0:0,0:0:0:0:
160,283,64013,5,10,0:0:0:0:
104,101,64158,1,0,0:0:0:0:
245,228,64302,5,0,0:0:0:0:
272,126,64446,1,0,3:0:0:0:
476,51,64590,6,0,P|432:96|474:213,1,200,4|2,0:0|3:2,0:0:0:0:
343,291,65023,1,8,0:0:0:0:
290,112,65167,2,0,B|311:58|311:58|276:13,1,100,2|0,3:2|0:0,0:0:0:0:
205,180,65456,5,14,0:0:0:0:
141,228,65552,1,8,0:0:0:0:
64,205,65648,1,8,0:0:0:0:
19,137,65744,5,0,3:0:0:0:
27,111,65840,1,0,3:0:0:0:
47,93,65937,1,0,3:0:0:0:
50,13,66033,5,0,3:0:0:0:
119,52,66129,1,0,3:0:0:0:
191,18,66225,1,0,3:0:0:0:
262,55,66321,6,0,P|390:45|459:3,1,200,4|2,0:0|3:2,0:0:0:0:
281,137,66754,1,8,0:0:0:0:
384,274,66898,2,0,P|344:231|281:200,1,100,2|0,3:2|3:0,0:0:0:0:
443,171,67114,1,0,3:0:0:0:
419,189,67187,2,0,B|407:270|407:270|441:359,1,150,6|0,0:0|0:0,0:0:0:0:
499,347,67475,5,8,0:0:0:0:
348,376,67619,1,8,0:0:0:0:
225,207,67763,5,0,0:0:0:0:
320,241,67908,1,0,3:0:0:0:
96,348,68052,6,0,B|119:299|154:285|154:285|107:224|136:160,1,200,4|2,0:0|3:2,0:0:0:0:
226,44,68485,1,8,0:0:0:0:
71,94,68629,1,2,3:2:0:0:
203,211,68773,1,0,3:0:0:0:
249,231,68845,1,0,3:0:0:0:
291,204,68917,2,0,P|363:159|450:161,1,150,6|0,0:0|0:0,0:0:0:0:
429,226,69206,6,0,P|405:225|368:192,1,60.0000022888184,8|0,0:0|0:0,0:0:0:0:
281,300,69494,1,0,0:0:0:0:
327,369,69638,1,0,3:0:0:0:
91,322,69783,6,0,P|171:226|137:160,1,200,4|2,0:0|3:2,0:0:0:0:
21,17,70215,1,8,0:0:0:0:
137,82,70360,2,0,B|169:86|187:71|187:71|198:93|227:103,1,100,2|0,3:2|0:0,0:0:0:0:
448,46,70648,2,0,P|372:53|332:117,1,150,6|0,0:0|0:0,0:0:0:0:
354,177,70937,5,8,0:0:0:0:
245,315,71081,1,0,3:0:0:0:
372,264,71225,5,0,0:0:0:0:
450,306,71369,1,0,3:0:0:0:
262,147,71513,6,0,P|209:246|97:256,1,200,4|2,0:0|3:2,0:0:0:0:
298,362,71946,1,8,0:0:0:0:
142,186,72090,2,0,P|90:192|57:240,1,100,2|0,3:2|0:0,0:0:0:0:
269,206,72379,2,0,B|317:195|331:176|331:176|331:214|369:273,1,150,10|0,0:0|0:0,0:0:0:0:
430,232,72667,5,0,3:0:0:0:
445,310,72763,1,0,3:0:0:0:
386,365,72860,1,0,3:0:0:0:
307,350,72956,1,0,3:0:0:0:
264,282,73052,1,0,3:0:0:0:
287,205,73148,1,0,3:0:0:0:
359,172,73244,6,0,P|356:93|273:11,1,200,4|2,0:0|3:2,0:0:0:0:
184,125,73677,1,8,0:0:0:0:
40,184,73821,2,0,B|82:210|82:210|142:191,1,100,2|0,3:2|3:0,0:0:0:0:
272,335,74038,1,0,3:0:0:0:
303,346,74110,2,0,B|289:282|289:282|331:245,1,100,6|0,0:0|0:0,0:0:0:0:
215,197,74398,6,0,P|203:258|140:269,1,120.000004577637,8|0,0:0|0:0,0:0:0:0:
210,374,74831,1,0,3:0:0:0:
28,216,74975,6,0,P|24:143|99:43,1,200,4|2,3:2|3:2,3:2:0:0:
256,76,75408,1,8,0:0:0:0:
132,178,75552,2,0,P|181:153|246:163,1,100,2|0,3:2|3:0,0:0:0:0:
361,248,75768,1,0,3:0:0:0:
377,275,75840,6,0,B|326:257|279:301|296:309|237:358|186:330,1,200,6|8,0:0|0:0,0:0:0:0:
47,211,76273,1,0,3:0:0:0:
227,248,76417,5,0,0:0:0:0:
141,277,76562,1,0,3:0:0:0:
52,53,76706,6,0,P|103:147|198:137,1,200,4|2,0:0|3:2,0:0:0:0:
359,23,77138,1,8,0:0:0:0:
240,66,77283,1,2,3:2:0:0:
430,151,77427,1,0,3:0:0:0:
454,194,77499,1,0,3:0:0:0:
436,240,77571,2,0,B|380:234|356:195|356:195|324:189|283:213,1,150,6|0,0:0|0:0,0:0:0:0:
230,225,77860,6,0,P|265:240|307:240,1,60.0000022888184,8|0,0:0|0:0,0:0:0:0:
383,326,78148,1,0,0:0:0:0:
285,352,78292,1,0,3:0:0:0:
429,195,78437,5,4,0:0:0:0:
383,38,78581,1,0,0:0:0:0:
187,86,78725,2,0,B|228:114|228:114|283:119,1,100,2|8,3:2|0:0,0:0:0:0:
38,221,79013,2,0,P|87:186|132:204,1,100,2|0,3:2|0:0,0:0:0:0:
207,364,79302,5,14,0:0:0:0:
136,327,79398,1,8,0:0:0:0:
204,285,79494,1,8,0:0:0:0:
277,315,79590,5,0,3:0:0:0:
303,315,79687,1,0,3:0:0:0:
326,300,79783,1,0,3:0:0:0:
352,224,79879,5,0,3:0:0:0:
428,201,79975,1,0,3:0:0:0:
493,248,80071,1,0,3:0:0:0:
433,301,80167,6,0,P|379:206|400:114,1,200,4|2,0:0|3:2,0:0:0:0:
244,11,80600,1,8,0:0:0:0:
135,132,80744,2,0,B|105:96|105:96|46:109,1,100,2|0,3:2|3:0,0:0:0:0:
77,196,80961,1,0,3:0:0:0:
95,230,81033,6,0,B|175:248|175:248|214:216|214:216|296:202,1,200,6|8,0:0|0:0,0:0:0:0:
169,321,81465,1,0,3:0:0:0:
298,368,81610,5,0,3:0:0:0:
385,338,81754,1,0,3:0:0:0:
196,146,81898,6,0,B|236:155|266:137|277:88|336:73|401:138|354:185,1,240,4|2,0:0|0:0,0:0:0:0:
399,351,83052,6,0,P|403:317|420:282,1,60,2|0,0:0|0:0,0:0:0:0:
457,234,83340,2,0,P|453:268|436:303,1,60,2|0,0:0|0:0,0:0:0:0:
316,310,83629,6,0,P|268:245|192:254,1,160,12|8,0:0|0:0,0:0:0:0:
43,319,84062,1,0,0:0:0:0:
172,357,84206,1,8,0:0:0:0:
43,156,84350,1,0,3:0:0:0:
68,178,84422,1,0,3:0:0:0:
100,183,84494,2,0,P|102:137|91:90,1,80,8|0,0:0|0:0,0:0:0:0:
240,14,84783,2,0,B|218:51|218:51|239:97,1,80,8|0,0:0|3:0,0:0:0:0:
293,146,84999,1,0,3:0:0:0:
325,155,85071,1,8,0:0:0:0:
422,50,85215,1,0,3:0:0:0:
505,232,85360,6,0,P|469:232|404:258,1,80,4|0,0:0|3:0,0:0:0:0:
392,312,85576,1,0,3:0:0:0:
404,341,85648,1,8,0:0:0:0:
296,219,85792,2,0,L|241:206,1,40,0|0,3:0|3:0,0:0:0:0:
132,259,85937,1,8,0:0:0:0:
223,372,86081,1,0,3:0:0:0:
231,340,86153,1,0,3:0:0:0:
239,308,86225,5,8,0:0:0:0:
183,145,86369,1,0,3:0:0:0:
320,240,86513,5,0,3:0:0:0:
237,220,86658,1,0,3:0:0:0:
360,351,86802,5,0,3:0:0:0:
398,362,86874,1,0,3:0:0:0:
438,359,86946,1,0,3:0:0:0:
475,344,87018,1,0,3:0:0:0:
503,316,87090,6,0,P|435:253|442:182,1,160,4|8,0:0|0:0,0:0:0:0:
493,34,87523,2,0,L|442:43,1,40,0|0,3:0|3:0,0:0:0:0:
365,140,87667,1,8,0:0:0:0:
223,36,87812,1,0,3:0:0:0:
215,67,87884,1,0,3:0:0:0:
238,89,87956,2,0,P|283:77|309:31,1,80,8|0,0:0|0:0,0:0:0:0:
125,9,88244,1,8,0:0:0:0:
80,162,88388,1,0,3:0:0:0:
63,190,88461,1,0,3:0:0:0:
34,205,88533,2,0,P|22:154|-1:121,1,80,8|0,0:0|0:0,0:0:0:0:
62,318,88821,6,0,P|95:266|156:240,1,120,4|0,0:0|0:0,0:0:0:0:
223,357,89110,6,0,P|243:327|253:290,1,60.0000022888184,4|0,0:0|0:0,0:0:0:0:
324,261,89254,6,0,P|303:232|294:195,1,60,4|0,0:0|0:0,0:0:0:0:
347,83,89542,6,0,B|372:142|372:142|305:176,1,120,2|0,3:2|0:0,0:0:0:0:
475,108,89831,2,0,B|450:167|450:167|379:144,1,120,2|0,3:2|0:0,0:0:0:0:
506,221,90119,6,0,B|466:218|466:218|433:247,1,80,14|0,0:0|3:0,0:0:0:0:
396,354,90552,2,0,P|368:366|342:367,1,40,2|8,0:0|0:0,0:0:0:0:
274,337,90840,1,0,3:0:0:0:
142,259,90985,5,8,0:0:0:0:
271,181,91129,1,8,0:0:0:0:
167,33,91273,2,0,P|169:55|181:75,1,40,0|0,3:0|3:0,0:0:0:0:
269,92,91417,6,0,P|205:101|135:150,1,139.200001168213,4|0,0:0|0:0,0:0:0:0:
28,255,91849,1,0,3:0:0:0:
45,265,91921,1,0,3:0:0:0:
57,280,91993,2,0,P|68:325|71:368,1,69.6000005841065,8|0,0:0|0:0,0:0:0:0:
219,269,92282,2,0,P|181:271|141:247,1,69.6000005841065,2|0,3:2|0:0,0:0:0:0:
264,364,92570,5,0,0:0:0:0:
347,233,92715,2,0,P|405:197|489:223,1,139.200001168213,0|0,3:0|3:0,0:0:0:0:
462,356,93075,1,0,3:0:0:0:
440,345,93147,2,0,B|417:314|417:314|423:268,1,69.6000005841065,8|0,0:0|0:0,0:0:0:0:
487,120,93436,2,0,P|482:77|466:28,1,69.6000005841065,2|0,0:0|0:0,0:0:0:0:
285,13,93724,5,4,3:2:0:0:
222,84,93868,2,0,P|282:54|370:59,1,139.200001168213,0|0,3:0|3:0,0:0:0:0:
316,148,94229,1,0,3:0:0:0:
297,141,94301,1,8,0:0:0:0:
297,141,94590,2,0,P|295:181|317:225,1,69.6000005841065,2|0,3:2|0:0,0:0:0:0:
385,252,94878,5,0,0:0:0:0:
482,357,95022,2,0,B|432:328|432:328|344:356,1,139.200001168213,8|0,0:0|3:0,0:0:0:0:
208,353,95383,1,0,3:0:0:0:
197,333,95455,6,0,P|241:303|278:316,1,80,8|2,0:0|0:0,0:0:0:0:
45,364,96032,5,4,3:2:0:0:
149,264,96176,2,0,P|169:197|158:121,1,139.200001168213,0|0,3:0|3:0,0:0:0:0:
98,19,96537,1,0,3:0:0:0:
77,30,96609,6,0,B|62:47|62:65|62:65|46:56|15:65,1,80,8|2,0:0|0:0,0:0:0:0:
76,162,97041,1,0,0:0:0:0:
180,45,97186,5,0,0:0:0:0:
277,97,97330,2,0,P|320:91|341:64,1,69.6000005841065,0|0,3:0|0:0,0:0:0:0:
500,28,97618,1,0,3:0:0:0:
485,57,97691,1,0,3:0:0:0:
472,84,97763,6,0,B|448:87|448:87|430:107,1,40,8|0,0:0|0:0,0:0:0:0:
299,181,98051,2,0,P|333:181|366:203,1,60,2|0,0:0|0:0,0:0:0:0:
402,252,98340,5,4,3:2:0:0:
278,355,98484,2,0,P|288:287|218:240,1,139.200001168213,0|0,3:0|3:0,0:0:0:0:
66,240,98844,1,0,3:0:0:0:
83,256,98916,6,0,B|125:258|125:258|167:287,1,80,8|0,0:0|3:0,0:0:0:0:
216,363,99349,1,0,0:0:0:0:
329,199,99493,5,10,0:0:0:0:
432,260,99638,1,0,3:0:0:0:
455,291,99710,1,0,3:0:0:0:
442,328,99782,1,0,3:0:0:0:
383,61,99926,5,10,0:0:0:0:
262,137,100070,1,0,3:0:0:0:
226,149,100142,1,0,3:0:0:0:
186,159,100215,2,0,L|142:146,1,40,0|0,3:0|3:0,0:0:0:0:
105,82,100359,5,8,0:0:0:0:
102,70,100431,1,8,0:0:0:0:
98,58,100503,1,8,0:0:0:0:
95,46,100575,1,8,0:0:0:0:
59,17,100647,5,2,3:2:0:0:
18,38,100719,1,0,3:0:0:0:
0,83,100791,2,0,P|16:108|40:125,1,40,0|0,3:0|0:0,0:0:0:0:
11,207,100936,6,0,P|53:187|111:184,1,80,4|0,0:0|0:0,0:0:0:0:
241,330,101224,1,8,0:0:0:0:
176,118,101368,1,0,3:0:0:0:
202,144,101441,1,0,3:0:0:0:
230,167,101513,2,0,P|275:178|331:177,1,80,4|0,0:0|0:0,0:0:0:0:
480,318,101801,5,0,3:0:0:0:
343,358,101945,2,0,P|343:337|331:307,1,40,0|0,3:0|3:0,0:0:0:0:
228,248,102090,2,0,P|232:201|247:164,1,80,4|0,0:0|0:0,0:0:0:0:
461,217,102378,2,0,B|421:241|421:241|373:224,1,80,10|0,0:0|3:0,0:0:0:0:
316,112,102594,1,0,3:0:0:0:
285,91,102666,2,0,P|247:78|184:86,1,80,12|0,0:0|0:0,0:0:0:0:
31,136,102955,6,0,B|73:153|73:153|95:204,1,80,2|0,0:0|3:0,0:0:0:0:
150,228,103171,1,0,3:0:0:0:
185,238,103243,1,12,0:0:0:0:
53,335,103388,2,0,L|-5:355,2,40,0|0|8,3:0|3:0|0:0,0:0:0:0:
211,345,103676,1,0,3:0:0:0:
240,363,103748,1,0,3:0:0:0:
274,349,103820,1,4,0:0:0:0:
114,273,103965,1,0,0:0:0:0:
254,99,104109,5,2,0:0:0:0:
325,199,104253,2,0,P|299:207|280:217,1,40,0|0,3:0|3:0,0:0:0:0:
137,148,104397,1,12,0:0:0:0:
201,290,104541,1,0,3:0:0:0:
208,297,104614,1,0,3:0:0:0:
208,297,104686,2,0,B|257:286|257:286|289:325,1,80,8|0,0:0|3:0,0:0:0:0:
418,367,104902,1,0,3:0:0:0:
447,354,104974,2,0,P|467:313|466:257,1,80,4|0,0:0|0:0,0:0:0:0:
395,102,105263,6,0,B|441:122|441:122|495:106,1,80,10|0,0:0|3:0,0:0:0:0:
403,26,105479,1,0,3:0:0:0:
367,16,105551,1,12,0:0:0:0:
282,148,105695,1,0,0:0:0:0:
145,15,105840,2,0,P|135:55|105:104,1,80,0|0,3:0|3:0,0:0:0:0:
40,134,106056,1,0,3:0:0:0:
7,116,106128,1,10,0:0:0:0:
37,283,106272,1,0,0:0:0:0:
158,168,106416,6,0,P|204:143|250:142,1,80,0|0,3:0|3:0,0:0:0:0:
286,273,106633,1,0,3:0:0:0:
313,296,106705,2,0,P|340:252|329:203,1,80,12|0,0:0|0:0,0:0:0:0:
407,63,106993,2,0,P|454:87|463:131,1,80,2|0,3:2|3:0,0:0:0:0:
428,178,107210,1,0,3:0:0:0:
449,210,107282,2,0,B|477:208|477:208|494:199,1,40,10|0,0:0|0:0,0:0:0:0:
421,353,107426,2,0,B|449:355|449:355|466:364,1,40,2|0,0:0|0:0,0:0:0:0:
376,277,107570,5,8,0:0:0:0:
307,236,107666,1,8,0:0:0:0:
229,256,107763,1,8,0:0:0:0:
199,331,107859,5,0,3:0:0:0:
165,345,107955,1,0,3:0:0:0:
129,337,108051,1,0,3:0:0:0:
99,314,108147,1,0,3:0:0:0:
66,295,108243,1,0,3:0:0:0:
29,299,108340,1,0,3:0:0:0:
53,374,108436,5,8,0:0:0:0:
114,323,108532,1,8,0:0:0:0:
145,249,108628,1,8,0:0:0:0:
125,171,108724,5,0,3:0:0:0:
90,184,108820,1,0,3:0:0:0:
70,215,108916,1,0,3:0:0:0:
33,204,109013,1,0,3:0:0:0:
8,175,109109,1,0,3:0:0:0:
4,137,109205,1,0,3:0:0:0:
26,60,109301,5,8,0:0:0:0:
96,22,109397,1,8,0:0:0:0:
155,75,109493,1,8,0:0:0:0:
228,41,109590,5,0,3:0:0:0:
274,50,109686,1,0,3:0:0:0:
318,31,109782,1,0,3:0:0:0:
417,55,109878,5,4,0:0:0:0:
482,300,111608,1,6,0:0:0:0:
409,354,112474,1,8,0:0:0:0:
382,334,112762,6,0,P|350:322|309:318,1,60.0000022888184,2|0,3:2|0:0,0:0:0:0:
168,277,113051,2,0,B|202:284|202:284|231:264,1,60.0000022888184,2|0,0:0|0:0,0:0:0:0:
34,68,113339,6,0,P|134:58|174:148,1,200,4|2,0:0|3:2,0:0:0:0:
270,23,113772,1,8,0:0:0:0:
464,103,113916,2,0,P|414:100|368:135,1,100,2|0,3:2|3:0,0:0:0:0:
305,272,114132,1,0,3:0:0:0:
311,294,114204,2,0,B|269:261|256:225|256:225|273:194|279:141,1,150,6|0,0:0|0:0,0:0:0:0:
266,92,114493,6,0,P|251:119|265:162,1,60.0000022888184,8|0,0:0|0:0,0:0:0:0:
374,239,114781,1,0,0:0:0:0:
480,184,114926,1,0,3:0:0:0:
255,357,115070,6,0,P|237:266|173:258,1,150,4|0,0:0|0:0,0:0:0:0:
126,280,115358,1,2,3:2:0:0:
241,172,115502,1,8,0:0:0:0:
159,357,115647,1,2,3:2:0:0:
32,183,115791,1,0,3:0:0:0:
75,208,115863,1,0,3:0:0:0:
118,183,115935,2,0,B|121:138|153:96|153:96|124:91|90:51,1,150,6|0,0:0|0:0,0:0:0:0:
32,63,116224,6,0,P|77:52|105:24,1,60.0000022888184,8|0,0:0|0:0,0:0:0:0:
238,113,116512,1,0,3:0:0:0:
208,32,116656,1,0,3:0:0:0:
350,201,116801,6,0,P|363:102|440:49,1,200,4|2,0:0|3:2,0:0:0:0:
504,185,117233,1,8,0:0:0:0:
317,274,117377,2,0,P|300:220|261:190,1,100,2|0,3:2|0:0,0:0:0:0:
102,286,117594,1,0,0:0:0:0:
92,306,117666,2,0,B|211:287|211:287|185:333,1,150,6|0,0:0|0:0,0:0:0:0:
252,367,117954,6,0,P|239:331|250:287,1,60.0000022888184,8|0,0:0|0:0,0:0:0:0:
313,251,118243,1,0,0:0:0:0:
434,314,118387,1,0,3:0:0:0:
327,146,118531,6,0,B|283:114|220:152|245:185|187:223|146:193,1,200,4|2,0:0|3:2,0:0:0:0:
246,30,118964,1,8,0:0:0:0:
103,81,119108,1,2,3:2:0:0:
258,46,119252,2,0,P|286:54|328:55,1,50,0|0,3:0|3:0,0:0:0:0:
443,25,119397,5,10,0:0:0:0:
488,90,119493,1,8,0:0:0:0:
448,159,119589,1,8,0:0:0:0:
375,125,119685,5,0,3:0:0:0:
350,114,119781,1,0,3:0:0:0:
324,120,119877,1,0,3:0:0:0:
268,178,119974,5,0,3:0:0:0:
308,247,120070,1,0,3:0:0:0:
387,251,120166,1,0,3:0:0:0:
457,214,120262,6,0,P|399:277|444:373,1,200,4|2,0:0|3:2,0:0:0:0:
332,185,120695,1,8,0:0:0:0:
259,336,120839,1,2,3:2:0:0:
56,205,120983,1,0,3:0:0:0:
39,252,121055,1,0,3:0:0:0:
70,290,121127,2,0,B|121:300|161:268|161:268|150:237|177:185,1,150,6|0,0:0|0:0,0:0:0:0:
233,185,121416,5,8,0:0:0:0:
296,339,121560,2,0,B|331:316|344:282|344:282|330:261|295:256,1,120.000004577637,0|0,3:0|3:0,0:0:0:0:
445,354,121993,6,0,P|458:279|502:210,1,150,4|0,0:0|0:0,0:0:0:0:
395,164,122281,2,0,P|432:193|494:182,1,100,2|8,3:2|0:0,0:0:0:0:
443,17,122570,1,2,3:2:0:0:
296,110,122714,1,0,3:0:0:0:
247,119,122786,1,0,3:0:0:0:
217,78,122858,2,0,P|159:28|80:34,1,150,6|0,0:0|0:0,0:0:0:0:
13,62,123147,6,0,P|51:66|79:50,1,60.0000022888184,8|0,0:0|0:0,0:0:0:0:
172,185,123435,1,0,3:0:0:0:
80,153,123579,1,0,3:0:0:0:
317,341,123724,6,0,P|291:242|364:169,1,200,4|2,0:0|3:2,0:0:0:0:
463,227,124156,1,8,0:0:0:0:
363,94,124301,2,0,P|308:132|265:118,1,100,2|0,3:2|3:0,0:0:0:0:
159,36,124517,1,0,3:0:0:0:
173,56,124589,2,0,B|221:67|243:40|240:29|269:2|321:18,1,150,6|0,0:0|0:0,0:0:0:0:
292,107,124877,6,0,P|261:88|244:53,1,60.0000022888184,8|0,0:0|0:0,0:0:0:0:
64,60,125166,1,0,0:0:0:0:
159,17,125310,1,0,3:0:0:0:
28,196,125454,6,0,P|97:292|206:282,1,200,4|2,0:0|3:2,0:0:0:0:
250,177,125887,1,8,0:0:0:0:
425,260,126031,2,0,P|452:314|423:371,1,100,2|0,3:2|3:0,0:0:0:0:
359,194,126248,1,0,3:0:0:0:
369,172,126320,2,0,B|425:130|469:131|469:131|473:91|489:70,1,150,10|0,0:0|0:0,0:0:0:0:
437,24,126608,5,0,3:0:0:0:
373,60,126704,1,0,3:0:0:0:
300,47,126801,1,0,3:0:0:0:
255,105,126897,1,0,3:0:0:0:
183,88,126993,1,0,3:0:0:0:
139,29,127089,1,0,3:0:0:0:
77,68,127185,6,0,P|160:118|166:166,1,150,6|0,0:0|0:0,0:0:0:0:
140,232,127474,2,0,P|98:263|108:305,1,100,2|8,3:2|0:0,0:0:0:0:
49,157,127762,1,2,3:2:0:0:
238,345,127906,1,0,3:0:0:0:
281,369,127978,1,0,3:0:0:0:
331,363,128051,2,0,B|401:296|401:296|365:194,1,200,6|8,0:0|0:0,0:0:0:0:
237,161,128483,6,0,B|201:205|201:205|220:268,1,120.000004577637,0|0,3:0|3:0,0:0:0:0:
335,54,128916,6,0,P|256:125|147:94,1,200,4|2,0:0|3:2,0:0:0:0:
57,14,129349,1,8,0:0:0:0:
24,224,129493,2,0,P|65:189|119:192,1,100,2|0,3:2|3:0,0:0:0:0:
202,288,129709,1,0,3:0:0:0:
191,312,129781,2,0,B|235:294|267:319|257:332|289:366|332:345,1,150,6|0,0:0|0:0,0:0:0:0:
402,298,130070,5,10,0:0:0:0:
298,123,130214,1,0,0:0:0:0:
417,208,130358,5,0,3:0:0:0:
319,267,130502,1,0,3:0:0:0:
152,111,130647,6,0,P|186:28|244:36,1,150,4|0,0:0|0:0,0:0:0:0:
293,69,130935,1,2,3:2:0:0:
490,117,131079,2,0,P|431:109|396:139,1,100,8|2,0:0|3:2,0:0:0:0:
274,338,131368,1,0,3:0:0:0:
243,298,131440,1,0,3:0:0:0:
265,253,131512,2,0,B|304:150|304:150|273:109,1,150,6|0,0:0|0:0,0:0:0:0:
212,87,131801,5,8,0:0:0:0:
355,38,131945,1,0,0:0:0:0:
208,0,132089,2,0,P|184:18|137:19,1,60.0000022888184
18,233,132377,6,0,P|53:304|182:330,1,200,4|2,0:0|3:2,0:0:0:0:
210,182,132810,1,8,0:0:0:0:
378,283,132954,2,0,P|372:234|399:193,1,100,2|0,3:2|0:0,0:0:0:0:
502,327,133243,5,10,0:0:0:0:
431,364,133339,1,8,0:0:0:0:
351,354,133435,1,8,0:0:0:0:
294,298,133531,5,0,3:0:0:0:
290,271,133627,1,0,3:0:0:0:
304,248,133724,1,0,3:0:0:0:
264,178,133820,5,0,3:0:0:0:
185,192,133916,1,0,3:0:0:0:
150,263,134012,1,0,3:0:0:0:
122,337,134108,6,0,P|79:356|18:339,1,100,4|0,0:0|0:0,0:0:0:0:
71,179,134397,1,2,3:2:0:0:
249,268,134541,2,0,P|269:317|276:379,1,100,8|2,0:0|3:2,0:0:0:0:
463,296,134829,1,0,0:0:0:0:
263,184,134974,2,0,B|239:152|259:118|250:107|263:75|235:33,1,150,6|0,0:0|0:0,0:0:0:0:
304,7,135262,5,8,0:0:0:0:
452,90,135406,2,0,P|460:61|489:39,1,60.0000022888184,0|0,3:0|0:0,0:0:0:0:
355,122,135695,1,0,3:0:0:0:
458,301,135839,6,0,P|395:214|282:212,1,220,4|0,3:2|0:0,0:0:0:0:
197,140,136704,6,0,P|282:171|442:27,1,330.000012588501,2|0,0:0|0:0,0:0:0:0:
420,35,137570,6,0,P|363:32|316:5,1,112,2|0,0:0|0:0,0:0:0:0:
55,335,150839,6,0,P|100:325|129:292,1,80
205,150,151416,6,0,B|263:119|336:168|314:188|378:237|424:210,1,240,2|0,0:0|0:0,0:0:0:0:
355,310,152570,1,0,0:0:0:0:
459,361,152858,1,0,0:0:0:0:
410,184,153147,6,0,P|407:143|428:96,2,80,2|0|0,0:0|0:0|0:0,0:0:0:0:
233,30,154012,2,0,P|272:51|293:96,1,80
242,222,154589,1,0,0:0:0:0:
24,155,154877,6,0,B|69:119|110:135|87:145|136:167|181:136,1,160,2|0,0:0|0:0,0:0:0:0:
365,25,155743,2,0,P|399:38|423:79,1,80
304,182,156320,1,0,0:0:0:0:
474,343,156608,6,0,P|439:304|459:241,1,120,0|2,0:0|0:0,0:0:0:0:
314,279,157329,1,2,0:0:0:0:
278,253,157474,1,2,0:0:0:0:
87,291,157762,1,0,0:0:0:0:
188,155,158051,1,0,0:0:0:0:
76,36,158339,5,0,0:0:0:0:
233,85,158627,2,0,P|273:71|294:40,1,80,2|0,0:0|0:0,0:0:0:0:
475,152,159204,1,2,0:0:0:0:
370,287,159493,2,0,P|352:247|363:201,1,80
179,161,160070,5,0,0:0:0:0:
313,363,160358,1,2,0:0:0:0:
429,338,160647,1,0,0:0:0:0:
205,267,160935,1,2,0:0:0:0:
273,215,161656,1,0,3:0:0:0:
282,183,161728,1,0,3:0:0:0:
264,152,161801,5,8,0:0:0:0:
81,53,162089,1,0,3:0:0:0:
361,15,162377,1,0,3:0:0:0:
450,291,162666,1,0,3:0:0:0:
187,210,162954,1,0,3:0:0:0:
489,121,163243,1,0,3:0:0:0:
348,268,163531,5,8,0:0:0:0:
257,358,163676,2,0,B|233:319|233:319|248:253,1,90.0000034332277,0|0,3:0|0:0,0:0:0:0:
280,155,163964,2,0,P|252:192|188:191,1,90.0000034332277,0|0,3:0|0:0,0:0:0:0:
114,135,164252,1,0,3:0:0:0:
106,100,164325,1,0,3:0:0:0:
98,66,164397,5,8,0:0:0:0:
32,261,164541,1,8,0:0:0:0:
192,194,164685,1,8,0:0:0:0:
118,294,164829,2,0,P|183:301|228:374,1,150.000005722046,0|0,3:0|0:0,0:0:0:0:
352,342,165262,6,0,P|386:318|428:317,1,80,6|0,0:0|0:0,0:0:0:0:
488,160,165551,1,0,0:0:0:0:
363,238,165695,2,0,P|292:222|319:129,1,160,2|0,3:2|3:0,0:0:0:0:
418,65,166055,1,0,3:0:0:0:
421,42,166127,2,0,B|343:57|343:57|296:13,1,120,8|0,0:0|0:0,0:0:0:0:
194,18,166416,2,0,P|239:72|203:124,1,120,2|0,3:2|0:0,0:0:0:0:
138,208,166704,2,0,P|120:148|156:65,1,120,2|0,3:2|0:0,0:0:0:0:
3,148,166993,6,0,P|26:160|50:179,1,40,6|0,0:0|0:0,0:0:0:0:
130,284,167137,1,2,0:0:0:0:
37,364,167281,1,0,0:0:0:0:
237,319,167426,2,0,B|275:302|314:332|306:344|348:370|393:354,1,160,0|0,3:0|3:0,0:0:0:0:
496,294,167786,1,0,3:0:0:0:
490,271,167858,2,0,B|402:247|402:247|385:194,1,120,10|0,0:0|0:0,0:0:0:0:
384,123,168147,2,0,P|410:159|407:206,1,80,2|0,3:2|0:0,0:0:0:0:
283,270,168435,2,0,P|240:210|176:215,1,120,2|0,3:2|0:0,0:0:0:0:
139,285,168724,5,6,0:0:0:0:
334,329,168868,2,0,P|304:360|238:368,1,80,2|0,3:2|3:0,3:0:0:0:
96,352,169156,2,0,P|109:277|39:223,1,160,0|0,3:0|3:0,0:0:0:0:
16,88,169517,1,0,3:0:0:0:
29,69,169589,2,0,B|112:99|112:99|139:56,1,120,8|0,0:0|0:0,0:0:0:0:
223,17,169877,2,0,P|179:61|199:123,1,120,2|0,3:2|0:0,0:0:0:0:
234,262,170166,2,0,P|238:193|277:124,1,120,2|0,3:2|0:0,0:0:0:0:
362,56,170454,5,6,0:0:0:0:
481,191,170599,2,0,P|491:137|420:114,1,120,0|0,3:0|0:0,0:0:0:0:
384,160,170887,1,0,3:0:0:0:
274,75,171031,1,0,3:0:0:0:
156,168,171176,2,0,P|135:179|104:178,1,40,0|0,3:0|3:0,3:0:0:0:
62,128,171320,1,10,0:0:0:0:
26,336,171464,6,0,P|19:330|-4:333,2,26.6666666666667,0|0|0,3:0|3:0|3:0,3:0:0:0:
35,323,171608,6,0,P|27:302|28:272,1,40,0|0,3:0|0:0,0:0:0:0:
211,233,171752,1,8,0:0:0:0:
123,340,171897,2,0,P|170:361|214:363,1,80,2|0,3:2|0:0,0:0:0:0:
436,325,172185,5,4,0:0:0:0:
338,244,172329,2,0,P|295:235|244:270,1,80,0|0,3:0|0:0,0:0:0:0:
286,126,172618,2,0,P|336:196|427:192,1,160,0|0,3:0|3:0,0:0:0:0:
496,104,172978,1,0,3:0:0:0:
490,83,173051,2,0,B|428:70|428:70|410:-6,1,120,10|0,0:0|0:0,0:0:0:0:
349,48,173339,1,0,3:0:0:0:
156,2,173483,1,8,0:0:0:0:
56,106,173627,2,0,P|31:147|70:218,1,120,0|0,3:0|0:0,0:0:0:0:
102,266,173916,6,0,B|125:253|125:253|156:248,1,40,2|0,3:2|0:0,0:0:0:0:
295,281,174060,6,0,B|311:276|311:276|323:261,2,26.6666666666667,0|0|0,3:0|3:0|3:0,0:0:0:0:
311,301,174204,6,0,P|313:325|319:355,1,40,0|0,3:0|0:0,0:0:0:0:
454,369,174349,1,10,0:0:0:0:
475,186,174493,2,0,P|442:213|374:216,1,80,0|0,0:0|3:0,0:0:0:0:
317,101,174709,1,0,3:0:0:0:
331,83,174781,2,0,B|428:107|428:107|404:146,1,120,10|0,0:0|0:0,0:0:0:0:
316,179,175070,2,0,B|303:222|303:222|329:273,1,80,0|0,3:0|0:0,0:0:0:0:
167,353,175358,1,0,3:0:0:0:
222,202,175502,1,2,0:0:0:0:
7,302,175647,5,6,0:0:0:0:
150,260,175791,1,0,0:0:0:0:
56,113,175935,1,2,0:0:0:0:
208,24,176079,2,0,P|175:64|188:111,1,80,0|0,3:0|0:0,0:0:0:0:
311,196,176368,1,2,3:2:0:0:
342,203,176440,1,0,3:0:0:0:
373,210,176512,1,8,0:0:0:0:
280,358,176656,1,2,0:0:0:0:
141,288,176801,2,0,P|211:295|250:240,1,120,0|0,3:0|0:0,0:0:0:0:
140,217,177089,2,0,P|70:210|31:265,1,120,0|0,3:0|0:0,0:0:0:0:
54,311,177377,5,8,0:0:0:0:
2,122,177522,1,0,3:0:0:0:
187,154,177666,1,0,3:0:0:0:
80,22,177810,2,0,P|128:20|166:-2,1,80,2|0,3:2|3:0,0:0:0:0:
339,47,178099,1,0,3:0:0:0:
349,77,178171,1,0,3:0:0:0:
359,107,178243,5,8,0:0:0:0:
464,19,178387,1,8,0:0:0:0:
392,186,178531,1,8,0:0:0:0:
199,101,178676,1,0,3:0:0:0:
199,101,178748,1,0,3:0:0:0:
199,101,178820,2,0,B|218:111|218:111|241:114,3,40,2|0|0|0,3:2|3:0|3:0|3:0,0:0:0:0:
258,191,179108,6,0,P|277:176|312:177,2,53.3333333333333,2|0|0,0:0|0:0|0:0,0:0:0:0:
231,263,179397,5,14,0:0:0:0:
81,352,179541,1,0,3:0:0:0:
81,352,179613,1,0,3:0:0:0:
81,352,179685,2,0,P|126:353|148:316,1,80,2|0,3:2|0:0,0:0:0:0:
39,199,179974,2,0,B|29:150|29:150|64:105,1,80,10|0,0:0|3:2,0:0:0:0:
8,51,180190,1,0,3:0:0:0:
21,27,180262,2,0,P|68:35|105:12,1,80,2|0,3:2|0:0,0:0:0:0:
272,71,180551,1,10,0:0:0:0:
261,92,180623,1,0,3:0:0:0:
239,107,180695,1,0,3:0:0:0:
215,112,180767,1,0,3:0:0:0:
178,96,180839,6,0,P|158:145|173:188,1,80,6|0,0:0|0:0,0:0:0:0:
94,350,181127,1,10,0:0:0:0:
48,324,181200,1,0,3:0:0:0:
21,279,181272,1,0,3:0:0:0:
14,227,181344,1,0,3:0:0:0:
42,183,181416,5,10,0:0:0:0:
73,178,181488,1,0,3:0:0:0:
104,174,181560,1,0,3:0:0:0:
135,170,181632,1,0,3:0:0:0:
174,203,181704,6,0,B|220:184|220:184|226:137,1,80,8|0,0:0|3:0,0:0:0:0:
183,37,181921,1,0,3:0:0:0:
166,29,181993,6,0,P|160:64|174:97,1,60,2|0,0:0|0:0,0:0:0:0:
295,133,182281,1,0,3:0:0:0:
326,126,182353,1,0,3:0:0:0:
358,119,182426,1,0,3:0:0:0:
389,113,182498,1,0,3:0:0:0:
432,138,182570,6,0,B|426:181|426:181|375:209,1,80,4|0,0:0|3:0,0:0:0:0:
282,265,182786,1,0,3:0:0:0:
302,289,182858,2,0,P|356:301|382:334,1,80,8|0,0:0|3:0,0:0:0:0:
439,361,183075,1,0,3:0:0:0:
458,335,183147,1,0,3:0:0:0:
482,178,183291,1,0,3:0:0:0:
482,178,183363,1,0,3:0:0:0:
482,178,183435,5,10,0:0:0:0:
338,212,183579,1,0,0:0:0:0:
248,20,183724,1,10,0:0:0:0:
438,73,183868,1,0,3:0:0:0:
415,96,183940,1,0,3:0:0:0:
392,118,184012,2,0,B|348:112|348:112|296:143,1,80,10|0,0:0|0:0,0:0:0:0:
186,321,184301,6,0,P|142:308|111:275,1,80,12|0,0:0|0:0,0:0:0:0:
22,244,184517,2,0,P|65:216|108:215,1,80,2|0,0:0|0:0,0:0:0:0:
225,250,184733,6,0,P|248:252|282:243,1,40,12|0,0:0|0:0,0:0:0:0:
401,189,184877,1,2,0:0:0:0:
378,366,185022,5,0,3:0:0:0:
357,367,185094,1,0,3:0:0:0:
342,352,185166,2,0,P|357:292|439:281,1,120,4|0,0:0|0:0,0:0:0:0:
487,173,185454,5,0,3:0:0:0:
479,141,185527,1,0,3:0:0:0:
472,108,185599,2,0,B|401:93|401:93|444:35,1,120,10|0,0:0|0:0,0:0:0:0:
324,77,185887,1,0,3:0:0:0:
294,89,185959,1,0,3:0:0:0:
264,102,186031,6,0,P|224:96|185:64,1,80,4|0,0:0|0:0,0:0:0:0:
35,16,186320,1,8,0:0:0:0:
109,219,186464,1,0,3:0:0:0:
109,219,186536,1,0,3:0:0:0:
109,219,186608,2,0,B|90:168|90:168|119:127,1,80,8|0,0:0|3:0,0:0:0:0:
181,188,186825,1,0,3:0:0:0:
193,209,186897,2,0,P|230:224|287:228,1,80,2|0,3:2|0:0,0:0:0:0:
401,342,187185,2,0,P|353:350|312:378,1,80,8|0,0:0|3:0,0:0:0:0:
262,306,187402,1,0,3:0:0:0:
250,337,187474,1,8,0:0:0:0:
95,162,187618,1,0,0:0:0:0:
226,238,187762,5,6,0:0:0:0:
268,185,187858,1,2,0:0:0:0:
254,118,187954,1,2,0:0:0:0:
205,70,188051,6,0,B|230:18|230:18|288:3,1,80,10|0,0:0|0:0,0:0:0:0:
390,113,188339,2,0,P|437:129|491:128,1,80,8|0,0:0|3:0,0:0:0:0:
389,197,188555,1,0,3:0:0:0:
377,226,188627,1,8,0:0:0:0:
470,366,188772,1,0,3:0:0:0:
478,335,188844,1,0,3:0:0:0:
467,304,188916,1,2,3:2:0:0:
476,280,189204,5,2,3:2:0:0:
446,316,189277,1,0,3:0:0:0:
402,331,189349,1,0,3:0:0:0:
356,328,189421,1,0,3:0:0:0:
319,299,189493,6,0,B|282:269|282:269|222:283,1,80,6|0,0:0|3:0,0:0:0:0:
126,354,189709,1,0,3:0:0:0:
144,336,189781,2,0,P|160:291|163:242,1,80,8|0,0:0|3:0,0:0:0:0:
114,175,189998,1,0,3:0:0:0:
96,193,190070,2,0,P|80:238|77:287,1,80,8|0,0:0|0:0,0:0:0:0:
254,188,190358,1,10,0:0:0:0:
134,20,190502,1,0,0:0:0:0:
134,20,190575,1,0,0:0:0:0:
134,20,190647,2,0,B|178:46|178:46|223:37,1,80,8|0,0:0|3:0,0:0:0:0:
380,65,190863,1,0,3:0:0:0:
366,84,190935,2,0,B|319:91|319:91|288:139,1,80,10|0,0:0|0:0,0:0:0:0:
372,233,191224,6,0,P|404:284|396:333,1,100,10|0,0:0|0:0,0:0:0:0:
487,178,191656,2,0,P|473:236|436:266,1,100,8|0,0:0|0:3,0:3:0:0:
331,366,192089,6,0,B|288:312|288:312|212:290,1,120,10|0,0:0|0:0,0:0:0:0:
61,282,192377,2,0,B|129:271|129:271|186:216,1,120,10|0,0:0|0:0,0:0:0:0:
209,155,192666,6,0,P|201:122|203:80,1,60,0|0,3:0|0:0,0:0:0:0:
328,21,192954,6,0,P|353:72|271:105,1,150.000005722046,10|0,0:0|0:0,0:0:0:0:
492,184,193387,2,0,B|454:198|423:167|435:161|402:126|350:136,1,150.000005722046,8|0,0:0|0:0,0:0:0:0:
326,335,193820,6,0,P|372:292|386:211,1,120,10|0,0:0|0:0,0:0:0:0:
246,211,194108,2,0,P|233:229|221:263,1,40,10|0,0:0|0:0,0:0:0:0:
138,204,194252,6,0,P|204:256|175:318,1,150.000005722046,0|0,3:0|0:0,0:0:0:0:
62,356,194685,6,0,B|92:250|92:250|73:131,1,200,10|0,0:0|0:0,0:0:0:0:
69,18,195118,2,0,B|39:124|39:124|58:243,1,200,8|0,0:0|0:0,0:0:0:0:
10,298,195551,6,0,P|61:257|142:286,1,120,8|0,0:0|0:0,0:0:0:0:
264,310,195839,2,0,B|219:364|219:364|140:344,1,120,10|0,0:0|0:0,0:0:0:0:
80,365,196127,6,0,P|119:362|150:350,1,60,0|0,3:0|0:0,0:0:0:0:
197,271,196416,5,8,0:0:0:0:
259,231,196512,1,8,0:0:0:0:
332,243,196608,1,8,0:0:0:0:
382,297,196704,5,0,3:0:0:0:
389,320,196801,1,0,3:0:0:0:
396,343,196897,1,0,3:0:0:0:
467,365,196993,5,0,3:0:0:0:
502,299,197089,1,0,3:0:0:0:
461,236,197185,1,0,3:0:0:0:
421,170,197281,6,0,B|430:104|378:44|378:44|425:50|450:14,1,220,10|0,0:0|0:0,0:0:0:0:
336,115,198147,6,0,P|257:151|166:153,1,160,4|2,0:0|3:2,0:0:0:0:
48,33,198579,1,0,0:0:0:0:
216,73,198724,2,0,P|250:58|276:17,1,80,2|0,3:2|0:0,0:0:0:0:
86,161,199012,6,0,P|59:223|53:296,1,120.000004577637,10|0,0:0|3:0,0:0:0:0:
216,352,199445,1,0,3:0:0:0:
154,220,199589,1,0,3:0:0:0:
226,183,199733,1,0,3:0:0:0:
337,27,199877,6,0,P|397:13|460:87,1,160,4|2,0:0|3:2,0:0:0:0:
342,175,200310,1,0,0:0:0:0:
462,310,200454,2,0,P|454:266|424:225,1,80,2|0,3:2|3:0,0:0:0:0:
286,329,200671,1,0,3:0:0:0:
263,347,200743,6,0,P|203:347|154:314,1,120.000004577637,14|0,0:0|3:0,0:0:0:0:
279,171,201176,1,0,3:0:0:0:
334,243,201320,1,0,3:0:0:0:
292,149,201464,1,0,3:0:0:0:
403,351,201608,6,0,P|419:275|480:204,1,160,4|2,0:0|3:2,0:0:0:0:
420,25,202041,1,0,0:0:0:0:
271,111,202185,2,0,P|309:133|357:137,1,80,2|0,3:2|3:0,0:0:0:0:
468,166,202402,1,0,3:0:0:0:
479,190,202474,6,0,B|444:176|418:191|426:205|401:222|365:211,1,120.000004577637,14|0,0:0|3:0,0:0:0:0:
219,289,202906,1,0,0:0:0:0:
331,359,203051,1,0,3:0:0:0:
399,331,203195,1,0,3:0:0:0:
256,207,203339,6,0,P|241:169|235:127,1,80,4|0,0:0|0:0,0:0:0:0:
95,17,203627,2,0,P|77:52|15:76,1,80,2|0,3:2|0:0,0:0:0:0:
161,180,203916,1,2,3:2:0:0:
15,266,204060,1,0,3:0:0:0:
25,287,204132,1,0,3:0:0:0:
35,308,204204,6,0,P|97:302|158:340,1,120.000004577637,10|0,0:0|0:0,0:0:0:0:
164,349,204781,5,0,3:0:0:0:
235,359,204877,1,0,3:0:0:0:
301,330,204974,1,0,3:0:0:0:
344,269,205070,6,0,P|327:184|363:109,1,160,4|2,0:0|3:2,0:0:0:0:
133,184,205502,1,0,0:0:0:0:
228,320,205647,2,0,P|231:280|210:231,1,80,2|0,3:2|0:0,0:0:0:0:
278,45,205935,6,0,B|234:82|234:82|172:56,1,120.000004577637,14|8,0:0|0:0,0:0:0:0:
26,99,206368,1,8,0:0:0:0:
147,168,206512,1,0,3:0:0:0:
69,285,206656,1,0,3:0:0:0:
244,196,206801,6,0,P|326:175|412:177,1,160,4|2,0:0|3:2,0:0:0:0:
467,370,207233,1,0,0:0:0:0:
338,335,207377,2,0,P|324:297|324:248,1,80,2|0,3:2|0:0,0:0:0:0:
131,338,207666,6,0,P|65:365|-8:373,1,120.000004577637,14|0,0:0|3:0,0:0:0:0:
108,200,208099,1,0,3:0:0:0:
213,365,208243,1,0,3:0:0:0:
243,275,208387,1,0,3:0:0:0:
428,113,208531,6,0,P|465:184|466:275,1,160,4|2,0:0|3:2,0:0:0:0:
334,185,208964,1,0,0:0:0:0:
400,28,209108,2,0,P|437:31|482:12,1,80,2|0,3:2|0:0,0:0:0:0:
275,118,209397,6,0,B|251:90|251:62|251:62|233:81|186:85,1,120.000004577637,14|8,0:0|0:0,0:0:0:0:
80,25,209829,2,0,P|53:46|18:55,1,60.0000022888184,2|0,0:0|0:0,0:0:0:0:
141,159,210118,1,0,3:0:0:0:
297,15,210262,5,4,0:0:0:0:
403,122,210406,1,0,0:0:0:0:
440,48,210551,1,0,3:0:0:0:
248,151,210695,2,0,B|286:179|283:218|283:218|308:184|359:191,1,160,8|0,0:0|3:0,0:0:0:0:
485,276,211127,5,10,0:0:0:0:
458,347,211224,1,8,0:0:0:0:
383,355,211320,1,8,0:0:0:0:
336,298,211416,5,0,3:0:0:0:
312,269,211512,1,0,3:0:0:0:
276,259,211608,1,0,3:0:0:0:
245,286,211704,1,0,3:0:0:0:
216,315,211801,1,0,3:0:0:0:
179,306,211897,1,0,3:0:0:0:
127,259,211993,6,0,P|51:288|73:364,1,160,4|2,0:0|3:2,0:0:0:0:
220,228,212426,1,0,0:0:0:0:
173,107,212570,2,0,P|160:69|184:38,1,80,2|0,3:2|3:0,0:0:0:0:
259,126,212786,1,0,3:0:0:0:
269,149,212858,6,0,P|215:126|149:134,1,120.000004577637,6|0,0:0|3:0,0:0:0:0:
354,63,213291,2,0,P|404:68|414:6,1,120.000004577637,0|0,3:0|3:0,0:0:0:0:
392,197,213724,6,0,P|419:277|432:353,1,160,4|2,0:0|3:2,0:0:0:0:
304,254,214156,1,0,0:0:0:0:
175,356,214301,2,0,P|211:342|257:339,1,80,2|0,3:2|0:0,0:0:0:0:
155,160,214589,6,0,P|161:94|179:34,2,120.000004577637,4|8|0,0:0|0:0|3:0,0:0:0:0:
226,253,215310,1,0,3:0:0:0:
18,149,215454,6,0,P|31:189|63:224,1,80,4|0,0:0|0:0,0:0:0:0:
98,18,215743,1,2,3:2:0:0:
317,61,215887,2,0,B|238:42|238:42|164:89,1,160,10|0,0:0|0:0,0:0:0:0:
236,251,216320,6,0,P|235:181|258:129,1,120.000004577637,4|0,0:0|3:0,0:0:0:0:
428,182,216752,1,2,3:2:0:0:
347,223,216897,1,0,3:0:0:0:
462,259,217041,1,0,3:0:0:0:
460,29,217185,6,0,P|417:94|338:88,1,160,4|2,0:0|3:2,0:0:0:0:
200,22,217618,1,0,0:0:0:0:
72,91,217762,2,0,P|111:96|146:123,1,80,2|0,3:2|0:0,0:0:0:0:
245,302,218051,5,8,0:0:0:0:
298,258,218147,1,8,0:0:0:0:
310,189,218243,1,8,0:0:0:0:
269,129,218339,1,8,0:0:0:0:
248,119,218627,1,0,3:0:0:0:
396,219,218916,6,0,P|440:212|483:197,1,80,4|0,0:0|0:0,0:0:0:0:
333,360,219204,2,0,P|333:327|314:276,1,80,2|0,0:0|0:0,0:0:0:0:
176,204,219493,2,0,B|146:236|146:236|103:226,1,80,2|0,0:0|3:0,0:0:0:0:
20,263,219709,1,0,3:0:0:0:
32,284,219781,6,0,P|88:302|135:363,1,120.000004577637,14|8,0:0|0:0,0:0:0:0:
180,256,220214,1,0,0:0:0:0:
252,225,220358,1,0,0:0:0:0:
345,324,220502,1,0,3:0:0:0:
396,127,220647,5,4,0:0:0:0:
461,238,220791,2,0,P|479:193|482:149,1,80,0|2,0:0|3:2,0:0:0:0:
383,24,221079,1,2,0:0:0:0:
289,98,221224,2,0,P|251:115|202:115,1,80,2|0,0:0|3:0,0:0:0:0:
40,152,221440,1,0,3:0:0:0:
27,184,221512,6,0,B|68:163|68:163|146:227,1,120.000004577637,14|8,0:0|0:0,0:0:0:0:
197,276,221945,1,0,0:0:0:0:
292,235,222089,1,0,0:0:0:0:
177,365,222233,1,0,3:0:0:0:
373,293,222377,6,0,P|388:254|377:218,1,80,4|0,0:0|0:0,0:0:0:0:
273,159,222666,1,0,0:0:0:0:
417,85,222810,2,0,B|403:124|403:124|435:166,1,80,10|0,0:0|0:0,0:0:0:0:
486,325,223099,1,0,3:0:0:0:
464,301,223171,1,0,3:0:0:0:
432,294,223243,6,0,P|394:335|332:341,1,120.000004577637,14|0,0:0|0:0,0:0:0:0:
280,214,223676,1,0,3:0:0:0:
140,300,223820,2,0,P|168:279|212:281,1,60.0000022888184
325,73,224108,5,4,0:0:0:0:
213,161,224252,2,0,P|133:130|45:116,1,160,0|8,3:0|0:0,0:0:0:0:
160,55,224685,1,2,0:0:0:0:
43,211,224829,1,0,3:0:0:0:
64,235,224902,1,0,3:0:0:0:
53,265,224974,6,0,P|46:289|40:318,2,53.3333333333333,2|0|0,3:2|3:0|3:0,0:0:0:0:
122,238,225262,1,2,3:2:0:0:
196,246,225358,1,0,3:0:0:0:
253,293,225454,1,0,3:0:0:0:
214,227,225551,1,2,3:2:0:0:
241,158,225647,1,0,3:0:0:0:
315,154,225743,1,0,3:0:0:0:
376,205,225839,6,0,P|458:163|449:94,1,150,4|0,0:0|0:0,0:0:0:0:
435,48,226127,1,8,0:0:0:0:
299,3,226272,1,0,0:0:0:0:
215,108,226416,1,10,0:0:0:0:
314,16,226560,1,0,0:0:0:0:
115,3,226704,5,10,0:0:0:0:
45,161,226849,1,0,3:0:0:0:
68,187,226921,1,0,3:0:0:0:
98,204,226993,2,0,B|126:160|126:160|105:109,1,100,8|0,0:0|0:0,0:0:0:0:
298,262,227281,2,0,B|270:306|270:306|291:357,1,100,10|0,0:0|0:0,0:0:0:0:
23,259,227570,5,12,0:0:0:0:
175,327,227714,1,0,0:0:0:0:
211,116,227858,2,0,P|226:169|230:215,1,100,8|0,0:0|0:0,0:0:0:0:
83,379,228147,2,0,P|91:327|114:267,1,100,10|0,0:0|0:0,0:0:0:0:
262,337,228435,5,10,0:0:0:0:
415,229,228579,1,0,3:0:0:0:
448,240,228652,1,0,3:0:0:0:
480,251,228724,1,8,0:0:0:0:
391,112,228868,1,0,0:0:0:0:
276,257,229012,1,8,0:0:0:0:
380,96,229156,1,0,0:0:0:0:
83,32,229301,6,0,P|132:30|181:76,1,100,12|0,0:0|0:0,0:0:0:0:
341,161,229589,2,0,P|287:166|230:185,1,100,8|0,0:0|0:0,0:0:0:0:
29,283,229877,2,0,B|56:239|56:239|43:189,1,100,10|0,0:0|0:0,0:0:0:0:
206,367,230166,5,8,0:0:0:0:
161,171,230310,1,0,3:0:0:0:
135,195,230382,1,0,3:0:0:0:
133,229,230454,2,0,P|188:239|233:265,1,100,8|0,0:0|0:0,0:0:0:0:
93,368,230743,1,8,0:0:0:0:
324,376,230887,2,0,P|334:345|337:319,1,50
273,186,231031,5,4,0:0:0:0:
239,151,231127,1,0,3:0:0:0:
191,150,231224,1,0,3:0:0:0:
167,82,231320,5,0,3:0:0:0:
235,103,231416,1,0,3:0:0:0:
291,59,231512,2,0,P|314:46|337:45,1,40.000001525879,0|2,3:0|0:0,0:0:0:0:
346,54,231897,5,8,0:0:0:0:
427,95,231993,1,8,0:0:0:0:
348,141,232089,1,8,0:0:0:0:
372,66,232185,5,0,3:0:0:0:
401,111,232281,1,0,3:0:0:0:
347,112,232377,1,0,3:0:0:0:
380,83,232474,5,0,3:0:0:0:
382,110,232570,1,0,3:0:0:0:
358,96,232666,1,0,3:0:0:0:
413,192,232762,6,0,P|409:215|394:250,1,50,4|0,0:0|0:0,0:0:0:0:
236,347,232906,1,0,0:0:0:0:
236,347,233195,6,0,P|252:341|287:336,1,40,2|0,0:0|0:0,0:0:0:0:
161,323,233339,2,0,P|119:318|80:283,1,80,2|0,0:0|3:0,0:0:0:0:
40,183,233555,1,0,3:0:0:0:
56,207,233627,6,0,P|61:146|74:77,2,120.000004577637,4|0|0,0:0|3:0|3:0,0:0:0:0:
176,248,234349,1,0,3:0:0:0:
292,76,234493,6,0,P|361:16|428:42,1,150,6|0,0:0|0:0,0:0:0:0:
472,84,234781,2,0,P|430:101|392:146,1,100,2|0,3:2|0:0,0:0:0:0:
447,330,235070,2,0,P|463:278|450:221,1,100,2|0,3:2|3:0,0:0:0:0:
344,290,235286,1,0,3:0:0:0:
365,313,235358,6,0,P|311:350|248:329,1,120.000004577637,14|0,0:0|3:0,0:0:0:0:
135,258,235791,1,0,3:0:0:0:
243,169,235935,1,0,3:0:0:0:
288,242,236079,1,0,3:0:0:0:
388,10,236224,6,0,P|321:94|315:149,1,150,4|0,0:0|0:0,0:0:0:0:
246,86,236512,2,0,P|235:49|192:-3,1,100,2|0,3:2|0:0,0:0:0:0:
23,156,236801,2,0,P|74:162|135:183,1,100,2|0,3:2|3:0,0:0:0:0:
229,280,237017,1,0,3:0:0:0:
244,316,237089,6,0,B|185:300|185:300|111:342,1,120.000004577637,14|8,0:0|0:0,0:0:0:0:
33,175,237522,1,0,3:0:0:0:
139,236,237666,1,0,3:0:0:0:
58,303,237810,1,0,3:0:0:0:
143,65,237954,6,0,B|214:45|214:45|237:75,1,100,14|0,0:0|0:0,0:0:0:0:
353,163,238243,2,0,P|403:181|451:184,1,100,2|8,3:2|0:0,0:0:0:0:
315,26,238531,1,2,3:2:0:0:
264,199,238676,1,0,0:0:0:0:
162,65,238820,5,8,0:0:0:0:
89,55,238916,1,0,3:0:0:0:
33,102,239012,1,0,3:0:0:0:
24,174,239108,5,8,0:0:0:0:
71,229,239204,1,0,3:0:0:0:
143,239,239301,1,0,3:0:0:0:
181,175,239397,5,8,0:0:0:0:
239,130,239493,1,0,3:0:0:0:
308,151,239589,1,0,3:0:0:0:
346,213,239685,6,0,P|389:239|450:236,1,100,6|0,0:0|0:0,0:0:0:0:
440,8,239974,2,0,P|412:49|396:104,1,100,8|0,0:0|0:0,0:0:0:0:
231,79,240262,2,0,B|197:44|197:44|129:53,1,100,10|0,0:0|0:0,0:0:0:0:
7,254,240551,5,10,0:0:0:0:
173,148,240695,1,0,3:0:0:0:
173,148,240767,1,0,3:0:0:0:
173,148,240839,1,8,0:0:0:0:
130,323,240983,1,0,0:0:0:0:
49,172,241127,1,8,0:0:0:0:
264,228,241272,1,0,0:0:0:0:
51,78,241416,6,0,P|101:82|149:57,1,100,12|0,0:0|0:0,0:0:0:0:
350,16,241704,1,8,0:0:0:0:
246,100,241849,1,0,0:0:0:0:
383,210,241993,2,0,B|371:162|371:162|401:103,1,100,10|0,0:0|0:0,0:0:0:0:
218,227,242281,5,10,0:0:0:0:
338,363,242426,1,0,3:0:0:0:
377,369,242498,1,0,3:0:0:0:
398,335,242570,2,0,P|369:298|297:277,1,100,8|0,0:0|0:0,0:0:0:0:
137,353,242858,2,0,B|184:323|184:323|238:335,1,100,8|0,0:0|0:0,0:0:0:0:
350,192,243147,6,0,P|366:151|368:83,1,100,4|0,0:0|0:0,0:0:0:0:
160,15,243435,1,8,0:0:0:0:
266,96,243579,1,0,0:0:0:0:
120,188,243724,2,0,B|77:190|77:190|66:201|66:201|15:215,1,100,10|0,0:0|0:0,0:0:0:0:
286,290,244012,5,10,0:0:0:0:
137,368,244156,1,0,3:0:0:0:
125,329,244228,1,0,3:0:0:0:
113,290,244301,1,10,0:0:0:0:
238,188,244445,1,0,0:0:0:0:
91,82,244589,2,0,P|133:111|195:115,1,100,8|0,0:0|0:0,0:0:0:0:
397,21,244877,5,12,0:0:0:0:
325,163,245022,1,0,0:0:0:0:
493,95,245166,1,8,0:0:0:0:
312,145,245310,1,0,0:0:0:0:
406,326,245454,2,0,B|433:281|433:281|416:226,1,100,10|0,0:0|0:0,0:0:0:0:
255,315,245743,5,0,3:0:0:0:
191,352,245839,1,0,3:0:0:0:
118,359,245935,1,0,3:0:0:0:
57,317,246031,6,0,B|113:318|187:255|187:255|143:214,1,200,8|8,0:0|0:0,0:0:0:0:
187,74,246464,1,0,0:0:0:0:
39,189,246608,5,4,0:0:0:0:
217,262,246752,1,0,3:0:0:0:
252,241,246825,1,0,3:0:0:0:
268,204,246897,2,0,P|307:182|368:191,1,100,0|0,3:0|0:0,0:0:0:0:
470,329,247185,2,0,B|421:346|421:346|381:303,1,100,2|0,3:2|0:0,0:0:0:0:
453,155,247474,5,4,0:0:0:0:
453,155,247762,1,8,0:0:0:0:
484,45,247906,2,0,P|440:66|356:77,1,120.000004577637,0|0,3:0|3:0,0:0:0:0:
150,16,248339,5,6,0:0:0:0:
310,152,248483,1,0,3:0:0:0:
272,165,248555,1,0,3:0:0:0:
247,196,248627,2,0,P|229:245|229:295,1,100,0|0,3:0|0:0,0:0:0:0:
67,118,248916,2,0,B|92:148|92:148|67:221,1,100,2|0,3:2|0:0,0:0:0:0:
281,363,249204,6,0,P|346:336|369:289,1,120.000004577637,6|8,0:0|0:0,0:0:0:0:
216,188,249637,1,0,3:0:0:0:
80,351,249781,1,0,3:0:0:0:
94,354,249853,1,0,3:0:0:0:
108,357,249926,1,0,3:0:0:0:
122,360,249998,1,0,3:0:0:0:
164,339,250070,6,0,P|159:293|134:261,1,80,4|0,0:0|0:0,0:0:0:0:
198,111,250358,1,0,3:0:0:0:
30,180,250502,6,0,B|78:204|78:204|110:193,1,80,8|2,0:0|0:0,0:0:0:0:
243,316,250791,1,0,3:0:0:0:
343,146,250935,6,0,B|331:103|331:103|299:66,1,80,10|0,0:0|0:0,0:0:0:0:
462,34,251224,1,0,3:0:0:0:
431,43,251296,1,0,3:0:0:0:
400,52,251368,1,0,3:0:0:0:
242,219,251512,6,0,P|244:186|270:132,1,80,8|0,0:0|0:0,0:0:0:0:
17,21,251801,5,4,0:0:0:0:
188,72,251945,1,0,3:0:0:0:
84,112,252089,1,0,3:0:0:0:
171,302,252233,5,8,0:0:0:0:
43,199,252377,2,0,P|79:235|141:215,1,100,2|0,3:2|3:0,0:0:0:0:
69,365,252666,5,10,0:0:0:0:
238,232,252810,1,0,3:0:0:0:
251,269,252882,1,0,3:0:0:0:
264,306,252954,1,0,3:0:0:0:
315,137,253099,1,0,0:0:0:0:
401,356,253243,2,0,P|444:345|450:279,1,100,2|0,0:0|0:0,0:0:0:0:
420,168,253531,6,0,P|427:69|452:9,1,160,4|2,0:0|3:2,0:0:0:0:
218,43,253964,1,8,0:0:0:0:
303,121,254108,2,0,P|339:106|397:105,1,80,2|0,3:2|3:0,0:0:0:0:
275,200,254325,1,0,3:0:0:0:
249,216,254397,6,0,P|233:168|182:113,1,120.000004577637,4|8,3:2|0:0,0:0:0:0:
65,263,254829,2,0,P|60:294|45:329,1,60.0000022888184,0|2,3:0|0:0,0:0:0:0:
158,202,255118,1,0,3:0:0:0:
279,352,255262,6,0,P|349:322|457:324,1,160,4|2,0:0|3:2,0:0:0:0:
232,175,255695,1,8,0:0:0:0:
331,230,255839,1,2,3:2:0:0:
374,52,255983,1,0,3:0:0:0:
374,52,256055,1,0,3:0:0:0:
373,52,256127,6,0,P|352:65|296:72,1,60.0000022888184,12|0,0:0|0:0,0:0:0:0:
123,48,256416,2,0,P|148:53|167:91,1,60.0000022888184,10|0,0:0|0:0,0:0:0:0:
154,222,256704,1,0,0:0:0:0:
290,174,256849,1,0,3:0:0:0:
62,284,256993,6,0,B|107:273|139:303|132:309|160:345|215:330,1,160,4|2,0:0|3:2,0:0:0:0:
334,267,257426,1,8,0:0:0:0:
132,204,257570,2,0,P|121:166|118:119,1,80,2|0,3:2|3:0,0:0:0:0:
225,10,257786,1,0,3:0:0:0:
237,34,257858,6,0,P|185:57|133:21,1,120.000004577637,4|8,3:2|0:0,0:0:0:0:
306,104,258291,2,0,B|346:88|363:77|363:77|380:85|431:84,1,120.000004577637,0|0,3:0|3:0,0:0:0:0:
429,309,258724,6,0,P|394:258|452:189,1,160,4|2,0:0|3:2,0:0:0:0:
315,330,259156,1,8,0:0:0:0:
211,179,259301,2,0,P|233:217|236:270,1,80,2|0,3:2|0:0,0:0:0:0:
73,357,259589,5,8,0:0:0:0:
24,300,259685,1,8,0:0:0:0:
53,231,259781,1,8,0:0:0:0:
34,158,259877,5,0,3:0:0:0:
54,151,259974,1,0,3:0:0:0:
74,145,260070,1,0,3:0:0:0:
102,76,260166,5,2,3:2:0:0:
168,43,260262,1,0,3:0:0:0:
206,106,260358,1,0,3:0:0:0:
273,74,260454,6,0,P|352:48|434:64,1,160,4|2,0:0|3:2,0:0:0:0:
492,219,260887,1,8,0:0:0:0:
432,335,261031,2,0,P|417:296|413:254,1,80,2|0,3:2|3:0,0:0:0:0:
312,183,261248,1,0,3:0:0:0:
333,212,261320,6,0,P|355:152|356:68,1,120.000004577637,4|8,3:2|0:0,0:0:0:0:
223,19,261752,2,0,P|196:32|163:31,1,60.0000022888184,0|0,3:0|0:0,0:0:0:0:
76,90,262041,1,0,3:0:0:0:
190,305,262185,6,0,P|189:265|205:215,1,80,6|0,0:0|0:0,0:0:0:0:
160,118,262474,1,2,3:2:0:0:
32,259,262618,2,0,P|72:244|120:244,1,80,10|0,0:0|3:0,0:0:0:0:
282,324,262906,1,0,3:0:0:0:
305,346,262978,1,0,3:0:0:0:
335,345,263051,6,0,P|348:283|349:220,1,120.000004577637,12|8,0:0|0:0,0:0:0:0:
312,58,263483,1,0,3:0:0:0:
215,113,263627,1,0,3:0:0:0:
416,176,263772,1,0,3:0:0:0:
416,176,263844,1,0,3:0:0:0:
416,176,263916,6,0,B|440:120|444:68|444:68|463:89|493:96,1,160,4|2,0:0|3:2,0:0:0:0:
285,139,264349,1,8,0:0:0:0:
392,265,264493,1,2,3:2:0:0:
251,366,264637,1,0,3:0:0:0:
251,366,264709,1,0,3:0:0:0:
251,366,264781,6,0,P|248:310|226:248,1,120.000004577637,6|8,3:2|0:0,0:0:0:0:
77,296,265214,2,0,P|115:352|176:339,1,120.000004577637,0|0,3:0|3:0,0:0:0:0:
356,199,265647,6,0,P|394:184|442:184,1,80,4|0,0:0|0:0,0:0:0:0:
287,261,265935,1,2,3:2:0:0:
442,348,266079,1,8,0:0:0:0:
234,357,266224,2,0,B|274:368|274:368|319:336,1,80,2|0,3:2|0:0,0:0:0:0:
290,169,266512,6,0,P|280:147|289:92,2,66.6666666666667,8|8|8,0:0|0:0|0:0,0:0:0:0:
224,216,266801,6,0,P|210:236|190:251,2,40.000001525879,0|0|0,3:0|3:0|3:0,0:0:0:0:
172,153,267089,5,0,3:0:0:0:
101,125,267185,1,0,3:0:0:0:
86,50,267281,1,0,3:0:0:0:
149,11,267377,6,0,P|201:48|293:39,1,160,4|2,0:0|3:2,0:0:0:0:
395,211,267810,1,8,0:0:0:0:
482,61,267954,2,0,B|441:94|441:94|418:78,1,80,2|0,3:2|3:0,0:0:0:0:
309,151,268171,1,0,3:0:0:0:
286,138,268243,6,0,P|308:195|308:253,1,120.000004577637,12|0,0:0|3:0,0:0:0:0:
454,380,268676,2,0,P|456:351|476:308,1,60.0000022888184,2|0,3:2|0:0,0:0:0:0:
348,337,268964,1,0,3:0:0:0:
188,212,269108,6,0,P|122:264|154:332,1,160,4|2,0:0|3:2,0:0:0:0:
34,194,269541,1,8,0:0:0:0:
224,111,269685,1,2,3:2:0:0:
88,58,269829,2,0,P|80:37|77:15,1,40,0|0,3:0|3:0,0:0:0:0:
117,136,269974,6,0,B|128:74|128:74|174:18,1,120.000004577637,12|10,0:0|0:0,0:0:0:0:
329,97,270406,1,0,0:0:0:0:
241,253,270551,1,0,3:0:0:0:
208,181,270695,1,0,3:0:0:0:
372,313,270839,6,0,P|410:310|463:341,1,80,4|0,0:0|0:0,0:0:0:0:
388,164,271127,1,2,3:2:0:0:
265,264,271272,1,8,0:0:0:0:
209,53,271416,2,0,B|230:79|230:79|210:128,1,80,2|0,3:2|3:0,0:0:0:0:
69,153,271632,1,0,3:0:0:0:
85,172,271704,6,0,P|146:184|207:214,1,120.000004577637,12|8,0:0|0:0,0:0:0:0:
74,249,272137,2,0,P|50:258|28:292,1,60.0000022888184,0|0,3:0|0:0,0:0:0:0:
135,365,272426,1,0,3:0:0:0:
311,273,272570,6,0,B|416:232|416:232|459:280,1,160,4|2,0:0|3:2,0:0:0:0:
396,153,273002,1,8,0:0:0:0:
323,361,273147,1,2,3:2:0:0:
220,294,273291,1,0,0:0:0:0:
105,101,273435,5,8,0:0:0:0:
150,161,273531,1,8,0:0:0:0:
225,155,273627,1,8,0:0:0:0:
277,98,273724,6,0,P|279:74|266:49,2,40.000001525879,0|0|0,3:0|3:0|3:0,0:0:0:0:
349,80,274012,5,0,3:0:0:0:
416,114,274108,1,0,3:0:0:0:
417,189,274204,1,0,3:0:0:0:
362,239,274301,6,0,P|295:249|263:344,1,160,4|2,0:0|3:2,0:0:0:0:
102,230,274733,1,8,0:0:0:0:
266,165,274877,1,2,3:2:0:0:
192,370,275022,1,0,0:0:0:0:
430,199,275166,6,0,B|460:229|460:229|437:320,1,120.000004577637,12|8,0:0|0:0,0:0:0:0:
278,350,275599,2,0,P|327:369|343:313,1,120.000004577637,0|0,3:0|3:0,3:0:0:0:
334,161,276031,6,0,P|344:87|381:3,1,160,4|2,0:0|3:2,0:0:0:0:
256,108,276464,1,8,0:0:0:0:
447,61,276608,1,2,3:2:0:0:
230,20,276752,1,0,3:0:0:0:
230,20,276825,1,0,3:0:0:0:
230,20,276897,6,0,B|178:15|151:41|157:55|127:84|77:76,1,160,6|8,0:0|0:0,0:0:0:0:
231,186,277329,1,8,0:0:0:0:
58,289,277474,1,8,0:0:0:0:
154,365,277618,1,0,3:0:0:0:
256,192,277762,12,0,280214,0:0:0:0:
