osu file format v14

[General]
AudioFilename: audio.mp3
AudioLeadIn: 0
PreviewTime: 199848
Countdown: 0
SampleSet: Soft
StackLeniency: 0.7
Mode: 0
LetterboxInBreaks: 0
WidescreenStoryboard: 1

[Editor]
DistanceSpacing: 1.4
BeatDivisor: 4
GridSize: 32
TimelineZoom: 1.6

[Metadata]
Title:ERISAPFEL
TitleUnicode:ERISAPFEL
Artist:ELFENSJoN
ArtistUnicode:ELFENSJóN
Creator:Esutarosa
Version:Pepekcz's Hard
Source:
Tags:japanese pop jpop j-pop STYX Pepekcz Shime l1ght_u light_u -Hitomi Hinae Featured Artist fa Mappers' Guild mpg 黒瀬 圭亮 okogeeechann 岡田 惟輝 ORYO female vocals vocalist piano
BeatmapID:3575588
BeatmapSetID:1747080

[Difficulty]
HPDrainRate:4
CircleSize:3.8
OverallDifficulty:7.4
ApproachRate:7.8
SliderMultiplier:1.44
SliderTickRate:1

[Events]
//Background and Video events
0,0,"BG.jpg",0,0
//Break Periods
2,200237,206471
//Storyboard Layer 0 (Background)
//Storyboard Layer 1 (Fail)
//Storyboard Layer 2 (Pass)
//Storyboard Layer 3 (Foreground)
//Storyboard Layer 4 (Overlay)
//Storyboard Sound Samples

[TimingPoints]
2706,389.61038961039,3,2,1,32,1,0
2706,-166.666666666667,3,2,1,32,0,0
3485,-166.666666666667,3,2,68,32,0,0
5043,-166.666666666667,3,2,69,38,0,0
5725,-166.666666666667,3,2,69,5,0,0
5822,-166.666666666667,3,2,68,38,0,0
6601,-166.666666666667,3,2,68,38,0,0
6991,-166.666666666667,3,2,68,30,0,0
7770,-166.666666666667,3,2,68,30,0,0
8550,-166.666666666667,3,2,68,38,0,0
9718,-166.666666666667,3,2,69,38,0,0
10400,-166.666666666667,3,2,69,5,0,0
10497,-166.666666666667,3,2,68,38,0,0
11276,-166.666666666667,3,2,68,38,0,0
11666,-166.666666666667,3,2,68,38,0,0
13225,-166.666666666667,3,2,69,38,0,0
14004,-166.666666666667,3,2,68,38,0,0
14394,-166.666666666667,3,2,69,38,0,0
15076,-166.666666666667,3,2,69,5,0,0
15173,-166.666666666667,3,2,68,38,0,0
16756,389.61038961039,3,2,68,38,1,0
16756,-166.666666666667,3,2,68,38,0,0
17900,389.61038961039,3,2,68,38,1,0
17900,-166.666666666667,3,2,68,38,0,0
18289,-166.666666666667,3,2,68,40,0,0
18679,-166.666666666667,3,2,68,42,0,0
19068,-166.666666666667,3,2,69,44,0,0
19847,-166.666666666667,3,2,68,44,0,0
20237,-166.666666666667,3,2,69,44,0,0
21016,-166.666666666667,3,2,69,44,0,0
21406,-166.666666666667,3,2,69,44,0,0
21795,-166.666666666667,3,2,69,44,0,0
22088,-166.666666666667,3,2,69,5,0,0
22185,-166.666666666667,3,2,68,44,0,0
22575,-166.666666666667,3,2,69,44,0,0
24523,-166.666666666667,3,2,27,44,0,0
24815,-166.666666666667,3,2,27,5,0,0
24912,-125,3,2,27,48,0,0
25789,-125,3,2,27,5,0,0
25887,-125,3,2,27,48,0,0
26374,-125,3,2,27,5,0,0
26471,-125,3,2,27,48,0,0
26763,-125,3,2,27,5,0,0
26861,-125,3,2,27,48,0,0
27153,-125,3,2,27,5,0,0
27250,-125,3,2,27,48,0,0
27542,-125,3,2,27,5,0,0
27640,-125,3,2,27,48,0,0
28223,-125,3,2,27,48,0,0
28419,-125,3,2,27,48,0,0
29490,-125,3,2,27,5,0,0
29588,-125,3,2,27,50,0,0
30464,-125,3,2,27,5,0,0
30562,-125,3,2,27,50,0,0
31049,-125,3,2,27,5,0,0
31146,-125,3,2,27,50,0,0
31438,-125,3,2,27,5,0,0
31536,-125,3,2,27,50,0,0
31828,-125,3,2,27,5,0,0
31925,-125,3,2,27,50,0,0
34263,-125,3,2,27,54,0,0
34555,-125,3,2,27,5,0,0
34653,-125,3,2,27,54,0,0
35724,-125,3,2,27,5,0,0
35822,-125,3,2,27,54,0,0
36114,-125,3,2,27,5,0,0
36211,-125,3,2,27,54,0,0
36503,-125,3,2,27,5,0,0
36601,-125,3,2,27,54,0,0
37185,-125,3,2,27,5,0,0
37380,-125,3,2,27,5,0,0
37770,-125,3,2,27,54,0,0
38354,-125,3,2,27,5,0,0
38549,-125,3,2,27,54,0,0
38841,-125,3,2,27,5,0,0
38938,-125,3,2,27,58,0,0
39231,-125,3,2,27,5,0,0
39328,-125,3,2,27,58,0,0
39912,-125,3,2,27,58,0,0
40010,-125,3,2,27,5,0,0
40107,-125,3,2,27,58,0,0
40789,-125,3,2,27,5,0,0
40887,-125,3,2,27,58,0,0
41179,-125,3,2,27,5,0,0
41276,-125,3,2,27,58,0,0
41568,-125,3,2,27,5,0,0
41666,-125,3,2,27,58,0,0
42445,-125,3,2,77,58,0,0
43419,-125,3,2,77,58,0,0
43516,-125,3,2,77,5,0,0
43614,-111.111111111111,3,2,77,62,0,0
45172,-111.111111111111,3,2,8,62,0,0
45854,-111.111111111111,3,2,8,5,0,0
45951,-111.111111111111,3,2,8,62,0,0
46244,-111.111111111111,3,2,8,5,0,0
46341,-111.111111111111,3,2,8,62,0,0
47023,-111.111111111111,3,2,8,5,0,0
47120,-111.111111111111,3,2,8,62,0,0
49361,-111.111111111111,3,2,8,5,0,0
49458,-111.111111111111,3,2,8,62,0,0
51016,-111.111111111111,3,2,8,62,0,0
51211,-111.111111111111,3,2,8,62,0,0
52575,-111.111111111111,3,2,8,62,0,0
52769,-111.111111111111,3,2,8,62,0,0
52867,-111.111111111111,3,2,8,5,0,0
52964,-111.111111111111,3,2,8,65,0,0
54036,-111.111111111111,3,2,8,5,0,0
54133,-111.111111111111,3,2,8,65,0,0
54425,-111.111111111111,3,2,8,5,0,0
54523,-111.111111111111,3,2,8,65,0,0
57542,-111.111111111111,3,2,8,5,0,0
57640,-111.111111111111,3,2,8,68,0,0
58809,-111.111111111111,3,2,77,70,0,0
59198,-111.111111111111,3,2,77,70,0,0
59880,-111.111111111111,3,2,77,5,0,0
59977,-111.111111111111,3,2,77,72,0,0
60366,-111.111111111111,3,2,77,72,0,0
60756,-111.111111111111,3,2,77,72,0,0
61146,-111.111111111111,3,2,77,72,0,0
61925,-111.111111111111,3,2,22,72,0,0
62218,-111.111111111111,3,2,22,5,0,0
62315,-99.9999999999999,3,2,72,82,0,0
62802,-99.9999999999999,3,2,72,5,0,0
62900,-99.9999999999999,3,2,27,82,0,0
63776,-99.9999999999999,3,2,27,5,0,0
63874,-99.9999999999999,3,2,27,82,0,0
64068,-99.9999999999999,3,2,27,82,0,0
64263,-99.9999999999999,3,2,27,82,0,0
64555,-99.9999999999999,3,2,27,5,0,0
64653,-99.9999999999999,3,2,27,82,0,0
65140,-99.9999999999999,3,2,27,5,0,0
65237,-99.9999999999999,3,2,27,82,0,0
66114,-99.9999999999999,3,2,27,5,0,0
66211,-99.9999999999999,3,2,27,82,0,0
67867,-99.9999999999999,3,2,27,5,0,0
67964,-99.9999999999999,3,2,27,82,0,0
68451,-99.9999999999999,3,2,27,5,0,0
68549,-99.9999999999999,3,2,27,82,0,0
69231,-99.9999999999999,3,2,27,5,0,0
69328,-99.9999999999999,3,2,27,82,0,0
71374,-99.9999999999999,3,2,27,5,0,0
71471,-99.9999999999999,3,2,27,82,0,0
71666,-99.9999999999999,3,2,72,82,0,0
72250,-99.9999999999999,3,2,27,82,0,0
72542,-99.9999999999999,3,2,27,5,0,0
72640,-99.9999999999999,3,2,27,82,0,0
73127,-99.9999999999999,3,2,27,5,0,0
73224,-99.9999999999999,3,2,27,82,0,0
73418,-99.9999999999999,3,2,27,82,0,0
73614,-99.9999999999999,3,2,27,82,0,0
73808,-99.9999999999999,3,2,27,82,0,0
73906,-99.9999999999999,3,2,27,5,0,0
74003,-99.9999999999999,3,2,27,82,0,0
74880,-99.9999999999999,3,2,27,5,0,0
74977,-99.9999999999999,3,2,27,82,0,0
75464,-99.9999999999999,3,2,27,5,0,0
75562,-99.9999999999999,3,2,27,82,0,0
76146,-99.9999999999999,3,2,27,82,0,0
76244,-99.9999999999999,3,2,27,5,0,0
76341,-99.9999999999999,3,2,27,82,0,0
76633,-99.9999999999999,3,2,27,5,0,0
76731,-99.9999999999999,3,2,27,82,0,0
77023,-99.9999999999999,3,2,27,5,0,0
77120,-99.9999999999999,3,2,27,82,0,0
78483,-99.9999999999999,3,2,27,82,0,0
78581,-99.9999999999999,3,2,27,5,0,0
78679,-99.9999999999999,3,2,27,82,0,0
78971,-99.9999999999999,3,2,27,5,0,0
79068,-99.9999999999999,3,2,27,82,0,0
79848,-99.9999999999999,3,2,77,82,0,0
80140,-99.9999999999999,3,2,77,5,0,0
80237,-99.9999999999999,3,2,77,82,0,0
80432,-99.9999999999999,3,2,27,82,0,0
80529,-99.9999999999999,3,2,27,5,0,0
80627,-99.9999999999999,3,2,27,82,0,0
80919,-99.9999999999999,3,2,27,5,0,0
81016,-99.9999999999999,3,2,72,82,0,0
81600,-99.9999999999999,3,2,27,82,0,0
81795,-99.9999999999999,3,2,27,82,0,0
81893,-99.9999999999999,3,2,27,5,0,0
81990,-99.9999999999999,3,2,27,82,0,0
82770,-99.9999999999999,3,2,27,82,0,0
82964,-99.9999999999999,3,2,27,82,0,0
83158,-99.9999999999999,3,2,27,82,0,0
83257,-99.9999999999999,3,2,27,5,0,0
83354,-99.9999999999999,3,2,27,82,0,0
83451,-99.9999999999999,3,2,27,5,0,0
83549,-99.9999999999999,3,2,27,82,0,0
83646,-99.9999999999999,3,2,27,5,0,0
83744,-99.9999999999999,3,2,27,82,0,0
83841,-99.9999999999999,3,2,27,5,0,0
83938,-99.9999999999999,3,2,27,82,0,0
84231,-99.9999999999999,3,2,27,5,0,0
84328,-99.9999999999999,3,2,27,82,0,0
85496,-99.9999999999999,3,2,27,82,0,0
85594,-99.9999999999999,3,2,27,5,0,0
85692,-99.9999999999999,3,2,27,82,0,0
85984,-99.9999999999999,3,2,27,5,0,0
86081,-99.9999999999999,3,2,27,82,0,0
86179,-99.9999999999999,3,2,27,5,0,0
86276,-99.9999999999999,3,2,27,82,0,0
86763,-99.9999999999999,3,2,27,5,0,0
86861,-99.9999999999999,3,2,27,82,0,0
87153,-99.9999999999999,3,2,27,5,0,0
87250,-99.9999999999999,3,2,27,82,0,0
87348,-99.9999999999999,3,2,27,5,0,0
87445,-99.9999999999999,3,2,27,82,0,0
87737,-99.9999999999999,3,2,27,5,0,0
87834,-99.9999999999999,3,2,27,82,0,0
88029,-99.9999999999999,3,2,27,82,0,0
88906,-99.9999999999999,3,2,27,5,0,0
89003,-99.9999999999999,3,2,27,82,0,0
89490,-99.9999999999999,3,2,27,5,0,0
89588,-99.9999999999999,3,2,27,82,0,0
89880,-99.9999999999999,3,2,27,5,0,0
89977,-99.9999999999999,3,2,27,82,0,0
90464,-99.9999999999999,3,2,27,5,0,0
90562,-99.9999999999999,3,2,27,82,0,0
90659,-99.9999999999999,3,2,27,5,0,0
90757,-99.9999999999999,3,2,27,82,0,0
90854,-99.9999999999999,3,2,27,5,0,0
90951,-99.9999999999999,3,2,27,82,0,0
91049,-99.9999999999999,3,2,27,5,0,0
91146,-99.9999999999999,3,2,27,82,0,0
91244,-99.9999999999999,3,2,27,5,0,0
91341,-99.9999999999999,3,2,27,82,0,0
92510,-99.9999999999999,3,2,27,82,0,0
92607,-99.9999999999999,3,2,27,5,0,0
92705,-99.9999999999999,3,2,27,82,0,0
92899,-99.9999999999999,3,2,27,82,0,0
93094,-99.9999999999999,3,2,27,82,0,0
93387,-99.9999999999999,3,2,27,5,0,0
93484,-99.9999999999999,3,2,27,82,0,0
94166,-99.9999999999999,3,2,27,5,0,0
94263,-99.9999999999999,3,2,27,82,0,0
94361,-99.9999999999999,3,2,27,5,0,0
94458,-99.9999999999999,3,2,27,82,0,0
94945,-99.9999999999999,3,2,27,5,0,0
95042,-99.9999999999999,3,2,27,82,0,0
95236,-99.9999999999999,3,2,27,82,0,0
95432,-125,3,2,27,82,0,0
97283,-125,3,2,27,5,0,0
97380,-125,3,2,10,62,0,0
97574,-125,3,2,10,62,0,0
97770,-125,3,2,12,58,0,0
98159,-125,3,2,22,58,0,0
98549,-125,3,2,11,56,0,0
98938,-125,3,2,40,56,0,0
99133,-125,3,2,14,30,0,0
99327,-125,3,2,12,56,0,0
99523,-125,3,2,14,30,0,0
99717,-125,3,2,11,54,0,0
101861,-125,3,2,11,48,0,0
101958,-125,3,2,12,52,0,0
102055,-125,3,2,40,54,0,0
103224,-125,3,2,13,28,0,0
103419,-125,3,2,13,18,0,0
103614,-125,3,2,13,29,0,0
103809,-125,3,2,13,30,0,0
104003,-125,3,2,13,32,0,0
104198,-125,3,2,13,36,0,0
104393,-125,3,2,20,50,0,0
104522,-125,3,2,20,50,0,0
104652,-125,3,2,22,46,0,0
104783,-125,3,2,23,48,0,0
104912,-125,3,2,12,50,0,0
105042,-125,3,2,24,52,0,0
105172,-125,3,2,10,50,0,0
105302,-125,3,2,25,48,0,0
105431,-125,3,2,22,46,0,0
105562,-125,3,2,13,48,0,0
105692,-125,3,2,26,45,0,0
105821,-125,3,2,23,48,0,0
105951,-125,3,2,14,46,0,0
106080,-125,3,2,22,44,0,0
106210,-125,3,2,13,46,0,0
106341,-125,3,2,23,48,0,0
106470,-125,3,2,14,46,0,0
106600,-125,3,2,26,44,0,0
106731,-125,3,2,27,44,0,0
106990,-125,3,2,13,34,0,0
107120,-125,3,2,26,36,0,0
107249,-125,3,2,27,36,0,0
107379,-125,3,2,28,34,0,0
107510,-125,3,2,29,36,0,0
107639,-125,3,2,30,38,0,0
107769,-125,3,2,32,40,0,0
107900,-125,3,2,31,42,0,0
108029,-125,3,2,28,44,0,0
108159,-125,3,2,27,46,0,0
108288,-125,3,2,32,48,0,0
108419,-125,3,2,33,49,0,0
108549,-125,3,2,34,50,0,0
108679,-125,3,2,41,52,0,0
108809,-125,3,2,35,54,0,0
108938,-125,3,2,42,56,0,0
108971,-125,3,2,42,5,0,0
109068,-111.111111111111,3,2,8,58,0,0
110042,-111.111111111111,3,2,8,58,0,0
110237,-111.111111111111,3,2,8,58,0,0
111211,-111.111111111111,3,2,8,58,0,0
111406,-111.111111111111,3,2,8,58,0,0
111698,-111.111111111111,3,2,8,5,0,0
111796,-111.111111111111,3,2,8,58,0,0
112088,-111.111111111111,3,2,8,5,0,0
112185,-111.111111111111,3,2,8,58,0,0
112379,-111.111111111111,3,2,8,58,0,0
112575,-111.111111111111,3,2,8,58,0,0
113646,-111.111111111111,3,2,8,5,0,0
113744,-111.111111111111,3,2,8,58,0,0
114036,-111.111111111111,3,2,8,5,0,0
114133,-111.111111111111,3,2,8,58,0,0
114425,-111.111111111111,3,2,8,5,0,0
114523,-111.111111111111,3,2,8,58,0,0
114815,-111.111111111111,3,2,8,5,0,0
114912,-111.111111111111,3,2,8,58,0,0
115205,-111.111111111111,3,2,8,5,0,0
115302,-111.111111111111,3,2,8,58,0,0
115594,-111.111111111111,3,2,8,5,0,0
115692,-111.111111111111,3,2,8,58,0,0
115886,-111.111111111111,3,2,8,58,0,0
115984,-111.111111111111,3,2,8,5,0,0
116081,-111.111111111111,3,2,8,58,0,0
116763,-111.111111111111,3,2,8,5,0,0
116861,-111.111111111111,3,2,8,58,0,0
117153,-111.111111111111,3,2,8,5,0,0
117250,-111.111111111111,3,2,8,58,0,0
119392,-111.111111111111,3,2,8,58,0,0
119490,-111.111111111111,3,2,8,5,0,0
119588,-111.111111111111,3,2,8,58,0,0
119880,-111.111111111111,3,2,8,5,0,0
119977,-111.111111111111,3,2,8,58,0,0
120659,-111.111111111111,3,2,8,5,0,0
120757,-111.111111111111,3,2,8,58,0,0
121438,-111.111111111111,3,2,8,5,0,0
121536,-111.111111111111,3,2,8,58,0,0
121730,-111.111111111111,3,2,8,58,0,0
121925,-111.111111111111,3,2,8,58,0,0
122218,-111.111111111111,3,2,8,5,0,0
122315,-111.111111111111,3,2,8,58,0,0
122607,-111.111111111111,3,2,8,5,0,0
122705,-111.111111111111,3,2,8,58,0,0
122899,-111.111111111111,3,2,8,58,0,0
122997,-111.111111111111,3,2,8,5,0,0
123094,-111.111111111111,3,2,8,60,0,0
124068,-111.111111111111,3,2,8,60,0,0
124166,-111.111111111111,3,2,8,5,0,0
124263,-111.111111111111,3,2,8,60,0,0
124555,-111.111111111111,3,2,8,5,0,0
124653,-111.111111111111,3,2,8,60,0,0
124847,-111.111111111111,3,2,8,60,0,0
124945,-111.111111111111,3,2,8,5,0,0
125042,-111.111111111111,3,2,8,60,0,0
125236,-111.111111111111,3,2,8,60,0,0
125432,-111.111111111111,3,2,8,62,0,0
125724,-111.111111111111,3,2,8,5,0,0
125822,-111.111111111111,3,2,8,62,0,0
126405,-111.111111111111,3,2,8,62,0,0
126601,-111.111111111111,3,2,8,65,0,0
126893,-111.111111111111,3,2,8,5,0,0
126990,-111.111111111111,3,2,8,65,0,0
127283,-111.111111111111,3,2,8,5,0,0
127380,-111.111111111111,3,2,22,72,0,0
127672,-111.111111111111,3,2,22,5,0,0
127770,-99.9999999999999,3,2,72,82,0,0
128257,-99.9999999999999,3,2,72,5,0,0
128354,-99.9999999999999,3,2,27,82,0,0
129231,-111.111111111111,3,2,27,5,0,0
129328,-99.9999999999999,3,2,27,82,0,0
129522,-99.9999999999999,3,2,27,82,0,0
129718,-99.9999999999999,3,2,27,82,0,0
130010,-111.111111111111,3,2,27,5,0,0
130107,-99.9999999999999,3,2,27,82,0,0
130594,-99.9999999999999,3,2,27,5,0,0
130692,-99.9999999999999,3,2,27,82,0,0
131568,-111.111111111111,3,2,27,5,0,0
131666,-99.9999999999999,3,2,27,82,0,0
133322,-99.9999999999999,3,2,27,5,0,0
133419,-99.9999999999999,3,2,27,82,0,0
133906,-99.9999999999999,3,2,27,5,0,0
134003,-99.9999999999999,3,2,27,82,0,0
134685,-99.9999999999999,3,2,27,5,0,0
134783,-99.9999999999999,3,2,27,82,0,0
136828,-99.9999999999999,3,2,27,5,0,0
136925,-99.9999999999999,3,2,27,82,0,0
137997,-99.9999999999999,3,2,27,5,0,0
138094,-99.9999999999999,3,2,27,82,0,0
138581,-99.9999999999999,3,2,27,5,0,0
138679,-99.9999999999999,3,2,27,82,0,0
138873,-99.9999999999999,3,2,27,82,0,0
139068,-99.9999999999999,3,2,27,82,0,0
139262,-99.9999999999999,3,2,27,82,0,0
139361,-99.9999999999999,3,2,27,5,0,0
139458,-99.9999999999999,3,2,27,82,0,0
140335,-99.9999999999999,3,2,27,5,0,0
140432,-99.9999999999999,3,2,27,82,0,0
140919,-99.9999999999999,3,2,27,5,0,0
141016,-99.9999999999999,3,2,27,82,0,0
141601,-99.9999999999999,3,2,27,82,0,0
141796,-99.9999999999999,3,2,27,82,0,0
141893,-99.9999999999999,3,2,27,5,0,0
141990,-99.9999999999999,3,2,27,82,0,0
142672,-99.9999999999999,3,2,27,5,0,0
142770,-99.9999999999999,3,2,27,82,0,0
143938,-99.9999999999999,3,2,27,82,0,0
144036,-99.9999999999999,3,2,27,5,0,0
144133,-99.9999999999999,3,2,27,82,0,0
144231,-99.9999999999999,3,2,27,5,0,0
144328,-99.9999999999999,3,2,27,82,0,0
144425,-99.9999999999999,3,2,27,5,0,0
144523,-99.9999999999999,3,2,27,82,0,0
145302,-99.9999999999999,3,2,77,82,0,0
145594,-99.9999999999999,3,2,77,5,0,0
145692,-99.9999999999999,3,2,77,82,0,0
145887,-99.9999999999999,3,2,27,82,0,0
145984,-99.9999999999999,3,2,27,5,0,0
146081,-99.9999999999999,3,2,27,82,0,0
146374,-99.9999999999999,3,2,27,82,0,0
146471,-99.9999999999999,3,2,72,82,0,0
147055,-99.9999999999999,3,2,27,82,0,0
147250,-99.9999999999999,3,2,27,82,0,0
147348,-99.9999999999999,3,2,27,5,0,0
147445,-99.9999999999999,3,2,27,82,0,0
148224,-99.9999999999999,3,2,27,82,0,0
148419,-99.9999999999999,3,2,27,82,0,0
148613,-99.9999999999999,3,2,27,82,0,0
148711,-99.9999999999999,3,2,27,5,0,0
148809,-99.9999999999999,3,2,27,82,0,0
148906,-99.9999999999999,3,2,27,5,0,0
149003,-99.9999999999999,3,2,27,82,0,0
149101,-99.9999999999999,3,2,27,5,0,0
149198,-99.9999999999999,3,2,27,82,0,0
149296,-99.9999999999999,3,2,27,5,0,0
149393,-99.9999999999999,3,2,27,82,0,0
149685,-99.9999999999999,3,2,27,5,0,0
149783,-99.9999999999999,3,2,27,82,0,0
150270,-99.9999999999999,3,2,27,5,0,0
150367,-99.9999999999999,3,2,27,82,0,0
150951,-99.9999999999999,3,2,27,82,0,0
151049,-99.9999999999999,3,2,27,5,0,0
151146,-99.9999999999999,3,2,27,82,0,0
151438,-99.9999999999999,3,2,27,5,0,0
151536,-99.9999999999999,3,2,27,82,0,0
151633,-99.9999999999999,3,2,27,5,0,0
151731,-99.9999999999999,3,2,27,82,0,0
152218,-99.9999999999999,3,2,27,5,0,0
152315,-99.9999999999999,3,2,27,82,0,0
152607,-99.9999999999999,3,2,27,5,0,0
152705,-99.9999999999999,3,2,27,82,0,0
152802,-99.9999999999999,3,2,27,5,0,0
152900,-99.9999999999999,3,2,27,82,0,0
153192,-99.9999999999999,3,2,27,5,0,0
153288,-99.9999999999999,3,2,27,82,0,0
153484,-99.9999999999999,3,2,27,82,0,0
154361,-99.9999999999999,3,2,27,5,0,0
154458,-99.9999999999999,3,2,27,82,0,0
154945,-99.9999999999999,3,2,27,5,0,0
155042,-99.9999999999999,3,2,27,82,0,0
155335,-99.9999999999999,3,2,27,5,0,0
155432,-99.9999999999999,3,2,27,82,0,0
155919,-99.9999999999999,3,2,27,5,0,0
156016,-99.9999999999999,3,2,27,82,0,0
156114,-99.9999999999999,3,2,27,5,0,0
156211,-99.9999999999999,3,2,27,82,0,0
156309,-99.9999999999999,3,2,27,5,0,0
156406,-99.9999999999999,3,2,27,82,0,0
156503,-99.9999999999999,3,2,27,5,0,0
156601,-99.9999999999999,3,2,27,82,0,0
156698,-99.9999999999999,3,2,27,5,0,0
156796,-99.9999999999999,3,2,27,82,0,0
157964,-99.9999999999999,3,2,27,82,0,0
158062,-99.9999999999999,3,2,27,5,0,0
158159,-99.9999999999999,3,2,27,82,0,0
158353,-99.9999999999999,3,2,27,82,0,0
158549,-99.9999999999999,3,2,27,82,0,0
158841,-99.9999999999999,3,2,27,5,0,0
158938,-99.9999999999999,3,2,27,82,0,0
159620,-99.9999999999999,3,2,27,5,0,0
159718,-99.9999999999999,3,2,27,82,0,0
159815,-99.9999999999999,3,2,27,5,0,0
159912,-99.9999999999999,3,2,27,82,0,0
160400,-99.9999999999999,3,2,27,5,0,0
160497,-99.9999999999999,3,2,27,82,0,0
161374,-99.9999999999999,3,2,27,5,0,0
161471,-99.9999999999999,3,2,27,82,0,0
161666,-99.9999999999999,3,2,27,78,0,0
162055,-99.9999999999999,3,2,27,74,0,0
162445,-99.9999999999999,3,2,27,68,0,0
162737,-99.9999999999999,3,2,27,5,0,0
162835,-99.9999999999999,3,2,27,64,0,0
164296,-99.9999999999999,3,2,27,5,0,0
164393,-99.9999999999999,3,2,27,64,0,0
165367,-99.9999999999999,3,2,27,64,0,0
165756,-99.9999999999999,3,2,27,64,0,0
166633,-99.9999999999999,3,2,27,64,0,0
166731,-99.9999999999999,3,2,27,64,0,0
167023,-99.9999999999999,3,2,27,64,0,0
167120,-99.9999999999999,3,2,27,64,0,0
167607,-99.9999999999999,3,2,27,64,0,0
167704,-99.9999999999999,3,2,27,64,0,0
167802,-99.9999999999999,3,2,27,64,0,0
167900,-99.9999999999999,3,2,27,64,0,0
169848,-99.9999999999999,3,2,72,66,0,0
170432,-99.9999999999999,3,2,27,66,0,0
170724,-99.9999999999999,3,2,27,5,0,0
170822,-99.9999999999999,3,2,27,66,0,0
171990,-99.9999999999999,3,2,27,66,0,0
172185,-99.9999999999999,3,2,27,66,0,0
173062,-99.9999999999999,3,2,27,5,0,0
173159,-99.9999999999999,3,2,27,66,0,0
173646,-99.9999999999999,3,2,27,5,0,0
173744,-99.9999999999999,3,2,27,66,0,0
174327,-99.9999999999999,3,2,27,66,0,0
174425,-99.9999999999999,3,2,27,5,0,0
174523,-99.9999999999999,3,2,27,66,0,0
177250,-99.9999999999999,3,2,27,66,0,0
177445,-99.9999999999999,3,2,27,66,0,0
177639,-99.9999999999999,3,2,27,66,0,0
177835,-99.9999999999999,3,2,27,66,0,0
178029,-99.9999999999999,3,2,77,66,0,0
178223,-99.9999999999999,3,2,77,66,0,0
178614,-99.9999999999999,3,2,27,66,0,0
178809,-99.9999999999999,3,2,27,66,0,0
179198,-99.9999999999999,3,2,72,68,0,0
179490,-99.9999999999999,3,2,72,5,0,0
179588,-99.9999999999999,3,2,27,68,0,0
181340,-99.9999999999999,3,2,27,68,0,0
181438,-99.9999999999999,3,2,27,5,0,0
181536,-99.9999999999999,3,2,27,68,0,0
181828,-99.9999999999999,3,2,27,5,0,0
181925,-99.9999999999999,3,2,27,68,0,0
183678,-99.9999999999999,3,2,27,68,0,0
183776,-99.9999999999999,3,2,27,5,0,0
183874,-99.9999999999999,3,2,27,68,0,0
184945,-99.9999999999999,3,2,27,5,0,0
185042,-99.9999999999999,3,2,27,68,0,0
186114,-99.9999999999999,3,2,27,5,0,0
186211,-99.9999999999999,3,2,27,68,0,0
190010,-99.9999999999999,3,2,27,5,0,0
190107,-99.9999999999999,3,2,27,68,0,0
190692,-99.9999999999999,3,2,27,68,0,0
190887,-99.9999999999999,3,2,27,68,0,0
191179,-99.9999999999999,3,2,27,5,0,0
191276,-99.9999999999999,3,2,27,68,0,0
194685,-99.9999999999999,3,2,27,5,0,0
194783,-99.9999999999999,3,2,27,68,0,0
195366,-99.9999999999999,3,2,27,68,0,0
195562,-99.9999999999999,3,2,27,68,0,0
195854,-99.9999999999999,3,2,27,5,0,0
195951,-99.9999999999999,3,2,27,68,0,0
196731,-99.9999999999999,3,2,77,68,0,0
197315,-99.9999999999999,3,2,27,68,0,0
197802,-99.9999999999999,3,2,27,48,0,0
207250,-111.111111111111,3,2,27,52,0,0
207640,-111.111111111111,3,2,27,58,0,0
208029,-111.111111111111,3,2,27,58,0,0
208223,-111.111111111111,3,2,27,62,0,0
208419,-111.111111111111,3,2,77,62,0,0
208809,-111.111111111111,3,2,27,65,0,0
209101,-111.111111111111,3,2,27,5,0,0
209198,-111.111111111111,3,2,27,72,0,0
209490,-111.111111111111,3,2,27,5,0,0
209588,-100,3,2,72,82,0,0
210172,-100,3,2,27,82,0,0
211049,-99.9999999999999,3,2,27,5,0,0
211146,-100,3,2,27,82,0,0
211340,-100,3,2,27,82,0,0
211536,-100,3,2,27,82,0,0
211730,-100,3,2,27,82,0,0
211828,-100,3,2,27,5,0,0
211925,-100,3,2,27,82,0,0
212802,-100,3,2,27,5,0,0
212900,-100,3,2,27,82,0,0
213387,-99.9999999999999,3,2,27,5,0,0
213484,-100,3,2,27,82,0,0
214068,-100,3,2,27,82,0,0
214166,-100,3,2,27,5,0,0
214263,-100,3,2,27,82,0,0
214945,-100,3,2,27,5,0,0
215042,-100,3,2,27,82,0,0
216405,-100,3,2,27,82,0,0
216503,-100,3,2,27,5,0,0
216601,-100,3,2,27,82,0,0
216893,-99.9999999999999,3,2,27,5,0,0
216990,-100,3,2,27,82,0,0
217770,-100,3,2,77,82,0,0
218062,-100,3,2,77,5,0,0
218159,-100,3,2,77,82,0,0
218354,-100,3,2,77,82,0,0
218451,-100,3,2,77,5,0,0
218549,-100,3,2,27,82,0,0
218841,-99.9999999999999,3,2,27,5,0,0
218938,-100,3,2,72,82,0,0
219328,-100,3,2,27,82,0,0
220010,-100,3,2,27,5,0,0
220107,-100,3,2,27,82,0,0
220692,-100,3,2,27,82,0,0
220887,-100,3,2,27,82,0,0
221081,-100,3,2,27,82,0,0
221179,-100,3,2,27,5,0,0
221276,-100,3,2,27,82,0,0
221374,-100,3,2,27,5,0,0
221471,-100,3,2,27,82,0,0
221568,-99.9999999999999,3,2,27,5,0,0
221666,-100,3,2,27,82,0,0
221763,-100,3,2,27,5,0,0
221861,-100,3,2,27,82,0,0
222153,-100,3,2,27,5,0,0
222250,-100,3,2,27,82,0,0
223516,-100,3,2,27,5,0,0
223614,-100,3,2,27,82,0,0
223906,-99.9999999999999,3,2,27,5,0,0
224003,-100,3,2,27,82,0,0
224685,-99.9999999999999,3,2,27,5,0,0
224783,-100,3,2,27,82,0,0
225075,-99.9999999999999,3,2,27,5,0,0
225172,-100,3,2,27,82,0,0
225270,-100,3,2,27,5,0,0
225367,-100,3,2,27,82,0,0
225659,-100,3,2,27,5,0,0
225756,-100,3,2,27,82,0,0
225951,-100,3,2,27,82,0,0
226049,-100,3,2,27,5,0,0
226146,-100,3,2,27,82,0,0
226828,-100,3,2,27,5,0,0
226925,-100,3,2,27,82,0,0
227412,-100,3,2,27,5,0,0
227510,-100,3,2,27,82,0,0
227802,-100,3,2,27,5,0,0
227900,-100,3,2,27,82,0,0
228387,-100,3,2,27,5,0,0
228484,-100,3,2,27,82,0,0
228581,-99.9999999999999,3,2,27,5,0,0
228679,-100,3,2,27,82,0,0
228776,-100,3,2,27,5,0,0
228874,-100,3,2,27,82,0,0
228971,-99.9999999999999,3,2,27,5,0,0
229068,-100,3,2,27,82,0,0
229166,-100,3,2,27,5,0,0
229263,-100,3,2,27,82,0,0
230432,-100,3,2,27,82,0,0
230529,-100,3,2,27,5,0,0
230627,-100,3,2,27,82,0,0
230821,-100,3,2,27,82,0,0
231016,-100,3,2,27,82,0,0
231114,-100,3,2,27,5,0,0
231211,-100,3,2,27,82,0,0
231796,-100,3,2,77,82,0,0
232088,-99.9999999999999,3,2,77,5,0,0
232185,-100,3,2,27,82,0,0
232283,-100,3,2,27,5,0,0
232380,-100,3,2,27,82,0,0
232867,-100,3,2,27,5,0,0
232964,-100,3,2,27,72,0,0
233158,-100,3,2,27,72,0,0
233354,-125,3,2,27,72,0,0
235205,-125,3,2,27,5,0,0
235302,-166.666666666667,3,2,10,52,0,0
236081,-166.666666666667,3,2,43,38,0,0
236471,-166.666666666667,3,2,14,35,0,0
236861,-166.666666666667,3,2,26,35,0,0
237250,-166.666666666667,3,2,14,35,0,0
237640,-166.666666666667,3,2,11,45,0,0
238419,-166.666666666667,3,2,22,38,0,0
238809,-166.666666666667,3,2,14,35,0,0
239977,-166.666666666667,3,2,27,28,0,0
241146,-166.666666666667,3,2,43,35,0,0
241535,-166.666666666667,3,2,13,35,0,0
241925,-166.666666666667,3,2,44,35,0,0
242315,-166.666666666667,3,2,11,45,0,0
243094,-166.666666666667,3,2,22,35,0,0
243484,-166.666666666667,3,2,13,45,0,0
244652,-166.666666666667,3,2,27,28,0,0
245822,-166.666666666667,3,2,26,35,0,0
246601,-166.666666666667,3,2,14,35,0,0
246990,-166.666666666667,3,2,11,45,0,0
247769,-166.666666666667,3,2,22,35,0,0
248159,-166.666666666667,3,2,14,45,0,0
249327,-166.666666666667,3,2,44,28,0,0
250497,-166.666666666667,3,2,14,35,0,0
250886,-166.666666666667,3,2,13,35,0,0
251276,-166.666666666667,3,2,44,35,0,0
251666,-166.666666666667,3,2,11,45,0,0
252445,-166.666666666667,3,2,11,45,0,0
252835,-166.666666666667,3,2,26,42,0,0
253614,-166.666666666667,3,2,26,42,0,0
254003,-166.666666666667,3,2,45,45,0,0
255171,-166.666666666667,3,2,39,38,0,0

[Colours]
Combo1 : 128,128,255
Combo2 : 255,128,128

[HitObjects]
24,364,3485,6,0,P|65:353|107:342,1,86.3999973632813,2|2,0:0|0:0,0:0:0:0:
140,224,4264,2,0,P|181:213|223:202,1,86.3999973632813,2|2,0:0|0:0,0:0:0:0:
316,128,5043,6,0,P|400:132|408:212,1,172.799994726563,2|2,0:0|0:0,0:0:0:0:
396,328,6212,2,0,P|436:308|484:312,2,86.3999973632813,2|0|0,0:0|0:0|3:0,0:0:0:0:
280,364,7381,5,0,0:0:0:0:
160,348,7770,2,0,P|112:292|132:232,1,129.599996044922
172,184,8550,2,0,P|216:193|264:208,1,86.3999973632813,2|2,0:0|0:0,0:0:0:0:
356,276,9329,1,2,0:0:0:0:
460,216,9718,6,0,P|504:160|444:84,1,172.799994726563,2|2,0:0|0:0,0:0:0:0:
348,28,10887,2,0,P|305:35|248:48,2,86.3999973632813,2|0|0,0:0|0:0|3:0,0:0:0:0:
380,144,12056,6,0,P|292:168|292:240,1,172.799994726563,2|2,0:0|0:0,0:0:0:0:
312,356,13225,2,0,B|224:372|240:292|148:308,1,172.799994726563,2|2,0:0|0:0,0:0:0:0:
44,360,14394,6,0,P|29:281|8:176,1,172.799994726563,2|2,0:0|0:0,0:0:0:0:
56,80,15563,2,0,P|108:132|224:72,1,215.999993408203,2|0,0:0|0:0,0:0:0:0:
228,68,16634,5,0,0:0:0:0:
232,60,16756,2,0,P|321:46|416:32,1,172.799994726563,2|0,0:0|0:0,0:0:0:0:
488,108,17900,1,2,0:0:0:0:
416,204,18289,1,2,0:0:0:0:
476,308,18679,1,2,0:0:0:0:
376,376,19068,6,0,P|301:348|204:316,1,172.799994726563,2|2,0:0|0:0,0:0:0:0:
132,228,20237,2,0,P|184:184|148:80,1,172.799994726563,2|0,0:0|0:0,0:0:0:0:
56,36,21406,6,0,P|45:76|32:132,1,86.3999973632813,2|0,0:0|0:0,0:0:0:0:
64,236,22185,1,2,0:0:0:0:
16,348,22575,1,2,0:0:0:0:
16,348,24523,6,0,P|64:320|88:320,1,64.799998022461,2|0,0:0|0:0,0:0:0:0:
84,324,24912,6,0,P|139:337|200:352,1,115.2,2|2,3:0|0:0,0:0:0:0:
272,324,25497,1,2,0:0:0:0:
428,356,25887,1,2,0:0:0:0:
428,356,26081,2,0,P|443:295|460:232,2,115.2,2|2|2,0:0|0:0|0:0,0:0:0:0:
320,236,27250,6,0,P|335:175|352:112,1,115.2,2|2,0:0|0:0,0:0:0:0:
228,16,28029,2,0,L|168:32,1,57.6,2|0,0:0|0:0,0:0:0:0:
92,40,28419,2,0,P|168:88|136:212,1,230.4,2|2,3:2|3:2,0:0:0:0:
64,352,29588,6,0,B|132:360|112:320|180:328,1,115.2,2|2,3:0|0:0,0:0:0:0:
256,344,30172,1,2,0:0:0:0:
352,212,30562,1,2,0:0:0:0:
352,212,30757,2,0,P|410:197|472:184,2,115.2,2|2|2,0:0|0:0|0:0,0:0:0:0:
256,344,31925,6,0,P|197:329|136:316,1,115.2,2|2,3:0|0:0,0:0:0:0:
64,336,32510,2,0,P|36:296|56:224,1,115.2,2|0,0:0|0:0,0:0:0:0:
60,224,32997,1,0,0:0:0:0:
72,216,33094,2,0,P|100:176|80:104,1,115.2,0|0,0:0|3:2,0:0:0:0:
400,28,34263,6,0,P|460:40|472:104,1,115.2,2|2,3:0|0:0,0:0:0:0:
376,212,35042,1,2,0:0:0:0:
476,340,35432,2,0,P|427:352|356:372,2,115.2,2|2|2,3:0|0:0|0:0,0:0:0:0:
376,212,36601,6,0,B|312:188|256:224|288:252|220:300|164:264,1,230.4,2|0,3:0|0:0,0:0:0:0:
28,192,37770,2,0,P|4:136|136:72,1,230.4,2|2,3:0|0:0,0:0:0:0:
244,172,38938,6,0,P|258:229|276:300,1,115.2,2|2,3:0|0:0,0:0:0:0:
344,320,39523,2,0,P|357:264|372:208,1,115.2,2|0,0:0|0:0,0:0:0:0:
416,140,40107,2,0,P|476:144|512:104,2,115.2,2|0|2,3:0|3:0|3:2,0:0:0:0:
276,56,41276,6,0,P|236:16|180:22,1,115.2,2|2,3:0|0:0,0:0:0:0:
56,124,42055,1,2,0:0:0:0:
20,280,42445,2,0,B|12:236|-24:208|-24:208|60:272|176:292,1,288,6|0,3:2|0:0,0:0:0:0:
256,344,43614,6,0,P|321:328|400:312,1,129.599996044922,0|2,1:2|0:0,0:0:0:0:
468,348,44198,1,0,1:2:0:0:
468,348,44393,2,0,P|484:320|480:280,1,64.799998022461,2|0,3:2|3:2,0:0:0:0:
436,212,44783,6,0,P|453:143|472:72,2,129.599996044922,2|10|2,1:2|0:0|0:0,0:0:0:0:
260,248,45951,6,0,P|242:179|224:108,1,129.599996044922,2|2,1:2|0:0,0:0:0:0:
164,64,46536,1,0,1:2:0:0:
164,64,46731,2,0,L|92:80,1,64.799998022461,2|0,0:0|0:0,0:0:0:0:
12,72,47120,6,0,P|64:104|56:180,1,129.599996044922,2|8,1:2|0:0,0:0:0:0:
20,244,47705,1,0,0:0:0:0:
20,244,47900,2,0,L|40:316,1,64.799998022461,2|0,0:0|0:0,0:0:0:0:
108,360,48289,6,0,P|176:364|216:316,1,129.599996044922,2|2,1:2|0:0,0:0:0:0:
232,236,48874,1,0,1:2:0:0:
232,236,49068,2,0,P|268:236|296:256,1,64.799998022461,2|0,3:2|0:0,0:0:0:0:
356,316,49458,6,0,P|419:336|484:360,1,129.599996044922,2|0,1:2|0:0,0:0:0:0:
436,180,50237,1,2,0:0:0:0:
484,4,50627,6,0,P|422:23|361:45,1,129.599996044922,2|0,1:2|0:0,0:0:0:0:
280,88,51211,1,0,0:0:0:0:
280,88,51406,2,0,L|300:168,1,64.799998022461,2|0,0:0|0:0,0:0:0:0:
356,220,51796,6,0,P|343:275|328:348,1,129.599996044922,2|0,1:2|0:0,0:0:0:0:
240,368,52380,1,0,0:0:0:0:
240,368,52575,2,0,P|204:372|176:360,1,64.799998022461
112,300,52964,6,0,P|98:236|84:173,1,129.599996044922,0|2,1:2|0:0,0:0:0:0:
40,96,53549,1,0,1:2:0:0:
40,96,53744,2,0,P|64:72|96:64,1,64.799998022461,2|0,3:2|0:0,0:0:0:0:
172,112,54133,6,0,P|216:148|296:136,2,129.599996044922,2|10|2,1:2|0:0|0:0,0:0:0:0:
348,64,55302,6,0,P|392:28|472:40,1,129.599996044922,2|2,1:2|0:0,0:0:0:0:
504,112,55887,1,0,1:2:0:0:
504,112,56081,2,0,L|488:184,1,64.799998022461,2|0,0:0|3:2,0:0:0:0:
480,268,56471,6,0,B|412:300|348:252|380:216|304:172|246:210,1,259.199992089844,2|2,1:2|0:0,0:0:0:0:
104,316,57640,6,0,P|56:312|36:232,1,129.599996044922,2|2,1:2|0:0,0:0:0:0:
68,160,58224,1,0,1:2:0:0:
68,160,58419,2,0,L|48:80,1,64.799998022461,2|0,3:2|3:2,0:0:0:0:
20,12,58809,6,0,P|83:28|156:48,1,129.599996044922,4|0,3:2|0:0,0:0:0:0:
292,152,59588,2,0,P|343:136|400:120,1,97.1999970336915
400,120,59977,6,0,P|376:72|416:16,2,129.599996044922,0|0|4,3:2|0:0|0:0,0:0:0:0:
492,276,61146,2,0,P|380:304|236:348,1,259.199992089844,0|6,0:0|0:0,0:0:0:0:
64,368,62315,6,0,P|100:324|64:244,1,144,6|0,1:2|0:0,0:0:0:0:
4,172,62900,2,0,P|0:136|20:100,1,72,2|0,1:2|3:2,0:0:0:0:
100,48,63289,1,2,1:2:0:0:
184,144,63484,6,0,P|234:130|288:116,1,108,14|0,0:0|0:0,0:0:0:0:
304,124,63874,2,0,P|338:131|374:142,1,72,0|0,3:2|0:0,0:0:0:0:
464,96,64263,2,0,P|496:140|480:200,1,108,2|0,3:2|0:0,0:0:0:0:
476,204,64653,6,0,P|411:227|341:254,1,144,6|0,1:2|0:0,0:0:0:0:
248,216,65237,2,0,P|212:205|172:196,1,72,2|0,1:2|3:2,0:0:0:0:
96,140,65627,1,2,1:2:0:0:
28,248,65822,6,0,P|8:292|36:348,1,108,14|0,0:0|0:0,0:0:0:0:
48,352,66211,2,0,L|120:368,1,72,0|0,3:2|0:0,0:0:0:0:
196,304,66601,1,2,3:2:0:0:
196,304,66796,1,2,0:0:0:0:
280,360,66990,6,0,B|356:368|336:304|416:316,1,144,6|2,1:2|3:2,0:0:0:0:
496,372,67575,1,0,1:2:0:0:
508,272,67770,2,0,L|492:200,1,72,2|0,3:2|1:2,0:0:0:0:
492,76,68159,6,0,P|438:80|400:40,1,108,14|0,0:0|0:0,0:0:0:0:
388,32,68549,2,0,P|348:12|320:12,1,72,2|0,3:2|1:2,0:0:0:0:
224,44,68938,2,0,P|166:57|110:71,1,108,2|0,3:2|0:0,0:0:0:0:
100,76,69328,5,6,1:2:0:0:
44,148,69523,1,0,1:2:0:0:
136,236,69718,1,12,0:0:0:0:
136,236,69912,2,0,P|180:236|208:220,1,72,0|0,1:2|3:2,0:0:0:0:
272,148,70302,5,8,1:2:0:0:
284,132,70400,1,8,1:2:0:0:
300,124,70497,2,0,P|344:124|372:140,1,72,4|0,1:2|1:2,0:0:0:0:
448,208,70887,1,10,1:3:0:0:
448,208,71081,1,8,1:3:0:0:
484,308,71276,1,6,1:3:0:0:
484,308,71471,1,8,1:2:0:0:
360,336,71666,6,0,B|284:344|308:292|220:300,1,144,6|0,1:2|3:2,0:0:0:0:
128,332,72250,1,0,1:2:0:0:
68,252,72445,2,0,L|52:180,1,72,0|0,3:2|1:2,0:0:0:0:
76,56,72835,6,0,P|124:96|176:84,1,108,14|0,0:0|0:0,0:0:0:0:
180,80,73224,2,0,P|220:52|248:56,1,72,2|0,3:2|0:0,0:0:0:0:
328,108,73614,2,0,P|368:136|396:132,1,72,2|0,3:2|0:0,0:0:0:0:
480,88,74003,6,0,P|462:157|445:227,1,144,6|2,1:2|3:2,0:0:0:0:
484,320,74588,1,0,1:2:0:0:
392,360,74783,2,0,P|344:356|324:332,1,72,0|0,3:2|1:2,0:0:0:0:
280,224,75172,6,0,P|265:164|250:106,1,108,12|0,0:0|0:0,0:0:0:0:
244,104,75562,2,0,P|200:104|180:88,1,72,0|0,3:2|1:2,0:0:0:0:
100,24,75951,2,0,P|70:4|35:7,1,72,2|0,3:2|0:0,0:0:0:0:
27,108,76341,6,0,P|42:176|59:256,1,144,6|2,1:2|3:2,0:0:0:0:
28,345,76925,1,0,1:2:0:0:
128,364,77120,2,0,L|212:344,1,72,2|0,3:2|1:2,0:0:0:0:
284,256,77510,6,0,B|360:248|340:312|420:300,1,144,12|0,0:0|3:2,0:0:0:0:
500,244,78094,1,0,1:2:0:0:
464,148,78289,2,0,P|426:137|376:124,1,72,2|0,3:2|0:0,0:0:0:0:
296,108,78679,6,0,P|247:117|176:132,1,108,6|0,1:2|0:0,0:0:0:0:
172,136,79068,2,0,P|134:125|84:112,1,72,2|4,3:2|1:2,0:0:0:0:
8,84,79458,1,2,3:2:0:0:
4,184,79653,5,8,1:2:0:0:
12,200,79750,1,8,1:2:0:0:
20,216,79848,2,0,P|54:225|89:235,1,72,4|0,1:2|0:0,0:0:0:0:
180,292,80237,1,0,1:2:0:0:
180,292,80432,1,8,1:2:0:0:
260,232,80627,2,0,P|312:228|344:280,1,108,2|0,1:2|0:0,0:0:0:0:
352,284,81016,6,0,P|366:218|388:128,2,144,6|0|2,1:2|0:0|3:2,0:0:0:0:
268,340,81990,1,0,1:2:0:0:
152,380,82185,6,0,P|82:363|11:348,1,144,14|0,0:0|3:2,0:0:0:0:
56,256,82770,1,0,0:0:0:0:
4,172,82964,2,0,P|39:162|80:152,1,72,2|0,3:2|0:0,0:0:0:0:
172,124,83354,6,0,P|224:120|268:168,1,108,6|0,1:2|0:0,0:0:0:0:
268,172,83744,2,0,P|300:200|336:204,1,72,2|0,3:2|1:2,0:0:0:0:
420,164,84133,1,2,3:2:0:0:
420,164,84328,1,0,1:2:0:0:
492,268,84523,6,0,P|412:296|344:324,1,144,14|0,0:0|3:2,0:0:0:0:
268,268,85107,1,0,1:2:0:0:
180,320,85302,2,0,P|164:280|172:244,1,72,2|0,3:2|0:0,0:0:0:0:
220,168,85692,6,0,P|248:128|220:68,1,108,6|0,1:2|0:0,0:0:0:0:
216,64,86081,2,0,P|180:52|144:44,1,72,2|0,3:2|1:2,0:0:0:0:
52,76,86471,2,0,P|63:128|73:181,1,108,2|0,3:2|0:0,0:0:0:0:
64,200,86861,6,0,P|52:252|42:305,1,108,12|0,0:0|0:0,0:0:0:0:
44,324,87250,2,0,P|80:352|112:348,1,72,2|0,3:2|1:2,0:0:0:0:
184,288,87640,2,0,P|220:260|252:264,1,72,2|0,3:2|0:0,0:0:0:0:
328,320,88029,6,0,P|360:360|452:356,1,144,6|14,1:2|0:0,0:0:0:0:
508,280,88614,1,0,1:2:0:0:
456,196,88809,2,0,L|476:120,1,72,2|8,3:2|1:2,0:0:0:0:
504,4,89198,6,0,B|428:-4|448:60|368:48,1,144,6|8,1:2|1:3,0:0:0:0:
276,16,89783,1,8,1:2:0:0:
192,64,89977,1,6,1:3:0:0:
192,64,90172,1,8,1:2:0:0:
72,24,90367,6,0,P|40:68|60:132,1,108,6|0,1:2|0:0,0:0:0:0:
56,132,90757,2,0,P|88:176|68:240,1,108,2|0,3:2|0:0,0:0:0:0:
72,244,91146,1,2,3:2:0:0:
148,312,91341,1,0,1:2:0:0:
260,256,91536,6,0,B|336:248|316:312|396:300,2,144,14|0|2,0:0|3:2|3:2,0:0:0:0:
180,192,92510,1,0,0:0:0:0:
264,136,92705,6,0,P|300:123|340:112,1,72,6|0,1:2|0:0,0:0:0:0:
424,68,93094,2,0,P|392:92|416:184,1,144,2|0,3:2|3:2,0:0:0:0:
476,260,93679,1,0,1:2:0:0:
400,360,93874,6,0,P|350:348|284:336,1,108,14|0,0:0|0:0,0:0:0:0:
276,344,94263,2,0,P|242:352|200:368,1,72,2|0,3:2|1:2,0:0:0:0:
140,296,94653,1,2,3:2:0:0:
140,296,94848,1,0,0:0:0:0:
48,336,95042,6,0,P|37:300|24:260,1,72,6|0,1:2|0:0,0:0:0:0:
56,192,95432,2,0,B|104:152|104:88|12:56|-52:96|-76:184|-16:324|164:304|120:184|184:144|248:156|280:184,1,518.4
340,228,97380,6,0,P|370:239|408:256,1,57.6,2|0,0:0|0:0,0:0:0:0:
452,304,97770,1,2,0:0:0:0:
504,152,98159,1,2,3:2:0:0:
392,36,98549,1,2,0:0:0:0:
232,56,98938,1,2,0:0:0:0:
180,208,99327,1,2,0:0:0:0:
292,324,99717,5,2,0:0:0:0:
344,188,101861,6,0,L|376:196,2,28.8,2|2|2,0:0|0:0|0:0,0:0:0:0:
32,24,104393,6,0,L|48:80,2,38.4,2|0|2,0:0|0:0|0:0,0:0:0:0:
108,24,104783,6,0,L|124:80,2,38.4,2|2|2,0:0|0:0|0:0,0:0:0:0:
194,76,105172,6,0,P|185:110|171:175,1,76.8,2|2,0:0|0:0,0:0:0:0:
222,213,105562,6,0,P|230:247|245:312,1,76.8,2|2,0:0|0:0,0:0:0:0:
189,351,105951,6,0,P|167:344|144:338,2,38.4,2|2|2,0:0|0:0|0:0,0:0:0:0:
153,264,106341,6,0,P|131:257|108:251,2,38.4,2|2|2,0:0|0:0|0:0,0:0:0:0:
62,195,106731,5,2,0:2:0:0:
152,61,107120,6,0,P|174:47|195:46,2,38.4,2|2|2,0:0|0:0|0:0,0:0:0:0:
255,12,107510,6,0,P|278:24|289:41,2,38.4,2|2|2,0:0|0:0|0:0,0:0:0:0:
247,110,107900,5,2,0:0:0:0:
251,122,108029,6,0,P|287:134|326:149,1,76.8,2|2,0:0|0:0,0:0:0:0:
480,108,108679,6,0,P|490:148|504:208,1,86.4,2|0,0:0|0:0,0:0:0:0:
504,208,109068,6,0,P|464:212|436:288,1,129.599996044922,0|2,0:0|3:2,0:0:0:0:
472,376,109653,1,0,0:0:0:0:
472,376,109848,2,0,P|436:368|404:364,1,64.799998022461,2|0,3:2|0:0,0:0:0:0:
328,324,110237,6,0,P|267:335|184:352,1,129.599996044922,10|2,0:0|3:2,0:0:0:0:
72,220,111016,1,2,3:2:0:0:
72,220,111211,1,0,0:0:0:0:
24,144,111406,6,0,P|12:96|52:56,1,97.1999970336915,2|0,1:2|0:0,0:0:0:0:
56,56,111796,2,0,P|105:67|164:84,1,97.1999970336915,2|0,3:2|0:0,0:0:0:0:
168,80,112185,2,0,P|203:70|252:60,1,64.799998022461,2|0,3:2|0:0,0:0:0:0:
316,100,112575,6,0,P|380:120|456:144,2,129.599996044922,10|0|0,0:0|3:2|3:2,0:0:0:0:
148,36,113744,6,0,P|106:44|48:60,1,97.1999970336915,2|0,1:2|0:0,0:0:0:0:
40,64,114133,2,0,P|72:104|56:172,1,97.1999970336915,2|0,3:2|0:0,0:0:0:0:
64,164,114523,1,2,3:2:0:0:
52,344,114912,6,0,P|104:348|136:312,1,97.1999970336915,10|0,0:0|0:0,0:0:0:0:
144,304,115302,2,0,P|196:300|228:336,1,97.1999970336915,2|0,3:2|0:0,0:0:0:0:
236,344,115692,2,0,P|268:360|304:352,1,64.799998022461,2|0,3:2|0:0,0:0:0:0:
360,292,116081,6,0,P|375:233|400:148,1,129.599996044922,2|2,1:2|3:2,0:0:0:0:
412,76,116666,1,2,1:2:0:0:
412,76,116861,2,0,P|380:44|324:48,1,97.1999970336915,2|0,3:2|0:0,0:0:0:0:
320,56,117250,6,0,P|272:97|209:90,1,129.599996044922,10|2,0:0|3:0,0:0:0:0:
136,36,117835,1,2,3:0:0:0:
136,36,118029,2,0,L|64:52,1,64.799998022461,2|2,3:0|3:0,0:0:0:0:
12,120,118419,5,4,1:2:0:0:
144,244,118809,2,0,L|207:229,1,64.799998022461,2|0,3:2|1:2,0:0:0:0:
284,180,119198,2,0,L|347:165,1,64.799998022461,2|0,3:2|0:0,0:0:0:0:
412,228,119588,6,0,P|448:152|412:100,2,129.599996044922,10|2|2,0:0|3:2|3:2,0:0:0:0:
268,340,120757,6,0,B|204:352|216:304|144:316,1,129.599996044922,2|0,1:2|3:2,0:0:0:0:
56,336,121341,1,0,1:2:0:0:
56,336,121536,2,0,L|40:268,1,64.799998022461,0|0,3:2|0:0,0:0:0:0:
72,188,121925,6,0,P|83:140|96:93,1,97.1999970336915,10|0,0:0|0:0,0:0:0:0:
108,84,122315,2,0,P|164:88|188:52,1,97.1999970336915,2|0,3:2|0:0,0:0:0:0:
196,44,122705,2,0,P|228:20|256:16,1,64.799998022461,2|0,3:2|0:0,0:0:0:0:
340,40,123094,6,0,P|362:127|388:240,1,194.399994067383,2|0,1:2|1:2,0:0:0:0:
456,288,123874,2,0,P|446:319|436:364,1,64.799998022461,2|0,3:2|0:0,0:0:0:0:
352,372,124263,2,0,P|328:340|268:332,1,97.1999970336915,10|0,0:0|0:0,0:0:0:0:
260,336,124653,2,0,P|252:304|243:273,1,64.799998022461,2|0,3:2|0:0,0:0:0:0:
300,200,125042,2,0,P|307:168|316:137,1,64.799998022461,2|0,3:2|0:0,0:0:0:0:
300,48,125432,6,0,P|280:24|216:24,1,97.1999970336915,6|0,1:2|0:0,0:0:0:0:
208,36,125822,2,0,P|176:60|140:60,1,64.799998022461,2|0,3:2|1:2,0:0:0:0:
64,36,126211,2,0,P|55:66|44:108,1,64.799998022461,6|0,3:2|0:0,0:0:0:0:
24,208,126601,6,0,B|92:176|156:224|124:260|200:304|258:266,1,259.199992089844,12|4,0:0|3:2,0:0:0:0:
452,228,127770,6,0,P|469:162|492:88,1,144,6|0,1:2|0:0,0:0:0:0:
420,20,128354,2,0,P|384:26|349:35,1,72,2|0,1:2|3:2,0:0:0:0:
260,80,128744,1,2,1:2:0:0:
140,43,128938,6,0,P|92:19|28:39,1,108,14|0,0:0|0:0,0:0:0:0:
24,39,129328,2,0,P|38:79|56:131,1,72,0|0,3:2|0:0,0:0:0:0:
32,208,129718,2,0,P|19:264|4:332,1,108,2|0,3:2|0:0,0:0:0:0:
8,332,130107,6,0,P|77:312|146:294,1,144,6|0,1:2|0:0,0:0:0:0:
236,340,130692,2,0,P|260:308|256:264,1,72,2|0,1:2|3:2,0:0:0:0:
192,200,131081,1,2,1:2:0:0:
100,120,131276,6,0,P|79:71|102:24,1,108,14|0,0:0|0:0,0:0:0:0:
120,20,131666,2,0,P|155:27|192:36,1,72,0|0,3:2|0:0,0:0:0:0:
280,92,132055,1,2,3:2:0:0:
280,92,132250,1,2,0:0:0:0:
368,44,132445,6,0,P|424:88|420:160,1,144,6|2,1:2|3:2,0:0:0:0:
368,240,133029,1,0,1:2:0:0:
280,288,133224,2,0,P|242:294|196:304,1,72,2|0,3:2|1:2,0:0:0:0:
92,348,133614,6,0,P|64:316|76:248,1,108,14|0,0:0|0:0,0:0:0:0:
84,244,134003,2,0,P|112:208|108:172,1,72,2|0,3:2|1:2,0:0:0:0:
60,96,134393,2,0,P|112:83|165:71,1,108,2|0,3:2|0:0,0:0:0:0:
184,68,134783,5,6,1:2:0:0:
276,112,134977,1,0,1:2:0:0:
388,52,135172,1,12,0:0:0:0:
388,52,135367,2,0,P|398:87|412:136,1,72,0|0,1:2|3:2,0:0:0:0:
472,200,135757,5,8,1:2:0:0:
468,216,135854,1,8,1:2:0:0:
464,232,135951,2,0,P|453:267|440:316,1,72,4|0,1:2|1:2,0:0:0:0:
380,380,136341,1,10,1:3:0:0:
380,380,136536,1,8,1:3:0:0:
292,340,136731,1,6,1:3:0:0:
292,340,136925,1,8,1:2:0:0:
168,368,137120,6,0,B|92:376|116:324|28:332,1,144,6|0,1:2|3:2,0:0:0:0:
72,236,137705,1,0,1:2:0:0:
16,152,137900,2,0,P|25:112|36:68,1,72,0|0,3:2|1:2,0:0:0:0:
140,20,138289,6,0,P|188:60|240:48,1,108,14|0,0:0|0:0,0:0:0:0:
244,44,138679,2,0,P|284:16|312:20,1,72,2|0,3:2|0:0,0:0:0:0:
380,84,139068,2,0,P|370:116|360:160,1,72,2|0,3:2|0:0,0:0:0:0:
276,204,139458,6,0,B|200:212|224:160|136:168,1,144,6|2,1:2|3:2,0:0:0:0:
44,200,140042,1,0,1:2:0:0:
8,292,140237,2,0,P|14:327|24:372,1,72,0|0,3:2|1:2,0:0:0:0:
148,368,140627,6,0,P|203:355|268:340,1,108,12|0,0:0|0:0,0:0:0:0:
268,348,141016,2,0,P|303:356|337:366,1,72,0|0,3:2|1:2,0:0:0:0:
434,337,141406,2,0,P|468:326|503:318,1,72,2|0,3:2|0:0,0:0:0:0:
490,218,141796,6,0,P|506:146|462:94,1,144,6|2,1:2|3:2,0:0:0:0:
375,48,142380,1,0,1:2:0:0:
288,100,142575,2,0,P|250:102|217:83,1,72,2|0,3:2|1:2,0:0:0:0:
116,20,142964,6,0,P|60:16|16:88,1,144,12|0,0:0|3:2,0:0:0:0:
64,172,143549,1,0,1:2:0:0:
24,264,143744,2,0,P|58:273|93:283,1,72,2|0,3:2|0:0,0:0:0:0:
184,328,144133,6,0,P|240:332|280:288,1,108,6|0,1:2|0:0,0:0:0:0:
284,284,144523,2,0,P|320:256|348:256,1,72,2|4,3:2|1:2,0:0:0:0:
432,308,144912,1,2,3:2:0:0:
484,220,145107,5,8,1:2:0:0:
492,204,145205,1,8,1:2:0:0:
484,188,145302,2,0,P|449:178|414:168,1,72,4|0,1:2|0:0,0:0:0:0:
328,124,145692,1,0,1:2:0:0:
328,124,145887,1,8,1:2:0:0:
236,164,146081,2,0,P|183:175|130:188,1,108,2|0,1:2|0:0,0:0:0:0:
112,192,146471,6,0,P|144:224|124:324,2,144,6|0|2,1:2|0:0|3:2,0:0:0:0:
32,132,147445,1,0,1:2:0:0:
124,44,147640,6,0,P|193:27|264:12,1,144,14|0,0:0|3:2,0:0:0:0:
352,64,148224,1,0,0:0:0:0:
448,32,148419,2,0,P|456:65|468:116,1,72,2|0,3:2|0:0,0:0:0:0:
440,200,148809,6,0,P|426:251|412:316,1,108,6|0,1:2|0:0,0:0:0:0:
408,320,149198,2,0,P|376:340|336:340,1,72,2|0,3:2|1:2,0:0:0:0:
260,292,149588,1,2,3:2:0:0:
260,292,149783,1,0,1:2:0:0:
152,352,149977,6,0,P|76:356|36:296,1,144,14|0,0:0|3:2,0:0:0:0:
80,216,150562,1,0,1:2:0:0:
16,136,150757,2,0,L|32:64,1,72,2|0,3:2|0:0,0:0:0:0:
124,28,151146,6,0,P|176:24|220:72,1,108,6|0,1:2|0:0,0:0:0:0:
224,76,151536,2,0,P|252:104|304:112,1,72,2|0,3:2|1:2,0:0:0:0:
372,68,151925,2,0,P|383:120|393:173,1,108,2|0,3:2|0:0,0:0:0:0:
392,192,152315,6,0,P|344:196|304:244,1,108,12|0,0:0|0:0,0:0:0:0:
300,256,152705,2,0,P|264:253|239:229,1,72,2|0,3:2|1:2,0:0:0:0:
168,156,153094,2,0,P|132:158|107:182,1,72,2|0,3:2|0:0,0:0:0:0:
60,272,153484,6,0,P|130:289|212:312,1,144,6|14,1:2|0:0,0:0:0:0:
284,364,154068,1,0,1:2:0:0:
372,316,154263,2,0,L|392:240,1,72,2|8,3:2|1:2,0:0:0:0:
432,128,154653,6,0,B|356:136|376:72|296:84,1,144,6|8,1:2|1:3,0:0:0:0:
212,128,155237,1,8,1:2:0:0:
128,84,155432,1,6,1:3:0:0:
128,84,155627,1,8,1:2:0:0:
60,156,155822,6,0,P|47:204|32:272,1,108,6|0,1:2|0:0,0:0:0:0:
32,280,156211,2,0,P|80:248|132:264,1,108,2|0,3:2|0:0,0:0:0:0:
140,268,156601,1,2,3:2:0:0:
212,340,156796,1,0,1:2:0:0:
304,256,156990,6,0,P|290:187|272:104,2,144,14|0|2,0:0|3:2|3:2,0:0:0:0:
372,332,157964,1,0,0:0:0:0:
444,260,158159,6,0,L|464:184,1,72,6|0,1:2|0:0,0:0:0:0:
508,100,158549,2,0,P|436:112|380:72,1,144,2|0,3:2|3:2,0:0:0:0:
300,12,159133,1,0,1:2:0:0:
180,40,159328,6,0,P|126:49|74:62,1,108,14|0,0:0|0:0,0:0:0:0:
56,68,159718,2,0,P|48:97|40:140,1,72,2|0,3:2|1:2,0:0:0:0:
112,216,160107,1,2,3:2:0:0:
112,216,160302,1,0,0:0:0:0:
216,144,160497,6,0,B|292:152|272:88|352:100,1,144,6|2,1:2|3:2,0:0:0:0:
436,144,161081,1,0,1:2:0:0:
384,232,161276,1,0,3:2:0:0:
384,232,161471,1,0,1:2:0:0:
464,324,161666,6,0,P|403:339|324:364,1,144,12|0,0:0|3:2,0:0:0:0:
232,332,162250,1,0,3:2:0:0:
232,332,162445,2,0,P|179:318|127:305,1,108,2|0,3:2|0:0,0:0:0:0:
108,300,162835,6,0,P|136:264|92:180,1,144,4|0,1:2|3:2,0:0:0:0:
12,144,163419,1,0,1:2:0:0:
12,144,163614,2,0,P|-4:108|4:68,1,72,0|0,3:2|1:2,0:0:0:0:
112,24,164003,6,0,P|182:40|252:57,1,144,12|2,0:0|3:2,0:0:0:0:
340,108,164588,1,2,1:2:0:0:
428,56,164783,1,2,3:2:0:0:
428,56,164977,1,2,3:2:0:0:
496,132,165172,5,4,1:2:0:0:
496,132,165367,2,0,P|481:195|460:284,1,144,0|0,0:0|1:2,0:0:0:0:
380,332,165951,1,0,3:2:0:0:
380,332,166146,1,2,1:2:0:0:
276,252,166341,6,0,P|220:248|172:288,1,108,14|2,0:0|0:0,0:0:0:0:
168,292,166731,2,0,P|112:296|64:256,1,108,2|2,3:2|0:0,0:0:0:0:
64,252,167120,2,0,P|54:214|44:180,1,72,2|2,3:2|0:0,0:0:0:0:
104,100,167510,6,0,L|152:112,3,36,6|0|2|0,1:2|0:0|1:2|0:0,0:0:0:0:
188,124,167900,1,10,0:0:0:0:
272,180,168094,2,0,L|341:161,1,72,2|2,1:2|0:0,0:0:0:0:
420,96,168484,5,10,1:2:0:0:
428,80,168581,1,10,1:2:0:0:
424,64,168679,2,0,L|355:45,1,72,14|8,1:2|1:3,0:0:0:0:
264,84,169068,1,6,1:3:0:0:
264,84,169263,1,10,1:3:0:0:
184,32,169458,1,6,1:3:0:0:
184,32,169653,1,10,1:2:0:0:
80,104,169848,6,0,P|63:166|44:248,1,144,6|0,1:2|0:0,0:0:0:0:
72,340,170432,2,0,P|112:304|180:316,1,108,2|0,1:2|0:0,0:0:0:0:
176,316,170822,1,2,1:2:0:0:
288,368,171016,6,0,P|401:335|500:308,1,216,14|0,0:0|3:2,0:0:0:0:
500,208,171796,2,0,L|480:128,1,72,2|0,3:2|0:0,0:0:0:0:
428,56,172185,6,0,B|352:48|376:100|288:92,1,144,6|0,1:2|3:2,0:0:0:0:
196,60,172770,2,0,P|207:108|224:180,1,108,2|0,1:2|0:0,0:0:0:0:
224,184,173159,1,2,1:2:0:0:
216,304,173354,6,0,P|180:336|104:328,1,108,10|0,0:0|0:0,0:0:0:0:
108,328,173744,2,0,P|98:290|88:248,1,72,2|0,3:2|3:2,0:0:0:0:
28,180,174133,2,0,P|37:142|48:100,1,72,2|0,3:2|0:0,0:0:0:0:
124,44,174523,6,0,P|168:84|260:76,1,144,6|0,1:2|0:0,0:0:0:0:
340,36,175107,2,0,P|384:20|424:28,1,72,2|0,1:2|3:2,0:0:0:0:
496,112,175497,5,0,1:2:0:0:
496,112,175692,2,0,P|469:207|440:324,1,216,14|2,0:0|3:2,0:0:0:0:
352,364,176471,1,2,3:2:0:0:
352,364,176666,1,2,3:2:0:0:
268,308,176861,6,0,B|192:300|216:352|128:344,1,144,6|0,1:2|0:0,0:0:0:0:
52,284,177445,2,0,P|40:244|52:208,1,72,2|0,1:2|0:0,0:0:0:0:
124,148,177835,5,8,1:2:0:0:
140,140,177932,1,8,1:2:0:0:
156,140,178029,2,0,P|197:143|228:164,1,72,14|0,1:2|0:0,0:0:0:0:
288,244,178419,1,0,0:0:0:0:
288,244,178614,1,14,1:2:0:0:
376,192,178809,1,0,0:0:0:0:
376,192,179004,1,0,0:0:0:0:
480,256,179198,6,0,P|494:203|512:144,1,108,6|0,1:2|0:0,0:0:0:0:
500,136,179588,2,0,P|491:100|480:56,1,72,2|0,3:2|1:2,0:0:0:0:
392,24,179977,2,0,L|316:40,1,72,2|0,3:2|1:2,0:0:0:0:
216,96,180367,6,0,B|140:104|164:52|76:60,1,144,14|2,0:0|3:2,0:0:0:0:
20,140,180951,1,0,3:2:0:0:
64,232,181146,2,0,P|56:266|44:316,1,72,2|0,3:2|0:0,0:0:0:0:
128,364,181536,6,0,P|164:328|224:328,1,108,6|0,1:2|0:0,0:0:0:0:
232,336,181925,2,0,P|280:360|308:356,1,72,2|0,3:2|1:2,0:0:0:0:
376,296,182315,2,0,L|396:220,1,72,2|0,3:2|1:2,0:0:0:0:
464,120,182705,6,0,P|400:124|348:64,1,144,10|0,0:0|3:2,0:0:0:0:
260,24,183289,1,0,3:2:0:0:
164,56,183484,2,0,L|144:136,1,72,2|0,3:2|0:0,0:0:0:0:
80,200,183874,6,0,P|98:274|116:352,1,144,6|0,1:2|3:2,0:0:0:0:
212,368,184458,1,0,1:2:0:0:
296,312,184653,2,0,P|352:308|396:360,1,108,2|0,3:2|0:0,0:0:0:0:
400,352,185042,6,0,P|416:281|433:211,1,144,14|0,0:0|3:2,0:0:0:0:
484,124,185627,1,0,0:0:0:0:
408,60,185822,2,0,P|361:72|296:92,1,108,2|0,3:2|0:0,0:0:0:0:
288,84,186211,6,0,P|253:74|218:65,1,72,6|0,1:2|1:2,0:0:0:0:
128,16,186601,2,0,P|93:24|58:34,1,72,10|0,0:0|1:2,0:0:0:0:
16,124,186990,1,2,3:2:0:0:
76,204,187185,5,8,1:2:0:0:
92,212,187283,1,8,1:2:0:0:
108,208,187380,2,0,P|140:192|184:192,1,72,12|8,1:2|1:3,0:0:0:0:
268,232,187770,2,0,P|300:248|344:248,1,72,4|8,1:3|1:3,0:0:0:0:
436,220,188159,1,4,1:3:0:0:
436,220,188354,1,8,1:2:0:0:
500,328,188549,6,0,B|424:320|448:372|360:364,1,144,4|2,1:2|3:2,0:0:0:0:
272,320,189133,1,0,1:2:0:0:
188,268,189328,2,0,P|152:272|116:296,1,72,2|0,3:2|1:2,0:0:0:0:
28,372,189718,6,0,P|14:319|1:267,1,108,14|0,0:0|0:0,0:0:0:0:
8,252,190107,2,0,L|24:172,1,72,2|0,3:2|3:2,0:0:0:0:
44,84,190497,1,2,3:2:0:0:
44,84,190692,1,0,0:0:0:0:
132,36,190887,6,0,P|180:32|232:76,1,108,6|0,1:2|0:0,0:0:0:0:
232,84,191276,2,0,P|268:108|312:104,1,72,2|0,3:2|1:2,0:0:0:0:
380,52,191666,2,0,P|416:28|460:32,1,72,2|0,3:2|1:2,0:0:0:0:
496,140,192055,6,0,P|477:212|456:300,1,144,10|0,0:0|3:2,0:0:0:0:
380,340,192640,1,0,3:2:0:0:
300,284,192835,1,2,3:2:0:0:
300,284,193029,1,2,0:0:0:0:
204,316,193224,6,0,B|128:308|152:360|64:352,1,144,6|0,1:2|0:0,0:0:0:0:
20,264,193809,1,0,1:2:0:0:
72,180,194003,2,0,P|107:172|156:164,1,72,2|0,3:2|1:2,0:0:0:0:
260,208,194393,6,0,P|310:222|384:244,1,108,14|0,0:0|0:0,0:0:0:0:
380,244,194783,2,0,P|408:228|416:180,1,72,2|0,3:2|3:2,0:0:0:0:
396,92,195172,2,0,L|312:64,1,72,2|0,3:2|0:0,0:0:0:0:
232,40,195562,6,0,P|179:50|126:62,1,108,6|0,1:2|0:0,0:0:0:0:
108,68,195951,2,0,L|84:140,1,72,2|0,0:0|1:2,0:0:0:0:
120,232,196341,1,2,0:0:0:0:
52,308,196536,5,8,1:2:0:0:
56,324,196633,1,8,1:2:0:0:
60,340,196731,2,0,P|132:355|208:372,1,144,14|0,1:2|1:2,0:0:0:0:
304,300,197315,1,12,1:2:0:0:
404,340,197510,1,0,1:2:0:0:
404,340,197705,1,0,1:2:0:0:
496,24,207250,6,0,P|460:28|432:48,1,64.799998022461,0|0,1:2|1:2,0:0:0:0:
356,120,207640,2,0,P|320:116|292:96,1,64.799998022461,8|0,0:0|1:2,0:0:0:0:
228,44,208029,2,0,P|192:48|164:68,1,64.799998022461,0|8,0:0|1:2,0:0:0:0:
156,76,208322,1,8,1:2:0:0:
148,88,208419,6,0,L|64:72,1,64.799998022461,12|0,1:2|1:2,0:0:0:0:
40,156,208809,6,0,P|12:196|24:248,1,97.1999970336915,4|0,1:2|0:0,0:0:0:0:
28,256,209198,2,0,P|56:296|44:348,1,97.1999970336915,4|0,1:2|0:0,0:0:0:0:
36,356,209588,6,0,P|105:337|175:320,1,144,6|0,1:2|3:2,0:0:0:0:
268,360,210172,1,0,1:2:0:0:
320,272,210367,2,0,L|304:200,1,72,0|0,3:2|1:2,0:0:0:0:
288,80,210757,6,0,P|332:40|392:48,1,108,14|0,0:0|0:0,0:0:0:0:
392,48,211146,2,0,L|407:118,1,72,2|0,3:2|0:0,0:0:0:0:
472,196,211536,2,0,L|457:266,1,72,2|0,3:2|0:0,0:0:0:0:
396,348,211925,6,0,B|320:356|344:304|256:312,1,144,6|2,1:2|3:2,0:0:0:0:
168,356,212510,1,0,1:2:0:0:
76,312,212705,2,0,P|56:280|56:236,1,72,0|0,3:2|1:2,0:0:0:0:
144,160,213094,6,0,P|176:112|148:48,1,108,12|0,0:0|0:0,0:0:0:0:
160,48,213484,2,0,P|195:39|236:32,1,72,0|0,3:2|1:2,0:0:0:0:
302,103,213874,2,0,P|337:109|372:118,1,72,0|0,3:2|0:0,0:0:0:0:
434,38,214263,6,0,P|449:106|466:186,1,144,6|2,1:2|3:2,0:0:0:0:
490,276,214848,1,0,1:2:0:0:
404,328,215042,2,0,P|368:332|333:311,1,72,2|0,3:2|1:2,0:0:0:0:
248,228,215432,6,0,B|172:220|196:272|108:264,1,144,12|0,0:0|3:2,0:0:0:0:
36,200,216016,1,0,1:2:0:0:
72,104,216211,2,0,P|100:84|152:84,1,72,2|0,3:2|0:0,0:0:0:0:
232,120,216601,6,0,P|276:156|336:148,1,108,6|0,1:2|0:0,0:0:0:0:
340,144,216990,2,0,P|368:124|420:124,1,72,2|0,3:2|1:2,0:0:0:0:
484,184,217380,1,2,3:2:0:0:
488,284,217575,5,8,1:2:0:0:
492,300,217672,1,8,1:2:0:0:
484,316,217770,2,0,P|450:325|415:335,1,72,6|0,1:2|0:0,0:0:0:0:
324,300,218159,1,8,1:3:0:0:
324,300,218354,1,0,0:0:0:0:
232,344,218549,2,0,P|208:304|216:240,1,108,6|0,1:3|0:0,0:0:0:0:
228,232,218938,6,0,P|272:192|256:104,2,144,6|0|2,1:2|3:2|3:2,0:0:0:0:
136,196,219912,1,0,0:0:0:0:
32,264,220107,6,0,P|17:190|0:116,1,144,14|0,0:0|3:2,0:0:0:0:
56,40,220692,1,0,0:0:0:0:
148,84,220887,2,0,P|184:100|220:96,1,72,2|0,3:2|0:0,0:0:0:0:
300,44,221276,6,0,P|344:16|408:24,1,108,6|0,1:2|0:0,0:0:0:0:
412,32,221666,2,0,L|432:112,1,72,2|0,3:2|1:2,0:0:0:0:
492,188,222055,1,2,3:2:0:0:
492,188,222250,1,0,1:2:0:0:
384,256,222445,6,0,P|317:229|249:205,1,144,14|0,0:0|3:2,0:0:0:0:
160,156,223029,1,0,1:2:0:0:
72,208,223224,2,0,L|92:296,1,72,2|0,3:2|0:0,0:0:0:0:
148,360,223614,6,0,P|204:344|260:332,1,108,6|0,1:2|0:0,0:0:0:0:
268,340,224003,2,0,L|344:364,1,72,2|0,3:2|1:2,0:0:0:0:
436,344,224393,2,0,P|472:296|460:248,1,108,2|0,3:2|0:0,0:0:0:0:
452,236,224783,6,0,P|416:188|428:140,1,108,12|0,0:0|0:0,0:0:0:0:
436,132,225172,2,0,P|460:100|460:56,1,72,2|0,3:2|1:2,0:0:0:0:
376,20,225562,2,0,L|292:36,1,72,2|0,3:2|0:0,0:0:0:0:
212,76,225951,6,0,B|136:84|160:32|72:40,1,144,6|14,1:2|0:0,0:0:0:0:
0,108,226536,1,0,1:2:0:0:
28,204,226731,2,0,L|46:273,1,72,2|8,3:2|1:2,0:0:0:0:
136,360,227120,6,0,P|188:304|260:312,1,144,6|8,1:2|1:3,0:0:0:0:
336,360,227705,1,8,1:2:0:0:
428,312,227900,1,6,1:3:0:0:
428,312,228094,1,8,1:2:0:0:
372,192,228289,6,0,P|319:179|256:164,1,108,6|0,1:2|0:0,0:0:0:0:
252,176,228679,2,0,P|199:188|147:201,1,108,2|0,3:2|0:0,0:0:0:0:
132,208,229068,1,2,3:2:0:0:
52,148,229263,1,0,1:2:0:0:
124,76,229458,6,0,P|72:24|-8:32,2,144,14|0|2,0:0|3:2|3:2,0:0:0:0:
220,104,230432,1,0,0:0:0:0:
316,72,230627,6,0,P|351:60|392:48,1,72,6|0,1:2|0:0,0:0:0:0:
480,24,231016,2,0,P|459:94|440:168,1,144,2|0,3:2|3:2,0:0:0:0:
480,256,231601,1,0,1:2:0:0:
400,352,231796,6,0,P|348:356|304:320,1,108,14|0,0:0|0:0,0:0:0:0:
296,308,232185,2,0,P|264:284|224:284,1,72,2|0,3:2|1:2,0:0:0:0:
144,328,232575,1,2,3:2:0:0:
144,328,232770,1,0,0:0:0:0:
72,256,232964,6,0,P|83:220|96:180,1,72,6|0,1:2|0:0,0:0:0:0:
52,116,233354,2,0,B|120:84|184:128|152:168|220:224|332:304|488:176|376:32|296:80,1,518.4
220,60,235302,6,0,P|145:39|48:16,1,172.799994726563,2|2,0:0|0:0,0:0:0:0:
88,132,236471,1,2,0:0:0:0:
52,248,236861,2,0,P|93:235|134:223,1,86.3999973632813,2|2,0:0|0:0,0:0:0:0:
224,144,237640,6,0,P|302:165|400:196,1,172.799994726563,2|2,0:0|0:0,0:0:0:0:
472,280,238809,2,0,P|345:309|220:341,1,259.199992089844,2|2,0:0|0:0,0:0:0:0:
32,32,241146,6,0,P|19:71|4:124,2,86.3999973632813,2|2|2,0:0|0:0|0:0,0:0:0:0:
136,96,242315,6,0,P|180:144|284:124,1,172.799994726563,2|2,0:0|0:0,0:0:0:0:
372,48,243484,2,0,P|392:167|416:308,1,259.199992089844,2|2,0:0|0:0,0:0:0:0:
56,348,245822,6,0,P|56:280|152:252,1,172.799994726563,2|2,0:0|0:0,0:0:0:0:
240,324,246990,6,0,P|316:344|408:372,1,172.799994726563,2|2,0:0|0:0,0:0:0:0:
492,284,248159,2,0,P|428:220|492:84,1,259.199992089844,2|2,0:0|0:0,0:0:0:0:
128,100,250497,6,0,P|108:136|116:188,2,86.3999973632813,2|2|2,0:0|0:0|0:0,0:0:0:0:
224,24,251666,6,0,B|276:8|312:36|292:52|344:84|384:56,1,172.799994726563,2|0,0:0|0:0,0:0:0:0:
496,12,252835,2,0,P|473:94|448:192,1,172.799994726563,2|0,0:0|0:0,0:0:0:0:
472,296,254003,6,0,B|404:328|340:280|372:244|296:200|238:238,1,259.199992089844,2|2,0:0|0:0,0:0:0:0:
