osu file format v14

[General]
AudioFilename: audio.mp3
AudioLeadIn: 0
PreviewTime: 51740
Countdown: 0
SampleSet: Normal
StackLeniency: 1
Mode: 1
LetterboxInBreaks: 0
WidescreenStoryboard: 0

[Editor]
DistanceSpacing: 0.8
BeatDivisor: 2
GridSize: 32
TimelineZoom: 2.599999

[Metadata]
Title:EINHERJAR
TitleUnicode:EINHERJAR
Artist:ELFENSJoN
ArtistUnicode:ELFENSJóN
Creator:Axer
Version:GATES OF VALHALLA
Source:osu!
Tags:japanese rock 黒瀬 圭亮 okogeeechann みゅー oryo jrock featured artist fa mappers' guild mg
BeatmapID:2357053
BeatmapSetID:1128209

[Difficulty]
HPDrainRate:5
CircleSize:2
OverallDifficulty:6
ApproachRate:10
SliderMultiplier:1.4
SliderTickRate:1

[Events]
//Background and Video events
0,0,"ELFENJSoN.jpg",0,50
//Break Periods
//Storyboard Layer 0 (Background)
//Storyboard Layer 1 (Fail)
//Storyboard Layer 2 (Pass)
//Storyboard Layer 3 (Foreground)
//Storyboard Layer 4 (Overlay)
//Storyboard Sound Samples

[TimingPoints]
270,294.117647058824,4,1,0,5,1,0
270,-166.666666666667,4,1,0,5,0,0
564,-166.666666666667,4,1,0,8,0,0
711,-166.666666666667,4,1,0,11,0,0
858,-166.666666666667,4,1,0,14,0,0
1005,-166.666666666667,4,1,0,17,0,0
1152,-166.666666666667,4,1,0,20,0,0
1299,-166.666666666667,4,1,0,23,0,0
1446,-166.666666666667,4,1,0,26,0,0
1593,-166.666666666667,4,1,0,29,0,0
1740,-166.666666666667,4,1,0,32,0,0
1887,-166.666666666667,4,1,0,35,0,0
2034,-166.666666666667,4,1,0,38,0,0
2181,-166.666666666667,4,1,0,41,0,0
2328,-166.666666666667,4,1,0,44,0,0
2475,-166.666666666667,4,1,0,47,0,0
2622,-166.666666666667,4,1,0,50,0,0
12031,-133.333333333333,4,1,0,60,0,0
29531,-125,4,1,0,90,0,0
29605,-124.141869328268,4,1,0,90,0,0
29678,-123.295440534609,4,1,0,90,0,0
29825,-121.636744027636,4,1,0,90,0,0
30119,-118.449729934616,4,1,0,90,0,0
30267,-116.918040453642,4,1,0,90,0,0
30414,-115.425591469587,4,1,0,90,0,0
30561,-113.970634326359,4,1,0,90,0,0
30855,-111.168053858699,4,1,0,90,0,0
40561,-133.333333333333,4,1,0,90,0,0
44237,-125,4,1,0,90,0,0
44311,-123.456790123457,4,1,0,90,0,0
44384,-121.951219512195,4,1,0,90,0,0
44482,-120.000048000019,4,1,0,90,0,0
44580,-118.110189720398,4,1,0,90,0,0
44678,-116.279069767442,4,1,0,90,0,0
44776,-114.503860497657,4,1,0,90,0,0
44874,-112.781912488003,4,1,0,90,0,0
44972,-111.111111111111,4,1,0,90,0,0
45119,-125,4,1,0,90,0,0
46443,-125,4,1,0,90,0,0
46737,-120.000048000019,4,1,0,90,0,0
47031,-115.384571005934,4,1,0,90,0,0
47178,-113.207589889657,4,1,0,90,0,0
47252,-112.149490785237,4,1,0,90,0,0
47325,-111.111111111111,4,1,0,90,0,0
47619,-142.857142857143,4,1,0,90,0,0
47767,-140.008372500676,4,1,0,90,0,0
47914,-137.270809225147,4,1,0,90,0,0
48061,-134.638428500263,4,1,0,90,0,0
48208,-132.105108108215,4,1,0,90,0,0
48355,-129.665191509005,4,1,0,90,0,0
48502,-127.313930690296,4,1,0,90,0,0
48649,-125.046423484719,4,1,0,90,0,0
48796,-122.858122211888,4,1,0,90,0,0
48943,-120.745239618928,4,1,0,90,0,0
49017,-119.715746930488,4,1,0,90,0,0
49090,-118.703801964073,4,1,0,90,0,0
49237,-116.73010948117,4,1,0,90,0,0
49384,-114.821108712626,4,1,0,90,0,0
49531,-112.973542726029,4,1,0,90,0,0
49605,-112.071815619449,4,1,0,90,0,0
49678,-111.111111111111,4,1,0,90,0,0
49972,-109.592884353205,4,1,0,90,0,0
50119,-108.849342713244,4,1,0,90,0,0
50414,-107.391891267858,4,1,0,90,0,0
50561,-106.677704253133,4,1,0,90,0,0
50855,-105.277564298272,4,1,0,90,0,0
50928,-104.933225741799,4,1,0,90,0,0
51002,-104.591132345435,4,1,0,90,0,0
51075,-104.251262222157,4,1,0,90,0,0
51149,-103.91359376851,4,1,0,90,0,0
51222,-103.578105660026,4,1,0,90,0,0
51296,-103.244883441689,4,1,0,90,0,0
51369,-102.913692460955,4,1,0,90,0,0
51443,-102.584619488,4,1,0,90,0,0
51590,-101.932746812308,4,1,0,90,0,0
51884,-100.653644769131,4,1,0,90,0,0
52034,-100.026006761758,4,1,0,90,0,1
79237,-100,4,1,0,90,0,1
79311,-101.076566509897,4,1,0,90,0,1
79384,-102.176565191714,4,1,0,90,0,1
79458,-103.300769487432,4,1,0,90,0,1
79531,-104.449987257102,4,1,0,90,0,1
79605,-105.62495114846,4,1,0,90,0,1
79678,-106.826764377547,4,1,0,90,0,1
79825,-109.314347617439,4,1,0,90,0,1
79972,-111.920545366433,4,1,0,90,0,1
80119,-114.654048606437,4,1,0,90,0,1
80270,-117.647058823529,4,1,0,90,0,0
80561,-118.181796694219,4,1,0,90,0,0
80855,-118.72141781866,4,1,0,90,0,0
81149,-119.265989394868,4,1,0,90,0,0
81443,-119.815723417384,4,1,0,90,0,0
81737,-120.370403806594,4,1,0,90,0,0
82031,-120.930243807465,4,1,0,90,0,0
82325,-121.495315748101,4,1,0,90,0,0
82619,-122.065693314828,4,1,0,90,0,0
82914,-122.641451584221,4,1,0,90,0,0
83208,-123.222818894494,4,1,0,90,0,0
83502,-123.809570975075,4,1,0,90,0,0
83796,-124.401937684581,4,1,0,90,0,0
83943,-124.700251769808,4,1,0,90,0,0
84090,-125,4,1,0,90,0,0
84384,-125.603840463026,4,1,0,90,0,0
84531,-125.907953731345,4,1,0,90,0,0
84678,-126.213543218041,4,1,0,90,0,0
84972,-126.829194051203,4,1,0,90,0,0
85267,-127.451042868158,4,1,0,90,0,0
85561,-128.07885558981,4,1,0,90,0,0
85855,-128.712884030979,4,1,0,90,0,0
86149,-129.353220959879,4,1,0,90,0,0
86296,-129.675784603335,4,1,0,90,0,0
86443,-129.999961000012,4,1,0,90,0,0
86590,-130.325762275384,4,1,0,90,0,0
86737,-130.653200676784,4,1,0,90,0,0
86884,-130.982288574939,4,1,0,90,0,0
87031,-131.313210896895,4,1,0,90,0,0
87178,-131.645636276272,4,1,0,90,0,0
87325,-131.979749027309,4,1,0,90,0,0
87914,-133.333333333333,4,1,0,90,0,0
88502,-125,4,1,0,90,0,0
88575,-124.031007751938,4,1,0,90,0,0
88649,-123.076923076923,4,1,0,90,0,0
88722,-122.137404580153,4,1,0,90,0,0
88796,-121.212121212121,4,1,0,90,0,0
88869,-120.300751879699,4,1,0,90,0,0
88943,-119.402985074627,4,1,0,90,0,0
89017,-118.518518518519,4,1,0,90,0,0
89090,-117.647058823529,4,1,0,90,0,0
89164,-116.788321167883,4,1,0,90,0,0
89237,-115.942028985507,4,1,0,90,0,0
89311,-115.107913669065,4,1,0,90,0,0
89384,-114.285714285714,4,1,0,90,0,0
89458,-113.475177304965,4,1,0,90,0,0
89531,-112.676056338028,4,1,0,90,0,0
89605,-111.888111888112,4,1,0,90,0,0
89678,-111.111111111111,4,1,0,90,0,0
107472,-111.111111111111,4,1,0,90,0,0
107546,-111.994749686135,4,1,0,90,0,0
107619,-112.892428191949,4,1,0,90,0,0
107767,-114.731791491031,4,1,0,90,0,0
107914,-116.632221283981,4,1,0,90,0,0
108012,-117.934402526627,4,1,0,90,0,0
108110,-119.265989394868,4,1,0,90,0,0
108208,-120.628134823654,4,1,0,90,0,0
108306,-122.021605145407,4,1,0,90,0,0
108404,-123.447798246794,4,1,0,90,0,0
108502,-125,4,1,0,90,0,0
108943,-131.147540983607,4,1,0,90,0,0
109384,-137.931034482759,4,1,0,90,0,0
109678,-142.857142857143,4,1,0,90,0,0
112914,-133.333333333333,4,1,0,90,0,0
113061,-129.032258064516,4,1,0,90,0,0
113134,-126.984126984127,4,1,0,90,0,0
113208,-125,4,1,0,90,0,0
113428,-122.144714614982,4,1,0,90,0,0
113502,-121.221672010522,4,1,0,90,0,0
113649,-119.416816037201,4,1,0,90,0,0
113796,-117.665054655418,4,1,0,90,0,0
113943,-115.963810014171,4,1,0,90,0,0
114017,-115.131635755741,4,1,0,90,0,0
114090,-114.31118935077,4,1,0,90,0,0
114384,-111.1432191522,4,1,0,90,0,0
114531,-109.624120814551,4,1,0,90,0,0
114752,-107.421885490419,4,1,0,90,0,0
114825,-106.707300806814,4,1,0,90,0,0
114972,-105.306388938617,4,1,0,90,0,0
115046,-104.619582274932,4,1,0,90,0,0
115119,-103.941676246624,4,1,0,90,0,0
115193,-103.272498946621,4,1,0,90,0,0
115267,-102.611988158577,4,1,0,90,0,0
115340,-101.959768714461,4,1,0,90,0,0
115414,-101.315788140582,4,1,0,90,0,0
115487,-100.679891305989,4,1,0,90,0,0
115561,-100.051926950087,4,1,0,90,0,0
116002,-133.333333333333,4,1,0,90,0,0
117914,-142.857142857143,4,1,0,90,0,0
118134,-141.436514099099,4,1,0,90,0,0
118208,-140.969162995595,4,1,0,90,0,0
118355,-140.043861737496,4,1,0,90,0,0
118502,-139.130434782609,4,1,0,90,0,0
118575,-138.678175106158,4,1,0,90,0,0
118649,-138.22884614853,4,1,0,90,0,0
118796,-137.339055793991,4,1,0,90,0,0
118869,-136.898348869014,4,1,0,90,0,0
118943,-136.46064747848,4,1,0,90,0,0
119090,-135.593220338983,4,1,0,90,0,0
119311,-134.312741846881,4,1,0,90,0,0
119384,-133.891213389121,4,1,0,90,0,0
119531,-133.056221575865,4,1,0,90,0,0
119678,-132.231404958678,4,1,0,90,0,0
119752,-131.822819584653,4,1,0,90,0,0
119825,-131.416924134324,4,1,0,90,0,0
119972,-130.612244897959,4,1,0,90,0,0
120046,-130.213589350612,4,1,0,90,0,0
120119,-129.817528481966,4,1,0,90,0,0
120267,-129.032258064516,4,1,0,90,0,0
120414,-128.256430777439,4,1,0,90,0,0
120561,-127.490039840637,4,1,0,90,0,0
120708,-126.73275357323,4,1,0,90,0,0
120855,-125.984251968504,4,1,0,90,0,0
120928,-125.613306971287,4,1,0,90,0,0
121002,-125.244696826425,4,1,0,90,0,0
121149,-124.513618677043,4,1,0,90,0,0
121296,-123.79117913574,4,1,0,90,0,0
121369,-123.43301783854,4,1,0,90,0,0
121443,-123.076923076923,4,1,0,90,0,0
121590,-122.3708620293,4,1,0,90,0,0
121737,-121.673003802281,4,1,0,90,0,0
121884,-120.983059951946,4,1,0,90,0,0
121958,-120.640941192367,4,1,0,90,0,0
122031,-120.300751879699,4,1,0,90,0,0
122105,-119.962475737589,4,1,0,90,0,0
122178,-119.626096672241,4,1,0,90,0,0
122325,-118.959107806691,4,1,0,90,0,0
122619,-117.647058823529,4,1,0,90,0,0
122840,-116.681893653788,4,1,0,90,0,0
122914,-116.363636363636,4,1,0,90,0,0
123061,-115.732435866871,4,1,0,90,0,0
123208,-115.107913669065,4,1,0,90,0,0
123281,-114.798173331466,4,1,0,90,0,0
123355,-114.490095461842,4,1,0,90,0,0
123502,-113.879003558719,4,1,0,90,0,0
123722,-112.974436144589,4,1,0,90,0,0
123796,-112.676056338028,4,1,0,90,0,0
123943,-112.084125861507,4,1,0,90,0,0
124090,-111.498257839721,4,1,0,90,0,0
124164,-111.207614607787,4,1,0,90,0,0
124237,-110.918605708759,4,1,0,90,0,0
124384,-110.344827586207,4,1,0,90,0,0
124678,-109.215017064846,4,1,0,90,0,0
124825,-108.658802666922,4,1,0,90,0,0
124899,-108.38275587001,4,1,0,90,0,0
124972,-108.108108108108,4,1,0,90,0,0
125119,-107.562967361093,4,1,0,90,0,0
125193,-107.292568594821,4,1,0,90,0,0
125267,-107.023411371237,4,1,0,90,0,0
125340,-106.755601199506,4,1,0,90,0,0
125414,-106.489241391942,4,1,0,90,0,0
125561,-105.960264900662,4,1,0,90,0,0
125634,-105.697742507616,4,1,0,90,0,0
125708,-105.436628895752,4,1,0,90,0,0
125781,-105.176691583025,4,1,0,90,0,0
125855,-104.918032786885,4,1,0,90,0,0
126002,-104.404622201434,4,1,0,90,0,0
126075,-104.149742333537,4,1,0,90,0,0
126149,-103.896103896104,4,1,0,90,0,0
126222,-103.643697841309,4,1,0,90,0,0
126296,-103.392622109272,4,1,0,90,0,0
126737,-101.910828025478,4,1,0,90,0,0
126835,-101.587301587302,4,1,0,90,0,0
126933,-101.26582278481,4,1,0,90,0,0
127031,-100.946372239748,4,1,0,90,0,0
127129,-100.62893081761,4,1,0,90,0,0
127227,-100.313479623824,4,1,0,90,0,0
127328,-100,4,1,0,90,0,1
143799,-100,4,1,0,90,0,0
146446,-100,4,1,0,90,0,1
162622,-100,4,1,0,90,0,0
165270,-100,4,1,0,90,0,1
172034,-100,4,1,0,90,0,0
174384,-111.111111111111,4,1,0,90,0,0
182767,-111.111111111111,4,1,0,90,0,0
183061,-116.666647222225,4,1,0,90,0,0
183134,-118.143400096169,4,1,0,90,0,0
183208,-119.658160566893,4,1,0,90,0,0
183355,-122.806974453693,4,1,0,90,0,0
183502,-126.126148851558,4,1,0,90,0,0
183649,-129.629557613209,4,1,0,90,0,0
183796,-133.333333333333,4,1,0,90,0,0
190855,-133.333333333333,4,1,0,90,0,0
191149,-129.640312951715,4,1,0,90,0,0
191296,-127.869552597222,4,1,0,90,0,0
191443,-126.146355001072,4,1,0,90,0,0
191737,-122.835786978178,4,1,0,90,0,0
192031,-119.694539535106,4,1,0,90,0,0
192325,-116.709946605199,4,1,0,90,0,0
192619,-113.870574704791,4,1,0,90,0,0
192767,-112.502137540613,4,1,0,90,0,0
192914,-111.166076560077,4,1,0,90,0,0
193061,-100.044519811316,4,1,0,90,0,0
206737,-100,4,1,0,90,0,0
206884,-98.3606234883202,4,1,0,90,0,0
206958,-97.5609756097561,4,1,0,90,0,0
207031,-96.774224765879,4,1,0,90,0,0
207105,-95.9999692800098,4,1,0,90,0,0
207178,-95.2380952380952,4,1,0,90,0,0
207328,-90.9458826525276,4,1,0,100,0,1
209534,-90.9090909090909,4,1,0,100,0,0
209678,-91.9485272144654,4,1,0,90,0,0
209752,-92.477252907716,4,1,0,90,0,0
209825,-93.0120078502135,4,1,0,90,0,0
209972,-94.100465420902,4,1,0,90,0,0
210046,-94.6542139582783,4,1,0,90,0,0
210119,-95.2146089678832,4,1,0,90,0,0
210193,-95.7816790719905,4,1,0,90,0,0
210267,-96.3554514060187,4,1,0,90,0,0
210414,-97.5239640760726,4,1,0,90,0,0
210561,-98.7212634742184,4,1,0,90,0,0
210708,-100,4,1,0,90,0,0
210855,-101.910828025478,4,1,0,90,0,0
210928,-102.893890675241,4,1,0,90,0,0
211002,-103.896103896104,4,1,0,90,0,0
211075,-104.918032786885,4,1,0,90,0,0
211149,-105.960264900662,4,1,0,90,0,0
211296,-108.108108108108,4,1,0,90,0,0
211590,-112.676056338028,4,1,0,90,0,0
211884,-117.647058823529,4,1,0,90,0,0
220119,-117.647058823529,4,1,0,90,0,0
220193,-116.510057730734,4,1,0,90,0,0
220267,-115.394823388223,4,1,0,90,0,0
220414,-113.227201702937,4,1,0,90,0,0
220561,-111.13951343121,4,1,0,90,0,0
220708,-109.127536260352,4,1,0,90,0,0
220855,-107.186995216244,4,1,0,90,0,0
220928,-106.242377109442,4,1,0,90,0,0
221002,-105.314263026584,4,1,0,90,0,0
221075,-104.402224184984,4,1,0,90,0,0
221149,-103.505846527741,4,1,0,90,0,0
221296,-101.758488438709,4,1,0,90,0,0
221443,-100.069147781117,4,1,0,90,0,0
221590,-153.846153846153,4,1,0,60,0,0
225119,-153.846153846154,4,1,0,60,0,0
225193,-152.183606477543,4,1,0,60,0,0
225267,-150.556834452222,4,1,0,60,0,0
225561,-144.382648670813,4,1,0,60,0,0
225708,-141.481738244636,4,1,0,60,0,0
226002,-136.016115189328,4,1,0,60,0,0
226075,-134.714970066334,4,1,0,60,0,0
226149,-133.333333333333,4,1,0,60,0,0
226443,-131.508348149941,4,1,0,60,0,0
226590,-130.614633279825,4,1,0,60,0,0
226737,-129.732815266958,4,1,0,60,0,0
226884,-128.862824234974,4,1,0,60,0,0
227031,-128.004423832888,4,1,0,60,0,0
227178,-127.157383965708,4,1,0,60,0,0
227325,-126.32148058881,4,1,0,60,0,0
227472,-125.496653004264,4,1,0,60,0,0
227619,-124.682371658201,4,1,0,60,0,0
227767,-123.878589072422,4,1,0,60,0,0
227914,-123.085103502264,4,1,0,60,0,0
228061,-122.301718339143,4,1,0,60,0,0
228208,-121.528389639462,4,1,0,60,0,0
228355,-120.764633352535,4,1,0,60,0,0
228428,-120.386343854698,4,1,0,60,0,0
228502,-120.010416904187,4,1,0,90,0,0
228722,-118.896592066982,4,1,0,90,0,0
228796,-118.529897388668,4,1,0,90,0,0
228943,-117.803252076577,4,1,0,90,0,0
229090,-117.085598939673,4,1,0,90,0,0
229237,-116.376501256866,4,1,0,90,0,0
229384,-115.675940792426,4,1,0,90,0,0
229531,-114.983764292482,4,1,0,90,0,0
229678,-114.299822149477,4,1,0,90,0,0
229825,-113.624097398576,4,1,0,90,0,0
229899,-113.289158114279,4,1,0,90,0,0
229972,-112.956187683483,4,1,0,90,0,0
230046,-112.625168796972,4,1,0,90,0,0
230119,-112.296084347835,4,1,0,90,0,0
230193,-111.968917428522,4,1,0,90,0,0
230267,-111.643651327945,4,1,0,90,0,0
230414,-110.998755703949,4,1,0,90,0,0
230561,-110.361389405748,4,1,0,90,0,0
230708,-109.731180553879,4,1,0,90,0,0
230855,-109.108128337345,4,1,0,90,0,0
231149,-107.883011662154,4,1,0,90,0,0
231296,-107.280712858881,4,1,0,90,0,0
231590,-106.096180431408,4,1,0,90,0,0
231737,-105.513613894033,4,1,0,90,0,0
232031,-104.3674653213,4,1,0,90,0,0
232178,-103.803785931681,4,1,0,90,0,0
232252,-103.52416978792,4,1,0,90,0,0
232325,-103.246056000661,4,1,0,90,0,0
232399,-102.96943249427,4,1,0,90,0,0
232472,-102.694287322185,4,1,0,90,0,0
232546,-102.420608665193,4,1,0,90,0,0
232619,-102.148384829739,4,1,0,90,0,0
232767,-101.60825546754,4,1,0,90,0,0
233061,-100.545054741755,4,1,0,90,0,0
233211,-100.021704709922,4,1,0,90,0,1
276593,-100.021704709922,4,1,0,90,0,0
277914,-100,4,1,0,90,0,0
278061,-100.943926658181,4,1,0,90,0,0
278134,-101.422552724514,4,1,0,90,0,0
278208,-101.905739229328,4,1,0,90,0,0
278355,-102.886162634215,4,1,0,90,0,0
278428,-103.383429497153,4,1,0,90,0,0
278502,-103.885634382821,4,1,0,90,0,0
278575,-104.392633220659,4,1,0,90,0,0
278649,-104.904604997446,4,1,0,90,0,0
278796,-105.943875172689,4,1,0,90,0,0
278943,-107.003943095303,4,1,0,90,0,0
279017,-107.541914461161,4,1,0,90,0,0
279090,-108.085322553624,4,1,0,90,0,0
279237,-109.188901166574,4,1,0,90,0,0
279384,-110.315126189473,4,1,0,90,0,0
279531,-111.46495040367,4,1,0,90,0,0
279678,-112.638996521708,4,1,0,90,0,0
279825,-113.837908478875,4,1,0,90,0,0
279972,-115.062749470424,4,1,0,90,0,0
280119,-116.314234536023,4,1,0,90,0,0
280267,-117.593104340361,4,1,0,90,0,0
296737,-117.647058823529,4,1,0,90,0,0
296884,-116.366886173403,4,1,0,90,0,0
297031,-115.114406452853,4,1,0,90,0,0
297178,-113.888471297827,4,1,0,90,0,0
297325,-112.688372701016,4,1,0,90,0,0
297472,-111.513426774151,4,1,0,90,0,0
297619,-110.362607382817,4,1,0,90,0,0
297767,-109.235298294291,4,1,0,90,0,0
297914,-108.1309032715,4,1,0,90,0,0
298061,-107.048501535076,4,1,0,90,0,0
298208,-105.987667275036,4,1,0,90,0,0
298355,-104.947541971146,4,1,0,90,0,0
298502,-103.927633110512,4,1,0,90,0,0
298575,-103.425130031245,4,1,0,90,0,0
298649,-102.927462899796,4,1,0,90,0,0
298722,-102.434457312489,4,1,0,90,0,0
298796,-101.946255972776,4,1,0,90,0,0
298869,-101.462686082566,4,1,0,90,0,0
298943,-100.983580069881,4,1,0,90,0,0
299017,-100.509078482514,4,1,0,90,0,0
299090,-100.039015215934,4,1,0,90,0,0
299240,-100.039015215934,4,1,0,25,0,0

[HitObjects]
256,192,564,12,0,2475,0:0:0:0:
352,96,2622,5,8,0:0:0:0:
160,96,3064,1,0,0:0:0:0:
352,96,3505,1,8,0:0:0:0:
160,96,3946,1,0,0:0:0:0:
160,96,4975,1,0,0:0:0:0:
352,96,5417,1,8,0:0:0:0:
160,96,5858,1,0,0:0:0:0:
160,96,6299,1,0,0:0:0:0:
352,96,7328,1,8,0:0:0:0:
160,96,7770,1,0,0:0:0:0:
352,96,8211,1,8,0:0:0:0:
160,96,8652,1,0,0:0:0:0:
352,96,9681,1,8,0:0:0:0:
160,96,10122,1,0,0:0:0:0:
352,96,10564,1,8,0:0:0:0:
160,96,11005,1,0,0:0:0:0:
352,96,12034,1,8,0:0:0:0:
160,96,12328,1,0,0:0:0:0:
160,96,12622,1,0,0:0:0:0:
352,96,12917,1,8,0:0:0:0:
160,96,13211,1,0,0:0:0:0:
160,96,13505,1,0,0:0:0:0:
352,96,13652,1,8,0:0:0:0:
160,96,14093,1,0,0:0:0:0:
352,96,14387,1,8,0:0:0:0:
160,96,14828,1,0,0:0:0:0:
352,96,15270,1,8,0:0:0:0:
160,96,15711,1,0,0:0:0:0:
352,96,15858,1,8,0:0:0:0:
352,96,16152,1,8,0:0:0:0:
160,96,16446,1,0,0:0:0:0:
352,96,16740,1,8,0:0:0:0:
160,96,17181,1,0,0:0:0:0:
352,96,17622,1,8,0:0:0:0:
160,96,18064,1,0,0:0:0:0:
352,96,18799,1,8,0:0:0:0:
352,96,19093,1,8,0:0:0:0:
352,96,19534,1,8,0:0:0:0:
352,96,19975,1,8,0:0:0:0:
352,96,20417,1,8,0:0:0:0:
352,96,20858,1,8,0:0:0:0:
352,96,21152,1,8,0:0:0:0:
160,96,21446,1,0,0:0:0:0:
160,96,21740,1,0,0:0:0:0:
352,96,22034,1,8,0:0:0:0:
160,96,22328,1,0,0:0:0:0:
352,96,22622,1,8,0:0:0:0:
160,96,22917,1,0,0:0:0:0:
352,96,23064,1,8,0:0:0:0:
160,96,23505,1,0,0:0:0:0:
352,96,23799,1,8,0:0:0:0:
160,96,24240,1,0,0:0:0:0:
352,96,24681,1,8,0:0:0:0:
160,96,25122,1,0,0:0:0:0:
352,96,25270,1,8,0:0:0:0:
160,96,25564,1,0,0:0:0:0:
160,96,25858,1,0,0:0:0:0:
352,96,26152,1,8,0:0:0:0:
160,96,26593,1,0,0:0:0:0:
352,96,27034,1,8,0:0:0:0:
160,96,27475,1,0,0:0:0:0:
160,96,28064,1,0,0:0:0:0:
352,96,28211,1,8,0:0:0:0:
352,96,28505,1,8,0:0:0:0:
352,96,28946,1,8,0:0:0:0:
352,96,29387,1,8,0:0:0:0:
160,96,29534,1,0,0:0:0:0:
160,96,29608,1,0,0:0:0:0:
352,288,29681,1,12,0:0:0:0:
160,96,29828,1,0,0:0:0:0:
160,96,30122,1,0,0:0:0:0:
352,288,30270,1,12,0:0:0:0:
352,288,30417,1,12,0:0:0:0:
160,288,30564,1,4,0:0:0:0:
352,288,30858,1,12,0:0:0:0:
160,96,31152,1,0,0:0:0:0:
352,96,31446,1,8,0:0:0:0:
160,96,31593,1,0,0:0:0:0:
160,96,31740,1,0,0:0:0:0:
352,96,31887,1,8,0:0:0:0:
160,96,32181,1,0,0:0:0:0:
160,96,32255,1,0,0:0:0:0:
352,96,32328,1,8,0:0:0:0:
160,96,32622,1,0,0:0:0:0:
352,288,32770,1,12,0:0:0:0:
160,96,33064,1,0,0:0:0:0:
160,96,33211,1,0,0:0:0:0:
160,96,33358,1,0,0:0:0:0:
352,288,33652,1,12,0:0:0:0:
160,96,33946,1,0,0:0:0:0:
160,96,34093,1,0,0:0:0:0:
352,96,34240,1,8,0:0:0:0:
352,288,34534,1,12,0:0:0:0:
160,96,34681,1,0,0:0:0:0:
352,96,34975,1,8,0:0:0:0:
160,96,35122,1,0,0:0:0:0:
352,96,35270,1,8,0:0:0:0:
160,288,35564,1,4,0:0:0:0:
352,96,35858,1,8,0:0:0:0:
352,96,35931,1,8,0:0:0:0:
160,96,36005,1,0,0:0:0:0:
352,96,36152,1,8,0:0:0:0:
160,96,36299,1,0,0:0:0:0:
160,96,36446,1,0,0:0:0:0:
352,96,36593,1,8,0:0:0:0:
160,96,36887,1,0,0:0:0:0:
160,96,36961,1,0,0:0:0:0:
352,288,37034,1,12,0:0:0:0:
160,96,37328,1,0,0:0:0:0:
352,288,37475,1,12,0:0:0:0:
160,96,37770,1,0,0:0:0:0:
352,96,37917,1,8,0:0:0:0:
160,96,38064,1,0,0:0:0:0:
160,96,38211,1,0,0:0:0:0:
352,288,38358,1,12,0:0:0:0:
160,96,38652,1,0,0:0:0:0:
352,96,38799,1,8,0:0:0:0:
160,96,38946,1,0,0:0:0:0:
352,288,39240,1,12,0:0:0:0:
160,96,39534,1,0,0:0:0:0:
160,96,39608,1,0,0:0:0:0:
352,96,39681,1,8,0:0:0:0:
352,96,39828,1,8,0:0:0:0:
352,96,39975,1,8,0:0:0:0:
352,96,40122,1,8,0:0:0:0:
160,288,40270,1,4,0:0:0:0:
256,192,40417,12,0,44093,0:0:0:0:
160,96,44240,5,0,0:0:0:0:
160,96,44314,1,0,0:0:0:0:
352,96,44387,1,8,0:0:0:0:
352,96,44485,1,8,0:0:0:0:
352,96,44583,1,8,0:0:0:0:
352,96,44681,1,8,0:0:0:0:
352,96,44779,1,8,0:0:0:0:
352,96,44877,1,8,0:0:0:0:
160,288,44975,1,4,0:0:0:0:
160,96,46446,1,0,0:0:0:0:
352,96,46740,1,8,0:0:0:0:
160,96,47034,1,0,0:0:0:0:
160,96,47181,1,0,0:0:0:0:
160,96,47255,1,0,0:0:0:0:
352,96,47328,1,8,0:0:0:0:
160,96,47622,1,0,0:0:0:0:
160,96,47770,1,0,0:0:0:0:
160,96,47917,1,0,0:0:0:0:
160,96,48064,1,0,0:0:0:0:
352,96,48211,1,8,0:0:0:0:
352,96,48358,1,8,0:0:0:0:
352,96,48505,1,8,0:0:0:0:
352,96,48652,1,8,0:0:0:0:
160,96,48799,1,0,0:0:0:0:
160,96,48946,1,0,0:0:0:0:
160,96,49020,1,0,0:0:0:0:
352,96,49093,1,8,0:0:0:0:
352,96,49240,1,8,0:0:0:0:
160,96,49387,1,0,0:0:0:0:
160,96,49534,1,0,0:0:0:0:
160,96,49608,1,0,0:0:0:0:
352,288,49681,1,12,0:0:0:0:
160,96,49975,1,0,0:0:0:0:
352,288,50122,1,12,0:0:0:0:
160,96,50417,1,0,0:0:0:0:
352,288,50564,1,12,0:0:0:0:
352,96,50858,1,8,0:0:0:0:
352,96,50931,1,8,0:0:0:0:
352,96,51005,1,8,0:0:0:0:
352,96,51078,1,8,0:0:0:0:
160,96,51152,1,0,0:0:0:0:
160,96,51225,1,0,0:0:0:0:
160,96,51299,1,0,0:0:0:0:
160,96,51372,1,0,0:0:0:0:
352,288,51446,1,12,0:0:0:0:
352,288,51593,1,12,0:0:0:0:
160,96,51887,1,0,0:0:0:0:
352,288,52034,1,12,0:0:0:0:
160,96,52328,1,0,0:0:0:0:
160,96,52475,1,0,0:0:0:0:
160,96,52549,1,0,0:0:0:0:
352,288,52622,1,12,0:0:0:0:
160,96,52917,1,0,0:0:0:0:
352,96,53064,1,8,0:0:0:0:
160,96,53358,1,0,0:0:0:0:
352,96,53505,1,8,0:0:0:0:
160,96,53652,1,0,0:0:0:0:
160,96,53725,1,0,0:0:0:0:
352,288,53799,1,12,0:0:0:0:
160,96,54093,1,0,0:0:0:0:
160,96,54240,1,0,0:0:0:0:
352,288,54387,1,12,0:0:0:0:
160,96,54534,1,0,0:0:0:0:
160,96,54828,1,0,0:0:0:0:
160,96,54902,1,0,0:0:0:0:
352,288,54975,1,12,0:0:0:0:
160,96,55122,1,0,0:0:0:0:
352,96,55417,1,8,0:0:0:0:
160,96,55711,1,0,0:0:0:0:
352,96,55858,1,8,0:0:0:0:
160,96,56005,1,0,0:0:0:0:
160,96,56078,1,0,0:0:0:0:
352,96,56152,1,8,0:0:0:0:
352,96,56250,1,8,0:0:0:0:
352,96,56348,1,8,0:0:0:0:
352,96,56446,1,8,0:0:0:0:
352,96,56544,1,8,0:0:0:0:
352,96,56642,1,8,0:0:0:0:
160,96,56740,1,0,0:0:0:0:
160,96,56887,1,0,0:0:0:0:
160,96,56961,1,0,0:0:0:0:
352,288,57034,1,12,0:0:0:0:
160,288,57328,1,4,0:0:0:0:
160,96,57622,1,0,0:0:0:0:
352,288,57770,1,12,0:0:0:0:
352,288,58064,1,12,0:0:0:0:
160,96,58211,1,0,0:0:0:0:
352,96,58505,1,8,0:0:0:0:
160,96,58603,1,0,0:0:0:0:
160,96,58701,1,0,0:0:0:0:
352,96,58799,1,8,0:0:0:0:
352,96,58897,1,8,0:0:0:0:
352,96,58995,1,8,0:0:0:0:
160,288,59093,1,4,0:0:0:0:
160,96,59534,1,0,0:0:0:0:
160,96,59608,1,0,0:0:0:0:
352,288,59681,1,12,0:0:0:0:
160,96,60122,1,0,0:0:0:0:
160,96,60417,1,0,0:0:0:0:
160,96,60711,1,0,0:0:0:0:
160,96,60784,1,0,0:0:0:0:
352,96,60858,1,8,0:0:0:0:
352,96,60956,1,8,0:0:0:0:
352,96,61054,1,8,0:0:0:0:
352,96,61152,1,8,0:0:0:0:
352,96,61250,1,8,0:0:0:0:
352,96,61348,1,8,0:0:0:0:
160,288,61446,1,4,0:0:0:0:
160,96,61887,1,0,0:0:0:0:
352,288,62034,1,12,0:0:0:0:
160,96,62328,1,0,0:0:0:0:
160,96,62475,1,0,0:0:0:0:
160,96,62770,1,0,0:0:0:0:
352,96,62917,1,8,0:0:0:0:
160,96,63064,1,0,0:0:0:0:
160,96,63137,1,0,0:0:0:0:
352,288,63211,1,12,0:0:0:0:
160,96,63505,1,0,0:0:0:0:
352,288,63799,1,12,0:0:0:0:
160,96,63946,1,0,0:0:0:0:
160,96,64240,1,0,0:0:0:0:
352,288,64387,1,12,0:0:0:0:
160,96,64534,1,0,0:0:0:0:
160,96,64828,1,0,0:0:0:0:
352,288,64975,1,12,0:0:0:0:
160,96,65122,1,0,0:0:0:0:
160,96,65417,1,0,0:0:0:0:
352,96,65564,1,8,0:0:0:0:
160,96,65711,1,0,0:0:0:0:
352,288,65858,1,12,0:0:0:0:
352,96,66152,1,8,0:0:0:0:
160,96,66299,1,0,0:0:0:0:
160,96,66446,1,0,0:0:0:0:
352,96,66593,1,8,0:0:0:0:
160,96,66740,1,0,0:0:0:0:
160,96,66887,1,0,0:0:0:0:
352,96,67034,1,8,0:0:0:0:
160,96,67181,1,0,0:0:0:0:
352,96,67328,1,8,0:0:0:0:
160,96,67475,1,0,0:0:0:0:
352,96,67622,1,8,0:0:0:0:
160,96,67770,1,0,0:0:0:0:
352,96,67917,1,8,0:0:0:0:
352,96,67990,1,8,0:0:0:0:
160,96,68064,1,0,0:0:0:0:
160,96,68137,1,0,0:0:0:0:
352,96,68211,1,8,0:0:0:0:
160,96,68358,1,0,0:0:0:0:
352,288,68505,1,12,0:0:0:0:
160,96,68799,1,0,0:0:0:0:
352,288,68946,1,12,0:0:0:0:
160,288,69240,1,4,0:0:0:0:
352,288,69534,1,12,0:0:0:0:
160,96,69828,1,0,0:0:0:0:
352,96,69975,1,8,0:0:0:0:
352,96,70049,1,8,0:0:0:0:
352,96,70122,1,8,0:0:0:0:
352,96,70196,1,8,0:0:0:0:
352,96,70270,1,8,0:0:0:0:
160,96,70417,1,0,0:0:0:0:
160,96,70490,1,0,0:0:0:0:
352,96,70564,1,8,0:0:0:0:
352,96,70711,1,8,0:0:0:0:
352,96,70784,1,8,0:0:0:0:
160,288,70858,1,4,0:0:0:0:
160,96,71152,1,0,0:0:0:0:
352,288,71446,1,12,0:0:0:0:
160,96,71740,1,0,0:0:0:0:
352,288,71887,1,12,0:0:0:0:
160,96,72181,1,0,0:0:0:0:
352,96,72328,1,8,0:0:0:0:
160,96,72475,1,0,0:0:0:0:
160,96,72549,1,0,0:0:0:0:
352,96,72622,1,8,0:0:0:0:
352,288,72770,1,12,0:0:0:0:
160,96,72917,1,0,0:0:0:0:
160,96,73064,1,0,0:0:0:0:
352,288,73211,1,12,0:0:0:0:
160,96,73505,1,0,0:0:0:0:
160,96,73652,1,0,0:0:0:0:
160,96,73725,1,0,0:0:0:0:
352,288,73799,1,12,0:0:0:0:
160,96,74093,1,0,0:0:0:0:
352,96,74240,1,8,0:0:0:0:
160,96,74534,1,0,0:0:0:0:
352,96,74681,1,8,0:0:0:0:
352,96,74975,1,8,0:0:0:0:
352,96,75073,1,8,0:0:0:0:
352,96,75171,1,8,0:0:0:0:
160,96,75270,1,0,0:0:0:0:
160,96,75368,1,0,0:0:0:0:
160,96,75466,1,0,0:0:0:0:
352,288,75564,1,12,0:0:0:0:
160,96,75711,1,0,0:0:0:0:
352,288,75858,1,12,0:0:0:0:
160,288,76005,1,4,0:0:0:0:
352,96,76152,1,8,0:0:0:0:
352,96,76299,1,8,0:0:0:0:
160,96,76446,1,0,0:0:0:0:
352,288,76593,1,12,0:0:0:0:
160,96,77181,1,0,0:0:0:0:
352,96,77328,1,8,0:0:0:0:
352,96,77402,1,8,0:0:0:0:
160,96,77475,1,0,0:0:0:0:
352,96,77622,1,8,0:0:0:0:
160,96,77770,1,0,0:0:0:0:
160,96,77843,1,0,0:0:0:0:
352,288,77917,1,12,0:0:0:0:
160,96,78064,1,0,0:0:0:0:
352,288,78358,1,12,0:0:0:0:
160,96,78652,1,0,0:0:0:0:
352,96,78946,1,8,0:0:0:0:
160,96,79240,1,0,0:0:0:0:
160,96,79314,1,0,0:0:0:0:
352,96,79387,1,8,0:0:0:0:
160,96,79461,1,0,0:0:0:0:
352,96,79534,1,8,0:0:0:0:
352,96,79608,1,8,0:0:0:0:
160,96,79681,1,0,0:0:0:0:
352,288,79828,1,12,0:0:0:0:
160,96,79975,1,0,0:0:0:0:
160,96,80122,1,0,0:0:0:0:
352,288,80270,1,12,0:0:0:0:
160,96,80564,1,0,0:0:0:0:
160,96,80858,1,0,0:0:0:0:
160,96,81152,1,0,0:0:0:0:
160,96,81446,1,0,0:0:0:0:
160,96,81740,1,0,0:0:0:0:
160,96,82034,1,0,0:0:0:0:
160,96,82328,1,0,0:0:0:0:
352,288,82622,1,12,0:0:0:0:
160,96,82917,1,0,0:0:0:0:
160,96,83211,1,0,0:0:0:0:
160,96,83505,1,0,0:0:0:0:
160,96,83799,1,0,0:0:0:0:
352,96,83946,1,8,0:0:0:0:
160,96,84093,1,0,0:0:0:0:
160,96,84387,1,0,0:0:0:0:
352,96,84534,1,8,0:0:0:0:
160,96,84681,1,0,0:0:0:0:
352,288,84975,1,12,0:0:0:0:
160,96,85270,1,0,0:0:0:0:
160,96,85564,1,0,0:0:0:0:
160,96,85858,1,0,0:0:0:0:
160,96,86152,1,0,0:0:0:0:
352,96,86299,1,8,0:0:0:0:
160,96,86446,1,0,0:0:0:0:
352,96,86593,1,8,0:0:0:0:
160,96,86740,1,0,0:0:0:0:
352,96,86887,1,8,0:0:0:0:
352,96,87034,1,8,0:0:0:0:
352,96,87181,1,8,0:0:0:0:
352,288,87328,1,12,0:0:0:0:
160,96,87917,1,0,0:0:0:0:
352,96,88505,1,8,0:0:0:0:
160,96,88578,1,0,0:0:0:0:
160,96,88652,1,0,0:0:0:0:
160,96,88725,1,0,0:0:0:0:
352,96,88799,1,8,0:0:0:0:
352,96,88872,1,8,0:0:0:0:
160,96,88946,1,0,0:0:0:0:
160,96,89020,1,0,0:0:0:0:
352,96,89093,1,8,0:0:0:0:
160,96,89167,1,0,0:0:0:0:
352,96,89240,1,8,0:0:0:0:
160,96,89314,1,0,0:0:0:0:
352,96,89387,1,8,0:0:0:0:
352,96,89461,1,8,0:0:0:0:
160,96,89534,1,0,0:0:0:0:
160,96,89608,1,0,0:0:0:0:
352,288,89681,1,12,0:0:0:0:
352,96,89975,1,8,0:0:0:0:
160,96,90122,1,0,0:0:0:0:
352,96,90270,1,8,0:0:0:0:
160,96,90417,1,0,0:0:0:0:
352,96,90564,1,8,0:0:0:0:
352,96,90711,1,8,0:0:0:0:
160,96,90858,1,0,0:0:0:0:
352,96,91005,1,8,0:0:0:0:
160,96,91152,1,0,0:0:0:0:
160,96,91299,1,0,0:0:0:0:
352,96,91446,1,8,0:0:0:0:
160,96,91593,1,0,0:0:0:0:
352,96,91740,1,8,0:0:0:0:
352,96,91887,1,8,0:0:0:0:
160,288,92034,1,4,0:0:0:0:
352,96,92328,1,8,0:0:0:0:
160,96,92475,1,0,0:0:0:0:
352,96,92622,1,8,0:0:0:0:
160,96,92770,1,0,0:0:0:0:
352,96,92917,1,8,0:0:0:0:
352,96,93064,1,8,0:0:0:0:
160,96,93211,1,0,0:0:0:0:
352,96,93358,1,8,0:0:0:0:
160,96,93505,1,0,0:0:0:0:
160,96,93652,1,0,0:0:0:0:
352,96,93799,1,8,0:0:0:0:
352,96,93946,1,8,0:0:0:0:
160,96,94093,1,0,0:0:0:0:
352,96,94240,1,8,0:0:0:0:
160,288,94387,1,4,0:0:0:0:
160,96,94681,1,0,0:0:0:0:
352,96,94828,1,8,0:0:0:0:
160,96,95122,1,0,0:0:0:0:
352,96,95270,1,8,0:0:0:0:
352,96,95417,1,8,0:0:0:0:
160,96,95564,1,0,0:0:0:0:
352,96,95858,1,8,0:0:0:0:
160,96,96152,1,0,0:0:0:0:
160,96,96299,1,0,0:0:0:0:
352,96,96446,1,8,0:0:0:0:
352,96,96593,1,8,0:0:0:0:
160,288,96740,1,4,0:0:0:0:
352,96,97034,1,8,0:0:0:0:
160,96,97181,1,0,0:0:0:0:
160,96,97475,1,0,0:0:0:0:
352,96,97622,1,8,0:0:0:0:
160,288,97770,1,4,0:0:0:0:
160,96,98064,1,0,0:0:0:0:
352,96,98211,1,8,0:0:0:0:
352,96,98284,1,8,0:0:0:0:
160,96,98358,1,0,0:0:0:0:
160,96,98431,1,0,0:0:0:0:
352,96,98505,1,8,0:0:0:0:
352,96,98578,1,8,0:0:0:0:
160,96,98652,1,0,0:0:0:0:
160,96,98725,1,0,0:0:0:0:
352,96,98799,1,8,0:0:0:0:
352,96,98872,1,8,0:0:0:0:
352,96,98946,1,8,0:0:0:0:
352,96,99020,1,8,0:0:0:0:
160,96,99093,1,0,0:0:0:0:
352,288,99387,1,12,0:0:0:0:
352,96,99681,1,8,0:0:0:0:
160,96,99828,1,0,0:0:0:0:
352,96,99975,1,8,0:0:0:0:
352,96,100122,1,8,0:0:0:0:
160,96,100270,1,0,0:0:0:0:
352,96,100417,1,8,0:0:0:0:
160,96,100564,1,0,0:0:0:0:
160,96,100711,1,0,0:0:0:0:
352,96,100858,1,8,0:0:0:0:
160,96,101005,1,0,0:0:0:0:
352,96,101152,1,8,0:0:0:0:
352,96,101299,1,8,0:0:0:0:
160,288,101446,1,4,0:0:0:0:
352,96,101740,1,8,0:0:0:0:
160,96,101887,1,0,0:0:0:0:
352,96,102034,1,8,0:0:0:0:
160,96,102181,1,0,0:0:0:0:
352,96,102328,1,8,0:0:0:0:
352,96,102475,1,8,0:0:0:0:
160,96,102622,1,0,0:0:0:0:
352,96,102770,1,8,0:0:0:0:
160,96,102917,1,0,0:0:0:0:
160,96,103064,1,0,0:0:0:0:
352,96,103211,1,8,0:0:0:0:
352,96,103358,1,8,0:0:0:0:
160,96,103505,1,0,0:0:0:0:
352,96,103652,1,8,0:0:0:0:
160,288,103799,1,4,0:0:0:0:
160,96,104093,1,0,0:0:0:0:
352,96,104240,1,8,0:0:0:0:
352,96,104534,1,8,0:0:0:0:
160,96,104681,1,0,0:0:0:0:
352,96,104828,1,8,0:0:0:0:
160,96,105122,1,0,0:0:0:0:
352,96,105270,1,8,0:0:0:0:
352,96,105417,1,8,0:0:0:0:
160,96,105564,1,0,0:0:0:0:
352,96,105858,1,8,0:0:0:0:
160,288,106152,1,4,0:0:0:0:
352,96,106446,1,8,0:0:0:0:
160,96,106593,1,0,0:0:0:0:
160,96,106887,1,0,0:0:0:0:
352,96,107034,1,8,0:0:0:0:
160,288,107181,1,4,0:0:0:0:
160,96,107475,1,0,0:0:0:0:
160,96,107549,1,0,0:0:0:0:
160,96,107622,1,0,0:0:0:0:
160,96,107770,1,0,0:0:0:0:
352,96,107917,1,8,0:0:0:0:
352,96,108015,1,8,0:0:0:0:
352,96,108113,1,8,0:0:0:0:
160,96,108211,1,0,0:0:0:0:
160,96,108309,1,0,0:0:0:0:
160,96,108407,1,0,0:0:0:0:
352,288,108505,1,12,0:0:0:0:
160,96,108946,1,0,0:0:0:0:
160,96,109387,1,0,0:0:0:0:
352,96,109681,1,8,0:0:0:0:
160,96,110564,1,0,0:0:0:0:
352,96,110858,1,8,0:0:0:0:
160,96,111299,1,0,0:0:0:0:
352,96,111740,1,8,0:0:0:0:
160,96,112034,1,0,0:0:0:0:
160,96,112917,1,0,0:0:0:0:
160,96,113064,1,0,0:0:0:0:
160,96,113137,1,0,0:0:0:0:
352,288,113211,1,12,0:0:0:0:
160,96,113431,1,0,0:0:0:0:
160,96,113505,1,0,0:0:0:0:
352,288,113652,1,12,0:0:0:0:
160,96,113799,1,0,0:0:0:0:
160,96,113946,1,0,0:0:0:0:
160,96,114020,1,0,0:0:0:0:
352,288,114093,1,12,0:0:0:0:
160,96,114387,1,0,0:0:0:0:
352,288,114534,1,12,0:0:0:0:
160,96,114755,1,0,0:0:0:0:
160,96,114828,1,0,0:0:0:0:
352,96,114975,1,8,0:0:0:0:
160,96,115049,1,0,0:0:0:0:
160,96,115122,1,0,0:0:0:0:
160,96,115196,1,0,0:0:0:0:
352,96,115270,1,8,0:0:0:0:
160,96,115343,1,0,0:0:0:0:
160,96,115417,1,0,0:0:0:0:
160,96,115490,1,0,0:0:0:0:
352,96,115564,1,8,0:0:0:0:
352,96,115711,1,8,0:0:0:0:
256,192,115858,12,0,117328,0:0:0:0:
160,96,117475,5,0,0:0:0:0:
352,96,117622,1,8,0:0:0:0:
160,96,117917,1,0,0:0:0:0:
160,96,118137,1,0,0:0:0:0:
352,96,118211,1,8,0:0:0:0:
160,96,118358,1,0,0:0:0:0:
160,96,118505,1,0,0:0:0:0:
160,96,118578,1,0,0:0:0:0:
352,96,118652,1,8,0:0:0:0:
160,96,118799,1,0,0:0:0:0:
160,96,118872,1,0,0:0:0:0:
352,96,118946,1,8,0:0:0:0:
160,96,119093,1,0,0:0:0:0:
160,96,119314,1,0,0:0:0:0:
352,96,119387,1,8,0:0:0:0:
160,96,119534,1,0,0:0:0:0:
160,96,119681,1,0,0:0:0:0:
160,96,119755,1,0,0:0:0:0:
352,96,119828,1,8,0:0:0:0:
160,96,119975,1,0,0:0:0:0:
160,96,120049,1,0,0:0:0:0:
352,96,120122,1,8,0:0:0:0:
160,96,120270,1,0,0:0:0:0:
160,96,120417,1,0,0:0:0:0:
352,96,120564,1,8,0:0:0:0:
160,96,120711,1,0,0:0:0:0:
160,96,120858,1,0,0:0:0:0:
160,96,120931,1,0,0:0:0:0:
352,96,121005,1,8,0:0:0:0:
160,96,121152,1,0,0:0:0:0:
352,96,121299,1,8,0:0:0:0:
352,96,121372,1,8,0:0:0:0:
160,96,121446,1,0,0:0:0:0:
160,96,121593,1,0,0:0:0:0:
352,96,121740,1,8,0:0:0:0:
160,96,121887,1,0,0:0:0:0:
160,96,121961,1,0,0:0:0:0:
352,96,122034,1,8,0:0:0:0:
352,96,122108,1,8,0:0:0:0:
160,96,122181,1,0,0:0:0:0:
352,288,122328,1,12,0:0:0:0:
352,288,122622,1,12,0:0:0:0:
160,96,122843,1,0,0:0:0:0:
160,96,122917,1,0,0:0:0:0:
352,288,123064,1,12,0:0:0:0:
160,96,123211,1,0,0:0:0:0:
160,96,123284,1,0,0:0:0:0:
160,96,123358,1,0,0:0:0:0:
352,288,123505,1,12,0:0:0:0:
160,96,123725,1,0,0:0:0:0:
160,96,123799,1,0,0:0:0:0:
352,96,123946,1,8,0:0:0:0:
160,96,124093,1,0,0:0:0:0:
160,96,124167,1,0,0:0:0:0:
160,96,124240,1,0,0:0:0:0:
352,96,124387,1,8,0:0:0:0:
352,96,124681,1,8,0:0:0:0:
160,96,124828,1,0,0:0:0:0:
160,96,124902,1,0,0:0:0:0:
352,288,124975,1,12,0:0:0:0:
160,96,125122,1,0,0:0:0:0:
160,96,125196,1,0,0:0:0:0:
160,96,125270,1,0,0:0:0:0:
160,96,125343,1,0,0:0:0:0:
352,288,125417,1,12,0:0:0:0:
160,96,125564,1,0,0:0:0:0:
160,96,125637,1,0,0:0:0:0:
160,96,125711,1,0,0:0:0:0:
160,96,125784,1,0,0:0:0:0:
352,288,125858,1,12,0:0:0:0:
160,96,126005,1,0,0:0:0:0:
160,96,126078,1,0,0:0:0:0:
160,96,126152,1,0,0:0:0:0:
160,96,126225,1,0,0:0:0:0:
352,288,126299,1,12,0:0:0:0:
352,96,126740,1,8,0:0:0:0:
352,96,126838,1,8,0:0:0:0:
352,96,126936,1,8,0:0:0:0:
352,96,127034,1,8,0:0:0:0:
352,96,127132,1,8,0:0:0:0:
352,96,127230,1,8,0:0:0:0:
160,288,127328,1,4,0:0:0:0:
352,288,127622,1,12,0:0:0:0:
352,96,127917,1,8,0:0:0:0:
160,96,128064,1,0,0:0:0:0:
160,96,128211,1,0,0:0:0:0:
352,96,128358,1,8,0:0:0:0:
160,96,128505,1,0,0:0:0:0:
160,96,128652,1,0,0:0:0:0:
352,96,128799,1,8,0:0:0:0:
160,96,128946,1,0,0:0:0:0:
160,96,129020,1,0,0:0:0:0:
352,96,129093,1,8,0:0:0:0:
160,96,129240,1,0,0:0:0:0:
352,96,129387,1,8,0:0:0:0:
160,96,129534,1,0,0:0:0:0:
352,96,129681,1,8,0:0:0:0:
352,96,129828,1,8,0:0:0:0:
160,96,129975,1,0,0:0:0:0:
352,96,130122,1,8,0:0:0:0:
160,96,130270,1,0,0:0:0:0:
352,96,130417,1,8,0:0:0:0:
160,96,130564,1,0,0:0:0:0:
352,96,130711,1,8,0:0:0:0:
160,96,130858,1,0,0:0:0:0:
160,96,131005,1,0,0:0:0:0:
352,96,131152,1,8,0:0:0:0:
160,96,131299,1,0,0:0:0:0:
160,96,131372,1,0,0:0:0:0:
352,96,131446,1,8,0:0:0:0:
160,96,131593,1,0,0:0:0:0:
352,96,131740,1,8,0:0:0:0:
352,96,131814,1,8,0:0:0:0:
352,96,131887,1,8,0:0:0:0:
352,96,131961,1,8,0:0:0:0:
160,288,132034,1,4,0:0:0:0:
160,96,132181,1,0,0:0:0:0:
160,96,132328,1,0,0:0:0:0:
352,96,132475,1,8,0:0:0:0:
160,96,132622,1,0,0:0:0:0:
352,96,132770,1,8,0:0:0:0:
160,96,132917,1,0,0:0:0:0:
352,96,133064,1,8,0:0:0:0:
160,96,133211,1,0,0:0:0:0:
352,96,133358,1,8,0:0:0:0:
352,96,133505,1,8,0:0:0:0:
160,96,133652,1,0,0:0:0:0:
352,96,133799,1,8,0:0:0:0:
160,96,133872,1,0,0:0:0:0:
160,96,133946,1,0,0:0:0:0:
160,96,134020,1,0,0:0:0:0:
352,96,134093,1,8,0:0:0:0:
160,96,134167,1,0,0:0:0:0:
352,96,134240,1,8,0:0:0:0:
352,96,134314,1,8,0:0:0:0:
160,288,134387,1,4,0:0:0:0:
160,96,134534,1,0,0:0:0:0:
160,96,134681,1,0,0:0:0:0:
160,96,134828,1,0,0:0:0:0:
352,288,134975,1,12,0:0:0:0:
352,96,135122,1,8,0:0:0:0:
352,96,135270,1,8,0:0:0:0:
352,96,135417,1,8,0:0:0:0:
160,96,135564,1,0,0:0:0:0:
160,96,135637,1,0,0:0:0:0:
160,96,135711,1,0,0:0:0:0:
160,96,135784,1,0,0:0:0:0:
160,96,135858,1,0,0:0:0:0:
352,288,136005,1,12,0:0:0:0:
160,96,136299,1,0,0:0:0:0:
352,96,136446,1,8,0:0:0:0:
352,96,136593,1,8,0:0:0:0:
352,96,136667,1,8,0:0:0:0:
160,288,136740,1,4,0:0:0:0:
160,96,137034,1,0,0:0:0:0:
160,96,137181,1,0,0:0:0:0:
352,96,137328,1,8,0:0:0:0:
160,96,137475,1,0,0:0:0:0:
160,96,137622,1,0,0:0:0:0:
352,96,137770,1,8,0:0:0:0:
160,96,137917,1,0,0:0:0:0:
160,96,138064,1,0,0:0:0:0:
352,96,138211,1,8,0:0:0:0:
160,96,138358,1,0,0:0:0:0:
352,96,138505,1,8,0:0:0:0:
160,96,138652,1,0,0:0:0:0:
352,96,138799,1,8,0:0:0:0:
160,96,138946,1,0,0:0:0:0:
352,288,139093,1,12,0:0:0:0:
160,96,139387,1,0,0:0:0:0:
160,96,139534,1,0,0:0:0:0:
352,96,139681,1,8,0:0:0:0:
352,96,139828,1,8,0:0:0:0:
352,96,139902,1,8,0:0:0:0:
160,96,139975,1,0,0:0:0:0:
160,96,140122,1,0,0:0:0:0:
352,96,140270,1,8,0:0:0:0:
352,96,140417,1,8,0:0:0:0:
352,96,140490,1,8,0:0:0:0:
160,96,140564,1,0,0:0:0:0:
160,96,140711,1,0,0:0:0:0:
352,96,140858,1,8,0:0:0:0:
352,96,140931,1,8,0:0:0:0:
352,96,141005,1,8,0:0:0:0:
352,96,141078,1,8,0:0:0:0:
160,96,141152,1,0,0:0:0:0:
352,288,141446,1,12,0:0:0:0:
160,96,141593,1,0,0:0:0:0:
160,96,141740,1,0,0:0:0:0:
352,288,141887,1,12,0:0:0:0:
160,96,142034,1,0,0:0:0:0:
160,96,142181,1,0,0:0:0:0:
352,288,142328,1,12,0:0:0:0:
160,96,142475,1,0,0:0:0:0:
352,288,142622,1,12,0:0:0:0:
160,96,142770,1,0,0:0:0:0:
160,96,142917,1,0,0:0:0:0:
352,288,143064,1,12,0:0:0:0:
160,96,143211,1,0,0:0:0:0:
160,96,143284,1,0,0:0:0:0:
160,96,143358,1,0,0:0:0:0:
160,96,143431,1,0,0:0:0:0:
352,288,143505,1,12,0:0:0:0:
160,96,143652,1,0,0:0:0:0:
352,288,143799,1,12,0:0:0:0:
160,96,144093,1,0,0:0:0:0:
352,288,144240,1,12,0:0:0:0:
160,96,144534,1,0,0:0:0:0:
160,96,144681,1,0,0:0:0:0:
352,288,144828,1,12,0:0:0:0:
160,96,145122,1,0,0:0:0:0:
352,96,145270,1,8,0:0:0:0:
352,96,145343,1,8,0:0:0:0:
352,96,145417,1,8,0:0:0:0:
352,96,145490,1,8,0:0:0:0:
352,96,145564,1,8,0:0:0:0:
160,96,145711,1,0,0:0:0:0:
160,96,145784,1,0,0:0:0:0:
352,96,145858,1,8,0:0:0:0:
352,96,146005,1,8,0:0:0:0:
352,96,146078,1,8,0:0:0:0:
160,96,146152,1,0,0:0:0:0:
160,288,146446,1,4,0:0:0:0:
352,96,146740,1,8,0:0:0:0:
160,96,146887,1,0,0:0:0:0:
160,96,147034,1,0,0:0:0:0:
352,96,147181,1,8,0:0:0:0:
160,96,147328,1,0,0:0:0:0:
160,96,147475,1,0,0:0:0:0:
352,96,147622,1,8,0:0:0:0:
160,96,147770,1,0,0:0:0:0:
160,96,147843,1,0,0:0:0:0:
352,96,147917,1,8,0:0:0:0:
352,96,148064,1,8,0:0:0:0:
160,96,148211,1,0,0:0:0:0:
160,96,148358,1,0,0:0:0:0:
352,96,148505,1,8,0:0:0:0:
160,96,148652,1,0,0:0:0:0:
352,96,148799,1,8,0:0:0:0:
352,96,148946,1,8,0:0:0:0:
352,96,149020,1,8,0:0:0:0:
160,96,149093,1,0,0:0:0:0:
352,96,149240,1,8,0:0:0:0:
160,96,149387,1,0,0:0:0:0:
352,96,149534,1,8,0:0:0:0:
160,96,149681,1,0,0:0:0:0:
160,96,149828,1,0,0:0:0:0:
352,96,149975,1,8,0:0:0:0:
352,96,150270,1,8,0:0:0:0:
352,96,150343,1,8,0:0:0:0:
352,96,150417,1,8,0:0:0:0:
352,96,150490,1,8,0:0:0:0:
160,288,150564,1,4,0:0:0:0:
352,288,150858,1,12,0:0:0:0:
352,96,151152,1,8,0:0:0:0:
160,96,151299,1,0,0:0:0:0:
352,96,151446,1,8,0:0:0:0:
352,96,151593,1,8,0:0:0:0:
160,96,151740,1,0,0:0:0:0:
352,96,151887,1,8,0:0:0:0:
160,96,152034,1,0,0:0:0:0:
160,96,152181,1,0,0:0:0:0:
352,96,152328,1,8,0:0:0:0:
160,96,152475,1,0,0:0:0:0:
352,96,152622,1,8,0:0:0:0:
352,96,152696,1,8,0:0:0:0:
160,96,152770,1,0,0:0:0:0:
352,96,152917,1,8,0:0:0:0:
160,96,153064,1,0,0:0:0:0:
160,96,153137,1,0,0:0:0:0:
352,288,153211,1,12,0:0:0:0:
160,96,153358,1,0,0:0:0:0:
352,96,153505,1,8,0:0:0:0:
160,96,153652,1,0,0:0:0:0:
160,96,153799,1,0,0:0:0:0:
352,96,153946,1,8,0:0:0:0:
352,96,154093,1,8,0:0:0:0:
352,96,154240,1,8,0:0:0:0:
160,288,154387,1,4,0:0:0:0:
160,96,154681,1,0,0:0:0:0:
352,96,154828,1,8,0:0:0:0:
352,96,154902,1,8,0:0:0:0:
160,96,154975,1,0,0:0:0:0:
352,96,155122,1,8,0:0:0:0:
160,96,155270,1,0,0:0:0:0:
160,96,155343,1,0,0:0:0:0:
160,96,155417,1,0,0:0:0:0:
160,96,155490,1,0,0:0:0:0:
352,96,155564,1,8,0:0:0:0:
160,288,155858,1,4,0:0:0:0:
352,96,156152,1,8,0:0:0:0:
160,96,156299,1,0,0:0:0:0:
160,96,156446,1,0,0:0:0:0:
352,96,156593,1,8,0:0:0:0:
160,96,156887,1,0,0:0:0:0:
352,96,157034,1,8,0:0:0:0:
160,96,157181,1,0,0:0:0:0:
160,96,157255,1,0,0:0:0:0:
352,96,157328,1,8,0:0:0:0:
160,96,157475,1,0,0:0:0:0:
352,96,157622,1,8,0:0:0:0:
160,96,157770,1,0,0:0:0:0:
352,96,157917,1,8,0:0:0:0:
160,96,158211,1,0,0:0:0:0:
352,96,158358,1,8,0:0:0:0:
352,96,158652,1,8,0:0:0:0:
160,96,158799,1,0,0:0:0:0:
352,96,158946,1,8,0:0:0:0:
160,96,159240,1,0,0:0:0:0:
352,96,159387,1,8,0:0:0:0:
352,96,159534,1,8,0:0:0:0:
352,96,159608,1,8,0:0:0:0:
160,96,159681,1,0,0:0:0:0:
160,96,159828,1,0,0:0:0:0:
352,288,159975,1,12,0:0:0:0:
352,96,160270,1,8,0:0:0:0:
160,96,160417,1,0,0:0:0:0:
160,96,160564,1,0,0:0:0:0:
352,96,160711,1,8,0:0:0:0:
160,96,160858,1,0,0:0:0:0:
160,96,161005,1,0,0:0:0:0:
352,96,161152,1,8,0:0:0:0:
160,96,161299,1,0,0:0:0:0:
352,96,161446,1,8,0:0:0:0:
160,96,161593,1,0,0:0:0:0:
160,96,161740,1,0,0:0:0:0:
352,96,161887,1,8,0:0:0:0:
352,96,162034,1,8,0:0:0:0:
352,96,162108,1,8,0:0:0:0:
352,96,162181,1,8,0:0:0:0:
352,96,162255,1,8,0:0:0:0:
352,96,162328,1,8,0:0:0:0:
160,96,162475,1,0,0:0:0:0:
352,288,162622,1,12,0:0:0:0:
160,96,162917,1,0,0:0:0:0:
352,96,163064,1,8,0:0:0:0:
352,288,163358,1,12,0:0:0:0:
160,96,163505,1,0,0:0:0:0:
352,288,163652,1,12,0:0:0:0:
352,96,164093,1,8,0:0:0:0:
352,96,164167,1,8,0:0:0:0:
352,96,164240,1,8,0:0:0:0:
352,96,164314,1,8,0:0:0:0:
160,96,164387,1,0,0:0:0:0:
160,96,164461,1,0,0:0:0:0:
160,96,164534,1,0,0:0:0:0:
160,96,164608,1,0,0:0:0:0:
352,96,164681,1,8,0:0:0:0:
352,96,164755,1,8,0:0:0:0:
160,96,164828,1,0,0:0:0:0:
160,96,164902,1,0,0:0:0:0:
160,96,164975,1,0,0:0:0:0:
352,288,165270,1,12,0:0:0:0:
352,288,165564,1,12,0:0:0:0:
160,96,165711,1,0,0:0:0:0:
160,96,165784,1,0,0:0:0:0:
160,96,165858,1,0,0:0:0:0:
352,288,166005,1,12,0:0:0:0:
160,96,166446,1,0,0:0:0:0:
160,96,166520,1,0,0:0:0:0:
160,96,166593,1,0,0:0:0:0:
160,96,166667,1,0,0:0:0:0:
352,96,166740,1,8,0:0:0:0:
352,288,166887,1,12,0:0:0:0:
160,96,167034,1,0,0:0:0:0:
352,96,167181,1,8,0:0:0:0:
160,288,167328,1,4,0:0:0:0:
160,96,167622,1,0,0:0:0:0:
352,288,167917,1,12,0:0:0:0:
160,96,168064,1,0,0:0:0:0:
160,96,168137,1,0,0:0:0:0:
160,96,168211,1,0,0:0:0:0:
352,96,168358,1,8,0:0:0:0:
160,96,168652,1,0,0:0:0:0:
352,96,168799,1,8,0:0:0:0:
352,96,169093,1,8,0:0:0:0:
352,96,169191,1,8,0:0:0:0:
352,96,169289,1,8,0:0:0:0:
352,96,169387,1,8,0:0:0:0:
352,96,169485,1,8,0:0:0:0:
352,96,169583,1,8,0:0:0:0:
160,96,169681,1,0,0:0:0:0:
160,96,169828,1,0,0:0:0:0:
160,96,169902,1,0,0:0:0:0:
352,288,169975,1,12,0:0:0:0:
160,96,170122,1,0,0:0:0:0:
160,96,170196,1,0,0:0:0:0:
352,288,170270,1,12,0:0:0:0:
160,96,170417,1,0,0:0:0:0:
160,96,170564,1,0,0:0:0:0:
352,288,170711,1,12,0:0:0:0:
160,96,171005,1,0,0:0:0:0:
160,96,171078,1,0,0:0:0:0:
352,96,171152,1,8,0:0:0:0:
160,96,171299,1,0,0:0:0:0:
160,96,171372,1,0,0:0:0:0:
352,96,171446,1,8,0:0:0:0:
352,96,171520,1,8,0:0:0:0:
160,96,171593,1,0,0:0:0:0:
160,96,171667,1,0,0:0:0:0:
352,96,171740,1,8,0:0:0:0:
352,96,171814,1,8,0:0:0:0:
352,96,171887,1,8,0:0:0:0:
352,96,171961,1,8,0:0:0:0:
160,288,172034,1,4,0:0:0:0:
160,288,172181,1,4,0:0:0:0:
352,288,172475,1,12,0:0:0:0:
352,96,172770,1,8,0:0:0:0:
160,96,172917,1,0,0:0:0:0:
352,288,173064,1,12,0:0:0:0:
160,96,173799,1,0,0:0:0:0:
352,96,173946,1,8,0:0:0:0:
160,288,174387,1,4,0:0:0:0:
160,288,174534,1,4,0:0:0:0:
352,288,174828,1,12,0:0:0:0:
352,96,175122,1,8,0:0:0:0:
160,288,175270,1,4,0:0:0:0:
160,288,175417,1,4,0:0:0:0:
352,288,175711,1,12,0:0:0:0:
160,96,176005,1,0,0:0:0:0:
352,96,176152,1,8,0:0:0:0:
352,96,176299,1,8,0:0:0:0:
160,96,176446,1,0,0:0:0:0:
352,96,176593,1,8,0:0:0:0:
160,288,176740,1,4,0:0:0:0:
160,288,176887,1,4,0:0:0:0:
352,288,177181,1,12,0:0:0:0:
352,96,177475,1,8,0:0:0:0:
160,288,177622,1,4,0:0:0:0:
160,288,177770,1,4,0:0:0:0:
352,288,178064,1,12,0:0:0:0:
160,96,178358,1,0,0:0:0:0:
160,96,178431,1,0,0:0:0:0:
352,96,178505,1,8,0:0:0:0:
352,96,178603,1,8,0:0:0:0:
352,96,178701,1,8,0:0:0:0:
352,96,178799,1,8,0:0:0:0:
352,96,178897,1,8,0:0:0:0:
352,96,178995,1,8,0:0:0:0:
160,288,179093,1,4,0:0:0:0:
160,288,179240,1,4,0:0:0:0:
352,288,179534,1,12,0:0:0:0:
352,96,179828,1,8,0:0:0:0:
160,288,179975,1,4,0:0:0:0:
160,288,180122,1,4,0:0:0:0:
352,288,180417,1,12,0:0:0:0:
160,96,180711,1,0,0:0:0:0:
352,96,180858,1,8,0:0:0:0:
352,96,181005,1,8,0:0:0:0:
160,96,181152,1,0,0:0:0:0:
352,96,181299,1,8,0:0:0:0:
160,288,181446,1,4,0:0:0:0:
160,288,181593,1,4,0:0:0:0:
352,288,181887,1,12,0:0:0:0:
160,288,182034,1,4,0:0:0:0:
160,288,182328,1,4,0:0:0:0:
160,288,182475,1,4,0:0:0:0:
352,288,182770,1,12,0:0:0:0:
160,96,183064,1,0,0:0:0:0:
160,96,183137,1,0,0:0:0:0:
352,96,183211,1,8,0:0:0:0:
160,96,183358,1,0,0:0:0:0:
352,96,183505,1,8,0:0:0:0:
160,96,183652,1,0,0:0:0:0:
160,288,183799,1,4,0:0:0:0:
160,96,184093,1,0,0:0:0:0:
160,96,184387,1,0,0:0:0:0:
160,96,184681,1,0,0:0:0:0:
160,96,184975,1,0,0:0:0:0:
160,96,185122,1,0,0:0:0:0:
160,96,185270,1,0,0:0:0:0:
352,96,185417,1,8,0:0:0:0:
160,96,185564,1,0,0:0:0:0:
352,288,185858,1,12,0:0:0:0:
352,288,186152,1,12,0:0:0:0:
160,96,186446,1,0,0:0:0:0:
160,96,186593,1,0,0:0:0:0:
160,96,186740,1,0,0:0:0:0:
160,96,187034,1,0,0:0:0:0:
160,96,187328,1,0,0:0:0:0:
160,96,187475,1,0,0:0:0:0:
160,96,187622,1,0,0:0:0:0:
352,96,187917,1,8,0:0:0:0:
352,96,188015,1,8,0:0:0:0:
352,96,188113,1,8,0:0:0:0:
160,96,188211,1,0,0:0:0:0:
160,96,188309,1,0,0:0:0:0:
160,96,188407,1,0,0:0:0:0:
352,288,188505,1,12,0:0:0:0:
160,96,188799,1,0,0:0:0:0:
160,96,188946,1,0,0:0:0:0:
160,96,189093,1,0,0:0:0:0:
160,96,189387,1,0,0:0:0:0:
160,96,189681,1,0,0:0:0:0:
160,96,189828,1,0,0:0:0:0:
160,96,189975,1,0,0:0:0:0:
352,96,190122,1,8,0:0:0:0:
160,96,190270,1,0,0:0:0:0:
352,288,190564,1,12,0:0:0:0:
352,288,190858,1,12,0:0:0:0:
160,96,191152,1,0,0:0:0:0:
160,96,191299,1,0,0:0:0:0:
160,96,191446,1,0,0:0:0:0:
160,96,191740,1,0,0:0:0:0:
352,96,192034,1,8,0:0:0:0:
352,96,192328,1,8,0:0:0:0:
352,96,192622,1,8,0:0:0:0:
352,96,192770,1,8,0:0:0:0:
160,96,192917,1,0,0:0:0:0:
352,288,193064,1,12,0:0:0:0:
160,96,193358,1,0,0:0:0:0:
352,96,193505,1,8,0:0:0:0:
160,96,193799,1,0,0:0:0:0:
160,96,193946,1,0,0:0:0:0:
352,96,194093,1,8,0:0:0:0:
160,96,194240,1,0,0:0:0:0:
160,96,194314,1,0,0:0:0:0:
160,96,194387,1,0,0:0:0:0:
160,96,194534,1,0,0:0:0:0:
352,96,194681,1,8,0:0:0:0:
160,96,194975,1,0,0:0:0:0:
160,96,195122,1,0,0:0:0:0:
352,96,195270,1,8,0:0:0:0:
160,96,195417,1,0,0:0:0:0:
160,96,195711,1,0,0:0:0:0:
352,288,195858,1,12,0:0:0:0:
160,96,196152,1,0,0:0:0:0:
160,96,196299,1,0,0:0:0:0:
352,96,196446,1,8,0:0:0:0:
160,96,196593,1,0,0:0:0:0:
160,96,196667,1,0,0:0:0:0:
160,96,196740,1,0,0:0:0:0:
160,96,196887,1,0,0:0:0:0:
352,96,197034,1,8,0:0:0:0:
160,96,197328,1,0,0:0:0:0:
160,96,197402,1,0,0:0:0:0:
160,96,197475,1,0,0:0:0:0:
160,96,197549,1,0,0:0:0:0:
352,96,197622,1,8,0:0:0:0:
160,288,197770,1,4,0:0:0:0:
160,96,198064,1,0,0:0:0:0:
352,96,198211,1,8,0:0:0:0:
160,96,198505,1,0,0:0:0:0:
160,96,198652,1,0,0:0:0:0:
352,96,198799,1,8,0:0:0:0:
352,96,198946,1,8,0:0:0:0:
352,96,199020,1,8,0:0:0:0:
160,96,199093,1,0,0:0:0:0:
160,96,199240,1,0,0:0:0:0:
352,96,199387,1,8,0:0:0:0:
160,96,199534,1,0,0:0:0:0:
160,96,199608,1,0,0:0:0:0:
352,96,199681,1,8,0:0:0:0:
352,96,199828,1,8,0:0:0:0:
352,96,199975,1,8,0:0:0:0:
160,288,200122,1,4,0:0:0:0:
160,96,200417,1,0,0:0:0:0:
352,96,200564,1,8,0:0:0:0:
160,96,200711,1,0,0:0:0:0:
160,96,200784,1,0,0:0:0:0:
352,96,200858,1,8,0:0:0:0:
160,96,201005,1,0,0:0:0:0:
160,96,201078,1,0,0:0:0:0:
352,96,201152,1,8,0:0:0:0:
160,96,201299,1,0,0:0:0:0:
160,96,201372,1,0,0:0:0:0:
352,96,201446,1,8,0:0:0:0:
352,96,201593,1,8,0:0:0:0:
160,96,201740,1,0,0:0:0:0:
352,96,201887,1,8,0:0:0:0:
352,96,202181,1,8,0:0:0:0:
352,288,202475,1,12,0:0:0:0:
352,96,202770,1,8,0:0:0:0:
160,96,202917,1,0,0:0:0:0:
352,96,203064,1,8,0:0:0:0:
160,96,203137,1,0,0:0:0:0:
352,96,203211,1,8,0:0:0:0:
160,96,203358,1,0,0:0:0:0:
352,96,203505,1,8,0:0:0:0:
352,96,203652,1,8,0:0:0:0:
160,96,203799,1,0,0:0:0:0:
352,96,203946,1,8,0:0:0:0:
352,96,204093,1,8,0:0:0:0:
160,96,204240,1,0,0:0:0:0:
160,96,204314,1,0,0:0:0:0:
352,96,204387,1,8,0:0:0:0:
352,96,204534,1,8,0:0:0:0:
160,96,204681,1,0,0:0:0:0:
352,288,204828,1,12,0:0:0:0:
160,96,205122,1,0,0:0:0:0:
352,96,205270,1,8,0:0:0:0:
160,96,205417,1,0,0:0:0:0:
160,96,205490,1,0,0:0:0:0:
352,96,205564,1,8,0:0:0:0:
160,96,205711,1,0,0:0:0:0:
352,96,205858,1,8,0:0:0:0:
352,96,206005,1,8,0:0:0:0:
160,96,206152,1,0,0:0:0:0:
352,96,206299,1,8,0:0:0:0:
352,96,206446,1,8,0:0:0:0:
160,96,206593,1,0,0:0:0:0:
352,96,206740,1,8,0:0:0:0:
160,96,206887,1,0,0:0:0:0:
160,96,206961,1,0,0:0:0:0:
352,96,207034,1,8,0:0:0:0:
352,96,207108,1,8,0:0:0:0:
160,288,207181,1,4,0:0:0:0:
352,96,207328,1,8,0:0:0:0:
160,96,207402,1,0,0:0:0:0:
352,96,207475,1,8,0:0:0:0:
352,96,207549,1,8,0:0:0:0:
160,96,207622,1,0,0:0:0:0:
160,96,207696,1,0,0:0:0:0:
160,96,207770,1,0,0:0:0:0:
160,96,207843,1,0,0:0:0:0:
352,96,207917,1,8,0:0:0:0:
160,96,207990,1,0,0:0:0:0:
352,96,208064,1,8,0:0:0:0:
160,96,208137,1,0,0:0:0:0:
160,96,208211,1,0,0:0:0:0:
160,96,208284,1,0,0:0:0:0:
160,96,208358,1,0,0:0:0:0:
160,96,208431,1,0,0:0:0:0:
352,96,208505,1,8,0:0:0:0:
160,96,208578,1,0,0:0:0:0:
352,96,208652,1,8,0:0:0:0:
352,96,208725,1,8,0:0:0:0:
160,96,208799,1,0,0:0:0:0:
160,96,208872,1,0,0:0:0:0:
160,96,208946,1,0,0:0:0:0:
160,96,209020,1,0,0:0:0:0:
352,96,209093,1,8,0:0:0:0:
160,96,209167,1,0,0:0:0:0:
352,96,209240,1,8,0:0:0:0:
160,96,209314,1,0,0:0:0:0:
160,96,209387,1,0,0:0:0:0:
160,96,209461,1,0,0:0:0:0:
352,288,209534,1,12,0:0:0:0:
160,96,209681,1,0,0:0:0:0:
160,96,209755,1,0,0:0:0:0:
352,96,209828,1,8,0:0:0:0:
352,96,209975,1,8,0:0:0:0:
352,96,210049,1,8,0:0:0:0:
160,96,210122,1,0,0:0:0:0:
160,96,210196,1,0,0:0:0:0:
352,96,210270,1,8,0:0:0:0:
160,96,210417,1,0,0:0:0:0:
352,96,210564,1,8,0:0:0:0:
160,96,210711,1,0,0:0:0:0:
352,96,210858,1,8,0:0:0:0:
352,96,210931,1,8,0:0:0:0:
352,96,211005,1,8,0:0:0:0:
352,96,211078,1,8,0:0:0:0:
160,96,211152,1,0,0:0:0:0:
352,96,211299,1,8,0:0:0:0:
160,96,211593,1,0,0:0:0:0:
352,288,211887,1,12,0:0:0:0:
160,96,212181,1,0,0:0:0:0:
352,96,212328,1,8,0:0:0:0:
160,96,212622,1,0,0:0:0:0:
160,96,212770,1,0,0:0:0:0:
160,96,212917,1,0,0:0:0:0:
352,288,213064,1,12,0:0:0:0:
160,96,213358,1,0,0:0:0:0:
352,96,213505,1,8,0:0:0:0:
160,96,213799,1,0,0:0:0:0:
160,96,213946,1,0,0:0:0:0:
352,96,214093,1,8,0:0:0:0:
160,96,214240,1,0,0:0:0:0:
160,96,214534,1,0,0:0:0:0:
352,288,214681,1,12,0:0:0:0:
160,96,214975,1,0,0:0:0:0:
352,288,215122,1,12,0:0:0:0:
160,96,215417,1,0,0:0:0:0:
352,288,215564,1,12,0:0:0:0:
352,96,215858,1,8,0:0:0:0:
352,96,216152,1,8,0:0:0:0:
352,96,216299,1,8,0:0:0:0:
352,96,216446,1,8,0:0:0:0:
160,96,216593,1,0,0:0:0:0:
160,96,216887,1,0,0:0:0:0:
352,288,217034,1,12,0:0:0:0:
160,96,217328,1,0,0:0:0:0:
160,96,217475,1,0,0:0:0:0:
352,96,217622,1,8,0:0:0:0:
160,96,217770,1,0,0:0:0:0:
160,96,218064,1,0,0:0:0:0:
352,96,218211,1,8,0:0:0:0:
160,96,218505,1,0,0:0:0:0:
352,96,218652,1,8,0:0:0:0:
352,96,218799,1,8,0:0:0:0:
160,96,218946,1,0,0:0:0:0:
160,96,219240,1,0,0:0:0:0:
352,96,219387,1,8,0:0:0:0:
160,96,219681,1,0,0:0:0:0:
352,96,219828,1,8,0:0:0:0:
160,96,220122,1,0,0:0:0:0:
160,96,220196,1,0,0:0:0:0:
352,288,220270,1,12,0:0:0:0:
160,96,220417,1,0,0:0:0:0:
352,288,220564,1,12,0:0:0:0:
160,96,220711,1,0,0:0:0:0:
352,96,220858,1,8,0:0:0:0:
160,96,220931,1,0,0:0:0:0:
352,96,221005,1,8,0:0:0:0:
352,96,221078,1,8,0:0:0:0:
160,96,221152,1,0,0:0:0:0:
160,96,221299,1,0,0:0:0:0:
352,288,221446,1,12,0:0:0:0:
160,96,222622,1,0,0:0:0:0:
352,96,223799,1,8,0:0:0:0:
160,96,225122,1,0,0:0:0:0:
160,96,225196,1,0,0:0:0:0:
352,96,225270,1,8,0:0:0:0:
160,96,225564,1,0,0:0:0:0:
352,96,225711,1,8,0:0:0:0:
160,96,226005,1,0,0:0:0:0:
160,96,226078,1,0,0:0:0:0:
352,96,226152,1,8,0:0:0:0:
352,96,226446,1,8,0:0:0:0:
160,96,226593,1,0,0:0:0:0:
352,96,226740,1,8,0:0:0:0:
160,96,226887,1,0,0:0:0:0:
352,96,227034,1,8,0:0:0:0:
352,96,227181,1,8,0:0:0:0:
160,96,227328,1,0,0:0:0:0:
160,96,227475,1,0,0:0:0:0:
352,96,227622,1,8,0:0:0:0:
160,96,227770,1,0,0:0:0:0:
352,96,227917,1,8,0:0:0:0:
160,96,228064,1,0,0:0:0:0:
160,96,228211,1,0,0:0:0:0:
160,96,228358,1,0,0:0:0:0:
160,96,228431,1,0,0:0:0:0:
352,288,228505,1,12,0:0:0:0:
160,96,228725,1,0,0:0:0:0:
160,96,228799,1,0,0:0:0:0:
352,288,228946,1,12,0:0:0:0:
160,96,229093,1,0,0:0:0:0:
160,96,229240,1,0,0:0:0:0:
352,288,229387,1,12,0:0:0:0:
160,96,229534,1,0,0:0:0:0:
160,96,229681,1,0,0:0:0:0:
352,96,229828,1,8,0:0:0:0:
160,96,229902,1,0,0:0:0:0:
352,96,229975,1,8,0:0:0:0:
352,96,230049,1,8,0:0:0:0:
160,96,230122,1,0,0:0:0:0:
160,96,230196,1,0,0:0:0:0:
352,96,230270,1,8,0:0:0:0:
160,96,230417,1,0,0:0:0:0:
160,96,230564,1,0,0:0:0:0:
160,96,230711,1,0,0:0:0:0:
352,288,230858,1,12,0:0:0:0:
160,96,231152,1,0,0:0:0:0:
352,288,231299,1,12,0:0:0:0:
160,96,231593,1,0,0:0:0:0:
352,288,231740,1,12,0:0:0:0:
160,96,232034,1,0,0:0:0:0:
352,96,232181,1,8,0:0:0:0:
352,96,232255,1,8,0:0:0:0:
160,96,232328,1,0,0:0:0:0:
160,96,232402,1,0,0:0:0:0:
160,96,232475,1,0,0:0:0:0:
160,96,232549,1,0,0:0:0:0:
352,96,232622,1,8,0:0:0:0:
352,96,232770,1,8,0:0:0:0:
160,96,233064,1,0,0:0:0:0:
352,288,233211,1,12,0:0:0:0:
160,96,233505,1,0,0:0:0:0:
160,96,233652,1,0,0:0:0:0:
160,96,233725,1,0,0:0:0:0:
352,288,233799,1,12,0:0:0:0:
160,96,234093,1,0,0:0:0:0:
352,96,234240,1,8,0:0:0:0:
160,96,234534,1,0,0:0:0:0:
352,96,234681,1,8,0:0:0:0:
160,96,234828,1,0,0:0:0:0:
160,96,234902,1,0,0:0:0:0:
352,288,234975,1,12,0:0:0:0:
160,96,235270,1,0,0:0:0:0:
160,96,235417,1,0,0:0:0:0:
352,288,235564,1,12,0:0:0:0:
160,96,235711,1,0,0:0:0:0:
160,96,236005,1,0,0:0:0:0:
352,288,236152,1,12,0:0:0:0:
160,96,236299,1,0,0:0:0:0:
352,96,236593,1,8,0:0:0:0:
160,96,236887,1,0,0:0:0:0:
352,96,237034,1,8,0:0:0:0:
160,96,237181,1,0,0:0:0:0:
160,96,237255,1,0,0:0:0:0:
352,96,237328,1,8,0:0:0:0:
352,96,237426,1,8,0:0:0:0:
352,96,237524,1,8,0:0:0:0:
352,96,237622,1,8,0:0:0:0:
352,96,237720,1,8,0:0:0:0:
352,96,237819,1,8,0:0:0:0:
160,96,237917,1,0,0:0:0:0:
160,96,238064,1,0,0:0:0:0:
160,96,238137,1,0,0:0:0:0:
352,288,238211,1,12,0:0:0:0:
160,288,238505,1,4,0:0:0:0:
352,96,238799,1,8,0:0:0:0:
160,288,238946,1,4,0:0:0:0:
160,96,239240,1,0,0:0:0:0:
160,96,239387,1,0,0:0:0:0:
352,96,239681,1,8,0:0:0:0:
160,96,239779,1,0,0:0:0:0:
160,96,239877,1,0,0:0:0:0:
352,96,239975,1,8,0:0:0:0:
352,96,240073,1,8,0:0:0:0:
352,96,240171,1,8,0:0:0:0:
160,288,240270,1,4,0:0:0:0:
160,96,240711,1,0,0:0:0:0:
160,96,240784,1,0,0:0:0:0:
352,288,240858,1,12,0:0:0:0:
160,288,241299,1,4,0:0:0:0:
160,96,241593,1,0,0:0:0:0:
352,96,241740,1,8,0:0:0:0:
160,96,241887,1,0,0:0:0:0:
160,96,241961,1,0,0:0:0:0:
352,96,242034,1,8,0:0:0:0:
352,96,242132,1,8,0:0:0:0:
352,96,242230,1,8,0:0:0:0:
352,96,242328,1,8,0:0:0:0:
352,96,242426,1,8,0:0:0:0:
352,96,242524,1,8,0:0:0:0:
160,288,242622,1,4,0:0:0:0:
160,96,243064,1,0,0:0:0:0:
352,288,243211,1,12,0:0:0:0:
160,96,243505,1,0,0:0:0:0:
160,96,243652,1,0,0:0:0:0:
160,96,243946,1,0,0:0:0:0:
352,96,244093,1,8,0:0:0:0:
160,96,244240,1,0,0:0:0:0:
160,96,244314,1,0,0:0:0:0:
352,288,244387,1,12,0:0:0:0:
160,96,244681,1,0,0:0:0:0:
352,288,244975,1,12,0:0:0:0:
160,96,245122,1,0,0:0:0:0:
160,96,245417,1,0,0:0:0:0:
352,288,245564,1,12,0:0:0:0:
160,96,245711,1,0,0:0:0:0:
160,96,246005,1,0,0:0:0:0:
352,288,246152,1,12,0:0:0:0:
160,96,246299,1,0,0:0:0:0:
160,96,246593,1,0,0:0:0:0:
352,96,246740,1,8,0:0:0:0:
160,96,246887,1,0,0:0:0:0:
352,288,247034,1,12,0:0:0:0:
352,288,247328,1,12,0:0:0:0:
160,96,247475,1,0,0:0:0:0:
160,96,247622,1,0,0:0:0:0:
160,96,247770,1,0,0:0:0:0:
352,96,247917,1,8,0:0:0:0:
160,96,248064,1,0,0:0:0:0:
352,96,248211,1,8,0:0:0:0:
352,96,248358,1,8,0:0:0:0:
160,96,248505,1,0,0:0:0:0:
160,96,248652,1,0,0:0:0:0:
352,96,248799,1,8,0:0:0:0:
160,96,248946,1,0,0:0:0:0:
352,96,249093,1,8,0:0:0:0:
352,96,249167,1,8,0:0:0:0:
160,96,249240,1,0,0:0:0:0:
160,96,249314,1,0,0:0:0:0:
352,96,249387,1,8,0:0:0:0:
160,96,249534,1,0,0:0:0:0:
352,288,249681,1,12,0:0:0:0:
160,96,249828,1,0,0:0:0:0:
160,96,249975,1,0,0:0:0:0:
352,288,250122,1,12,0:0:0:0:
160,96,250270,1,0,0:0:0:0:
352,96,250417,1,8,0:0:0:0:
160,96,250564,1,0,0:0:0:0:
352,288,250711,1,12,0:0:0:0:
160,96,251005,1,0,0:0:0:0:
352,96,251152,1,8,0:0:0:0:
352,96,251225,1,8,0:0:0:0:
352,96,251299,1,8,0:0:0:0:
352,96,251372,1,8,0:0:0:0:
352,96,251446,1,8,0:0:0:0:
160,96,251593,1,0,0:0:0:0:
160,96,251667,1,0,0:0:0:0:
352,96,251740,1,8,0:0:0:0:
352,96,251887,1,8,0:0:0:0:
352,96,251961,1,8,0:0:0:0:
160,288,252034,1,4,0:0:0:0:
352,288,252328,1,12,0:0:0:0:
352,96,252622,1,8,0:0:0:0:
160,96,252770,1,0,0:0:0:0:
160,96,252917,1,0,0:0:0:0:
352,96,253064,1,8,0:0:0:0:
160,96,253211,1,0,0:0:0:0:
160,96,253358,1,0,0:0:0:0:
352,96,253505,1,8,0:0:0:0:
160,96,253652,1,0,0:0:0:0:
160,96,253725,1,0,0:0:0:0:
352,96,253799,1,8,0:0:0:0:
352,96,253946,1,8,0:0:0:0:
160,96,254093,1,0,0:0:0:0:
160,96,254240,1,0,0:0:0:0:
352,96,254387,1,8,0:0:0:0:
160,96,254534,1,0,0:0:0:0:
352,96,254681,1,8,0:0:0:0:
352,96,254828,1,8,0:0:0:0:
352,96,254902,1,8,0:0:0:0:
160,96,254975,1,0,0:0:0:0:
352,96,255122,1,8,0:0:0:0:
160,96,255270,1,0,0:0:0:0:
352,96,255417,1,8,0:0:0:0:
160,96,255564,1,0,0:0:0:0:
160,96,255711,1,0,0:0:0:0:
352,96,255858,1,8,0:0:0:0:
352,96,256152,1,8,0:0:0:0:
352,96,256225,1,8,0:0:0:0:
352,96,256299,1,8,0:0:0:0:
352,96,256372,1,8,0:0:0:0:
160,96,256446,1,0,0:0:0:0:
160,96,256593,1,0,0:0:0:0:
352,288,256740,1,12,0:0:0:0:
352,96,257034,1,8,0:0:0:0:
160,96,257181,1,0,0:0:0:0:
352,96,257328,1,8,0:0:0:0:
352,96,257475,1,8,0:0:0:0:
160,96,257622,1,0,0:0:0:0:
352,96,257770,1,8,0:0:0:0:
160,96,257917,1,0,0:0:0:0:
160,96,258064,1,0,0:0:0:0:
352,96,258211,1,8,0:0:0:0:
160,96,258358,1,0,0:0:0:0:
352,96,258505,1,8,0:0:0:0:
352,96,258578,1,8,0:0:0:0:
160,96,258652,1,0,0:0:0:0:
352,96,258799,1,8,0:0:0:0:
160,96,258946,1,0,0:0:0:0:
160,96,259020,1,0,0:0:0:0:
352,288,259093,1,12,0:0:0:0:
160,96,259240,1,0,0:0:0:0:
160,96,259387,1,0,0:0:0:0:
160,96,259534,1,0,0:0:0:0:
352,288,259681,1,12,0:0:0:0:
160,96,259828,1,0,0:0:0:0:
352,96,259975,1,8,0:0:0:0:
352,96,260122,1,8,0:0:0:0:
160,96,260270,1,0,0:0:0:0:
160,96,260564,1,0,0:0:0:0:
352,288,260711,1,12,0:0:0:0:
352,96,261005,1,8,0:0:0:0:
352,96,261152,1,8,0:0:0:0:
160,288,261299,1,4,0:0:0:0:
352,288,261446,1,12,0:0:0:0:
160,96,261740,1,0,0:0:0:0:
352,96,262034,1,8,0:0:0:0:
160,96,262181,1,0,0:0:0:0:
160,96,262328,1,0,0:0:0:0:
352,96,262475,1,8,0:0:0:0:
160,96,262770,1,0,0:0:0:0:
352,96,262917,1,8,0:0:0:0:
160,96,263064,1,0,0:0:0:0:
160,96,263137,1,0,0:0:0:0:
352,96,263211,1,8,0:0:0:0:
160,96,263358,1,0,0:0:0:0:
352,96,263505,1,8,0:0:0:0:
160,96,263652,1,0,0:0:0:0:
352,288,263799,1,12,0:0:0:0:
160,96,264093,1,0,0:0:0:0:
352,96,264240,1,8,0:0:0:0:
352,96,264534,1,8,0:0:0:0:
160,96,264681,1,0,0:0:0:0:
352,96,264828,1,8,0:0:0:0:
160,96,265122,1,0,0:0:0:0:
352,96,265270,1,8,0:0:0:0:
352,96,265417,1,8,0:0:0:0:
352,96,265490,1,8,0:0:0:0:
160,96,265564,1,0,0:0:0:0:
160,96,265711,1,0,0:0:0:0:
352,96,265858,1,8,0:0:0:0:
352,288,266152,1,12,0:0:0:0:
160,96,266299,1,0,0:0:0:0:
160,96,266446,1,0,0:0:0:0:
352,288,266593,1,12,0:0:0:0:
160,96,266740,1,0,0:0:0:0:
160,96,266887,1,0,0:0:0:0:
352,288,267034,1,12,0:0:0:0:
160,96,267181,1,0,0:0:0:0:
352,288,267328,1,12,0:0:0:0:
160,96,267475,1,0,0:0:0:0:
160,96,267622,1,0,0:0:0:0:
352,288,267770,1,12,0:0:0:0:
160,96,267917,1,0,0:0:0:0:
160,96,268064,1,0,0:0:0:0:
352,288,268211,1,12,0:0:0:0:
160,96,268358,1,0,0:0:0:0:
352,288,268505,1,12,0:0:0:0:
160,96,268799,1,0,0:0:0:0:
352,288,268946,1,12,0:0:0:0:
352,288,269240,1,12,0:0:0:0:
160,96,269387,1,0,0:0:0:0:
352,288,269534,1,12,0:0:0:0:
160,96,269828,1,0,0:0:0:0:
160,96,269902,1,0,0:0:0:0:
352,288,269975,1,12,0:0:0:0:
160,96,270270,1,0,0:0:0:0:
160,96,270343,1,0,0:0:0:0:
160,96,270417,1,0,0:0:0:0:
160,96,270490,1,0,0:0:0:0:
352,96,270564,1,8,0:0:0:0:
352,96,270637,1,8,0:0:0:0:
160,96,270711,1,0,0:0:0:0:
160,96,270784,1,0,0:0:0:0:
160,96,270858,1,0,0:0:0:0:
352,288,271152,1,12,0:0:0:0:
352,288,271446,1,12,0:0:0:0:
160,96,271593,1,0,0:0:0:0:
160,96,271667,1,0,0:0:0:0:
160,96,271740,1,0,0:0:0:0:
352,288,271887,1,12,0:0:0:0:
160,96,272181,1,0,0:0:0:0:
352,96,272328,1,8,0:0:0:0:
352,96,272402,1,8,0:0:0:0:
160,96,272475,1,0,0:0:0:0:
160,96,272549,1,0,0:0:0:0:
352,96,272622,1,8,0:0:0:0:
352,96,272917,1,8,0:0:0:0:
352,96,273064,1,8,0:0:0:0:
160,288,273211,1,4,0:0:0:0:
352,288,273505,1,12,0:0:0:0:
160,96,273799,1,0,0:0:0:0:
160,96,273946,1,0,0:0:0:0:
160,96,274020,1,0,0:0:0:0:
160,96,274093,1,0,0:0:0:0:
352,96,274240,1,8,0:0:0:0:
160,96,274534,1,0,0:0:0:0:
352,96,274681,1,8,0:0:0:0:
352,96,274975,1,8,0:0:0:0:
160,96,275073,1,0,0:0:0:0:
160,96,275171,1,0,0:0:0:0:
352,288,275270,1,12,0:0:0:0:
352,288,275564,1,12,0:0:0:0:
160,96,275711,1,0,0:0:0:0:
160,96,275784,1,0,0:0:0:0:
160,96,275858,1,0,0:0:0:0:
352,288,276005,1,12,0:0:0:0:
160,96,276152,1,0,0:0:0:0:
352,96,276299,1,8,0:0:0:0:
160,96,276446,1,0,0:0:0:0:
352,288,276593,1,12,0:0:0:0:
160,96,276887,1,0,0:0:0:0:
352,96,277034,1,8,0:0:0:0:
352,96,277328,1,8,0:0:0:0:
160,96,277475,1,0,0:0:0:0:
352,96,277622,1,8,0:0:0:0:
352,96,277917,1,8,0:0:0:0:
160,96,278064,1,0,0:0:0:0:
160,96,278137,1,0,0:0:0:0:
160,96,278211,1,0,0:0:0:0:
352,96,278358,1,8,0:0:0:0:
352,96,278431,1,8,0:0:0:0:
160,96,278505,1,0,0:0:0:0:
160,96,278578,1,0,0:0:0:0:
352,96,278652,1,8,0:0:0:0:
160,96,278799,1,0,0:0:0:0:
352,96,278946,1,8,0:0:0:0:
352,96,279020,1,8,0:0:0:0:
160,96,279093,1,0,0:0:0:0:
352,96,279240,1,8,0:0:0:0:
160,96,279387,1,0,0:0:0:0:
352,96,279534,1,8,0:0:0:0:
160,96,279681,1,0,0:0:0:0:
352,96,279828,1,8,0:0:0:0:
160,96,279975,1,0,0:0:0:0:
352,96,280122,1,8,0:0:0:0:
160,96,280270,1,0,0:0:0:0:
352,288,280564,1,12,0:0:0:0:
160,96,280858,1,0,0:0:0:0:
352,96,281152,1,8,0:0:0:0:
160,96,281299,1,0,0:0:0:0:
160,96,281593,1,0,0:0:0:0:
352,96,281740,1,8,0:0:0:0:
160,96,282034,1,0,0:0:0:0:
160,96,282181,1,0,0:0:0:0:
352,288,282328,1,12,0:0:0:0:
160,96,282622,1,0,0:0:0:0:
160,96,282770,1,0,0:0:0:0:
352,96,282917,1,8,0:0:0:0:
160,96,283064,1,0,0:0:0:0:
160,96,283211,1,0,0:0:0:0:
160,96,283358,1,0,0:0:0:0:
352,96,283505,1,8,0:0:0:0:
160,96,283652,1,0,0:0:0:0:
160,96,283799,1,0,0:0:0:0:
160,96,283946,1,0,0:0:0:0:
352,96,284093,1,8,0:0:0:0:
160,96,284240,1,0,0:0:0:0:
160,96,284387,1,0,0:0:0:0:
160,96,284461,1,0,0:0:0:0:
160,96,284534,1,0,0:0:0:0:
160,96,284608,1,0,0:0:0:0:
352,288,284681,1,12,0:0:0:0:
352,96,284828,1,8,0:0:0:0:
160,96,284975,1,0,0:0:0:0:
352,288,285270,1,12,0:0:0:0:
160,96,285564,1,0,0:0:0:0:
160,96,285711,1,0,0:0:0:0:
352,96,285858,1,8,0:0:0:0:
160,96,286005,1,0,0:0:0:0:
160,96,286299,1,0,0:0:0:0:
160,96,286372,1,0,0:0:0:0:
352,96,286446,1,8,0:0:0:0:
160,96,286740,1,0,0:0:0:0:
160,96,286887,1,0,0:0:0:0:
352,288,287034,1,12,0:0:0:0:
160,96,287328,1,0,0:0:0:0:
160,96,287402,1,0,0:0:0:0:
160,96,287475,1,0,0:0:0:0:
160,96,287549,1,0,0:0:0:0:
352,288,287622,1,12,0:0:0:0:
160,288,287917,1,4,0:0:0:0:
352,288,288064,1,12,0:0:0:0:
160,96,288358,1,0,0:0:0:0:
160,96,288652,1,0,0:0:0:0:
352,288,288799,1,12,0:0:0:0:
352,96,289093,1,8,0:0:0:0:
352,96,289167,1,8,0:0:0:0:
160,96,289240,1,0,0:0:0:0:
160,96,289314,1,0,0:0:0:0:
352,96,289387,1,8,0:0:0:0:
352,96,289461,1,8,0:0:0:0:
352,96,289534,1,8,0:0:0:0:
352,96,289608,1,8,0:0:0:0:
160,96,289681,1,0,0:0:0:0:
160,96,289828,1,0,0:0:0:0:
160,96,289902,1,0,0:0:0:0:
352,288,289975,1,12,0:0:0:0:
160,96,290270,1,0,0:0:0:0:
160,96,290417,1,0,0:0:0:0:
352,96,290564,1,8,0:0:0:0:
160,96,290711,1,0,0:0:0:0:
160,96,291005,1,0,0:0:0:0:
160,96,291078,1,0,0:0:0:0:
352,96,291152,1,8,0:0:0:0:
160,96,291446,1,0,0:0:0:0:
160,96,291593,1,0,0:0:0:0:
352,288,291740,1,12,0:0:0:0:
160,96,292034,1,0,0:0:0:0:
160,96,292181,1,0,0:0:0:0:
352,96,292328,1,8,0:0:0:0:
160,96,292475,1,0,0:0:0:0:
160,96,292622,1,0,0:0:0:0:
160,96,292770,1,0,0:0:0:0:
352,96,292917,1,8,0:0:0:0:
160,96,293064,1,0,0:0:0:0:
160,96,293211,1,0,0:0:0:0:
160,96,293358,1,0,0:0:0:0:
352,96,293505,1,8,0:0:0:0:
160,96,293652,1,0,0:0:0:0:
160,96,293799,1,0,0:0:0:0:
160,96,293872,1,0,0:0:0:0:
160,96,293946,1,0,0:0:0:0:
160,96,294020,1,0,0:0:0:0:
352,288,294093,1,12,0:0:0:0:
352,96,294240,1,8,0:0:0:0:
160,96,294387,1,0,0:0:0:0:
352,288,294681,1,12,0:0:0:0:
160,96,294975,1,0,0:0:0:0:
160,96,295122,1,0,0:0:0:0:
352,96,295270,1,8,0:0:0:0:
160,96,295417,1,0,0:0:0:0:
160,96,295711,1,0,0:0:0:0:
160,96,295784,1,0,0:0:0:0:
352,96,295858,1,8,0:0:0:0:
160,96,296152,1,0,0:0:0:0:
160,96,296299,1,0,0:0:0:0:
352,96,296446,1,8,0:0:0:0:
352,96,296520,1,8,0:0:0:0:
160,96,296593,1,0,0:0:0:0:
160,96,296667,1,0,0:0:0:0:
352,288,296740,1,12,0:0:0:0:
160,96,296887,1,0,0:0:0:0:
160,96,297034,1,0,0:0:0:0:
352,288,297181,1,12,0:0:0:0:
160,96,297328,1,0,0:0:0:0:
160,96,297475,1,0,0:0:0:0:
352,288,297622,1,12,0:0:0:0:
160,96,297770,1,0,0:0:0:0:
160,96,297917,1,0,0:0:0:0:
352,288,298064,1,12,0:0:0:0:
160,96,298211,1,0,0:0:0:0:
160,96,298358,1,0,0:0:0:0:
352,96,298505,1,8,0:0:0:0:
352,96,298578,1,8,0:0:0:0:
160,96,298652,1,0,0:0:0:0:
160,96,298725,1,0,0:0:0:0:
352,96,298799,1,8,0:0:0:0:
352,96,298872,1,8,0:0:0:0:
352,96,298946,1,8,0:0:0:0:
352,96,299020,1,8,0:0:0:0:
160,96,299093,1,0,0:0:0:0:
256,192,299240,8,0,304975,0:0:0:0:
