osu file format v14

[General]
AudioFilename: audio.mp3
AudioLeadIn: 0
PreviewTime: 105918
Countdown: 0
SampleSet: Soft
StackLeniency: 0.7
Mode: 0
LetterboxInBreaks: 0
WidescreenStoryboard: 1

[Editor]
Bookmarks: 24127,28733,36410,43969,51528,59087,62867,70426,77985,85544,93103,100662,108221,115780,119560,127060,134678,142237,149796,161134,172473,184048,193260,200819,208378,215938,223497,238615,242394,257512
DistanceSpacing: 0.7
BeatDivisor: 4
GridSize: 16
TimelineZoom: 2.5

[Metadata]
Title:Akayake no Majo
TitleUnicode:緋灼の魔女
Artist:ELFENSJoN
ArtistUnicode:ELFENSJóN
Creator:Icekalt
Version:Insane
Source:
Tags:ash of rouge alternative metalcore jrock japanese nao tomori naotoshi 黒瀬 圭亮 Keisuke Kurose okogeeechann 藤田 和哉 Fujita Kazuya 戎屋 聖一郎 Seiichiro Ebisuya みゅー YUU ORYO
BeatmapID:2300737
BeatmapSetID:1100484

[Difficulty]
HPDrainRate:5
CircleSize:3.4
OverallDifficulty:7
ApproachRate:9
SliderMultiplier:1.4
SliderTickRate:1

[Events]
//Background and Video events
0,0,"devil.jpg",0,0
//Break Periods
2,149878,160534
//Storyboard Layer 0 (Background)
//Storyboard Layer 1 (Fail)
//Storyboard Layer 2 (Pass)
//Storyboard Layer 3 (Foreground)
//Storyboard Layer 4 (Overlay)
//Storyboard Sound Samples

[TimingPoints]
3695,324.324324324324,3,2,0,65,1,0
24127,236.220472440945,4,2,0,40,1,0
24599,-100,4,2,1,60,0,0
28733,-90.9090909090909,4,2,1,70,0,0
36410,-133.333333333333,4,2,1,55,0,0
42079,-83.3333333333333,4,2,1,70,0,0
43969,-76.9230769230769,4,2,1,75,0,0
47749,-90.9090909090909,4,2,1,65,0,0
49638,-90.9090909090909,4,2,1,75,0,0
50701,-90.9090909090909,4,2,1,70,0,0
62749,-80,4,2,1,80,0,1
70426,-74.0740740740741,4,2,1,80,0,1
77985,-80,4,2,1,80,0,1
85544,-100,4,2,1,65,0,0
93103,-166.666666666667,4,2,1,65,0,0
100662,-83.3333333333333,4,2,1,70,0,0
106095,-100,4,2,1,75,0,1
108162,-90.9090909090909,4,2,1,65,0,0
108221,-90.9090909090909,4,2,1,70,0,0
115780,-90.9090909090909,4,2,1,65,0,0
119441,-80,4,2,1,80,0,1
127355,-74.0740740740741,4,2,1,80,0,1
134678,-80,4,2,1,80,0,1
149678,-100,4,2,1,80,0,0
160189,-100,4,2,1,45,0,0
161134,-200,4,2,1,45,0,0
172473,-80,4,2,1,75,0,0
183339,-80,4,2,1,80,0,0
184048,-86.9565217391304,4,2,1,70,0,0
187591,-86.9565217391304,4,2,1,75,0,0
193142,-80,4,2,1,80,0,1
201056,-74.0740740740741,4,2,1,80,0,1
208378,-76.9230769230769,4,2,1,80,0,1
215938,-83.3333333333333,4,2,1,70,0,1
219717,-83.3333333333333,4,2,1,80,0,1
221489,-76.9230769230769,4,2,1,80,0,1
223497,-80,4,2,1,80,0,1
238615,-100,4,2,1,60,0,0
242276,-90.9090909090909,4,2,1,70,0,0
249953,-90.9090909090909,4,2,1,55,0,0
250189,-90.9090909090909,4,2,1,70,0,0

[Colours]
Combo1 : 234,211,123
Combo2 : 247,153,153
Combo3 : 202,202,202
Combo4 : 196,168,236

[HitObjects]
123,323,24127,5,0,0:3:0:0:
121,308,24363,1,0,0:3:0:0:
42,228,24599,5,8,0:0:0:0:
59,144,24717,2,0,P|86:211|152:174,1,140,0|0,1:0|0:0,0:0:0:0:
211,107,25071,5,6,3:2:0:0:
251,96,25189,1,2,3:2:0:0:
291,108,25308,1,2,3:2:0:0:
310,145,25426,1,0,1:0:0:0:
230,255,25662,1,0,0:0:0:0:
233,228,25780,1,0,1:0:0:0:
401,341,26016,6,0,P|332:325|260:369,2,140,0|2|8,1:0|0:3|0:0,0:0:0:0:
465,264,26725,1,2,0:0:0:0:
358,115,26961,6,0,B|326:144|326:144|316:201|359:253,1,140,4|0,0:0|0:0,0:0:0:0:
250,287,27315,2,0,B|218:258|218:258|208:201|251:149,1,140,4|0,0:0|0:0,0:0:0:0:
189,49,27670,2,0,B|154:80|149:119|149:119|121:104|85:116,1,140,4|0,0:0|0:0,0:0:0:0:
42,267,28024,2,0,B|77:236|82:197|82:197|110:212|146:200,1,140,0|0,1:0|0:0,0:0:0:0:
238,165,28378,1,2,1:2:0:0:
207,274,28497,1,0,1:0:0:0:
440,281,28733,6,0,P|358:277|334:356,1,154.000004699707,4|0,0:0|0:0,0:0:0:0:
225,270,29087,2,0,L|238:345,1,77.0000023498536,8|0,0:0|0:0,0:0:0:0:
115,287,29323,2,0,L|131:194,2,77.0000023498536,0|0|8,1:0|0:0|0:0,0:0:0:0:
31,180,29678,2,0,B|12:121|17:60|17:60|36:78|54:92,1,154.000004699707,0|4,1:0|2:3,0:0:0:0:
152,82,30032,2,0,P|155:60|109:20,1,77.0000023498536,8|0,0:0|0:0,0:0:0:0:
246,117,30268,2,0,P|243:95|289:55,1,77.0000023498536,0|0,1:0|0:0,0:0:0:0:
336,126,30504,5,8,0:0:0:0:
345,134,30623,2,0,L|506:152,1,154.000004699707,0|0,1:0|0:0,0:0:0:0:
437,238,30977,1,8,0:0:0:0:
232,332,31213,1,0,1:0:0:0:
176,116,31449,1,8,0:0:0:0:
164,107,31567,2,0,P|123:97|68:109,1,77.0000023498536,0|0,1:0|0:0,0:0:0:0:
45,186,31804,1,0,1:0:0:0:
51,199,31922,2,0,P|83:225|138:239,1,77.0000023498536,8|0,0:0|0:0,0:0:0:0:
228,204,32158,5,0,1:0:0:0:
271,173,32276,1,0,1:0:0:0:
325,180,32394,1,8,0:0:0:0:
297,276,32512,1,4,0:0:0:0:
459,31,32867,6,0,L|472:110,1,77.0000023498536,0|0,1:0|0:0,0:0:0:0:
322,172,33103,2,0,L|334:96,1,77.0000023498536,0|0,1:0|0:0,0:0:0:0:
185,31,33339,2,0,L|197:106,1,77.0000023498536,0|0,1:0|0:0,0:0:0:0:
66,250,33575,6,0,B|49:219|49:219|68:180,1,77.0000023498536,0|0,1:0|0:0,0:0:0:0:
184,122,33812,2,0,B|219:122|219:122|243:158,1,77.0000023498536,0|0,1:0|0:0,0:0:0:0:
235,287,34048,2,0,B|216:317|216:317|173:320,1,77.0000023498536,0|0,1:0|0:0,0:0:0:0:
147,213,34284,5,8,0:0:0:0:
157,204,34402,2,0,P|156:131|125:44,1,154.000004699707,4|0,0:0|0:0,0:0:0:0:
253,0,34756,2,0,P|237:33|234:81,1,77.0000023498536,8|0,0:0|0:0,0:0:0:0:
338,131,34993,1,2,1:0:0:0:
362,57,35111,2,0,P|378:90|381:138,1,77.0000023498536,0|0,1:0|0:0,0:0:0:0:
312,231,35347,6,0,P|235:233|208:324,1,154.000004699707,4|0,0:0|0:0,0:0:0:0:
245,370,35701,1,8,0:0:0:0:
112,280,35938,1,0,1:0:0:0:
40,315,36057,1,8,0:0:0:0:
105,265,36175,1,0,1:0:0:0:
166,119,36410,6,0,B|271:108|250:191|384:169,1,210.000008010865,4|4,0:0|0:0,0:0:0:0:
435,253,37119,1,2,0:0:0:0:
425,243,37237,2,0,P|404:195|416:80,1,157.500006008148,2|2,3:2|3:2,0:0:0:0:
334,265,37827,1,8,0:0:0:0:
202,149,38064,6,0,P|168:107|91:198,2,210.000008010865,2|2|2,0:0|3:2|0:0,0:0:0:0:
276,209,39481,2,0,P|270:243|279:273,1,52.5000020027161,2|0,0:0|0:0,0:0:0:0:
352,303,39717,2,0,P|380:283|395:255,1,52.5000020027161,8|0,0:0|0:0,0:0:0:0:
257,275,39953,2,0,P|246:251|245:224,1,52.5000020027161,2|0,3:2|0:0,0:0:0:0:
287,113,40189,6,0,B|234:96|183:114|183:114|152:177|81:165,1,210.000008010865,4|4,0:0|0:0,0:0:0:0:
28,265,40898,1,2,0:0:0:0:
39,263,41016,2,0,P|51:189|-13:117,1,157.500006008148,2|2,3:2|3:2,0:0:0:0:
155,261,41606,1,8,0:0:0:0:
236,186,41843,1,2,0:0:0:0:
316,316,42079,5,4,0:0:0:0:
396,356,42197,2,0,P|414:305|413:251,1,83.9999974365235,2|0,1:0|0:0,0:0:0:0:
465,199,42434,2,0,P|446:148|410:107,1,83.9999974365235,2|0,1:0|0:0,0:0:0:0:
340,0,42670,2,0,P|380:11|415:33,1,83.9999974365235,2|0,1:0|0:0,0:0:0:0:
310,101,42906,2,0,P|269:112|234:134,1,83.9999974365235,8|0,0:0|0:0,0:0:0:0:
103,91,43142,1,0,1:0:0:0:
183,268,43378,1,0,1:0:0:0:
183,268,43438,1,0,0:0:0:0:
183,268,43497,2,0,B|202:212|178:174|178:174|215:124|215:124|187:74|228:31,1,251.999992309571,2|0,1:0|0:0,0:0:0:0:
351,16,43969,6,0,L|446:34,1,90.9999958343508,4|0,1:0|0:0,0:0:0:0:
316,143,44205,2,0,L|405:126,1,90.9999958343508,0|0,1:0|0:0,0:0:0:0:
370,253,44441,2,0,L|465:271,1,90.9999958343508,0|0,1:0|1:0,0:0:0:0:
335,380,44677,2,0,L|424:363,1,90.9999958343508,0|0,1:0|0:0,0:0:0:0:
238,314,44914,2,0,B|167:252|167:252|207:34,2,272.999987503052,0|0|0,1:0|1:0|1:0,0:0:0:0:
62,152,45859,6,0,L|83:266,1,90.9999958343508,4|0,1:0|0:0,0:0:0:0:
193,108,46095,2,0,L|172:222,1,90.9999958343508,0|0,1:0|0:0,0:0:0:0:
323,249,46331,2,0,L|306:159,1,90.9999958343508,0|0,1:0|1:0,0:0:0:0:
422,205,46567,2,0,L|438:115,1,90.9999958343508,0|0,1:0|0:0,0:0:0:0:
496,298,46804,2,0,B|389:317|389:317|366:355|366:355|224:375,2,272.999987503052,0|0|0,1:0|1:0|1:0,0:0:0:0:
265,280,47749,6,0,P|233:252|219:194,1,77.0000023498536,4|2,0:0|2:3,0:0:0:0:
274,128,47985,1,2,2:3:0:0:
256,85,48103,1,2,2:3:0:0:
212,68,48221,1,2,2:3:0:0:
166,78,48339,1,2,2:3:0:0:
135,112,48457,1,2,2:3:0:0:
96,137,48575,1,2,2:3:0:0:
49,135,48693,1,4,2:3:0:0:
16,102,48812,1,2,2:3:0:0:
17,55,48930,2,0,P|47:24|87:18,1,77.0000023498536,4|2,2:3|2:3,0:0:0:0:
135,112,49166,5,8,2:3:0:0:
153,170,49284,1,8,2:3:0:0:
143,230,49402,1,8,2:3:0:0:
105,279,49520,1,8,2:3:0:0:
146,352,49638,5,4,2:3:0:0:
155,362,49756,2,0,P|206:365|296:301,2,154.000004699707,2|2|2,1:0|1:0|1:0,0:0:0:0:
353,202,50465,2,0,P|302:205|212:141,2,154.000004699707,8|0|0,1:0|1:0|0:0,0:0:0:0:
427,143,51056,2,0,P|432:113|429:87,2,51.3333348999024,0|0|0,3:2|3:2|3:2,0:0:0:0:
457,226,51292,2,0,P|484:212|504:195,2,51.3333348999024,0|0|0,3:2|3:2|3:2,0:0:0:0:
397,300,51528,6,0,P|338:304|242:358,1,154.000004699707,4|8,0:0|0:0,0:0:0:0:
176,298,51882,2,0,P|157:266|156:220,1,77.0000023498536,0|0,1:0|0:0,0:0:0:0:
78,179,52119,1,0,1:0:0:0:
67,183,52237,2,0,P|48:215|47:261,1,77.0000023498536,8|2,0:0|0:0,0:0:0:0:
94,352,52473,1,4,0:0:0:0:
270,179,52709,6,0,L|263:255,1,77.0000023498536,8|0,0:0|0:0,0:0:0:0:
364,130,52945,2,0,L|371:206,1,77.0000023498536,0|0,1:0|0:0,0:0:0:0:
465,256,53182,2,0,L|472:180,1,77.0000023498536,8|0,0:0|0:0,0:0:0:0:
425,58,53418,2,0,P|357:104|279:70,1,154.000004699707,4|8,0:0|0:0,0:0:0:0:
143,209,53890,1,2,0:0:0:0:
150,221,54008,2,0,P|178:167|109:128,1,154.000004699707,2|0,0:0|0:0,0:0:0:0:
30,208,54363,5,4,0:0:0:0:
60,252,54481,1,2,1:0:0:0:
69,304,54599,1,0,1:0:0:0:
53,355,54717,1,0,1:0:0:0:
67,350,54835,1,0,1:0:0:0:
82,349,54953,1,0,1:0:0:0:
96,352,55071,1,2,1:0:0:0:
110,357,55189,1,0,1:0:0:0:
122,365,55308,6,0,P|199:364|244:257,1,154.000004699707,4|8,0:0|0:0,0:0:0:0:
315,228,55662,2,0,B|283:299|283:299|331:396,1,154.000004699707,0|0,1:0|1:0,0:0:0:0:
449,326,56016,2,0,P|431:303|383:296,1,77.0000023498536,8|2,0:0|0:0,0:0:0:0:
328,375,56252,1,4,0:0:0:0:
478,218,56489,2,0,B|488:140|488:140|408:120,2,154.000004699707,8|0|8,0:0|1:0|0:0,0:0:0:0:
265,149,57197,6,0,L|280:57,1,77.0000023498536,4|0,0:0|0:0,0:0:0:0:
200,14,57434,2,0,P|154:31|141:64,1,77.0000023498536,8|0,0:0|0:0,0:0:0:0:
87,134,57670,1,2,0:0:0:0:
82,150,57788,2,0,P|103:181|139:189,1,77.0000023498536,0|8,1:0|0:0,0:0:0:0:
194,284,58024,6,0,L|34:312,2,154.000004699707,0|0|0,0:0|1:0|0:0,0:0:0:0:
257,349,58615,1,0,1:0:0:0:
384,227,58851,1,8,0:0:0:0:
422,304,58969,1,2,3:2:0:0:
402,221,59087,1,4,0:0:0:0:
86,243,60977,5,8,2:1:0:0:
104,212,61056,1,8,2:1:0:0:
134,194,61134,1,8,2:1:0:0:
169,187,61213,1,8,2:1:0:0:
206,109,61331,1,0,1:0:0:0:
264,278,61567,1,8,0:0:0:0:
309,138,61922,6,0,B|398:214|398:214|449:82,1,231.000007049561,0|0,1:0|0:0,0:0:0:0:
391,37,62394,1,0,3:0:0:0:
395,23,62512,1,2,3:0:0:0:
300,153,62749,6,0,B|219:172|232:100|103:129,1,175,4|0,1:0|0:0,0:0:0:0:
63,207,63103,2,0,P|100:246|107:300,1,87.5,8|0,0:0|0:0,0:0:0:0:
136,139,63339,1,0,1:0:0:0:
247,329,63575,1,8,0:0:0:0:
319,362,63693,1,0,1:0:0:0:
386,314,63812,2,0,P|402:273|396:214,1,87.5,0|0,1:0|0:0,0:0:0:0:
321,69,64048,2,0,P|358:92|387:144,1,87.5,8|0,0:0|0:0,0:0:0:0:
299,218,64284,1,0,1:0:0:0:
290,210,64402,2,0,P|234:214|196:253,1,87.5,2|8,1:0|0:0,0:0:0:0:
163,330,64638,6,0,L|151:135,1,175,4|2,0:0|0:0,0:0:0:0:
91,41,64993,2,0,P|65:76|60:119,1,87.5,8|0,0:0|0:0,0:0:0:0:
174,76,65229,1,0,1:0:0:0:
177,66,65347,2,0,B|246:15|246:15|332:58,1,175,0|0,1:0|0:0,0:0:0:0:
402,129,65701,5,10,2:3:0:0:
407,145,65780,1,2,2:3:0:0:
406,162,65859,1,2,2:3:0:0:
398,177,65938,1,10,2:3:0:0:
394,193,66016,1,2,2:3:0:0:
397,210,66095,1,2,2:3:0:0:
406,224,66174,2,0,P|342:231|289:332,1,175,0|8,1:0|0:0,0:0:0:0:
67,222,66646,6,0,B|91:163|91:163|243:140,1,175,4|8,0:0|0:0,0:0:0:0:
302,81,67001,2,0,B|278:22|278:22|126:-1,1,175,0|0,1:0|1:0,0:0:0:0:
56,85,67355,2,0,L|38:-8,1,87.5,8|2,0:0|0:0,0:0:0:0:
0,157,67591,1,4,0:0:0:0:
152,271,67827,2,0,B|238:259|238:259|229:163,2,175,8|0|8,0:0|1:0|0:0,0:0:0:0:
377,312,68536,6,0,P|412:314|458:356,1,87.5,4|0,0:0|0:0,0:0:0:0:
457,221,68772,2,0,B|454:172|454:172|413:136,1,87.5,8|0,0:0|0:0,0:0:0:0:
296,165,69008,1,0,1:0:0:0:
287,179,69127,2,0,B|275:215|275:215|297:259,1,87.5,0|8,1:0|0:0,0:0:0:0:
236,346,69363,2,0,B|197:313|149:300|149:300|119:342|119:342|74:309|-1:333,1,262.5,4|8,1:0|0:0,0:0:0:0:
42,83,69953,5,4,2:3:0:0:
58,76,70032,1,4,2:3:0:0:
75,79,70111,1,4,2:3:0:0:
90,85,70189,1,8,2:3:0:0:
107,88,70268,1,8,2:3:0:0:
123,83,70347,1,8,2:3:0:0:
138,75,70426,1,4,0:0:0:0:
202,152,70662,6,0,B|192:201|192:201|221:263,1,94.5000003604889,0|0,1:0|0:0,0:0:0:0:
332,354,70898,2,0,B|313:313|313:313|323:264,1,94.5000003604889,0|0,1:0|0:0,0:0:0:0:
446,154,71134,2,0,B|427:194|427:194|437:243,1,94.5000003604889,0|0,1:0|0:0,0:0:0:0:
317,156,71371,1,0,1:0:0:0:
140,324,71607,6,0,P|111:282|107:232,1,94.5000003604889,0|0,1:0|1:0,0:0:0:0:
39,160,71843,2,0,P|43:109|72:68,1,94.5000003604889,0|0,1:0|0:0,0:0:0:0:
126,331,72079,2,0,P|97:289|93:239,1,94.5000003604889,0|0,1:0|0:0,0:0:0:0:
153,157,72315,2,0,P|254:177|302:106,1,189.000000720978,0|0,1:0|1:0,0:0:0:0:
343,25,72670,2,0,P|343:136|377:234,1,189.000000720978,0|0,1:0|1:0,0:0:0:0:
289,272,73024,1,0,1:0:0:0:
29,164,73260,6,0,B|45:129|45:129|119:115,1,94.5000003604889,0|0,1:0|0:0,0:0:0:0:
310,121,73497,2,0,B|284:91|284:91|209:98,1,94.5000003604889,0|0,1:0|0:0,0:0:0:0:
155,225,73733,2,0,B|180:195|180:195|235:200,1,94.5000003604889,0|0,1:0|0:0,0:0:0:0:
436,268,73970,2,0,B|420:233|420:233|364:222,1,94.5000003604889,0|0,1:0|0:0,0:0:0:0:
283,326,74205,6,0,B|207:377|207:377|109:351,1,189.000000720978,4|0,1:0|1:0,0:0:0:0:
0,213,74560,2,0,B|76:264|76:264|174:238,1,189.000000720978,4|0,0:0|1:0,0:0:0:0:
284,131,74914,2,0,B|228:37|228:37|188:131|188:131|159:105|111:114,1,283.500001081467,4|0,0:0|0:0,0:0:0:0:
372,255,75504,1,0,0:0:0:0:
392,244,75623,2,0,B|423:211|423:211|395:59,1,189.000000720978,0|8,1:0|0:0,0:0:0:0:
280,144,75977,6,0,P|206:153|186:40,1,189.000000720978,0|0,1:0|0:0,0:0:0:0:
119,194,76331,1,8,0:0:0:0:
90,243,76449,1,0,0:0:0:0:
46,279,76567,1,0,1:0:0:0:
45,336,76686,1,0,1:0:0:0:
94,363,76804,1,0,1:0:0:0:
149,351,76922,1,0,1:0:0:0:
205,356,77040,6,0,P|228:348|249:282,1,94.5000003604889,2|2,3:2|3:2,0:0:0:0:
314,176,77276,1,2,3:2:0:0:
349,254,77394,1,0,1:0:0:0:
330,172,77512,1,0,0:0:0:0:
396,120,77630,2,0,P|303:120|286:35,1,189.000000720978,4|0,1:0|0:0,0:0:0:0:
205,141,77985,6,0,B|106:172|127:95|29:114,1,175,4|0,1:0|0:0,0:0:0:0:
0,224,78339,1,2,0:0:0:0:
15,219,78457,2,0,P|53:241|55:294,1,87.5,0|0,1:0|0:0,0:0:0:0:
138,355,78693,1,0,1:0:0:0:
195,289,78812,1,2,0:0:0:0:
211,297,78930,2,0,L|411:283,1,175,0|0,1:0|0:0,0:0:0:0:
449,218,79284,1,2,0:0:0:0:
455,201,79402,2,0,L|441:111,1,87.5,0|0,1:0|0:0,0:0:0:0:
350,16,79638,2,0,L|336:106,1,87.5,2|0,0:0|0:0,0:0:0:0:
216,182,79875,6,0,P|263:170|277:281,1,175,4|0,0:0|1:0,0:0:0:0:
129,350,80229,2,0,B|210:308|210:308|287:371,1,175,0|0,1:0|1:0,0:0:0:0:
369,329,80583,1,0,1:0:0:0:
450,79,80819,2,0,P|361:46|348:132,1,175,4|2,0:0|0:0,0:0:0:0:
266,167,81174,1,0,0:0:0:0:
248,158,81292,2,0,P|235:124|236:64,1,87.5,0|0,1:0|0:0,0:0:0:0:
154,220,81528,2,0,P|124:198|92:147,1,87.5,0|0,1:0|0:0,0:0:0:0:
225,324,81764,6,0,B|328:342|292:268|406:287,1,175,4|0,1:0|0:0,0:0:0:0:
458,39,82237,2,0,P|482:71|490:137,1,87.5,0|0,1:0|0:0,0:0:0:0:
409,176,82473,1,0,1:0:0:0:
354,105,82591,1,2,0:0:0:0:
342,119,82709,2,0,P|297:134|243:132,1,87.5,0|0,1:0|0:0,0:0:0:0:
151,314,82945,2,0,L|140:211,1,87.5,0|0,1:0|0:0,0:0:0:0:
266,304,83182,1,2,3:2:0:0:
245,384,83300,1,2,3:2:0:0:
286,304,83418,1,2,3:2:0:0:
254,220,83536,1,2,3:2:0:0:
309,144,83654,6,0,B|372:126|424:159|424:159|432:120|462:91,1,175,4|0,0:0|0:0,0:0:0:0:
408,247,84008,2,0,P|445:279|488:259,1,87.5,0|0,1:0|0:0,0:0:0:0:
459,123,84245,1,2,1:0:0:0:
291,282,84481,1,8,0:0:0:0:
119,157,84717,1,0,1:0:0:0:
34,320,84953,1,8,3:2:0:0:
45,340,85071,1,8,0:0:0:0:
80,351,85189,1,8,3:2:0:0:
126,343,85308,1,0,3:2:0:0:
171,301,85426,1,0,3:2:0:0:
182,214,85544,6,0,B|159:161|171:121|171:121|202:99|230:103,1,140,4|0,0:0|0:0,0:0:0:0:
307,261,86016,2,0,B|361:242|383:206|383:206|379:169|357:151,1,140,0|2,1:0|0:0,0:0:0:0:
209,314,86489,1,4,0:0:0:0:
372,375,86725,1,2,0:0:0:0:
165,213,86961,2,0,L|95:236,1,70,2|0,1:0|0:0,0:0:0:0:
148,124,87197,2,0,L|78:147,1,70,0|0,1:0|0:0,0:0:0:0:
213,52,87434,5,4,0:0:0:0:
230,42,87552,2,0,B|270:50|279:90|279:90|319:79|356:123,1,140,2|0,1:0|0:0,0:0:0:0:
363,226,87906,2,0,B|350:158|350:158|378:52,1,140,2|2,1:0|0:3,0:0:0:0:
266,190,88260,1,2,0:3:0:0:
256,202,88378,2,0,L|173:186,1,70,4|0,0:0|0:0,0:0:0:0:
255,290,88615,2,0,L|172:274,1,70,2|0,0:3|0:0,0:0:0:0:
302,372,88851,1,10,2:3:0:0:
336,369,88969,1,10,2:3:0:0:
370,366,89087,1,2,2:3:0:0:
404,363,89205,1,2,2:3:0:0:
456,297,89323,5,4,0:0:0:0:
449,288,89441,2,0,B|423:241|423:241|453:209|442:147,1,140,2|0,1:0|0:0,0:0:0:0:
347,66,89796,2,0,B|334:102|345:136|345:136|323:165|277:154,1,140,2|2,1:0|0:3,0:0:0:0:
195,117,90150,1,2,0:3:0:0:
246,39,90268,1,4,0:0:0:0:
68,186,90504,1,2,0:0:0:0:
209,312,90741,2,0,L|198:236,1,70,2|0,1:0|0:0,0:0:0:0:
300,317,90977,2,0,L|290:240,1,70,0|0,1:0|0:0,0:0:0:0:
385,371,91213,5,4,0:0:0:0:
399,367,91331,2,0,B|431:333|429:290|429:290|453:278|453:278|464:241,1,140,0|0,1:0|0:0,0:0:0:0:
382,181,91686,2,0,B|335:164|310:109|327:54,1,140,2|0,1:0|1:0,0:0:0:0:
245,169,92040,2,0,P|223:138|184:115,1,70,2|0,1:0|0:0,0:0:0:0:
128,238,92276,6,0,B|152:193|112:159|112:159|145:148|145:148|129:118|176:81|160:42,1,210,2|0,1:0|1:0,0:0:0:0:
232,287,92867,1,2,3:0:0:0:
350,188,93103,6,0,B|403:157|403:157|474:212,2,125.999996154785,2|0|0,1:0|1:0|1:0,0:0:0:0:
338,280,94048,2,0,B|373:329|373:329|461:308,2,125.999996154785,2|0|0,1:0|1:0|1:0,0:0:0:0:
265,151,94993,1,4,0:0:0:0:
211,221,95111,2,0,L|120:243,2,83.9999974365235,0|0|0,1:0|1:0|0:0,0:0:0:0:
265,139,95701,5,2,2:3:0:0:
263,128,95780,1,0,0:0:0:0:
262,117,95859,1,0,0:0:0:0:
259,106,95938,2,0,P|245:74|224:46,1,41.9999987182618,4|0,0:0|0:0,0:0:0:0:
152,108,96174,2,0,P|138:140|117:168,1,41.9999987182618,0|0,1:0|0:0,0:0:0:0:
49,69,96410,1,2,1:0:0:0:
109,9,96528,1,2,1:0:0:0:
40,60,96646,1,0,1:0:0:0:
53,311,96882,6,0,B|22:258|22:258|77:187,2,125.999996154785,2|0|0,1:0|1:0|1:0,0:0:0:0:
143,331,97827,2,0,B|192:295|192:295|171:207,2,125.999996154785,2|0|0,1:0|1:0|1:0,0:0:0:0:
279,208,98772,1,4,0:0:0:0:
335,269,98890,2,0,P|357:276|379:275,1,41.9999987182618,0|0,1:0|0:0,0:0:0:0:
414,147,99127,2,0,P|436:159|442:225,1,83.9999974365235,0|0,1:0|0:0,0:0:0:0:
279,196,99480,5,0,1:0:0:0:
277,185,99559,1,0,0:0:0:0:
276,174,99638,1,0,0:0:0:0:
273,163,99717,2,0,P|259:131|238:103,1,41.9999987182618,4|0,0:0|0:0,0:0:0:0:
158,102,99953,2,0,P|144:134|123:162,1,41.9999987182618,2|0,2:3|0:0,0:0:0:0:
174,226,100189,2,0,P|127:178|86:216,1,125.999996154785,0|0,1:0|0:0,0:0:0:0:
158,317,100662,5,4,1:0:0:0:
169,329,100780,2,0,L|276:319,1,83.9999974365235,2|0,1:0|0:0,0:0:0:0:
311,246,101016,1,0,1:0:0:0:
322,234,101134,2,0,L|429:244,1,83.9999974365235,2|0,3:2|0:0,0:0:0:0:
477,147,101371,1,8,0:0:0:0:
427,77,101489,2,0,B|336:58|352:126|249:107,1,167.999994873047,0|0,1:0|1:0,0:0:0:0:
203,49,101843,2,0,P|182:14|136:13,1,83.9999974365235,2|0,3:2|0:0,0:0:0:0:
68,88,102079,1,0,1:0:0:0:
98,166,102197,1,0,1:0:0:0:
54,96,102315,1,0,1:0:0:0:
13,211,102434,5,0,1:0:0:0:
17,222,102552,2,0,P|69:270|175:233,1,167.999994873047,4|0,1:0|0:0,0:0:0:0:
222,330,102906,1,0,1:0:0:0:
226,319,103024,2,0,P|270:289|312:285,1,83.9999974365235,2|0,3:2|0:0,0:0:0:0:
368,209,103260,1,8,0:0:0:0:
364,198,103378,2,0,P|320:168|278:164,1,83.9999974365235,0|0,1:0|0:0,0:0:0:0:
468,337,103733,1,2,3:2:0:0:
498,110,103969,5,8,0:0:0:0:
415,93,104087,1,8,0:0:0:0:
370,163,104205,1,8,0:0:0:0:
287,180,104323,1,8,0:0:0:0:
217,126,104441,5,4,1:0:0:0:
207,114,104560,2,0,P|198:73|201:24,1,83.9999974365235,2|0,1:0|0:0,0:0:0:0:
161,205,104796,1,0,1:0:0:0:
145,202,104915,2,0,P|111:176|82:136,1,83.9999974365235,2|0,3:2|0:0,0:0:0:0:
182,307,105150,1,8,0:0:0:0:
250,255,105268,2,0,B|344:228|302:304|436:288,1,167.999994873047,2|0,1:0|1:0,0:0:0:0:
483,232,105623,2,0,P|492:197|488:132,1,83.9999974365235,2|0,3:2|0:0,0:0:0:0:
379,73,105859,6,0,L|374:18,4,41.9999987182618,0|0|0|0|0,1:0|0:0|0:0|0:0|1:0,0:0:0:0:
332,148,106213,1,2,3:2:0:0:
262,94,106331,1,4,0:0:0:0:
254,107,106449,1,2,1:0:0:0:
176,302,106686,5,2,1:0:0:0:
127,84,106922,5,2,1:0:0:0:
298,271,107158,5,8,0:0:0:0:
415,77,107394,6,0,P|460:82|466:115,2,70,0|0|2,1:0|0:0|0:0,0:0:0:0:
454,190,107749,2,0,P|433:132|320:179,1,210,4|0,1:0|0:0,0:0:0:0:
203,243,108221,6,0,P|185:205|192:147,1,77.0000023498536,4|0,0:0|0:0,0:0:0:0:
149,327,108457,2,0,B|105:332|105:332|79:358,1,77.0000023498536,8|0,0:0|0:0,0:0:0:0:
266,331,108693,2,0,L|351:345,1,77.0000023498536,0|0,1:0|0:0,0:0:0:0:
439,235,108930,2,0,P|394:237|362:270,1,77.0000023498536,8|0,0:0|0:0,0:0:0:0:
383,49,109166,6,0,L|402:152,1,77.0000023498536,4|0,0:0|0:0,0:0:0:0:
283,70,109402,2,0,L|302:173,1,77.0000023498536,8|0,0:0|0:0,0:0:0:0:
181,228,109638,2,0,L|195:153,1,77.0000023498536,0|0,1:0|0:0,0:0:0:0:
64,67,109874,2,0,B|57:107|57:107|77:142,1,77.0000023498536,8|0,0:0|0:0,0:0:0:0:
34,275,110111,6,0,P|85:278|114:376,1,154.000004699707,4|8,0:0|0:0,0:0:0:0:
214,280,110465,1,0,1:0:0:0:
276,335,110583,2,0,B|370:341|330:282|434:295,1,154.000004699707,0|8,0:0|0:0,0:0:0:0:
480,216,110938,2,0,P|455:184|452:142,1,77.0000023498536,0|0,1:0|0:0,0:0:0:0:
372,50,111174,5,8,2:3:0:0:
325,50,111292,1,8,2:3:0:0:
289,79,111410,1,8,2:3:0:0:
278,124,111528,1,0,1:0:0:0:
252,180,111646,1,0,1:0:0:0:
201,215,111764,1,0,1:0:0:0:
139,208,111882,1,0,1:0:0:0:
83,141,112001,6,0,L|104:62,1,77.0000023498536,4|0,0:0|0:0,0:0:0:0:
42,250,112237,1,8,0:0:0:0:
67,289,112355,2,0,P|102:302|159:305,1,77.0000023498536,0|0,1:0|0:0,0:0:0:0:
227,364,112591,2,0,P|262:351|319:348,1,77.0000023498536,0|8,1:0|0:0,0:0:0:0:
379,209,112827,6,0,L|401:384,1,154.000004699707,0|2,1:0|0:0,0:0:0:0:
275,241,113182,2,0,B|257:208|257:208|271:164,1,77.0000023498536,8|0,0:0|0:0,0:0:0:0:
174,49,113418,2,0,B|211:49|211:49|242:84,1,77.0000023498536,0|0,1:0|0:0,0:0:0:0:
391,64,113654,2,0,B|371:96|371:96|326:105,1,77.0000023498536,8|0,0:0|0:0,0:0:0:0:
170,152,113890,6,0,P|93:165|92:245,1,154.000004699707,4|8,0:0|0:0,0:0:0:0:
178,329,114245,2,0,L|190:242,1,77.0000023498536,0|0,1:0|0:0,0:0:0:0:
292,178,114481,1,4,2:3:0:0:
352,241,114599,2,0,B|361:319|361:319|460:312,1,154.000004699707,8|2,0:0|0:0,0:0:0:0:
412,170,114953,2,0,B|487:164|487:164|496:242,1,154.000004699707,8|0,0:0|0:0,0:0:0:0:
352,241,115308,2,0,B|312:258|312:258|301:297,1,77.0000023498536,0|0,1:0|0:0,0:0:0:0:
233,353,115544,1,4,2:3:0:0:
168,294,115662,1,4,2:3:0:0:
94,364,115780,6,0,P|130:300|120:215,1,154.000004699707,4|0,0:0|0:0,0:0:0:0:
253,154,116134,2,0,B|206:216|206:216|129:184,1,154.000004699707,0|0,1:0|0:0,0:0:0:0:
64,101,116489,2,0,B|149:24|149:24|274:39,2,231.000007049561,8|0|0,0:0|1:0|1:0,0:0:0:0:
135,186,117315,1,0,1:0:0:0:
36,259,117434,1,0,3:2:0:0:
292,364,117670,5,2,3:2:0:0:
303,340,117749,1,2,3:2:0:0:
301,314,117827,1,2,3:2:0:0:
289,291,117906,1,0,3:2:0:0:
284,265,117985,1,0,3:2:0:0:
287,239,118064,1,0,3:2:0:0:
300,217,118142,2,0,P|325:201|352:201,2,51.3333348999024,2|2|2,3:2|3:2|3:2,0:0:0:0:
248,132,118378,2,0,P|223:116|196:116,2,51.3333348999024,8|8|8,3:3|3:3|3:3,0:0:0:0:
312,55,118615,1,0,1:0:0:0:
496,303,119441,6,0,B|421:312|421:312|401:278|401:278|311:286,1,175,4|0,1:0|0:0,0:0:0:0:
206,367,119796,2,0,P|243:328|250:274,1,87.5,8|0,0:0|0:0,0:0:0:0:
166,239,120031,1,0,1:0:0:0:
295,126,120267,1,8,0:0:0:0:
273,38,120385,1,0,1:0:0:0:
187,15,120504,2,0,P|171:56|177:115,1,87.5,0|0,1:0|0:0,0:0:0:0:
86,153,120741,2,0,P|53:124|41:69,1,87.5,8|0,0:0|0:0,0:0:0:0:
55,240,120976,1,0,1:0:0:0:
67,249,121094,2,0,P|123:245|161:206,1,87.5,2|8,1:0|0:0,0:0:0:0:
198,363,121330,6,0,L|168:169,1,175,4|2,0:0|0:0,0:0:0:0:
278,274,121685,2,0,P|297:317|332:343,1,87.5,8|0,0:0|0:0,0:0:0:0:
439,280,121921,1,0,1:0:0:0:
436,194,122039,2,0,B|367:143|367:143|281:186,1,175,0|0,1:0|0:0,0:0:0:0:
171,260,122393,5,10,2:3:0:0:
176,244,122472,1,2,2:3:0:0:
175,227,122551,1,2,2:3:0:0:
167,212,122630,1,10,2:3:0:0:
163,196,122708,1,2,2:3:0:0:
166,179,122787,1,2,2:3:0:0:
175,165,122866,2,0,P|201:116|118:45,1,175,0|8,1:0|0:0,0:0:0:0:
296,197,123338,6,0,B|320:138|320:138|472:115,1,175,4|8,0:0|0:0,0:0:0:0:
449,264,123693,2,0,B|425:205|425:205|273:182,1,175,0|0,1:0|1:0,0:0:0:0:
249,339,124047,2,0,L|231:246,1,87.5,8|2,0:0|0:0,0:0:0:0:
337,290,124283,1,4,0:0:0:0:
196,126,124520,2,0,B|110:138|110:138|119:234,2,175,8|0|8,0:0|1:0|0:0,0:0:0:0:
428,47,125229,5,4,0:0:0:0:
407,139,125347,1,0,0:0:0:0:
476,202,125464,2,0,B|473:153|473:153|432:117,1,87.5,8|0,0:0|0:0,0:0:0:0:
420,275,125700,1,0,1:0:0:0:
333,243,125819,2,0,B|311:199|311:199|323:163,1,87.5,0|8,1:0|0:0,0:0:0:0:
267,332,126055,2,0,B|240:314|215:321|215:321|180:286|180:286|150:328|150:328|110:298|110:298|66:299|30:319,1,262.5,4|8,1:0|0:0,0:0:0:0:
122,62,126645,5,4,2:3:0:0:
123,79,126724,1,4,2:3:0:0:
115,94,126803,1,4,2:3:0:0:
105,107,126881,1,8,2:3:0:0:
97,122,126960,1,8,2:3:0:0:
96,139,127039,1,8,2:3:0:0:
99,155,127118,1,4,0:0:0:0:
224,100,127355,6,0,B|255:223,1,94.5000003604889,0|0,1:0|0:0,0:0:0:0:
437,166,127591,2,0,B|409:291,1,94.5000003604889,0|0,1:0|0:0,0:0:0:0:
211,97,127827,2,0,B|242:227,1,94.5000003604889,0|0,1:0|0:0,0:0:0:0:
429,152,128064,2,0,B|404:254,1,94.5000003604889,0|0,1:0|0:0,0:0:0:0:
259,308,128299,6,0,P|227:348|180:366,1,94.5000003604889,0|0,1:0|1:0,0:0:0:0:
61,286,128535,2,0,P|65:235|94:194,1,94.5000003604889,0|0,1:0|0:0,0:0:0:0:
269,319,128771,2,0,P|237:359|190:377,1,94.5000003604889,0|0,1:0|0:0,0:0:0:0:
220,181,129008,2,0,P|321:201|369:130,1,189.000000720978,0|0,1:0|1:0,0:0:0:0:
494,220,129362,2,0,B|460:133|460:133|528:11,1,189.000000720978,0|0,1:0|1:0,0:0:0:0:
407,18,129717,1,0,1:0:0:0:
178,173,129953,6,0,B|168:128|168:128|134:89,1,94.5000003604889,0|0,1:0|0:0,0:0:0:0:
293,259,130189,2,0,B|303:214|303:214|337:175,1,94.5000003604889,0|0,1:0|0:0,0:0:0:0:
123,340,130426,2,0,B|113:295|113:295|79:256,1,94.5000003604889,0|0,1:0|1:0,0:0:0:0:
235,353,130662,1,0,1:0:0:0:
268,110,130898,6,0,B|333:40|333:40|442:85,1,189.000000720978,4|0,1:0|1:0,0:0:0:0:
252,208,131252,2,0,B|309:284|309:284|422:251,1,189.000000720978,4|0,0:0|1:0,0:0:0:0:
167,143,131607,2,0,B|84:125|36:190|36:190|59:223|59:223|28:274|52:327|52:327|83:299|133:296,1,378.000001441956,4|0,0:0|1:0,0:0:0:0:
238,338,132196,1,0,0:0:0:0:
253,329,132315,2,0,B|270:304|270:304|255:228,2,94.5000003604889,0|0|8,1:0|1:0|0:0,0:0:0:0:
334,142,132670,5,0,1:0:0:0:
355,100,132788,2,0,P|400:84|469:82,1,94.5000003604889,4|0,0:0|0:0,0:0:0:0:
357,251,133024,2,0,P|402:267|471:269,1,94.5000003604889,8|0,0:0|0:0,0:0:0:0:
257,196,133259,1,0,1:0:0:0:
180,255,133378,1,0,1:0:0:0:
123,178,133496,1,0,1:0:0:0:
107,187,133615,6,0,B|83:231|91:260|91:260|74:280|74:280|105:316|101:370,1,189.000000720978,0|2,1:0|3:2,0:0:0:0:
199,337,133969,1,0,1:0:0:0:
288,377,134087,1,0,1:0:0:0:
337,304,134205,1,4,0:0:0:0:
401,364,134323,1,0,1:0:0:0:
418,351,134441,2,0,P|436:325|436:260,1,94.5000003604889,2|0,3:2|0:0,0:0:0:0:
368,169,134678,6,0,B|269:200|290:123|192:142,1,175,4|0,1:0|0:0,0:0:0:0:
76,31,135032,1,2,0:0:0:0:
90,22,135150,2,0,P|128:44|130:97,1,87.5,0|0,1:0|0:0,0:0:0:0:
87,178,135386,1,0,1:0:0:0:
147,260,135505,1,2,0:0:0:0:
163,268,135623,2,0,B|252:259|252:259|266:347,1,175,0|0,1:0|0:0,0:0:0:0:
371,296,135977,1,2,0:0:0:0:
383,284,136095,2,0,L|397:194,1,87.5,0|0,1:0|0:0,0:0:0:0:
301,120,136331,2,0,L|287:30,1,87.5,2|0,0:0|0:0,0:0:0:0:
145,80,136568,6,0,P|98:68|84:179,1,175,4|0,0:0|1:0,0:0:0:0:
138,288,136922,2,0,P|133:312|64:256,1,175,0|0,1:0|1:0,0:0:0:0:
163,192,137276,1,0,1:0:0:0:
332,350,137512,2,0,P|367:252|360:169,1,175,4|2,0:0|0:0,0:0:0:0:
316,61,137867,1,0,0:0:0:0:
236,31,137985,2,0,P|223:65|224:125,1,87.5,0|0,1:0|0:0,0:0:0:0:
144,219,138221,2,0,P|114:197|82:146,1,87.5,0|0,1:0|0:0,0:0:0:0:
225,324,138457,6,0,B|328:342|292:268|390:285|390:285|409:238|383:185,1,262.5,4|2,1:0|0:0,0:0:0:0:
452,17,138930,2,0,P|476:49|484:115,1,87.5,0|0,1:0|0:0,0:0:0:0:
369,114,139166,1,0,1:0:0:0:
321,44,139284,1,2,0:0:0:0:
334,32,139402,2,0,P|289:17|235:19,1,87.5,0|0,1:0|0:0,0:0:0:0:
168,158,139638,2,0,L|157:55,1,87.5,0|0,1:0|0:0,0:0:0:0:
81,212,139875,1,2,3:2:0:0:
152,273,139993,1,2,3:2:0:0:
237,232,140111,1,2,3:2:0:0:
151,289,140229,1,2,3:2:0:0:
236,334,140347,5,4,0:0:0:0:
249,345,140465,2,0,L|352:332,1,87.5,2|0,1:0|0:0,0:0:0:0:
458,241,140701,2,0,L|355:228,1,87.5,2|0,1:0|0:0,0:0:0:0:
249,137,140938,2,0,L|352:124,1,87.5,2|0,1:0|0:0,0:0:0:0:
441,58,141174,1,8,0:0:0:0:
169,15,141410,2,0,P|117:54|116:169,1,175,0|8,1:0|3:2,0:0:0:0:
31,222,141764,1,8,0:0:0:0:
16,264,141882,1,8,3:2:0:0:
31,315,142001,1,0,3:2:0:0:
76,350,142119,1,0,3:2:0:0:
146,336,142237,6,0,B|245:305|224:382|322:363,1,175,4|0,1:0|0:0,0:0:0:0:
367,219,142591,1,2,0:0:0:0:
353,210,142709,2,0,P|315:232|313:285,1,87.5,0|0,1:0|0:0,0:0:0:0:
426,324,142945,1,0,1:0:0:0:
469,230,143064,1,2,0:0:0:0:
467,214,143182,2,0,B|453:129|453:129|354:84,1,175,0|0,1:0|0:0,0:0:0:0:
264,153,143536,1,2,0:0:0:0:
252,141,143654,2,0,L|238:51,1,87.5,0|0,1:0|0:0,0:0:0:0:
146,152,143890,2,0,L|160:242,1,87.5,2|0,0:0|0:0,0:0:0:0:
298,337,144127,6,0,P|345:349|359:238,1,175,4|0,0:0|1:0,0:0:0:0:
347,147,144481,2,0,P|352:123|421:179,1,175,0|0,1:0|1:0,0:0:0:0:
293,222,144835,2,0,P|237:226|205:210,1,87.5,0|0,1:0|0:0,0:0:0:0:
128,298,145071,2,0,P|88:202|100:117,1,175,4|2,0:0|0:0,0:0:0:0:
185,91,145426,1,0,0:0:0:0:
204,86,145544,2,0,P|217:52|216:-8,1,87.5,0|0,1:0|0:0,0:0:0:0:
317,89,145780,2,0,P|330:123|329:183,1,87.5,0|0,1:0|0:0,0:0:0:0:
262,271,146016,6,0,B|365:253|329:327|427:310|427:310|447:269|417:211,1,262.5,4|2,1:0|0:0,0:0:0:0:
500,140,146489,2,0,P|491:97|465:62,1,87.5,0|0,1:0|0:0,0:0:0:0:
376,103,146725,1,0,1:0:0:0:
303,40,146843,1,2,0:0:0:0:
290,28,146961,2,0,P|246:32|205:57,1,87.5,0|0,1:0|0:0,0:0:0:0:
142,127,147197,2,0,L|42:118,1,87.5,0|0,1:0|0:0,0:0:0:0:
0,199,147434,1,2,3:2:0:0:
58,264,147552,1,2,3:2:0:0:
0,338,147670,1,2,3:2:0:0:
73,266,147788,1,2,3:2:0:0:
148,328,147906,5,4,0:0:0:0:
161,339,148024,2,0,L|264:326,2,87.5,2|0|2,1:0|0:0|1:0,0:0:0:0:
257,224,148378,1,0,0:0:0:0:
257,224,148497,2,0,L|268:119,1,87.5,2|0,1:0|0:0,0:0:0:0:
344,288,148733,2,0,B|403:229|403:229|388:106,1,175,8|0,0:0|1:0,0:0:0:0:
81,191,149205,5,8,3:2:0:0:
107,108,149323,1,2,3:2:0:0:
96,199,149441,1,2,3:2:0:0:
161,267,149560,1,2,3:2:0:0:
134,357,149678,1,0,1:0:0:0:
86,93,161134,5,2,0:0:0:0:
106,115,161371,1,2,0:0:0:0:
144,129,161607,1,2,0:0:0:0:
186,129,161843,1,2,0:0:0:0:
228,105,162079,1,2,0:0:0:0:
306,167,162315,1,0,0:0:0:0:
306,167,162552,2,0,P|287:232|223:200,1,140,2|2,0:0|0:0,0:0:0:0:
166,292,163260,2,0,P|132:274|102:272,2,70,0|0|0,0:0|0:0|0:0,0:0:0:0:
285,354,163969,5,2,0:0:0:0:
367,333,164205,1,2,0:0:0:0:
345,252,164441,1,2,0:0:0:0:
263,273,164914,1,2,0:0:0:0:
414,175,165386,5,2,0:0:0:0:
332,154,165622,1,2,0:0:0:0:
354,73,165858,1,2,0:0:0:0:
436,94,166331,1,2,0:0:0:0:
230,178,166804,5,2,0:0:0:0:
210,156,167041,1,2,0:0:0:0:
172,142,167277,1,2,0:0:0:0:
130,142,167513,1,2,0:0:0:0:
88,166,167749,1,2,0:0:0:0:
10,104,167985,1,0,0:0:0:0:
10,104,168222,2,0,P|29:39|93:71,1,140,2|2,0:0|0:0,0:0:0:0:
195,10,169166,2,0,L|180:100,1,70,0|0,0:0|0:0,0:0:0:0:
313,130,169639,5,2,0:0:0:0:
395,109,169875,1,2,0:0:0:0:
373,28,170111,1,2,0:0:0:0:
291,49,170584,1,2,0:0:0:0:
212,146,171056,5,2,0:0:0:0:
209,166,171174,1,2,0:0:0:0:
210,186,171292,1,2,0:0:0:0:
216,205,171410,1,2,0:0:0:0:
223,224,171528,1,2,0:0:0:0:
225,244,171646,1,2,0:0:0:0:
224,264,171764,1,2,0:0:0:0:
218,284,171882,2,0,B|131:298|158:239|68:254,1,140,2|0,0:0|0:0,0:0:0:0:
22,305,172473,5,4,0:0:0:0:
0,164,172591,2,0,B|10:115|10:115|52:76,1,87.5,0|0,1:0|0:0,0:0:0:0:
197,126,172827,2,0,B|170:83|170:83|135:69,1,87.5,0|0,1:0|0:0,0:0:0:0:
49,96,173064,1,2,3:2:0:0:
212,134,173182,2,0,B|215:183|215:183|195:215,1,87.5,0|0,1:0|0:0,0:0:0:0:
292,334,173418,6,0,L|309:228,1,87.5,4|0,0:0|0:0,0:0:0:0:
399,375,173654,2,0,L|416:269,1,87.5,0|0,1:0|0:0,0:0:0:0:
477,214,173890,1,2,3:2:0:0:
373,148,174008,2,0,B|382:106|382:106|425:74,2,87.5,0|0|2,1:0|0:0|3:2,0:0:0:0:
263,177,174363,5,2,0:3:0:0:
228,171,174441,1,0,0:3:0:0:
200,149,174520,1,0,0:3:0:0:
187,116,174599,1,2,0:3:0:0:
164,89,174678,1,0,0:3:0:0:
133,73,174756,1,0,0:3:0:0:
97,72,174835,2,0,L|6:90,1,87.5,0|0,1:0|1:0,0:0:0:0:
80,174,175071,1,0,1:0:0:0:
22,255,175189,1,0,1:0:0:0:
92,331,175308,5,4,0:0:0:0:
113,319,175426,2,0,B|197:339|197:339|277:296,1,175,0|0,1:0|1:0,0:0:0:0:
362,350,175780,1,0,0:0:0:0:
412,266,175898,1,2,3:2:0:0:
409,258,175957,1,2,3:2:0:0:
407,250,176016,2,0,B|397:207|397:207|417:149,1,87.5,0|0,1:0|0:0,0:0:0:0:
219,155,176252,2,0,B|261:167|261:167|301:214,1,87.5,4|0,0:0|0:0,0:0:0:0:
404,44,176489,2,0,B|371:74|371:74|311:85,1,87.5,0|0,1:0|0:0,0:0:0:0:
212,17,176725,1,2,3:2:0:0:
148,80,176843,2,0,L|38:97,2,87.5,0|0|2,1:0|0:0|3:2,0:0:0:0:
219,155,177197,5,2,0:3:0:0:
224,189,177276,1,0,0:3:0:0:
214,222,177355,1,0,0:3:0:0:
193,250,177434,1,2,0:3:0:0:
181,282,177512,1,0,0:3:0:0:
187,316,177591,1,0,0:3:0:0:
210,341,177670,2,0,P|249:325|312:326,1,87.5,2|2,3:2|3:2,0:0:0:0:
393,374,177906,1,2,0:0:0:0:
448,277,178024,1,2,0:0:0:0:
389,187,178142,5,4,0:0:0:0:
398,169,178260,2,0,L|497:156,1,87.5,0|0,1:0|0:0,0:0:0:0:
359,83,178497,1,0,1:0:0:0:
350,65,178615,2,0,L|251:52,1,87.5,0|2,0:0|3:2,0:0:0:0:
182,144,178851,2,0,B|189:187|189:187|230:233,1,87.5,0|0,1:0|0:0,0:0:0:0:
46,304,179087,2,0,B|79:276|79:276|98:217,1,87.5,4|0,0:0|0:0,0:0:0:0:
259,334,179324,2,0,B|216:319|216:319|157:332,1,87.5,0|0,1:0|0:0,0:0:0:0:
312,255,179560,1,2,3:2:0:0:
282,173,179678,2,0,P|250:140|202:139,2,87.5,0|0|2,1:0|0:0|3:2,0:0:0:0:
393,155,180032,5,2,0:3:0:0:
415,128,180111,1,0,0:3:0:0:
422,94,180189,1,0,0:3:0:0:
405,62,180268,1,2,0:3:0:0:
375,43,180347,1,0,0:3:0:0:
339,44,180426,1,0,0:3:0:0:
309,62,180504,2,0,P|262:66|217:44,1,87.5,0|0,1:0|1:0,0:0:0:0:
154,113,180741,1,0,1:0:0:0:
190,194,180859,1,0,1:0:0:0:
119,265,180977,5,4,0:0:0:0:
134,281,181095,2,0,P|152:311|156:375,1,87.5,0|0,1:0|0:0,0:0:0:0:
268,306,181331,1,0,1:0:0:0:
283,290,181449,2,0,P|301:260|305:196,1,87.5,0|2,0:0|3:2,0:0:0:0:
389,91,181686,6,0,B|414:55|414:55|474:44,1,87.5,0|0,1:0|0:0,0:0:0:0:
226,170,181922,2,0,B|201:134|201:134|141:123,1,87.5,4|0,0:0|0:0,0:0:0:0:
402,227,182158,2,0,B|427:191|427:191|487:180,1,87.5,0|0,1:0|0:0,0:0:0:0:
299,311,182394,1,2,3:2:0:0:
264,332,182473,1,0,3:2:0:0:
223,340,182552,1,0,3:2:0:0:
182,337,182630,1,0,3:2:0:0:
146,316,182709,1,0,3:2:0:0:
112,292,182788,1,0,3:2:0:0:
72,282,182867,6,0,P|44:293|23:314,2,58.3333333333333,0|0|0,3:2|3:2|3:2,0:0:0:0:
137,187,183103,2,0,P|165:198|186:219,2,58.3333333333333,2|2|2,3:3|3:3|3:3,0:0:0:0:
61,106,183339,6,0,L|52:-14,1,87.5,4|0,1:0|0:0,0:0:0:0:
252,120,183575,2,0,L|263:-2,1,87.5,4|0,1:0|0:0,0:0:0:0:
441,138,183812,2,0,L|463:54,1,87.5,4|0,0:0|0:0,0:0:0:0:
502,220,184048,6,0,P|445:279|376:250,1,161.000003070831,8|0,0:0|0:0,0:0:0:0:
316,325,184402,1,2,3:2:0:0:
307,342,184520,2,0,L|224:355,1,80.5000015354157,8|0,0:0|0:0,0:0:0:0:
133,203,184756,2,0,P|131:250|106:292,1,80.5000015354157,4|0,0:0|0:0,0:0:0:0:
238,189,184993,2,0,P|236:142|211:100,1,80.5000015354157,8|0,0:0|0:0,0:0:0:0:
330,20,185229,1,0,1:0:0:0:
321,112,185347,1,0,3:2:0:0:
397,163,185465,2,0,P|408:210|407:252,1,80.5000015354157,8|0,0:0|0:0,0:0:0:0:
327,324,185701,6,0,B|253:337|253:337|236:323|236:323|163:333,1,161.000003070831,4|8,0:0|0:0,0:0:0:0:
26,306,186056,2,0,P|95:281|74:207,1,161.000003070831,0|0,3:2|3:2,0:0:0:0:
200,118,186410,2,0,L|188:212,1,80.5000015354157,8|0,0:0|0:0,0:0:0:0:
82,86,186646,1,4,0:0:0:0:
311,5,186882,2,0,P|411:22|449:75,1,161.000003070831,8|0,0:0|1:0,0:0:0:0:
391,138,187237,1,2,0:0:0:0:
391,138,187355,2,0,P|334:165|322:206,1,80.5000015354157,0|0,1:0|0:0,0:0:0:0:
407,303,187591,6,0,B|489:261,1,80.5000015354157,2|0,1:0|0:0,0:0:0:0:
288,292,187827,2,0,B|213:242,1,80.5000015354157,0|0,1:0|0:0,0:0:0:0:
145,108,188064,2,0,P|99:130|81:153,1,80.5000015354157,0|0,1:0|0:0,0:0:0:0:
275,119,188300,2,0,P|314:151|326:177,1,80.5000015354157,0|0,1:0|0:0,0:0:0:0:
447,117,188536,2,0,P|421:195|441:285,1,161.000003070831,2|0,1:0|1:0,0:0:0:0:
366,368,188890,2,0,B|333:288|333:288|241:261,1,161.000003070831,0|0,1:0|1:0,0:0:0:0:
183,214,189245,1,0,1:0:0:0:
117,280,189363,1,0,1:0:0:0:
34,229,189481,6,0,P|24:187|96:100,1,161.000003070831,4|0,1:0|1:0,0:0:0:0:
132,9,189835,2,0,L|299:19,1,161.000003070831,2|0,1:2|1:0,0:0:0:0:
216,174,190189,2,0,B|197:139|197:139|202:93,1,80.5000015354157,2|0,1:2|0:0,0:0:0:0:
312,211,190426,2,0,P|377:193|400:100,1,161.000003070831,4|0,0:0|1:0,0:0:0:0:
208,281,190898,2,0,L|119:294,1,80.5000015354157,0|0,1:0|0:0,0:0:0:0:
19,178,191134,2,0,L|108:191,1,80.5000015354157,0|2,1:0|3:2,0:0:0:0:
201,98,191371,6,0,P|203:35|295:18,1,161.000003070831,4|0,1:0|1:0,0:0:0:0:
240,178,191725,2,0,P|295:207|356:136,1,161.000003070831,2|0,1:2|1:0,0:0:0:0:
449,278,192079,2,0,P|410:289|371:282,1,80.5000015354157,2|0,1:2|0:0,0:0:0:0:
259,365,192315,1,8,2:3:0:0:
235,351,192394,1,8,2:3:0:0:
218,329,192473,1,8,2:3:0:0:
209,303,192552,1,8,2:3:0:0:
195,280,192630,1,8,2:3:0:0:
174,263,192709,1,8,2:3:0:0:
148,255,192788,1,0,1:0:0:0:
82,329,192906,1,2,3:2:0:0:
203,93,193142,5,0,1:0:0:0:
99,80,193260,2,0,L|213:71,1,87.5,4|0,1:0|0:0,0:0:0:0:
281,162,193497,2,0,P|318:123|325:69,1,87.5,8|0,0:0|0:0,0:0:0:0:
257,0,193732,1,0,1:0:0:0:
418,128,193968,1,8,0:0:0:0:
434,224,194086,1,0,1:0:0:0:
368,294,194205,2,0,B|331:317|331:317|269:302,1,87.5,0|0,1:0|0:0,0:0:0:0:
131,200,194441,2,0,B|144:241|144:241|201:269,1,87.5,8|0,0:0|0:0,0:0:0:0:
276,176,194677,1,0,1:0:0:0:
212,119,194795,2,0,P|186:86|185:37,1,87.5,2|8,1:0|0:0,0:0:0:0:
60,53,195031,6,0,L|254:19,1,175,4|2,0:0|0:0,0:0:0:0:
378,48,195386,2,0,P|350:81|299:81,1,87.5,8|0,0:0|0:0,0:0:0:0:
372,183,195623,1,0,1:0:0:0:
295,252,195740,2,0,B|364:303|364:303|450:260,1,175,0|0,1:0|0:0,0:0:0:0:
301,375,196094,5,10,2:3:0:0:
272,367,196173,1,2,2:3:0:0:
248,349,196252,1,2,2:3:0:0:
224,332,196331,1,10,2:3:0:0:
196,322,196409,1,2,2:3:0:0:
166,321,196488,1,2,2:3:0:0:
137,328,196567,2,0,P|111:279|194:208,1,175,0|8,1:0|0:0,0:0:0:0:
362,45,197039,6,0,B|421:69|421:69|444:221,1,175,4|8,0:0|0:0,0:0:0:0:
494,293,197394,2,0,B|470:234|470:234|318:211,1,175,0|0,1:0|1:0,0:0:0:0:
279,346,197748,2,0,B|301:318|301:318|368:306,1,87.5,8|2,0:0|0:0,0:0:0:0:
243,237,197984,1,4,0:0:0:0:
383,58,198220,2,0,B|469:70|469:70|460:166,2,175,8|0|8,0:0|1:0|0:0,0:0:0:0:
208,147,198930,5,4,0:0:0:0:
116,168,199048,1,0,0:0:0:0:
53,99,199166,2,0,B|102:102|102:102|138:143,1,87.5,8|0,0:0|0:0,0:0:0:0:
5,206,199401,1,0,1:0:0:0:
85,288,199520,2,0,B|132:277|132:277|162:231,1,87.5,0|8,1:0|0:0,0:0:0:0:
262,360,199756,2,0,B|254:290|298:264|298:264|265:225|265:225|293:213|293:213|277:170|294:147|299:116,1,262.5,4|8,1:0|0:0,0:0:0:0:
460,294,200347,2,0,L|469:244,3,43.75,4|0|0|0,2:3|0:0|0:0|0:0,0:0:0:0:
405,189,200583,1,8,2:3:0:0:
466,111,200701,1,0,0:0:0:0:
366,67,200819,1,4,0:0:0:0:
230,224,201056,6,0,B|280:231|280:231|317:277,1,94.5000003604889,0|0,1:0|0:0,0:0:0:0:
88,206,201292,2,0,B|37:202|37:202|-8:239,1,94.5000003604889,0|0,1:0|0:0,0:0:0:0:
167,148,201528,2,0,L|182:40,1,94.5000003604889,0|0,1:0|0:0,0:0:0:0:
151,282,201764,2,0,L|137:375,1,94.5000003604889,0|0,1:0|0:0,0:0:0:0:
311,251,202001,6,0,P|314:193|294:142,1,94.5000003604889,0|0,1:0|1:0,0:0:0:0:
382,348,202237,2,0,P|421:305|439:253,1,94.5000003604889,0|0,1:0|0:0,0:0:0:0:
452,75,202473,2,0,P|466:131|456:185,1,94.5000003604889,0|0,1:0|0:0,0:0:0:0:
337,62,202709,6,0,P|270:31|205:124,1,189.000000720978,0|0,1:0|1:0,0:0:0:0:
35,197,203064,2,0,B|125:170|125:170|203:236,1,189.000000720978,0|0,1:0|1:0,0:0:0:0:
288,176,203418,1,0,1:0:0:0:
425,358,203654,6,0,L|442:244,1,94.5000003604889,0|0,1:0|0:0,0:0:0:0:
279,368,203890,2,0,L|296:254,1,94.5000003604889,0|0,1:0|0:0,0:0:0:0:
175,154,204127,2,0,L|158:40,1,94.5000003604889,0|0,1:0|0:0,0:0:0:0:
43,262,204363,2,0,L|26:148,1,94.5000003604889,0|0,1:0|0:0,0:0:0:0:
243,251,204599,6,0,B|288:199|288:199|271:66,1,189.000000720978,4|0,1:0|1:0,0:0:0:0:
450,219,204953,2,0,B|390:184|390:184|365:51,1,189.000000720978,4|0,0:0|1:0,0:0:0:0:
355,290,205308,2,0,P|334:356|216:339,1,189.000000720978,4|0,0:0|1:0,0:0:0:0:
147,162,205780,1,8,0:0:0:0:
230,114,205898,2,0,B|268:130|268:130|285:210,1,94.5000003604889,0|0,0:0|1:0,0:0:0:0:
355,290,206134,2,0,B|393:274|393:274|410:194,2,94.5000003604889,0|8|0,1:0|0:0|1:0,0:0:0:0:
493,186,206489,5,4,0:0:0:0:
494,154,206567,1,2,3:2:0:0:
484,123,206646,1,2,3:2:0:0:
464,97,206725,2,0,P|423:78|355:94,1,94.5000003604889,8|0,0:0|0:0,0:0:0:0:
279,182,206961,1,0,1:0:0:0:
203,128,207079,2,0,B|196:74|196:74|230:43,2,94.5000003604889,0|0|0,1:0|1:0|1:0,0:0:0:0:
125,220,207434,5,8,2:3:0:0:
133,250,207512,1,8,2:3:0:0:
130,281,207591,1,8,2:3:0:0:
120,310,207670,1,8,2:3:0:0:
124,341,207749,1,8,2:3:0:0:
147,361,207827,1,8,2:3:0:0:
178,362,207906,2,0,P|222:336|283:335,2,94.5000003604889,0|0|0,1:0|1:0|0:0,0:0:0:0:
302,253,208260,6,0,P|290:198|362:90,1,189.000000720978,4|0,0:1|0:0,0:0:0:0:
413,198,208615,2,0,L|417:298,1,90.9999958343508,8|0,0:0|0:0,0:0:0:0:
474,114,208851,1,0,1:0:0:0:
430,35,208969,2,0,P|390:10|330:10,1,90.9999958343508,2|8,3:2|0:0,0:0:0:0:
261,82,209205,2,0,B|188:97|188:97|159:73|159:73|84:92,1,181.999991668702,4|0,0:1|0:0,0:0:0:0:
30,203,209560,2,0,B|62:218|62:218|74:283,1,90.9999958343508,8|0,0:0|0:0,0:0:0:0:
159,354,209796,1,0,1:0:0:0:
230,295,209914,2,0,B|215:263|215:263|150:251,1,90.9999958343508,2|8,3:2|0:0,0:0:0:0:
322,327,210150,6,0,P|358:245|336:133,1,181.999991668702,4|0,0:1|0:0,0:0:0:0:
398,47,210504,2,0,B|445:40|445:40|490:78,1,90.9999958343508,8|0,0:0|0:0,0:0:0:0:
333,134,210741,1,0,1:0:0:0:
267,45,210859,2,0,B|220:38|220:38|175:76,1,90.9999958343508,0|8,1:0|0:0,0:0:0:0:
125,147,211095,1,0,0:0:0:0:
115,131,211213,2,0,L|6:118,2,90.9999958343508,2|2|8,3:2|3:2|0:0,0:0:0:0:
306,339,211686,2,0,L|322:243,1,90.9999958343508,0|0,1:0|0:0,0:0:0:0:
198,322,211922,2,0,L|214:226,1,90.9999958343508,8|0,0:0|0:0,0:0:0:0:
201,67,212158,6,0,P|210:120|330:113,1,181.999991668702,4|8,0:0|0:0,0:0:0:0:
436,22,212512,2,0,B|389:16|389:16|352:50,1,90.9999958343508,2|0,0:0|0:0,0:0:0:0:
489,321,212867,2,0,B|464:230|464:230|351:256,1,181.999991668702,8|2,0:0|3:2,0:0:0:0:
291,353,213221,1,0,0:0:0:0:
277,334,213339,2,0,L|176:330,1,90.9999958343508,8|0,0:0|0:0,0:0:0:0:
87,238,213575,1,2,3:2:0:0:
154,182,213693,1,2,3:2:0:0:
231,217,213812,2,0,B|209:177|209:177|225:107,1,90.9999958343508,8|0,0:0|0:0,0:0:0:0:
362,52,214048,6,0,L|351:149,1,90.9999958343508,4|0,0:0|0:0,0:0:0:0:
471,66,214284,2,0,L|460:163,1,90.9999958343508,8|0,0:0|0:0,0:0:0:0:
376,283,214520,1,0,1:0:0:0:
451,350,214638,1,0,1:0:0:0:
372,261,214756,2,0,B|290:235|232:271|250:367|99:375|31:265,1,363.999983337403,4|8,0:0|0:0,0:0:0:0:
185,165,215465,1,2,0:2:0:0:
171,168,215524,1,2,0:2:0:0:
158,171,215583,1,2,0:0:0:0:
241,98,215701,2,0,P|285:119|352:111,1,90.9999958343508,2|0,3:2|0:0,0:0:0:0:
433,214,215938,6,0,P|340:231|340:311,1,167.999994873047,4|8,0:0|0:0,0:0:0:0:
250,374,216292,2,0,B|199:344|199:344|184:215,1,167.999994873047,2|0,3:2|0:0,0:0:0:0:
83,284,216646,2,0,L|66:391,1,83.9999974365235,8|2,0:0|3:2,0:0:0:0:
32,174,216882,2,0,P|56:103|153:96,1,167.999994873047,0|8,1:0|0:0,0:0:0:0:
246,153,217237,1,0,0:0:0:0:
266,139,217355,2,0,P|276:91|269:34,1,83.9999974365235,0|0,1:0|0:0,0:0:0:0:
335,236,217591,2,0,P|365:207|387:171,1,83.9999974365235,8|2,0:0|0:0,0:3:0:0:
192,370,217827,6,0,B|228:249|228:249|332:365,1,251.999992309571,4|0,0:0|0:0,0:0:0:0:
420,370,218300,1,2,3:2:0:0:
445,320,218418,1,0,0:0:0:0:
424,253,218536,1,8,0:0:0:0:
379,182,218654,1,2,3:2:0:0:
399,94,218772,2,0,P|391:32|289:28,1,167.999994873047,0|8,1:0|0:0,0:0:0:0:
244,117,219127,1,0,0:0:0:0:
226,108,219245,2,0,B|152:122|152:122|145:155|145:155|82:183,1,167.999994873047,0|8,1:0|0:0,0:0:0:0:
443,343,219717,6,0,B|392:298|392:298|408:179,1,167.999994873047,4|8,0:0|0:0,0:0:0:0:
320,57,220071,2,0,B|269:102|269:102|285:221,1,167.999994873047,2|2,3:2|3:2,0:0:0:0:
196,320,220426,2,0,B|169:305|169:305|156:228,1,83.9999974365235,8|0,0:0|0:0,0:0:0:0:
68,355,220662,1,4,0:0:0:0:
17,152,220898,2,0,P|40:128|115:109,1,83.9999974365235,8|0,0:0|0:0,0:0:0:0:
41,240,221134,1,0,1:0:0:0:
177,140,221252,2,0,P|210:139|276:178,1,83.9999974365235,0|8,1:0|0:0,0:0:0:0:
378,313,221489,6,0,B|314:286|314:286|356:141,1,181.999991668702,4|0,0:0|0:0,0:0:0:0:
424,100,221843,1,8,0:0:0:0:
355,13,221961,1,2,3:2:0:0:
252,60,222079,2,0,B|205:66|205:66|142:34,1,90.9999958343508,2|2,3:2|3:2,0:0:0:0:
243,166,222315,1,2,3:2:0:0:
202,250,222434,1,4,0:0:0:0:
278,315,222552,6,0,P|308:319|333:339,2,60.6666638895672,0|0|0,3:2|3:2|3:2,0:0:0:0:
197,267,222788,2,0,P|167:271|142:291,2,60.6666638895672,0|0|0,3:2|3:2|3:2,0:0:0:0:
231,172,223024,1,2,3:2:0:0:
209,150,223103,1,2,3:2:0:0:
179,142,223182,1,2,3:2:0:0:
150,151,223260,1,2,3:2:0:0:
107,156,223339,1,2,3:2:0:0:
69,136,223418,1,2,3:2:0:0:
55,97,223497,6,0,B|70:38|70:38|127:28|185:61,1,175,4|0,1:0|0:0,0:0:0:0:
301,27,223851,1,2,0:0:0:0:
315,18,223969,2,0,P|353:40|355:93,1,87.5,0|0,1:0|0:0,0:0:0:0:
303,171,224205,1,0,1:0:0:0:
363,253,224324,1,2,0:0:0:0:
379,261,224442,2,0,B|468:252|468:252|459:149,1,175,0|0,1:0|0:0,0:0:0:0:
439,341,224796,1,2,0:0:0:0:
421,355,224914,2,0,L|304:342,1,87.5,0|0,1:0|0:0,0:0:0:0:
268,174,225150,2,0,L|254:264,1,87.5,2|0,0:0|0:0,0:0:0:0:
206,57,225387,6,0,P|159:45|98:148,1,175,4|0,0:0|1:0,0:0:0:0:
162,265,225741,2,0,B|150:353|150:353|58:342,1,175,0|0,1:0|1:0,0:0:0:0:
177,181,226095,2,0,P|218:191|243:234,1,87.5,0|0,1:0|0:0,0:0:0:0:
340,360,226331,2,0,P|375:262|361:176,1,175,4|2,0:0|0:0,0:0:0:0:
321,48,226686,1,0,0:0:0:0:
304,52,226804,2,0,P|291:86|292:146,1,87.5,0|0,1:0|0:0,0:0:0:0:
207,4,227040,2,0,P|172:30|148:67,1,87.5,0|0,1:0|0:0,0:0:0:0:
180,214,227276,6,0,B|77:232|113:158|15:175|15:175|54:139|43:96,1,262.5,4|2,1:0|0:0,0:0:0:0:
33,268,227749,2,0,P|41:310|67:345,1,87.5,0|0,1:0|0:0,0:0:0:0:
159,297,227985,1,0,1:0:0:0:
244,349,228103,1,2,0:0:0:0:
257,331,228221,2,0,P|302:316|356:318,1,87.5,0|0,1:0|0:0,0:0:0:0:
463,173,228457,2,0,L|472:260,1,87.5,0|0,1:0|0:0,0:0:0:0:
357,186,228694,1,2,3:2:0:0:
331,95,228812,1,2,3:2:0:0:
404,37,228930,1,2,3:2:0:0:
316,90,229048,1,2,3:2:0:0:
238,32,229166,5,4,0:0:0:0:
225,21,229284,2,0,L|122:34,1,87.5,2|0,1:0|0:0,0:0:0:0:
249,189,229520,2,0,L|146:176,1,87.5,2|0,1:0|0:0,0:0:0:0:
72,360,229757,2,0,L|175:347,1,87.5,2|0,1:0|0:0,0:0:0:0:
305,271,229993,2,0,L|408:258,1,87.5,8|0,0:0|0:0,0:0:0:0:
450,81,230229,2,0,P|447:165|509:223,1,175,0|8,1:0|3:2,0:0:0:0:
467,306,230583,1,8,0:0:0:0:
447,346,230701,1,8,3:2:0:0:
401,371,230820,1,0,3:2:0:0:
344,364,230938,1,0,3:2:0:0:
302,309,231056,6,0,B|203:278|224:355|126:336,1,175,4|0,1:0|0:0,0:0:0:0:
79,232,231410,1,2,0:0:0:0:
65,223,231528,2,0,P|27:245|25:298,1,87.5,0|0,1:0|0:0,0:0:0:0:
180,233,231764,1,0,1:0:0:0:
133,145,231883,1,2,0:0:0:0:
147,132,232001,2,0,B|161:47|161:47|260:2,1,175,0|0,1:0|0:0,0:0:0:0:
335,119,232355,1,2,0:0:0:0:
347,107,232473,2,0,L|361:17,1,87.5,0|0,1:0|0:0,0:0:0:0:
467,103,232709,2,0,L|481:193,1,87.5,2|0,0:0|0:0,0:0:0:0:
383,298,232946,6,0,P|340:248|245:278,1,175,4|0,0:0|1:0,0:0:0:0:
139,136,233300,2,0,P|143:111|212:167,1,175,0|0,1:0|1:0,0:0:0:0:
143,315,233654,2,0,L|163:210,1,87.5,0|0,1:0|0:0,0:0:0:0:
52,354,233890,2,0,P|12:258|31:169,1,175,4|2,0:0|0:0,0:0:0:0:
107,43,234245,1,0,0:0:0:0:
124,51,234363,2,0,P|137:85|136:145,1,87.5,0|0,1:0|0:0,0:0:0:0:
254,157,234599,2,0,P|279:130|301:75,1,87.5,0|0,1:0|0:0,0:0:0:0:
405,220,234835,6,0,B|302:202|338:276|240:259|240:259|282:278|302:325,1,262.5,4|2,1:0|0:0,0:0:0:0:
110,355,235308,2,0,P|119:312|145:277,1,87.5,0|0,1:0|0:0,0:0:0:0:
98,189,235544,1,0,1:0:0:0:
173,122,235662,1,2,0:0:0:0:
164,104,235780,2,0,P|130:75|83:64,1,87.5,0|0,1:0|0:0,0:0:0:0:
242,179,236016,2,0,P|275:150|322:139,1,87.5,0|0,1:0|0:0,0:0:0:0:
381,210,236253,1,2,3:2:0:0:
475,222,236371,1,2,3:2:0:0:
398,292,236489,1,2,3:2:0:0:
312,304,236607,1,2,3:2:0:0:
223,277,236725,6,0,B|196:303|196:303|206:361,1,87.5,4|2,0:0|1:0,0:0:0:0:
120,242,236960,1,0,0:0:0:0:
120,242,237079,2,0,L|109:137,1,87.5,2|0,1:0|0:0,0:0:0:0:
15,261,237315,2,0,L|4:156,1,87.5,2|0,1:0|0:0,0:0:0:0:
128,54,237552,2,0,B|198:98|198:98|211:221,1,175,8|0,0:0|1:0,0:0:0:0:
335,57,237906,2,0,B|313:77|313:77|312:145,1,87.5,0|8,0:0|3:2,0:0:0:0:
365,221,238142,1,2,3:2:0:0:
455,239,238260,1,2,3:2:0:0:
390,306,238378,1,2,3:2:0:0:
469,242,238496,1,0,1:0:0:0:
430,145,238615,6,0,L|442:67,2,70,6|2|2,3:2|3:2|3:2,0:0:0:0:
349,219,238969,1,0,1:0:0:0:
235,89,239205,1,0,0:0:0:0:
262,83,239323,1,0,1:0:0:0:
191,215,239560,2,0,P|157:166|76:172,2,140,0|0|8,1:0|0:3|0:0,0:0:0:0:
99,296,240268,1,0,0:0:0:0:
307,352,240504,6,0,B|329:310|329:310|376:324|376:324|408:309|436:317,1,140,4|0,0:0|0:0,0:0:0:0:
302,176,240859,2,0,B|324:218|324:218|371:204|371:204|403:219|431:211,1,140,4|0,0:0|0:0,0:0:0:0:
476,62,241213,2,0,B|438:82|421:125|421:125|405:89|376:76,1,140,4|0,0:0|0:0,0:0:0:0:
219,2,241567,2,0,B|244:36|240:82|240:82|270:57|302:58,1,140,0|0,1:0|0:0,0:0:0:0:
302,176,241922,1,2,1:2:0:0:
413,213,242040,1,0,1:0:0:0:
141,46,242276,6,0,P|59:42|35:121,1,154.000004699707,4|0,1:0|0:0,0:0:0:0:
150,159,242630,2,0,L|163:234,1,77.0000023498536,8|0,0:0|0:0,0:0:0:0:
39,291,242866,2,0,L|55:198,1,77.0000023498536,0|0,1:0|0:0,0:0:0:0:
138,336,243103,1,8,0:0:0:0:
178,246,243221,2,0,P|263:245|278:317,1,154.000004699707,0|4,1:0|2:3,0:0:0:0:
357,216,243575,2,0,P|360:194|314:154,1,77.0000023498536,8|0,0:0|0:0,0:0:0:0:
432,282,243811,2,0,P|453:275|470:216,1,77.0000023498536,0|0,1:0|0:0,0:0:0:0:
450,100,244047,5,8,0:0:0:0:
437,94,244166,2,0,L|276:112,1,154.000004699707,0|0,1:0|0:0,0:0:0:0:
209,49,244520,1,8,0:0:0:0:
110,278,244756,2,0,B|97:250|97:250|100:189,1,77.0000023498536,0|0,1:0|0:0,0:0:0:0:
213,298,244992,1,8,0:0:0:0:
231,295,245111,2,0,B|253:273|253:273|272:215,1,77.0000023498536,0|0,1:0|0:0,0:0:0:0:
321,334,245347,1,0,1:0:0:0:
327,347,245465,2,0,P|368:364|416:357,1,77.0000023498536,8|0,0:0|0:0,0:0:0:0:
464,293,245701,5,0,1:0:0:0:
419,219,245819,1,0,1:0:0:0:
477,156,245937,1,8,0:0:0:0:
469,137,246055,1,4,0:0:0:0:
140,107,246410,6,0,L|127:186,1,77.0000023498536,0|0,1:0|0:0,0:0:0:0:
309,81,246646,2,0,L|296:156,1,77.0000023498536,0|0,1:2|0:0,0:0:0:0:
470,42,246882,2,0,L|458:117,1,77.0000023498536,0|0,1:2|0:0,0:0:0:0:
459,314,247119,6,0,B|432:345|432:345|382:341,1,77.0000023498536,0|0,1:2|0:0,0:0:0:0:
270,238,247355,2,0,B|255:199|255:199|284:158,1,77.0000023498536,0|0,1:2|0:0,0:0:0:0:
428,114,247591,2,0,B|468:122|468:122|489:167,1,77.0000023498536,0|0,1:2|0:0,0:0:0:0:
318,74,247827,5,8,0:0:0:0:
311,62,247945,2,0,P|240:44|172:118,1,154.000004699707,4|0,0:0|0:0,0:0:0:0:
102,0,248299,2,0,P|86:33|83:81,1,77.0000023498536,8|0,0:0|0:0,0:0:0:0:
132,160,248536,1,2,1:0:0:0:
34,249,248654,2,0,L|118:251,1,77.0000023498536,0|0,1:0|0:0,0:0:0:0:
184,355,248890,6,0,P|220:291|294:291,1,154.000004699707,4|0,0:0|0:0,0:0:0:0:
350,377,249244,1,8,0:0:0:0:
475,244,249481,1,0,1:0:0:0:
395,254,249600,1,8,0:0:0:0:
472,227,249718,1,0,1:0:0:0:
231,86,249953,5,4,2:3:0:0:
171,189,250189,2,0,P|161:148|121:113,1,77.0000023498536,4|0,1:0|0:0,0:0:0:0:
24,268,250426,2,0,P|34:227|74:192,1,77.0000023498536,0|0,1:0|0:0,0:0:0:0:
120,303,250663,1,8,0:0:0:0:
183,208,250781,2,0,P|268:207|283:279,1,154.000004699707,0|4,1:0|2:3,0:0:0:0:
367,319,251134,2,0,P|388:312|405:253,1,77.0000023498536,8|0,0:0|0:0,0:0:0:0:
496,171,251371,2,0,P|499:149|453:109,1,77.0000023498536,0|0,1:0|0:0,0:0:0:0:
328,114,251607,5,8,0:0:0:0:
322,98,251726,2,0,B|256:60|256:60|161:80,1,154.000004699707,0|0,1:0|0:0,0:0:0:0:
125,5,252080,1,8,0:0:0:0:
50,208,252316,2,0,B|37:236|37:236|40:297,1,77.0000023498536,0|0,1:0|0:0,0:0:0:0:
149,177,252552,1,8,0:0:0:0:
167,180,252671,2,0,B|189:201|189:201|208:259,1,77.0000023498536,0|0,0:0|0:0,0:0:0:0:
137,337,252907,1,0,1:0:0:0:
143,350,253025,2,0,P|184:367|232:360,1,77.0000023498536,8|0,0:0|0:0,0:0:0:0:
303,293,253261,5,0,1:0:0:0:
410,339,253379,1,0,1:0:0:0:
391,235,253497,1,8,0:0:0:0:
331,375,253615,1,4,0:0:0:0:
137,169,253970,6,0,L|150:248,1,77.0000023498536,0|0,1:0|0:0,0:0:0:0:
347,110,254206,2,0,L|334:185,1,77.0000023498536,0|0,1:0|0:0,0:0:0:0:
99,81,254441,2,0,L|112:160,1,77.0000023498536,0|0,1:0|0:0,0:0:0:0:
289,260,254678,6,0,B|258:286|258:286|221:286,1,77.0000023498536,0|0,1:0|0:0,0:0:0:0:
438,377,254914,2,0,B|407:351|407:351|370:350,1,77.0000023498536,0|0,1:0|0:0,0:0:0:0:
491,173,255150,2,0,B|460:199|460:199|423:199,1,77.0000023498536,0|0,1:0|0:0,0:0:0:0:
317,87,255387,5,8,0:0:0:0:
302,67,255505,2,0,P|226:72|220:163,1,154.000004699707,4|0,0:0|0:0,0:0:0:0:
245,303,255859,2,0,P|261:270|264:222,1,77.0000023498536,8|0,0:0|2:3,0:0:0:0:
348,176,256095,1,0,1:0:0:0:
391,282,256213,1,0,2:3:0:0:
389,295,256272,1,0,2:3:0:0:
387,308,256331,1,0,1:0:0:0:
360,185,256450,6,0,P|396:121|470:121,1,154.000004699707,0|0,2:3|0:0,0:0:0:0:
411,25,256804,1,8,0:0:0:0:
207,184,257040,1,0,1:0:0:0:
118,135,257158,1,2,3:2:0:0:
170,48,257276,1,2,3:2:0:0:
259,97,257394,1,2,3:2:0:0:
275,85,257512,1,2,0:0:0:0:
