osu file format v14

[General]
AudioFilename: audio.mp3
AudioLeadIn: 0
PreviewTime: 105918
Countdown: 0
SampleSet: Soft
StackLeniency: 0.7
Mode: 0
LetterboxInBreaks: 0
WidescreenStoryboard: 0

[Editor]
Bookmarks: 24127,28733,36410,43969,51528,59087,62867,70426,77985,85544,93103,100662,108221,115780,119560,127060,134678,142237,149796,161134,172473,184048,193260,200819,208378,215938,223497,238615,242394,257512
DistanceSpacing: 1.2
BeatDivisor: 4
GridSize: 16
TimelineZoom: 2.5

[Metadata]
Title:Akayake no Majo
TitleUnicode:緋灼の魔女
Artist:ELFENSJoN
ArtistUnicode:ELFENSJóN
Creator:Icekalt
Version:Blazing Fury
Source:
Tags:ash of rouge alternative metalcore jrock japanese nao tomori naotoshi 黒瀬 圭亮 Keisuke Kurose okogeeechann 藤田 和哉 Fujita Kazuya 戎屋 聖一郎 Seiichiro Ebisuya みゅー YUU ORYO
BeatmapID:2299178
BeatmapSetID:1100484

[Difficulty]
HPDrainRate:5.5
CircleSize:4
OverallDifficulty:9
ApproachRate:9.5
SliderMultiplier:1.8
SliderTickRate:1

[Events]
//Background and Video events
0,0,"devil.jpg",0,0
//Break Periods
2,149878,159664
//Storyboard Layer 0 (Background)
//Storyboard Layer 1 (Fail)
//Storyboard Layer 2 (Pass)
//Storyboard Layer 3 (Foreground)
//Storyboard Layer 4 (Overlay)
//Storyboard Sound Samples

[TimingPoints]
3695,324.324324324324,3,2,0,65,1,0
24127,236.220472440945,4,2,0,40,1,0
24599,-100,4,2,1,60,0,0
28733,-83.3333333333333,4,2,1,70,0,0
36410,-133.333333333333,4,2,1,55,0,0
42079,-133.333333333333,4,2,1,70,0,0
43969,-83.3333333333333,4,2,1,75,0,0
47749,-83.3333333333333,4,2,1,65,0,0
49638,-83.3333333333333,4,2,1,75,0,0
50701,-66.6666666666667,4,2,1,70,0,0
51528,-83.3333333333333,4,2,1,70,0,0
61922,-666.666666666658,4,2,1,70,0,0
62512,-181.818181818181,4,2,1,70,0,0
62749,-74.0740740740741,4,2,1,80,0,1
74205,-66.6666666666667,4,2,1,80,0,1
77985,-76.9230769230769,4,2,1,80,0,1
85544,-100,4,2,1,65,0,0
91213,-83.3333333333333,4,2,1,65,0,0
93103,-200,4,2,1,70,0,0
100189,-100,4,2,1,65,0,0
100662,-90.9090909090909,4,2,1,75,0,0
104441,-76.9230769230769,4,2,1,75,0,0
106095,-76.9230769230769,4,2,1,80,0,1
107749,-66.6666666666667,4,2,1,80,0,1
108162,-76.9230769230769,4,2,1,65,0,0
108221,-74.0740740740741,4,2,1,70,0,0
115780,-100,4,2,1,65,0,0
119441,-71.4285714285714,4,2,1,80,0,1
130898,-64.5161290322581,4,2,1,80,0,1
134323,-100,4,2,1,80,0,1
134678,-74.0740740740741,4,2,1,80,0,1
149678,-74.0740740740741,4,2,1,80,0,0
160189,-399.999999999997,4,2,1,45,0,0
172001,-133.333333333333,4,2,1,45,0,0
172473,-76.9230769230769,4,2,1,75,0,0
183339,-66.6666666666667,4,2,1,80,0,0
184048,-76.9230769230769,4,2,1,70,0,0
187591,-76.9230769230769,4,2,1,75,0,0
192906,-399.999999999997,4,2,1,75,0,0
193083,-399.999999999997,4,2,1,5,0,0
193142,-71.4285714285714,4,2,1,80,0,1
204599,-64.5161290322581,4,2,1,80,0,1
208260,-68.9655172413793,4,2,1,80,0,1
214756,-60.6060606060606,4,2,1,80,0,1
215229,-68.9655172413793,4,2,1,80,0,1
215938,-71.4285714285714,4,2,1,70,0,1
219717,-66.6666666666667,4,2,1,80,0,1
223497,-68.9655172413793,4,2,1,80,0,1
233300,-68.9655172413793,4,2,1,80,0,1
238615,-100,4,2,1,60,0,0
242276,-83.3333333333333,4,2,1,70,0,0
249953,-142.857142857143,4,2,1,55,0,0
250189,-76.9230769230769,4,2,1,70,0,0

[Colours]
Combo1 : 234,211,123
Combo2 : 247,153,153
Combo3 : 202,202,202
Combo4 : 196,168,236

[HitObjects]
19,351,24127,5,0,0:3:0:0:
22,344,24363,1,0,0:3:0:0:
106,224,24599,6,0,P|76:229|72:252,1,45,8|0,0:0|0:0,0:0:0:0:
124,312,24717,2,0,B|143:227|41:224|42:136|77:73,1,225,0|0,1:0|0:0,0:0:0:0:
77,91,25071,5,6,3:2:0:0:
168,147,25189,1,2,3:2:0:0:
259,91,25308,1,2,3:2:0:0:
316,200,25426,2,0,P|299:123|310:18,1,180,0|0,1:0|0:0,0:0:0:0:
450,99,25780,2,0,P|428:69|374:108,1,90,0|0,1:0|0:0,0:0:0:0:
412,251,26016,6,0,P|437:221|496:214,1,90,0|0,1:0|0:0,0:0:0:0:
376,344,26252,2,0,P|351:314|292:307,1,90,2|0,0:3|0:0,0:0:0:0:
230,384,26489,2,0,L|204:163,1,180,8|2,0:0|0:0,0:0:0:0:
111,251,26843,1,0,3:2:0:0:
111,251,26902,1,0,3:2:0:0:
111,251,26961,6,0,B|43:219|43:219|58:92,1,180,4|0,0:0|0:0,0:0:0:0:
153,69,27315,2,0,B|221:101|221:101|206:228,1,180,4|0,0:0|0:0,0:0:0:0:
294,315,27670,6,0,B|322:258|322:258|472:238,1,180,4|0,0:0|0:0,0:0:0:0:
512,60,28024,2,0,B|481:115|481:115|330:130,1,180,0|0,1:0|0:0,0:0:0:0:
272,53,28378,1,2,1:2:0:0:
384,343,28497,1,0,1:0:0:0:
377,328,28733,6,0,B|293:321|293:321|280:297|280:297|158:279,1,215.999993408203,4|0,0:0|0:0,0:0:0:0:
62,132,29087,2,0,B|96:147|96:147|105:237,1,107.999996704102,8|0,0:0|0:0,0:0:0:0:
240,63,29323,2,0,P|194:64|180:125,1,107.999996704102,0|0,1:0|0:0,0:0:0:0:
231,195,29560,1,8,0:0:0:0:
63,357,29678,6,0,B|97:300|97:300|262:339,1,215.999993408203,0|4,1:0|2:3,0:0:0:0:
414,247,30032,2,0,B|387:213|387:213|304:236,1,107.999996704102,8|0,0:0|0:0,0:0:0:0:
489,77,30268,2,0,L|475:196,1,107.999996704102,0|0,1:0|0:0,0:0:0:0:
380,102,30504,1,8,0:0:0:0:
229,235,30623,6,0,P|180:216|154:63,1,215.999993408203,0|0,1:0|0:0,0:0:0:0:
78,231,30977,2,0,P|61:271|0:272,1,107.999996704102,8|0,0:0|0:0,0:0:0:0:
207,328,31213,2,0,L|326:340,1,107.999996704102,0|0,1:0|0:0,0:0:0:0:
425,382,31449,1,8,0:0:0:0:
354,206,31567,2,0,B|317:149|317:149|376:-2,1,215.999993408203,0|0,1:0|1:0,0:0:0:0:
230,126,31922,2,0,B|188:136|188:136|114:102,1,107.999996704102,8|0,0:0|0:0,0:0:0:0:
0,149,32158,1,0,1:0:0:0:
24,30,32276,1,0,1:0:0:0:
31,41,32394,1,8,0:0:0:0:
96,201,32512,6,0,P|102:271|-19:268,1,215.999993408203,4|0,0:0|0:0,0:0:0:0:
199,348,32867,2,0,B|230:320|230:320|317:350,1,107.999996704102,0|0,1:0|0:0,0:0:0:0:
327,115,33103,2,0,B|335:155|335:155|266:216,1,107.999996704102,0|0,1:0|0:0,0:0:0:0:
474,347,33339,2,0,B|434:334|434:334|416:243,1,107.999996704102,0|0,1:0|0:0,0:0:0:0:
209,108,33575,6,0,L|186:213,1,107.999996704102,0|0,1:0|0:0,0:0:0:0:
490,38,33812,2,0,L|512:143,1,107.999996704102,0|0,1:0|0:0,0:0:0:0:
134,13,34048,2,0,L|109:128,1,107.999996704102,0|0,1:0|0:0,0:0:0:0:
20,141,34284,1,8,0:0:0:0:
54,308,34402,6,0,P|116:342|208:237,1,215.999993408203,4|0,0:0|0:0,0:0:0:0:
385,208,34756,2,0,B|374:162|374:162|283:134,1,107.999996704102,8|0,0:0|0:0,0:0:0:0:
232,259,34993,1,2,1:0:0:0:
439,307,35111,2,0,L|321:333,1,107.999996704102,0|0,1:0|0:0,0:0:0:0:
465,144,35347,6,0,P|459:67|336:26,1,215.999993408203,4|0,0:0|0:0,0:0:0:0:
250,124,35701,1,8,0:0:0:0:
192,50,35819,1,0,0:0:0:0:
246,138,35938,1,0,1:0:0:0:
344,116,36056,1,8,0:0:0:0:
213,216,36174,1,0,1:0:0:0:
479,370,36410,6,0,P|407:299|315:346,1,202.500007724762,4|0,0:0|0:0,0:0:0:0:
230,227,36882,2,0,P|244:257|242:293,1,67.5000025749208,4|0,0:0|0:0,0:0:0:0:
132,344,37119,1,2,0:0:0:0:
132,344,37237,2,0,L|151:190,1,135.000005149842,2|0,3:2|0:0,0:0:0:0:
85,148,37591,2,0,L|78:73,1,67.5000025749208,2|0,3:2|0:0,0:0:0:0:
24,223,37827,1,8,0:0:0:0:
185,114,38064,2,0,L|255:105,1,67.5000025749208,2|0,0:0|0:0,0:0:0:0:
344,169,38300,5,2,3:2:0:0:
357,172,38418,1,2,0:0:0:0:
370,175,38536,1,2,3:2:0:0:
441,127,38654,1,0,0:0:0:0:
441,127,38772,2,0,P|429:89|402:65,1,67.5000025749208,8|0,0:0|0:0,0:0:0:0:
450,244,39008,5,2,3:2:0:0:
437,247,39127,1,2,0:0:0:0:
424,250,39245,1,0,0:0:0:0:
411,253,39363,1,0,0:0:0:0:
333,325,39481,2,0,P|326:292|329:247,1,67.5000025749208,2|0,0:0|0:0,0:0:0:0:
208,259,39717,2,0,P|223:229|254:200,1,67.5000025749208,8|0,0:0|0:0,0:0:0:0:
242,349,39953,1,2,3:2:0:0:
177,134,40189,6,0,P|151:76|35:117,1,202.500007724762,4|0,0:0|0:0,0:0:0:0:
60,241,40662,2,0,P|72:197|107:160,1,67.5000025749208,4|0,0:0|0:0,0:0:0:0:
122,309,40898,1,2,0:0:0:0:
122,309,41016,2,0,P|167:304|228:228,1,135.000005149842,2|0,3:2|0:0,0:0:0:0:
297,376,41371,2,0,L|295:276,1,67.5000025749208,2|0,3:2|0:0,0:0:0:0:
337,186,41607,1,8,0:0:0:0:
127,325,41843,2,0,P|161:326|192:314,1,67.5000025749208,2|0,0:0|0:0,0:0:0:0:
225,241,42079,5,4,0:0:0:0:
144,50,42197,1,2,1:0:0:0:
451,335,42434,5,2,1:0:0:0:
37,90,42670,5,2,1:0:0:0:
384,40,42906,5,8,0:0:0:0:
311,132,43024,1,0,0:0:0:0:
300,115,43142,1,0,1:0:0:0:
430,192,43260,1,0,0:0:0:0:
357,244,43378,1,0,1:0:0:0:
350,242,43438,1,0,0:0:0:0:
343,240,43497,2,0,L|253:252,1,67.5000025749208,2|0,1:0|0:0,0:0:0:0:
327,336,43733,2,0,L|417:348,1,67.5000025749208,0|0,0:0|0:0,0:0:0:0:
223,166,43969,6,0,B|192:173|192:173|164:276,1,107.999996704102,4|0,1:0|0:0,0:0:0:0:
0,27,44205,2,0,B|31:34|31:34|59:137,1,107.999996704102,0|0,1:0|0:0,0:0:0:0:
194,31,44441,1,0,1:0:0:0:
201,33,44560,1,0,1:0:0:0:
83,202,44678,1,0,1:0:0:0:
76,204,44796,1,0,0:0:0:0:
266,325,44914,6,0,L|287:182,1,107.999996704102,0|0,1:0|0:0,0:0:0:0:
178,356,45150,1,0,1:0:0:0:
373,223,45268,2,0,L|352:80,1,107.999996704102,0|0,1:0|0:0,0:0:0:0:
461,254,45504,1,0,1:0:0:0:
244,109,45623,2,0,B|176:120|176:120|164:163,1,107.999996704102,0|0,1:0|0:0,0:0:0:0:
87,326,45859,6,0,L|60:201,1,107.999996704102,4|0,1:0|0:0,0:0:0:0:
263,369,46095,2,0,L|236:244,1,107.999996704102,0|0,1:0|0:0,0:0:0:0:
355,124,46331,1,0,1:0:0:0:
357,131,46449,1,0,1:0:0:0:
206,16,46567,1,0,1:0:0:0:
204,22,46686,1,0,0:0:0:0:
105,163,46804,6,0,L|230:144,1,107.999996704102,0|0,1:0|0:0,0:0:0:0:
42,98,47040,1,0,1:0:0:0:
186,246,47158,2,0,L|311:265,1,107.999996704102,0|0,1:0|0:0,0:0:0:0:
118,314,47394,1,0,1:0:0:0:
226,155,47512,2,0,L|351:136,1,107.999996704102,0|0,1:0|0:0,0:0:0:0:
414,362,47749,6,0,B|417:259|417:259|451:238|451:238|457:137,1,215.999993408203,4|2,0:0|2:3,0:0:0:0:
380,55,48103,1,2,2:3:0:0:
296,33,48221,1,2,2:3:0:0:
229,88,48339,1,2,2:3:0:0:
202,170,48457,1,2,2:3:0:0:
123,205,48575,1,2,2:3:0:0:
45,167,48693,1,4,2:3:0:0:
27,81,48812,1,2,2:3:0:0:
86,18,48930,2,0,P|125:29|129:102,1,107.999996704102,4|2,2:3|2:3,0:0:0:0:
206,208,49166,5,8,2:3:0:0:
340,239,49284,1,8,2:3:0:0:
293,134,49402,1,8,2:3:0:0:
253,308,49520,1,8,2:3:0:0:
403,142,49638,5,4,2:3:0:0:
462,210,49756,2,0,P|454:266|396:288,1,107.999996704102,2|0,1:0|0:0,0:0:0:0:
244,332,49993,2,0,L|372:360,1,107.999996704102,2|0,1:0|0:0,0:0:0:0:
158,372,50229,1,2,1:0:0:0:
244,222,50347,1,0,0:0:0:0:
244,222,50465,2,0,P|235:159|148:144,1,161.999995056153,8|0,1:0|0:0,0:0:0:0:
159,154,50701,6,0,B|270:154|255:90|303:46|352:46|401:88,1,270.000010299683,0|0,1:0|0:0,0:0:0:0:
432,180,51056,1,0,3:2:0:0:
399,220,51134,1,0,3:2:0:0:
386,273,51213,1,0,3:2:0:0:
397,325,51292,2,0,P|324:291|264:311,1,135.000005149842,0|0,3:2|0:0,0:0:0:0:
107,376,51528,6,0,B|156:331|156:331|131:169,1,215.999993408203,4|8,0:0|0:0,0:0:0:0:
251,40,51882,2,0,L|232:167,1,107.999996704102,0|0,1:0|0:0,0:0:0:0:
292,225,52119,1,0,1:0:0:0:
397,105,52237,2,0,P|452:108|454:178,2,107.999996704102,8|2|4,0:0|0:0|0:0,0:0:0:0:
446,248,52591,1,0,0:0:0:0:
446,248,52709,2,0,L|423:367,1,107.999996704102,8|0,0:0|0:0,0:0:0:0:
306,190,52945,2,0,L|327:313,1,107.999996704102,0|0,1:0|0:0,0:0:0:0:
215,277,53182,2,0,L|168:181,1,107.999996704102,8|0,0:0|0:0,0:0:0:0:
34,351,53418,6,0,P|92:335|149:354,1,107.999996704102,4|2,0:0|0:0,0:0:0:0:
33,164,53654,2,0,P|7:221|5:278,1,107.999996704102,8|0,0:0|0:0,0:0:0:0:
99,234,53890,1,2,0:0:0:0:
0,55,54008,2,0,P|66:9|153:102,1,215.999993408203,2|0,0:0|0:0,0:0:0:0:
230,186,54363,5,4,0:0:0:0:
330,133,54481,1,2,1:0:0:0:
408,217,54599,1,0,1:0:0:0:
308,270,54717,1,0,1:0:0:0:
332,119,54835,1,0,1:0:0:0:
342,34,54953,1,0,1:0:0:0:
428,132,55071,1,2,1:0:0:0:
343,26,55189,1,0,1:0:0:0:
225,168,55308,6,0,P|122:148|129:46,1,215.999993408203,4|8,0:0|0:0,0:0:0:0:
43,213,55662,2,0,B|29:278|29:278|76:349|76:349|167:365,1,215.999993408203,0|0,1:0|1:0,0:0:0:0:
352,302,56016,2,0,B|299:253|299:253|225:274|225:274|171:227,1,215.999993408203,8|4,0:0|0:0,0:0:0:0:
313,163,56371,1,0,0:0:0:0:
226,43,56489,2,0,P|201:87|208:158,1,107.999996704102,8|0,0:0|0:0,0:0:0:0:
80,239,56725,2,0,P|47:200|40:129,1,107.999996704102,0|0,1:0|0:0,0:0:0:0:
193,254,56961,2,0,B|249:264|249:264|303:234,1,107.999996704102,8|0,0:0|0:0,0:0:0:0:
464,77,57197,6,0,L|482:195,1,107.999996704102,4|0,0:0|0:0,0:0:0:0:
318,35,57434,2,0,L|336:153,1,107.999996704102,8|0,0:0|0:0,0:0:0:0:
261,341,57670,1,2,0:0:0:0:
193,254,57788,2,0,P|141:186|30:243,1,215.999993408203,0|0,1:0|0:0,0:0:0:0:
70,83,58142,5,4,0:0:0:0:
120,302,58260,1,0,1:0:0:0:
270,183,58378,2,0,B|402:168|335:245|480:241,1,215.999993408203,8|0,0:0|1:0,0:0:0:0:
510,166,58733,1,0,0:0:0:0:
374,317,58851,1,8,0:0:0:0:
169,234,58969,1,2,3:2:0:0:
112,309,59087,5,4,0:0:0:0:
112,329,60859,1,0,3:0:0:0:
102,323,60918,1,0,3:0:0:0:
92,318,60977,5,8,2:1:0:0:
72,263,61056,1,8,2:1:0:0:
100,213,61134,1,8,2:1:0:0:
157,205,61213,1,8,2:1:0:0:
70,109,61331,1,0,1:0:0:0:
439,356,61567,5,8,0:0:0:0:
224,277,61804,5,2,0:0:0:0:
405,163,61922,2,0,L|410:133,1,26.9999991760254,0|2,1:0|0:0,0:0:0:0:
335,228,62394,5,0,3:0:0:0:
336,236,62512,2,0,P|354:263|381:256,1,49.5000015106202,2|0,3:0|0:0,0:0:0:0:
291,381,62749,6,0,B|317:203|317:203|269:150,1,243.000000926971,4|0,1:0|0:0,0:0:0:0:
116,293,63103,2,0,P|121:325|201:310,1,121.500000463486,8|0,0:0|0:0,0:0:0:0:
130,158,63339,2,0,P|125:190|45:175,1,121.500000463486,0|0,1:0|0:0,0:0:0:0:
100,51,63575,1,8,0:0:0:0:
274,156,63693,1,0,1:0:0:0:
449,19,63812,6,0,P|473:60|466:156,1,121.500000463486,0|0,1:0|0:0,0:0:0:0:
418,345,64048,2,0,L|398:209,1,121.500000463486,8|0,0:0|0:0,0:0:0:0:
289,384,64284,1,0,1:0:0:0:
184,322,64402,2,0,P|193:263|259:284,1,121.500000463486,2|8,1:0|0:0,0:0:0:0:
181,44,64638,6,0,P|156:155|37:238,1,243.000000926971,4|2,0:0|0:0,0:0:0:0:
256,167,64993,2,0,B|293:141|293:141|386:170,1,121.500000463486,8|0,0:0|0:0,0:0:0:0:
420,270,65229,1,0,1:0:0:0:
505,80,65347,2,0,B|468:54|468:54|375:83,1,121.500000463486,0|8,1:0|0:0,0:0:0:0:
423,260,65583,1,0,0:0:0:0:
299,348,65701,5,10,2:3:0:0:
268,333,65780,1,2,2:3:0:0:
249,305,65859,1,2,2:3:0:0:
210,261,65938,5,10,2:3:0:0:
160,262,66016,1,2,2:3:0:0:
116,289,66095,1,2,2:3:0:0:
66,355,66174,6,0,P|73:308|51:228,1,121.500000463486,0|0,1:0|0:0,0:0:0:0:
9,84,66410,2,0,P|49:55|90:111,1,121.500000463486,8|0,0:0|0:0,0:0:0:0:
277,63,66646,6,0,P|174:64|142:197,1,243.000000926971,4|8,0:0|0:0,0:0:0:0:
285,321,67001,2,0,B|300:277|300:277|275:202,1,121.500000463486,0|0,1:0|0:0,0:0:0:0:
187,342,67237,1,0,1:0:0:0:
373,181,67355,2,0,P|424:176|478:232,1,121.500000463486,8|2,0:0|0:0,0:0:0:0:
376,67,67591,2,0,P|359:7|296:1,1,121.500000463486,4|0,0:0|0:0,0:0:0:0:
47,35,67827,6,0,L|26:164,1,121.500000463486,8|0,0:0|0:0,0:0:0:0:
207,78,68064,2,0,L|231:206,1,121.500000463486,0|0,1:0|0:0,0:0:0:0:
384,80,68300,2,0,L|445:184,1,121.500000463486,8|2,0:0|0:0,0:0:0:0:
248,351,68536,6,0,P|252:302|322:293,1,121.500000463486,4|0,0:0|0:0,0:0:0:0:
380,348,68772,1,8,0:0:0:0:
377,358,68890,1,0,0:0:0:0:
455,282,69008,1,0,1:0:0:0:
318,199,69127,1,0,1:0:0:0:
503,115,69245,1,8,0:0:0:0:
267,28,69363,6,0,B|195:72|206:153|206:153|183:103|123:100,1,243.000000926971,4|0,1:0|0:0,0:0:0:0:
16,259,69717,2,0,P|40:215|105:241,1,121.500000463486,8|0,0:0|0:0,0:0:0:0:
191,322,69953,1,4,2:3:0:0:
264,328,70032,1,4,2:3:0:0:
319,295,70111,1,4,2:3:0:0:
362,264,70189,1,8,2:3:0:0:
407,256,70268,1,8,2:3:0:0:
443,267,70347,1,8,2:3:0:0:
460,289,70426,6,0,P|360:291|331:158,1,243.000000926971,4|0,0:0|1:0,0:0:0:0:
388,107,70780,1,0,0:0:0:0:
173,11,70898,6,0,B|203:49|203:49|195:152,1,121.500000463486,0|0,1:0|0:0,0:0:0:0:
69,297,71134,2,0,B|99:259|99:259|91:156,1,121.500000463486,0|0,1:0|0:0,0:0:0:0:
190,333,71371,5,0,1:0:0:0:
187,339,71489,1,0,0:0:0:0:
269,271,71607,5,0,1:0:0:0:
294,378,71725,1,0,1:0:0:0:
374,244,71843,5,0,1:0:0:0:
261,255,71961,1,0,0:0:0:0:
408,96,72079,5,0,1:0:0:0:
369,260,72197,1,0,0:0:0:0:
141,287,72315,6,0,P|118:229|70:173,1,121.500000463486,0|0,1:0|0:0,0:0:0:0:
15,288,72552,1,0,1:0:0:0:
37,62,72670,2,0,P|94:81|143:116,1,121.500000463486,0|0,1:0|0:0,0:0:0:0:
239,232,72906,5,0,1:0:0:0:
295,23,73024,1,0,1:0:0:0:
291,17,73142,1,0,0:0:0:0:
466,200,73260,6,0,B|379:186|379:186|338:216,1,121.500000463486,0|0,1:0|0:0,0:0:0:0:
453,99,73497,1,0,1:0:0:0:
453,91,73615,1,0,0:0:0:0:
375,306,73733,6,0,B|348:325|348:325|261:311,1,121.500000463486,0|0,1:0|0:0,0:0:0:0:
139,226,73969,1,0,1:0:0:0:
56,347,74087,1,0,1:0:0:0:
258,164,74205,6,0,B|321:147|321:147|389:207,1,135.000005149842,4|0,1:0|0:0,0:0:0:0:
346,48,74441,1,0,1:0:0:0:
354,279,74560,2,0,B|291:296|291:296|223:236,1,135.000005149842,4|0,0:0|0:0,0:0:0:0:
345,58,74796,1,0,1:0:0:0:
200,340,74914,6,0,B|128:277|128:277|169:102,1,270.000010299683,4|0,0:0|1:0,0:0:0:0:
26,283,75268,2,0,B|68:371|68:371|85:318,1,135.000005149842,0|8,0:0|0:0,0:0:0:0:
28,147,75504,1,0,0:0:0:0:
221,250,75623,1,0,1:0:0:0:
293,181,75741,2,0,P|276:129|205:165,1,135.000005149842,0|8,1:0|0:0,0:0:0:0:
316,364,75977,6,0,P|311:242|422:105,1,270.000010299683,0|0,1:0|0:0,0:0:0:0:
453,226,76331,1,8,0:0:0:0:
344,33,76449,5,0,0:0:0:0:
243,107,76567,1,0,1:0:0:0:
138,50,76686,1,0,1:0:0:0:
248,206,76804,1,0,1:0:0:0:
38,165,76922,1,0,1:0:0:0:
125,284,77040,5,2,3:2:0:0:
47,331,77158,1,2,3:2:0:0:
36,327,77217,1,0,0:0:0:0:
25,321,77276,1,2,3:2:0:0:
138,289,77394,1,0,1:0:0:0:
137,62,77512,5,0,0:0:0:0:
253,188,77630,2,0,P|320:211|323:145,2,135.000005149842,4|2|0,1:0|3:2|0:0,0:0:0:0:
435,67,77985,6,0,P|373:98|408:244,1,233.999989288331,4|0,1:0|0:0,0:0:0:0:
310,311,78339,1,2,0:0:0:0:
178,227,78457,2,0,P|107:227|70:274,1,116.999994644165,0|0,1:0|0:0,0:0:0:0:
142,348,78693,1,0,1:0:0:0:
37,153,78812,1,2,0:0:0:0:
109,82,78930,2,0,B|173:67|208:126|208:126|227:103|227:103|275:156|259:216,1,233.999989288331,0|0,1:0|0:0,0:0:0:0:
248,260,79284,1,2,0:0:0:0:
345,116,79402,2,0,P|389:92|468:99,1,116.999994644165,0|0,1:0|0:0,0:0:0:0:
511,240,79638,1,2,0:0:0:0:
423,182,79756,1,0,0:0:0:0:
283,27,79875,6,0,B|154:16|195:111|59:85,1,233.999989288331,4|0,0:0|1:0,0:0:0:0:
11,270,80229,2,0,B|-17:210|-17:210|66:153|164:219,1,233.999989288331,0|0,1:0|1:0,0:0:0:0:
309,312,80583,2,0,P|239:311|189:350,1,116.999994644165,0|0,1:0|0:0,0:0:0:0:
320,131,80819,2,0,B|371:175|372:236|372:236|326:271|327:342,1,233.999989288331,4|2,0:0|0:0,0:0:0:0:
416,384,81174,1,0,0:0:0:0:
270,222,81292,2,0,P|218:218|155:247,1,116.999994644165,0|0,1:0|0:0,0:0:0:0:
332,115,81528,2,0,P|289:82|220:74,1,116.999994644165,0|0,1:0|0:0,0:0:0:0:
482,16,81764,6,0,B|536:66|522:157|425:114|435:198|466:245,1,233.999989288331,4|0,1:0|0:0,0:0:0:0:
512,302,82119,1,2,0:0:0:0:
343,210,82237,2,0,P|279:219|229:256,1,116.999994644165,0|0,1:0|0:0,0:0:0:0:
190,342,82473,1,0,1:0:0:0:
96,135,82591,1,2,0:0:0:0:
141,55,82709,2,0,P|185:28|216:95,1,116.999994644165,0|0,1:0|0:0,0:0:0:0:
343,210,82945,2,0,P|387:237|418:170,1,116.999994644165,0|0,1:0|0:0,0:0:0:0:
317,118,83182,5,2,3:2:0:0:
121,264,83300,1,2,3:2:0:0:
176,161,83418,5,2,3:2:0:0:
262,214,83536,1,2,3:2:0:0:
408,21,83654,5,4,0:0:0:0:
414,33,84008,5,0,1:0:0:0:
430,301,84245,5,2,1:0:0:0:
512,310,84363,1,0,0:0:0:0:
425,277,84481,1,8,0:0:0:0:
420,45,84717,5,0,1:0:0:0:
297,232,84953,5,8,3:2:0:0:
301,224,85012,1,0,0:0:0:0:
300,216,85071,1,8,0:0:0:0:
98,273,85189,1,8,3:2:0:0:
190,191,85308,5,0,3:2:0:0:
192,200,85426,1,0,3:2:0:0:
338,323,85544,6,0,P|386:338|454:234,1,180,4|0,0:0|0:0,0:0:0:0:
400,187,85898,1,2,0:3:0:0:
512,79,86016,2,0,B|425:98|446:22|313:41,1,180,0|2,1:0|0:0,0:0:0:0:
288,104,86371,1,0,0:0:0:0:
291,252,86489,2,0,B|300:158|300:158|238:67,2,180,4|2|2,0:0|0:0|1:0,0:0:0:0:
177,303,87079,1,0,0:0:0:0:
164,298,87197,2,0,P|164:261|215:232,1,90,0|0,1:0|0:0,0:0:0:0:
271,354,87434,5,4,0:0:0:0:
402,273,87552,2,0,B|416:224|402:142|402:142|369:168|368:204,1,180,2|0,1:0|0:0,0:0:0:0:
497,103,87906,2,0,P|475:25|386:54,1,180,2|2,1:0|0:3,0:0:0:0:
326,99,88260,1,2,0:3:0:0:
204,19,88378,2,0,P|182:57|174:117,1,90,4|0,0:0|0:0,0:0:0:0:
80,159,88615,2,0,P|58:121|50:61,1,90,2|0,0:3|0:0,0:0:0:0:
187,196,88851,1,10,2:3:0:0:
167,275,88969,1,10,2:3:0:0:
125,318,89087,1,2,2:3:0:0:
85,328,89205,1,2,2:3:0:0:
196,366,89323,5,4,0:0:0:0:
72,233,89441,2,0,B|48:195|48:195|85:31,1,180,2|0,1:0|0:0,0:0:0:0:
213,158,89796,2,0,B|264:184|277:231|277:231|314:208|380:232,1,180,2|2,1:0|0:3,0:0:0:0:
397,302,90150,1,2,0:3:0:0:
483,172,90268,2,0,B|489:114|489:114|475:103|475:103|488:-5,2,180,4|2|2,0:0|0:0|1:0,0:0:0:0:
387,60,90859,1,0,0:0:0:0:
373,53,90977,2,0,P|329:66|320:116,1,90,0|0,1:0|0:0,0:0:0:0:
382,186,91213,5,4,0:0:0:0:
258,305,91331,2,0,B|195:279|195:279|177:115,1,215.999993408203,0|0,1:0|0:0,0:0:0:0:
130,341,91686,2,0,P|70:374|45:263,1,215.999993408203,2|0,1:0|1:0,0:0:0:0:
276,222,92040,2,0,P|325:214|351:162,1,107.999996704102,2|0,1:0|0:0,0:0:0:0:
444,25,92276,2,0,B|457:59|451:72|451:72|471:94|471:94|433:98|434:101|473:141|483:163|444:181|452:240,1,215.999993408203,2|0,1:0|0:0,0:0:0:0:
368,342,92630,5,2,3:0:0:0:
325,363,92709,1,2,3:0:0:0:
279,356,92788,1,2,3:0:0:0:
224,303,92867,5,2,3:0:0:0:
173,279,92945,1,2,3:0:0:0:
118,293,93024,1,2,3:0:0:0:
73,358,93103,6,0,B|83:290|83:290|37:223,2,135,2|0|0,1:0|1:0|1:0,0:0:0:0:
199,198,94048,2,0,B|189:266|189:266|235:333,1,135,2|0,1:0|1:0,0:0:0:0:
285,243,94520,1,0,0:0:0:0:
333,352,94638,1,0,0:0:0:0:
329,362,94756,1,0,1:0:0:0:
422,95,94993,5,4,0:0:0:0:
479,198,95111,2,0,P|484:168|496:145,1,45,0|0,1:0|0:0,0:0:0:0:
399,238,95347,2,0,P|377:177|344:148,1,90,0|0,1:0|0:0,0:0:0:0:
286,225,95701,1,2,2:3:0:0:
284,234,95760,1,2,2:3:0:0:
285,243,95819,1,2,2:3:0:0:
167,145,95938,6,0,L|226:135,1,45,4|0,0:0|0:0,0:0:0:0:
108,243,96174,2,0,L|167:253,1,45,0|0,1:0|0:0,0:0:0:0:
57,164,96410,1,2,1:0:0:0:
13,292,96528,1,2,1:0:0:0:
63,147,96646,2,0,L|55:79,1,67.5,0|0,1:0|0:0,0:0:0:0:
69,61,96882,5,2,1:0:0:0:
167,145,97001,2,0,P|210:126|210:70,1,90,0|0,0:0|1:0,0:0:0:0:
262,226,97355,2,0,L|252:271,1,45,0|0,0:0|0:0,0:0:0:0:
347,250,97591,2,0,L|337:293,1,45,0|0,1:0|0:0,0:0:0:0:
421,173,97827,2,0,B|476:135|476:135|511:206,2,135,2|0|0,1:0|1:0|1:0,0:0:0:0:
260,33,98772,5,4,0:0:0:0:
193,98,98890,1,0,1:0:0:0:
109,59,99008,1,0,0:0:0:0:
102,170,99127,2,0,P|106:123|85:70,1,90,0|0,1:0|0:0,0:0:0:0:
11,201,99481,1,0,1:0:0:0:
14,217,99599,1,0,0:0:0:0:
83,279,99717,5,4,0:0:0:0:
209,246,99835,1,2,2:3:0:0:
312,325,99953,1,2,2:3:0:0:
512,46,100189,6,0,B|397:86|419:-14|296:-23|242:23,1,270,0|0,1:0|0:0,0:0:0:0:
190,74,100662,5,4,1:0:0:0:
316,210,100780,2,0,B|282:172|282:172|214:187,1,99.0000030212403,2|0,1:0|0:0,0:0:0:0:
196,269,101016,1,0,1:0:0:0:
28,155,101134,2,0,B|62:117|62:117|130:132,1,99.0000030212403,2|0,3:2|0:0,0:0:0:0:
47,308,101371,1,8,0:0:0:0:
155,366,101489,2,0,B|163:296|163:296|195:270,1,99.0000030212403,0|0,1:0|0:0,0:0:0:0:
314,147,101725,1,0,1:0:0:0:
273,71,101843,2,0,P|225:65|203:118,1,99.0000030212403,2|0,3:2|0:0,0:0:0:0:
273,265,102079,5,0,1:0:0:0:
428,216,102197,1,0,1:0:0:0:
382,331,102315,1,0,1:0:0:0:
319,157,102434,1,0,1:0:0:0:
431,67,102552,5,4,1:0:0:0:
343,14,102670,2,0,P|297:29|271:82,1,99.0000030212403,0|0,1:0|0:0,0:0:0:0:
247,242,102906,2,0,P|223:144|138:73,1,198.000006042481,0|0,1:0|0:0,0:0:0:0:
72,112,103260,1,8,0:0:0:0:
136,282,103378,2,0,B|102:244|102:244|42:254,1,99.0000030212403,0|0,1:0|0:0,0:0:0:0:
77,103,103615,1,0,1:0:0:0:
226,239,103733,2,0,B|231:188|231:188|183:150,1,99.0000030212403,2|0,3:2|0:0,0:0:0:0:
208,323,103969,5,8,0:0:0:0:
303,356,104087,1,8,0:0:0:0:
418,244,104205,1,8,0:0:0:0:
309,267,104323,1,8,0:0:0:0:
398,133,104441,5,4,1:0:0:0:
334,19,104560,2,0,B|305:42|305:42|318:141,1,116.999994644165,2|0,1:0|0:0,0:0:0:0:
180,245,104796,1,0,1:0:0:0:
150,86,104915,2,0,B|186:84|186:84|240:169,1,116.999994644165,2|0,3:2|0:0,0:0:0:0:
353,348,105150,1,8,0:0:0:0:
358,230,105268,2,0,B|301:217|301:217|258:278,1,116.999994644165,2|0,1:0|0:0,0:0:0:0:
94,163,105504,1,0,1:0:0:0:
89,281,105623,2,0,B|145:293|145:293|188:232,1,116.999994644165,2|0,3:2|0:0,0:0:0:0:
91,46,105859,2,0,B|147:33|147:33|190:94,1,116.999994644165,0|2,1:0|3:2,0:0:0:0:
215,101,106036,1,2,3:2:0:0:
220,96,106095,5,0,1:0:0:0:
296,32,106213,1,2,3:2:0:0:
101,147,106331,1,4,0:0:0:0:
231,357,106449,1,2,1:0:0:0:
481,274,106686,5,2,1:0:0:0:
176,0,106922,5,2,1:0:0:0:
34,384,107158,5,8,0:0:0:0:
229,193,107394,6,0,B|258:215|258:215|269:311,1,116.999994644165,0|0,1:0|0:0,0:0:0:0:
211,353,107630,1,2,0:0:0:0:
348,204,107749,2,0,B|371:151|376:80|261:33|185:74|167:163|74:172|1:121|42:37,1,472.500018024445,4|0,0:0|0:0,0:0:0:0:
8,184,108221,6,0,P|38:98|131:49,1,182.250000695229,4|0,0:0|0:0,0:0:0:0:
164,116,108457,2,0,P|185:166|260:152,1,121.500000463486,8|0,0:0|0:0,0:0:0:0:
142,311,108693,2,0,B|124:272|124:272|32:265,1,121.500000463486,0|0,1:0|0:0,0:0:0:0:
233,384,108930,2,0,B|251:345|251:345|343:338,1,121.500000463486,8|0,0:0|0:0,0:0:0:0:
447,171,109166,2,0,B|478:219|478:219|470:318,1,121.500000463486,4|0,0:0|0:0,0:0:0:0:
340,146,109402,2,0,P|364:96|363:-1,1,121.500000463486,8|0,0:0|0:0,0:0:0:0:
245,220,109638,2,0,B|185:235|185:235|133:194,1,121.500000463486,0|0,1:0|0:0,0:0:0:0:
348,260,109875,1,8,0:0:0:0:
241,123,109993,5,0,0:0:0:0:
237,117,110052,1,0,0:0:0:0:
233,111,110111,2,0,B|191:84|191:84|175:33|175:33|147:107|55:133,1,243.000000926971,4|8,0:0|0:0,0:0:0:0:
83,290,110465,2,0,B|115:182|18:196|41:54,1,243.000000926971,0|0,1:0|1:0,0:0:0:0:
174,188,110819,1,8,0:0:0:0:
351,97,110938,2,0,B|266:103|266:103|237:156,1,121.500000463486,0|0,1:0|0:0,0:0:0:0:
323,212,111174,5,8,2:3:0:0:
426,233,111292,1,8,2:3:0:0:
233,252,111410,5,8,2:3:0:0:
336,231,111528,1,0,1:0:0:0:
309,350,111646,5,0,1:0:0:0:
256,124,111764,1,0,1:0:0:0:
220,265,111882,1,0,1:0:0:0:
470,136,112001,6,0,P|461:81|417:28,1,121.500000463486,4|0,0:0|0:0,0:0:0:0:
426,233,112237,1,8,0:0:0:0:
221,38,112355,2,0,P|280:43|330:77,1,121.500000463486,0|0,1:0|0:0,0:0:0:0:
415,245,112591,2,0,P|362:216|302:216,1,121.500000463486,0|8,1:0|0:0,0:0:0:0:
225,384,112827,2,0,L|185:123,1,243.000000926971,0|2,1:0|0:0,0:0:0:0:
134,332,113182,2,0,P|95:338|56:266,1,121.500000463486,8|0,0:0|0:0,0:0:0:0:
296,304,113418,2,0,P|334:294|342:212,1,121.500000463486,0|0,1:0|0:0,0:0:0:0:
126,97,113654,2,0,B|171:55|171:55|235:80,1,121.500000463486,8|0,0:0|0:0,0:0:0:0:
493,21,113890,6,0,P|397:22|406:146,1,243.000000926971,4|8,0:0|0:0,0:0:0:0:
244,216,114245,2,0,P|238:166|304:158,1,121.500000463486,0|0,1:0|0:0,0:0:0:0:
360,258,114481,1,4,2:3:0:0:
379,45,114599,2,0,B|326:9|326:9|220:51|220:51|135:0,1,243.000000926971,8|2,0:0|0:0,0:0:0:0:
71,221,114953,2,0,B|75:182|75:182|173:138,1,121.500000463486,8|0,0:0|0:0,0:0:0:0:
15,88,115189,1,0,0:0:0:0:
185,269,115308,2,0,L|310:283,1,121.500000463486,0|0,1:0|0:0,0:0:0:0:
110,351,115544,1,4,2:3:0:0:
310,185,115662,1,4,2:3:0:0:
193,56,115780,6,0,B|166:189|166:189|141:128,1,180,4|0,0:0|0:0,0:0:0:0:
366,68,116134,2,0,B|233:41|233:41|294:16,1,180,0|0,1:0|0:0,0:0:0:0:
351,242,116489,2,0,B|378:109|378:109|403:170,1,180,8|0,0:0|0:0,0:0:0:0:
178,230,116843,2,0,B|311:257|311:257|250:282,1,180,0|0,1:0|0:0,0:0:0:0:
405,179,117197,5,0,1:0:0:0:
139,115,117315,1,0,1:0:0:0:
269,153,117434,5,0,3:2:0:0:
274,141,117552,1,0,0:0:0:0:
148,215,117670,5,2,3:2:0:0:
120,263,117749,1,2,3:2:0:0:
125,318,117827,1,2,3:2:0:0:
160,358,117906,1,0,3:2:0:0:
170,363,117985,1,0,3:2:0:0:
185,369,118064,1,0,3:2:0:0:
202,368,118142,1,2,3:2:0:0:
222,356,118221,1,2,3:2:0:0:
239,330,118300,1,2,3:2:0:0:
258,294,118378,1,8,3:3:0:0:
303,268,118457,1,8,3:3:0:0:
370,269,118536,1,8,3:3:0:0:
427,322,118615,1,0,1:0:0:0:
77,44,119441,6,0,B|52:210|52:210|159:230,1,251.999992309571,4|0,1:0|0:0,0:0:0:0:
305,360,119795,2,0,P|301:322|221:337,1,125.999996154785,8|0,0:0|0:0,0:0:0:0:
397,210,120032,2,0,P|417:177|344:140,1,125.999996154785,0|0,1:0|0:0,0:0:0:0:
274,213,120267,1,8,0:0:0:0:
87,141,120385,1,0,1:0:0:0:
93,353,120504,6,0,P|117:312|109:213,1,125.999996154785,0|0,1:0|0:0,0:0:0:0:
49,44,120740,2,0,B|108:25|108:25|164:68,1,125.999996154785,8|0,0:0|0:0,0:0:0:0:
189,184,120976,1,0,1:0:0:0:
367,91,121094,2,0,P|358:32|287:55,1,125.999996154785,2|8,1:0|0:0,0:0:0:0:
348,295,121330,6,0,P|353:171|458:95,1,251.999992309571,4|2,0:0|0:0,0:0:0:0:
227,291,121685,2,0,B|190:264|190:264|188:160,1,125.999996154785,8|0,0:0|0:0,0:0:0:0:
108,345,121921,1,0,1:0:0:0:
91,161,122040,2,0,B|64:238|64:238|21:252,1,125.999996154785,0|8,1:0|0:0,0:0:0:0:
106,357,122275,1,0,0:0:0:0:
284,224,122393,5,10,2:3:0:0:
298,190,122472,1,2,2:3:0:0:
326,167,122551,1,2,2:3:0:0:
374,128,122630,5,10,2:3:0:0:
424,129,122708,1,2,2:3:0:0:
468,156,122787,1,2,2:3:0:0:
487,237,122866,6,0,P|494:190|472:107,1,125.999996154785,0|0,1:0|0:0,0:0:0:0:
427,304,123102,2,0,P|378:332|344:280,1,125.999996154785,8|0,0:0|0:0,0:0:0:0:
259,37,123338,6,0,B|131:-8|135:99|8:61,1,251.999992309571,4|8,0:0|0:0,0:0:0:0:
212,227,123693,2,0,B|227:183|227:183|201:106,1,125.999996154785,0|0,1:0|0:0,0:0:0:0:
110,237,123929,1,0,1:0:0:0:
249,350,124048,2,0,P|308:355|367:296,1,125.999996154785,8|2,0:0|0:0,0:0:0:0:
489,219,124284,2,0,P|430:224|371:165,1,125.999996154785,4|0,0:0|0:0,0:0:0:0:
190,89,124519,6,0,B|226:47|226:47|315:39,1,125.999996154785,8|0,0:0|0:0,0:0:0:0:
82,243,124756,2,0,L|57:108,1,125.999996154785,0|0,1:0|0:0,0:0:0:0:
281,312,124993,2,0,L|309:172,1,125.999996154785,8|2,0:0|0:0,0:0:0:0:
176,343,125229,5,4,0:0:0:0:
39,377,125347,1,0,0:0:0:0:
0,242,125465,2,0,P|18:210|75:267,1,125.999996154785,8|0,0:0|0:0,0:0:0:0:
166,334,125701,1,0,1:0:0:0:
282,171,125819,1,0,1:0:0:0:
399,358,125938,1,8,0:0:0:0:
496,147,126055,6,0,B|467:108|419:106|419:106|361:146|361:146|347:100|293:90,1,251.999992309571,4|0,1:0|0:0,0:0:0:0:
82,243,126409,2,0,P|106:199|181:224,1,125.999996154785,8|0,0:0|0:0,0:0:0:0:
310,354,126645,1,4,2:3:0:0:
316,276,126724,1,4,2:3:0:0:
281,218,126803,1,4,2:3:0:0:
248,173,126881,1,8,2:3:0:0:
240,126,126960,1,8,2:3:0:0:
251,87,127039,1,8,2:3:0:0:
281,64,127118,6,0,P|232:153|105:106,1,251.999992309571,4|0,0:0|1:0,0:0:0:0:
206,254,127472,1,0,0:0:0:0:
436,85,127590,6,0,B|466:123|466:123|433:220,1,125.999996154785,0|0,1:0|0:0,0:0:0:0:
313,360,127827,2,0,B|343:322|343:322|310:225,1,125.999996154785,0|0,1:0|0:0,0:0:0:0:
131,199,128063,5,0,1:0:0:0:
130,207,128181,1,0,0:0:0:0:
6,258,128299,5,0,1:0:0:0:
129,217,128417,1,0,1:0:0:0:
158,305,128535,5,0,1:0:0:0:
13,267,128653,1,0,0:0:0:0:
194,116,128771,5,0,1:0:0:0:
151,314,128889,1,0,0:0:0:0:
329,103,129008,6,0,P|325:55|236:22,1,125.999996154785,0|0,1:0|0:0,0:0:0:0:
186,106,129244,1,0,1:0:0:0:
389,223,129363,2,0,P|393:175|484:139,1,125.999996154785,0|0,1:0|0:0,0:0:0:0:
428,355,129598,5,0,1:0:0:0:
254,240,129716,1,0,1:0:0:0:
250,234,129834,1,0,0:0:0:0:
22,370,129952,6,0,B|44:291|44:291|12:252,1,125.999996154785,0|0,1:0|0:0,0:0:0:0:
174,291,130189,1,0,1:0:0:0:
182,285,130307,1,0,0:0:0:0:
114,99,130426,6,0,B|136:177|136:177|104:216,1,125.999996154785,0|0,1:0|1:0,0:0:0:0:
266,47,130661,1,0,1:0:0:0:
351,174,130779,1,0,0:0:0:0:
14,286,130898,6,0,B|82:271|82:271|137:320,1,139.500001064301,4|0,1:0|0:0,0:0:0:0:
245,123,131133,1,0,1:0:0:0:
334,310,131252,2,0,B|266:325|266:325|213:278,1,139.500001064301,4|0,0:0|0:0,0:0:0:0:
185,57,131488,1,0,1:0:0:0:
140,353,131606,6,0,B|71:292|71:292|115:105,1,279.000002128601,4|0,0:0|1:0,0:0:0:0:
356,308,131961,2,0,B|389:279|389:279|367:186,1,139.500001064301,0|8,0:0|0:0,0:0:0:0:
260,383,132196,1,0,0:0:0:0:
225,135,132315,1,0,1:0:0:0:
147,237,132434,2,0,P|88:257|63:197,2,139.500001064301,0|8|0,1:0|0:0|1:0,0:0:0:0:
210,122,132788,5,4,0:0:0:0:
186,44,132906,1,0,0:0:0:0:
351,183,133024,5,8,0:0:0:0:
371,90,133142,1,0,0:0:0:0:
156,266,133260,5,0,1:0:0:0:
185,369,133378,1,0,1:0:0:0:
265,184,133497,1,0,1:0:0:0:
341,378,133615,1,0,1:0:0:0:
402,288,133733,5,2,3:2:0:0:
305,263,133851,1,2,3:2:0:0:
293,267,133910,1,2,3:2:0:0:
283,271,133969,1,0,1:0:0:0:
446,200,134087,1,0,1:0:0:0:
251,192,134204,5,4,0:0:0:0:
170,130,134323,2,0,B|164:89|149:69|149:69|78:113|108:240,1,225,0|0,1:0|0:0,0:0:0:0:
28,250,134678,6,0,B|136:223|127:335|275:295,1,243.000000926971,4|0,1:0|0:0,0:0:0:0:
301,221,135031,1,2,0:0:0:0:
395,373,135149,2,0,P|343:334|374:282,1,121.500000463486,0|0,1:0|0:0,0:0:0:0:
452,250,135385,1,0,1:0:0:0:
357,141,135504,1,2,0:0:0:0:
512,33,135622,2,0,B|437:3|393:59|393:59|361:42|361:42|314:69|281:56,1,243.000000926971,0|0,1:0|0:0,0:0:0:0:
190,4,135976,1,2,0:0:0:0:
34,152,136094,2,0,P|62:103|141:110,1,121.500000463486,0|0,1:0|0:0,0:0:0:0:
186,222,136330,1,2,0:0:0:0:
315,163,136448,1,0,0:0:0:0:
401,360,136567,6,0,B|412:231|317:272|343:133,1,243.000000926971,4|0,0:0|1:0,0:0:0:0:
234,311,136921,2,0,B|218:362|218:362|125:383|125:383|69:298,1,243.000000926971,0|0,1:0|1:0,0:0:0:0:
128,122,137275,2,0,P|157:167|154:247,1,121.500000463486,0|0,1:0|0:0,0:0:0:0:
306,383,137512,2,0,B|367:352|358:278|358:278|307:240|313:172,1,243.000000926971,4|0,0:0|0:0,0:0:0:0:
423,148,137866,1,0,0:0:0:0:
259,22,137984,2,0,P|214:46|229:119,1,121.500000463486,0|0,1:0|0:0,0:0:0:0:
20,204,138221,2,0,B|47:161|47:161|129:157,1,121.500000463486,0|0,1:0|0:0,0:0:0:0:
362,327,138456,6,0,B|416:296|402:186|305:229|330:119|362:88,1,243.000000926971,4|0,1:0|0:0,0:0:0:0:
433,58,138811,1,2,0:0:0:0:
286,250,138929,2,0,P|221:255|172:204,1,121.500000463486,0|0,1:0|0:0,0:0:0:0:
133,317,139165,1,0,1:0:0:0:
46,131,139283,1,2,0:0:0:0:
93,45,139401,2,0,P|137:18|168:96,1,121.500000463486,0|0,1:0|0:0,0:0:0:0:
383,136,139638,2,0,P|339:109|308:187,1,121.500000463486,0|0,1:0|0:0,0:0:0:0:
221,300,139874,5,2,3:2:0:0:
158,159,139992,1,2,3:2:0:0:
326,268,140110,5,2,3:2:0:0:
148,169,140228,1,2,3:2:0:0:
0,368,140346,5,4,0:0:0:0:
166,150,140465,2,0,B|161:115|161:115|144:102|144:102|128:16,1,121.500000463486,2|0,1:0|0:0,0:0:0:0:
411,237,140701,2,0,B|415:202|415:202|432:189|432:189|448:103,1,121.500000463486,2|0,1:0|0:0,0:0:0:0:
98,283,140938,2,0,B|93:248|93:248|76:235|76:235|60:149,1,121.500000463486,2|0,1:0|0:0,0:0:0:0:
234,28,141174,2,0,B|282:140|282:140|379:68,2,243.000000926971,8|0|8,0:0|1:0|3:2,0:0:0:0:
223,233,141764,5,8,0:0:0:0:
318,287,141882,1,8,3:2:0:0:
214,368,142001,1,0,3:2:0:0:
331,279,142119,1,0,3:2:0:0:
466,97,142237,6,0,B|440:36|367:34|367:34|333:78|333:78|291:67|245:90,1,243.000000926971,4|0,1:0|0:0,0:0:0:0:
208,160,142590,1,2,0:0:0:0:
84,25,142708,2,0,P|153:57|127:115,1,121.500000463486,0|0,1:0|0:0,0:0:0:0:
60,169,142944,1,0,1:0:0:0:
180,284,143063,1,2,0:0:0:0:
21,384,143182,6,0,B|52:336|52:336|183:316|183:316|235:366,1,243.000000926971,0|0,1:0|0:0,0:0:0:0:
276,219,143535,1,2,0:0:0:0:
436,363,143653,2,0,B|397:324|397:324|304:336,1,121.500000463486,0|0,1:0|0:0,0:0:0:0:
484,254,143889,1,2,0:0:0:0:
391,176,144007,1,0,0:0:0:0:
502,40,144127,6,0,B|406:51|406:51|373:8|373:8|260:27,1,243.000000926971,4|0,0:0|1:0,0:0:0:0:
97,163,144480,2,0,B|148:84|148:84|241:105|241:105|257:156,1,243.000000926971,0|0,1:0|1:0,0:0:0:0:
210,320,144834,2,0,B|170:273|170:273|184:195,1,121.500000463486,0|0,1:0|0:0,0:0:0:0:
319,379,145071,2,0,B|398:347|398:347|429:179,1,243.000000926971,4|2,0:0|0:0,0:0:0:0:
491,120,145425,1,0,0:0:0:0:
367,13,145543,2,0,P|322:37|337:110,1,121.500000463486,0|0,1:0|0:0,0:0:0:0:
284,285,145780,2,0,B|257:242|257:242|175:238,1,121.500000463486,0|0,1:0|0:0,0:0:0:0:
96,49,146015,6,0,B|156:88|142:198|45:155|70:265|102:296,1,243.000000926971,4|0,1:0|0:0,0:0:0:0:
157,352,146370,1,2,0:0:0:0:
280,207,146488,2,0,P|270:157|183:157,1,121.500000463486,0|0,1:0|0:0,0:0:0:0:
342,72,146724,1,0,1:0:0:0:
394,184,146842,1,2,0:0:0:0:
504,8,146961,2,0,B|453:35|453:35|468:115,1,121.500000463486,0|0,1:0|0:0,0:0:0:0:
371,289,147197,2,0,B|359:226|359:226|410:199,1,121.500000463486,0|0,1:0|0:0,0:0:0:0:
261,380,147433,5,2,3:2:0:0:
212,259,147551,1,2,3:2:0:0:
256,104,147669,5,2,3:2:0:0:
192,271,147787,1,2,3:2:0:0:
64,43,147905,5,4,0:0:0:0:
125,167,148024,2,0,B|162:140|162:140|173:35,1,121.500000463486,2|0,1:0|0:0,0:0:0:0:
27,215,148260,1,2,1:0:0:0:
382,122,148497,6,0,B|435:92|435:92|470:164,1,121.500000463486,2|0,1:0|0:0,0:0:0:0:
424,324,148733,2,0,B|398:193,1,121.500000463486,8|0,0:0|0:0,0:0:0:0:
335,349,148969,2,0,P|262:354|267:295,1,121.500000463486,0|0,1:0|0:0,0:0:0:0:
315,231,149205,1,8,3:2:0:0:
188,137,149323,5,2,3:2:0:0:
165,284,149441,1,2,3:2:0:0:
39,187,149560,1,2,3:2:0:0:
301,230,149678,1,0,1:0:0:0:
178,205,160189,6,0,L|186:151,1,45,0|0,0:0|0:0,0:0:0:0:
257,219,160662,2,0,L|265:165,1,45,0|0,0:0|0:0,0:0:0:0:
386,327,161134,5,2,0:0:0:0:
367,316,161371,1,2,0:0:0:0:
337,312,161607,1,2,0:0:0:0:
301,324,161843,1,2,0:0:0:0:
272,359,162079,1,2,0:0:0:0:
220,281,162315,5,0,0:0:0:0:
220,281,162552,2,0,P|231:243|202:184,1,90,2|2,0:0|0:0,0:0:0:0:
321,206,163260,1,0,0:0:0:0:
325,223,163497,1,0,0:0:0:0:
339,233,163733,1,0,0:0:0:0:
281,107,163969,5,2,0:0:0:0:
212,44,164205,1,2,0:0:0:0:
127,75,164441,2,0,P|88:88|52:53,1,90,2|2,0:0|0:0,0:0:0:0:
214,35,165386,5,2,0:0:0:0:
193,133,165623,1,2,0:0:0:0:
222,232,165859,1,2,0:0:0:0:
228,237,166331,1,2,0:0:0:0:
470,303,166804,5,2,0:0:0:0:
430,298,167040,1,2,0:0:0:0:
391,314,167276,1,2,0:0:0:0:
368,338,167512,1,2,0:0:0:0:
344,349,167749,1,2,0:0:0:0:
327,349,167985,1,0,0:0:0:0:
280,281,168221,6,0,P|289:241|247:199,1,90,2|2,0:0|0:0,0:0:0:0:
355,166,169166,1,0,0:0:0:0:
357,155,169402,1,0,0:0:0:0:
199,51,169638,5,2,0:0:0:0:
221,135,169875,1,2,0:0:0:0:
169,204,170111,1,2,0:0:0:0:
278,242,170347,5,0,0:0:0:0:
276,231,170583,1,2,0:0:0:0:
268,223,170819,1,0,0:0:0:0:
238,317,171056,5,2,0:0:0:0:
272,337,171174,1,2,0:0:0:0:
312,336,171292,1,2,0:0:0:0:
345,313,171410,1,2,0:0:0:0:
366,278,171528,1,2,0:0:0:0:
396,251,171646,1,2,0:0:0:0:
434,237,171764,1,2,0:0:0:0:
473,243,171882,1,2,0:0:0:0:
506,267,172001,2,0,P|458:298|361:184,1,202.500007724762,2|0,0:0|0:0,0:0:0:0:
210,48,172473,5,4,0:0:0:0:
118,199,172591,2,0,B|105:127|105:127|42:77,1,116.999994644165,0|0,1:0|0:0,0:0:0:0:
265,246,172827,2,0,B|278:174|278:174|341:124,1,116.999994644165,0|0,1:0|0:0,0:0:0:0:
199,333,173064,1,2,3:2:0:0:
105,211,173182,2,0,P|46:208|39:278,1,116.999994644165,0|0,1:0|0:0,0:0:0:0:
209,344,173418,2,0,B|274:371|326:324|319:252|411:264|437:318,1,233.999989288331,4|0,0:0|1:0,0:0:0:0:
468,373,173772,1,0,0:0:0:0:
353,195,173890,1,2,3:2:0:0:
412,125,174008,2,0,P|459:119|483:187,2,116.999994644165,0|0|2,1:0|0:0|3:2,0:0:0:0:
322,272,174363,5,2,0:3:0:0:
277,294,174441,1,2,0:3:0:0:
227,290,174520,1,2,0:3:0:0:
190,252,174599,2,0,P|156:227|68:237,1,116.999994644165,2|0,0:3|0:0,0:0:0:0:
270,181,174835,5,0,1:0:0:0:
210,16,174953,1,0,1:0:0:0:
274,167,175071,1,0,1:0:0:0:
411,79,175189,1,0,1:0:0:0:
463,263,175308,5,4,0:0:0:0:
377,180,175426,2,0,B|418:201|418:201|447:341|447:341|401:378,1,233.999989288331,0|0,1:0|1:0,0:0:0:0:
263,294,175780,1,0,0:0:0:0:
180,353,175898,1,2,3:2:0:0:
184,361,175957,1,0,0:0:0:0:
188,370,176016,6,0,B|145:342|145:342|160:247,1,116.999994644165,0|0,1:0|0:0,0:0:0:0:
362,130,176253,2,0,B|359:181|359:181|269:215,1,116.999994644165,4|0,0:0|0:0,0:0:0:0:
70,102,176489,2,0,B|115:78|115:78|190:139,1,116.999994644165,0|0,1:0|0:0,0:0:0:0:
48,224,176725,1,2,3:2:0:0:
217,17,176843,2,0,B|301:36|301:36|279:198,1,233.999989288331,0|2,1:0|3:2,0:0:0:0:
342,303,177197,5,2,0:3:0:0:
374,289,177276,1,2,0:3:0:0:
409,288,177355,1,2,0:3:0:0:
442,301,177434,2,0,P|431:257|447:181,2,116.999994644165,2|0|2,0:3|0:0|3:2,0:0:0:0:
294,176,177788,1,2,3:2:0:0:
319,73,177906,1,2,0:0:0:0:
416,29,178024,1,2,0:0:0:0:
214,116,178142,5,4,0:0:0:0:
149,14,178260,2,0,B|112:37|112:37|101:134,1,116.999994644165,0|0,1:0|0:0,0:0:0:0:
45,213,178497,2,0,B|8:190|8:190|-3:93,1,116.999994644165,0|0,1:0|0:0,0:0:0:0:
147,200,178733,1,2,3:2:0:0:
11,316,178851,2,0,B|43:347|43:347|144:333,1,116.999994644165,0|0,1:0|0:0,0:0:0:0:
360,194,179087,6,0,L|343:328,1,116.999994644165,4|0,0:0|0:0,0:0:0:0:
115,118,179323,2,0,L|132:252,1,116.999994644165,0|0,1:0|0:0,0:0:0:0:
307,76,179560,1,2,3:2:0:0:
364,205,179678,2,0,B|317:171|317:171|255:191,1,116.999994644165,0|0,1:0|0:0,0:0:0:0:
431,313,179914,1,2,3:2:0:0:
238,362,180032,5,2,0:3:0:0:
217,356,180111,1,2,0:3:0:0:
200,345,180189,1,2,0:3:0:0:
189,329,180268,5,2,0:3:0:0:
228,327,180347,1,2,0:3:0:0:
261,307,180426,1,2,0:3:0:0:
275,272,180504,5,2,1:3:0:0:
250,231,180583,1,2,0:3:0:0:
204,218,180662,1,2,0:3:0:0:
157,223,180741,5,0,1:0:0:0:
80,325,180859,1,0,1:0:0:0:
129,113,180977,5,4,0:0:0:0:
42,5,181095,2,0,B|72:77|72:77|239:94,1,233.999989288331,0|0,1:0|1:0,0:0:0:0:
327,174,181449,1,0,0:0:0:0:
385,11,181567,1,2,3:2:0:0:
392,17,181627,1,0,0:0:0:0:
400,23,181686,6,0,B|405:85|405:85|447:132,1,116.999994644165,0|0,1:0|0:0,0:0:0:0:
292,383,181922,2,0,B|297:321|297:321|339:274,1,116.999994644165,4|0,0:0|0:0,0:0:0:0:
41,310,182158,2,0,B|46:248|46:248|88:201,1,116.999994644165,0|0,1:0|0:0,0:0:0:0:
287,183,182394,5,2,3:2:0:0:
326,120,182473,1,0,3:2:0:0:
313,60,182552,1,0,3:2:0:0:
266,34,182630,1,0,3:2:0:0:
219,37,182709,1,0,3:2:0:0:
186,58,182788,1,0,3:2:0:0:
159,71,182867,1,0,3:2:0:0:
134,70,182945,1,0,3:2:0:0:
110,56,183024,1,0,3:2:0:0:
76,51,183103,1,2,3:3:0:0:
36,60,183182,1,2,3:3:0:0:
5,93,183260,1,2,3:3:0:0:
12,147,183339,6,0,B|22:218|22:218|-27:262,1,135.000005149842,4|0,1:0|0:0,0:0:0:0:
255,360,183575,2,0,B|265:289|265:289|216:246,1,135.000005149842,4|0,1:0|0:0,0:0:0:0:
498,147,183812,2,0,B|508:218|508:218|459:260,1,135.000005149842,4|0,0:0|0:0,0:0:0:0:
299,59,184048,6,0,P|254:25|194:22,1,116.999994644165,8|0,0:0|0:0,0:0:0:0:
40,174,184284,1,0,0:0:0:0:
129,219,184402,1,2,3:2:0:0:
79,19,184520,2,0,B|114:54|114:54|109:136,1,116.999994644165,8|0,0:0|0:0,0:0:0:0:
235,315,184756,2,0,L|212:189,1,116.999994644165,4|0,0:0|0:0,0:0:0:0:
382,379,184993,2,0,L|405:253,1,116.999994644165,8|0,0:0|0:0,0:0:0:0:
464,126,185229,1,0,1:0:0:0:
428,39,185347,1,0,3:2:0:0:
361,163,185465,2,0,P|313:159|263:99,1,116.999994644165,8|0,0:0|0:0,0:0:0:0:
164,259,185701,6,0,P|191:162|121:39,1,233.999989288331,4|8,0:0|0:0,0:0:0:0:
261,308,186056,2,0,B|300:312|326:271|326:271|270:202|163:256,1,233.999989288331,0|0,3:2|3:2,0:0:0:0:
41,370,186410,2,0,P|13:339|69:300,1,116.999994644165,8|0,0:0|0:0,0:0:0:0:
138,93,186646,6,0,B|99:118|99:118|93:200,1,116.999994644165,4|0,0:0|0:0,0:0:0:0:
295,75,186882,2,0,B|336:95|336:95|350:176,1,116.999994644165,8|0,0:0|0:0,0:0:0:0:
249,287,187119,1,0,1:0:0:0:
294,369,187237,1,2,0:0:0:0:
234,260,187355,1,0,1:0:0:0:
397,307,187473,1,0,0:0:0:0:
462,78,187591,6,0,L|485:214,1,116.999994644165,2|0,1:0|0:0,0:0:0:0:
263,17,187827,2,0,L|240:153,1,116.999994644165,0|0,1:0|0:0,0:0:0:0:
28,130,188064,6,0,L|5:266,1,116.999994644165,0|0,1:0|0:0,0:0:0:0:
254,233,188300,2,0,L|277:369,1,116.999994644165,0|0,1:0|0:0,0:0:0:0:
342,161,188536,5,2,1:0:0:0:
346,149,188654,1,0,0:0:0:0:
143,202,188772,5,0,1:0:0:0:
139,190,188890,1,0,0:0:0:0:
411,259,189008,5,0,1:0:0:0:
415,247,189126,1,0,0:0:0:0:
233,365,189245,5,0,1:0:0:0:
125,294,189363,1,0,1:0:0:0:
343,373,189481,6,0,B|299:304|322:231|322:231|277:231|254:183,1,233.999989288331,4|0,1:0|1:0,0:0:0:0:
425,84,189835,2,0,B|398:145|330:148|330:148|334:85|289:43,1,233.999989288331,2|0,1:2|1:0,0:0:0:0:
168,183,190189,2,0,P|117:176|122:109,1,116.999994644165,2|0,1:2|0:0,0:0:0:0:
46,305,190426,2,0,P|97:345|150:345,1,116.999994644165,4|2,0:0|3:2,0:0:0:0:
241,246,190662,2,0,P|292:206|345:206,1,116.999994644165,0|0,1:0|0:0,0:0:0:0:
442,345,190898,1,0,1:0:0:0:
449,241,191016,1,0,0:0:0:0:
336,350,191134,1,0,1:0:0:0:
184,308,191252,1,2,3:2:0:0:
283,117,191371,6,0,P|332:140|347:212,1,116.999994644165,4|0,1:0|0:0,0:0:0:0:
280,269,191607,1,0,1:0:0:0:
206,52,191725,2,0,L|183:183,1,116.999994644165,2|0,1:2|0:0,0:0:0:0:
283,279,191961,1,0,1:0:0:0:
45,308,192079,2,0,B|58:264|58:264|138:240,1,116.999994644165,2|0,1:2|0:0,0:0:0:0:
252,357,192315,5,8,2:3:0:0:
306,361,192394,1,8,2:3:0:0:
350,329,192473,1,8,2:3:0:0:
359,253,192552,5,8,2:3:0:0:
387,204,192630,1,8,2:3:0:0:
442,194,192709,1,8,2:3:0:0:
485,277,192788,5,0,1:0:0:0:
393,94,192906,2,0,L|353:90,1,33.75,2|0,3:2|0:0,0:0:0:0:
343,101,193142,5,0,1:0:0:0:
230,16,193260,2,0,P|196:60|202:157,1,125.999996154785,4|0,1:0|0:0,0:0:0:0:
326,275,193496,2,0,P|322:313|242:298,1,125.999996154785,8|0,0:0|0:0,0:0:0:0:
70,222,193733,2,0,P|65:259|146:263,1,125.999996154785,0|0,1:0|0:0,0:0:0:0:
246,217,193968,1,8,0:0:0:0:
418,320,194086,1,0,1:0:0:0:
393,93,194205,6,0,P|356:115|337:211,1,125.999996154785,0|0,1:0|0:0,0:0:0:0:
143,37,194441,2,0,B|202:18|202:18|258:61,1,125.999996154785,8|0,0:0|0:0,0:0:0:0:
168,155,194677,1,0,1:0:0:0:
307,303,194795,2,0,P|289:358|227:339,1,125.999996154785,2|8,1:0|0:0,0:0:0:0:
393,93,195031,6,0,B|345:216|462:214|414:337,1,251.999992309571,4|2,0:0|0:0,0:0:0:0:
268,187,195386,2,0,B|239:142|239:142|144:158,1,125.999996154785,8|0,0:0|0:0,0:0:0:0:
130,267,195622,1,0,1:0:0:0:
78,78,195741,2,0,B|107:33|107:33|202:49,1,125.999996154785,0|8,1:0|0:0,0:0:0:0:
340,125,195976,1,0,0:0:0:0:
451,38,196094,5,10,2:3:0:0:
470,71,196173,1,2,2:3:0:0:
476,108,196252,1,2,2:3:0:0:
512,180,196331,5,10,2:3:0:0:
496,236,196409,1,2,2:3:0:0:
454,257,196488,1,2,2:3:0:0:
409,326,196567,6,0,P|443:286|518:272,1,125.999996154785,0|0,1:0|0:0,0:0:0:0:
327,109,196804,2,0,L|319:256,1,125.999996154785,8|0,0:0|0:0,0:0:0:0:
16,347,197040,2,0,B|29:288|112:268|112:268|63:240|63:240|89:217|99:177,1,251.999992309571,4|8,0:0|0:0,0:0:0:0:
207,23,197394,2,0,P|177:70|178:153,1,125.999996154785,0|0,1:0|0:0,0:0:0:0:
70,40,197630,1,0,1:0:0:0:
214,247,197749,2,0,B|277:262|277:262|329:218,1,125.999996154785,8|2,0:0|0:0,0:0:0:0:
455,347,197985,2,0,B|392:362|392:362|340:318,1,125.999996154785,4|0,0:0|0:0,0:0:0:0:
440,66,198221,6,0,L|468:209,1,125.999996154785,8|0,0:0|0:0,0:0:0:0:
214,247,198457,2,0,L|237:106,1,125.999996154785,0|0,1:0|0:0,0:0:0:0:
50,269,198693,2,0,P|80:328|144:282,1,125.999996154785,8|2,0:0|0:0,0:0:0:0:
74,165,198930,5,4,0:0:0:0:
160,63,199048,1,0,0:0:0:0:
302,202,199166,2,0,P|284:136|213:130,1,125.999996154785,8|0,0:0|0:0,0:0:0:0:
437,16,199402,1,0,1:0:0:0:
478,246,199520,1,0,1:0:0:0:
310,303,199638,5,8,0:0:0:0:
449,377,199756,2,0,B|383:318|301:323|301:323|272:370|213:366,1,251.999992309571,4|0,1:0|0:0,0:0:0:0:
92,218,200110,2,0,P|123:203|173:271,1,125.999996154785,8|0,0:0|0:0,0:0:0:0:
332,39,200346,1,4,2:3:0:0:
357,112,200425,1,4,2:3:0:0:
337,178,200504,1,4,2:3:0:0:
296,210,200582,1,8,2:3:0:0:
271,243,200661,1,8,2:3:0:0:
269,273,200740,1,8,2:3:0:0:
280,290,200819,6,0,P|310:199|176:136,1,251.999992309571,4|0,0:0|1:0,0:0:0:0:
99,228,201173,1,0,0:0:0:0:
204,7,201291,6,0,B|234:45|234:45|201:142,1,125.999996154785,0|0,1:0|0:0,0:0:0:0:
374,246,201528,2,0,B|344:208|344:208|377:111,1,125.999996154785,0|0,1:0|0:0,0:0:0:0:
280,290,201764,5,0,1:0:0:0:
273,274,201882,1,0,0:0:0:0:
205,327,202000,5,0,1:0:0:0:
344,351,202118,1,0,1:0:0:0:
173,245,202236,5,0,1:0:0:0:
0,308,202354,1,0,0:0:0:0:
212,158,202472,5,0,1:0:0:0:
403,206,202590,1,0,0:0:0:0:
151,80,202709,6,0,P|153:27|232:7,1,125.999996154785,0|0,1:0|0:0,0:0:0:0:
295,104,202945,1,0,1:0:0:0:
421,11,203064,2,0,B|456:48|456:48|449:145,1,125.999996154785,0|0,1:0|0:0,0:0:0:0:
484,345,203299,5,0,1:0:0:0:
351,263,203417,1,0,1:0:0:0:
258,372,203535,1,0,0:0:0:0:
67,316,203654,6,0,B|114:358|114:358|198:340,1,125.999996154785,0|0,1:0|0:0,0:0:0:0:
64,207,203890,1,0,1:0:0:0:
56,206,204008,1,0,0:0:0:0:
174,69,204127,2,0,B|112:55|112:55|65:97,1,125.999996154785,0|0,1:0|0:0,0:0:0:0:
252,159,204362,1,0,1:0:0:0:
357,22,204480,1,0,1:0:0:0:
494,236,204599,6,0,B|446:211|446:211|429:126,1,139.500001064301,4|0,1:0|0:0,0:0:0:0:
401,321,204835,1,0,1:0:0:0:
446,47,204953,2,0,B|410:86|410:86|424:172,1,139.500001064301,4|0,0:0|0:0,0:0:0:0:
400,333,205189,1,0,1:0:0:0:
240,45,205307,6,0,B|317:94|317:94|303:286,1,279.000002128601,4|0,0:0|1:0,0:0:0:0:
89,192,205662,2,0,B|58:143|58:143|100:70,1,139.500001064301,0|8,0:0|0:0,0:0:0:0:
178,290,205897,1,0,0:0:0:0:
230,139,206016,1,0,1:0:0:0:
320,312,206134,2,0,P|360:349|439:321,2,139.500001064301,0|8|0,1:0|0:0|1:0,0:0:0:0:
388,105,206489,5,4,0:0:0:0:
450,168,206607,1,2,3:2:0:0:
448,182,206666,1,2,3:2:0:0:
446,197,206725,5,8,0:0:0:0:
319,215,206843,1,0,0:0:0:0:
224,83,206961,5,0,1:0:0:0:
380,111,207079,1,0,1:0:0:0:
314,229,207197,5,0,1:0:0:0:
129,258,207315,1,0,1:0:0:0:
12,61,207434,5,8,2:3:0:0:
53,97,207512,1,8,2:3:0:0:
55,152,207591,1,8,2:3:0:0:
25,199,207670,1,8,2:3:0:0:
0,249,207749,1,8,2:3:0:0:
1,304,207827,1,8,2:3:0:0:
31,350,207906,1,8,2:3:0:0:
86,359,207985,1,8,2:3:0:0:
139,344,208064,1,8,2:3:0:0:
193,351,208142,1,0,1:0:0:0:
273,220,208260,6,0,P|275:292|307:345,1,130.500003982544,4|0,0:1|0:0,0:0:0:0:
172,253,208497,1,0,0:0:0:0:
466,188,208615,2,0,B|379:170|379:170|361:123|361:123|231:97,1,261.000007965088,8|0,0:0|1:0,0:0:0:0:
111,172,208969,1,2,3:2:0:0:
69,16,209087,1,8,0:0:0:0:
4,292,209205,6,0,B|131:260|96:360|183:363|228:350|248:316,1,261.000007965088,4|0,0:1|0:0,0:0:0:0:
355,149,209560,2,0,P|311:166|307:249,1,130.500003982544,8|0,0:0|0:0,0:0:0:0:
345,363,209796,1,0,1:0:0:0:
184,222,209914,2,0,B|164:171|164:171|77:159,1,130.500003982544,2|8,3:2|0:0,0:0:0:0:
371,55,210150,6,0,B|297:27|297:27|243:67|243:67|190:57|190:57|184:70|184:70|114:80,1,261.000007965088,4|0,0:1|0:0,0:0:0:0:
395,223,210504,2,0,B|433:200|433:200|444:108,1,130.500003982544,8|0,0:0|0:0,0:0:0:0:
504,305,210741,1,0,1:0:0:0:
300,156,210859,2,0,P|229:185|248:305,1,195.750005973816,0|0,1:0|0:0,0:0:0:0:
193,360,211095,2,0,P|124:365|115:299,1,130.500003982544,2|2,3:2|3:2,0:0:0:0:
169,127,211331,1,2,3:2:0:0:
113,41,211449,2,0,P|81:28|7:77,1,130.500003982544,8|0,0:0|0:0,0:0:0:0:
218,201,211686,6,0,B|264:157|264:157|248:87,1,130.500003982544,0|0,1:0|0:0,0:0:0:0:
363,10,211922,2,0,B|409:54|409:54|393:124,1,130.500003982544,8|0,0:0|0:0,0:0:0:0:
296,329,212158,2,0,P|338:220|465:243,1,261.000007965088,4|8,0:0|0:0,0:0:0:0:
228,381,212512,2,0,P|190:372|167:285,1,130.500003982544,2|0,0:0|0:0,0:0:0:0:
72,377,212749,1,0,0:0:0:0:
0,159,212867,6,0,P|42:50|169:73,1,261.000007965088,8|2,0:0|3:2,0:0:0:0:
315,220,213221,2,0,P|273:238|234:164,2,130.500003982544,0|8|0,0:0|0:0|0:0,0:0:0:0:
449,146,213575,1,2,3:2:0:0:
488,298,213693,1,2,3:2:0:0:
445,160,213812,1,8,0:0:0:0:
371,327,213930,1,0,0:0:0:0:
307,99,214048,6,0,P|272:67|165:43,1,130.500003982544,4|0,0:0|0:0,0:0:0:0:
100,317,214284,2,0,L|80:167,1,130.500003982544,8|0,0:0|0:0,0:0:0:0:
208,267,214520,1,0,1:0:0:0:
106,92,214638,1,0,1:0:0:0:
358,215,214756,6,0,B|413:203|484:221|492:143|485:72|389:59|338:81|294:240|463:196|437:306|389:388,1,445.500004248619,4|0,0:0|0:0,0:0:0:0:
193,364,215229,2,0,P|210:320|300:315,1,130.500003982544,8|0,0:0|0:0,0:0:0:0:
143,241,215465,1,2,0:2:0:0:
136,222,215524,1,2,0:2:0:0:
135,202,215583,1,2,0:2:0:0:
138,182,215642,1,2,0:2:0:0:
145,164,215701,1,2,3:2:0:0:
237,181,215819,1,0,0:0:0:0:
468,106,215938,6,0,B|424:35|319:39|319:39|300:82|325:139,1,251.999992309571,4|8,0:0|0:0,0:0:0:0:
391,179,216292,1,2,3:2:0:0:
241,338,216410,2,0,P|268:293|357:301,1,125.999996154785,0|0,0:0|0:0,0:0:0:0:
145,164,216646,1,8,0:0:0:0:
65,235,216764,2,0,B|20:193|20:193|39:112,1,125.999996154785,2|0,3:2|1:0,0:0:0:0:
118,315,217001,1,0,0:0:0:0:
195,262,217119,2,0,B|253:243|253:243|272:162,1,125.999996154785,8|0,0:0|0:0,0:0:0:0:
335,14,217355,5,0,1:0:0:0:
421,46,217473,1,2,0:0:0:0:
245,74,217591,1,8,0:0:0:0:
159,42,217709,1,2,0:0:0:0:
345,280,217827,6,0,B|428:252|496:314|496:314|525:246|485:185|485:185|438:199|426:244,1,377.999988464356,4|0,0:0|0:0,0:0:0:0:
279,352,218300,2,0,B|244:317|244:317|258:234,1,125.999996154785,2|0,3:2|0:0,0:0:0:0:
135,37,218536,2,0,B|170:72|170:72|156:155,1,125.999996154785,8|2,0:0|3:2,0:0:0:0:
48,294,218772,1,0,1:0:0:0:
168,334,218890,1,2,0:0:0:0:
51,165,219008,1,8,0:0:0:0:
36,303,219127,1,0,0:0:0:0:
253,146,219245,2,0,B|339:142|373:221|373:221|393:156|455:135,1,251.999992309571,0|8,1:0|0:0,0:0:0:0:
365,67,219599,1,0,0:0:0:0:
268,290,219717,6,0,B|243:311|203:309|203:309|184:237|94:235|94:235|124:255|133:299,1,270.000010299683,4|8,0:0|0:0,0:0:0:0:
30,18,220071,2,0,B|23:119|98:155|98:155|112:122|112:122|136:153|186:150,1,270.000010299683,2|2,3:2|3:2,0:0:0:0:
386,227,220426,2,0,B|386:175|345:143|345:143|301:215|301:215|251:177|260:129,1,270.000010299683,8|4,0:0|0:0,0:0:0:0:
297,38,220780,1,0,0:0:0:0:
483,220,220898,2,0,P|479:155|517:80,1,135.000005149842,8|0,0:0|0:0,0:0:0:0:
357,308,221134,1,0,1:0:0:0:
510,382,221252,2,0,P|524:354|454:305,1,135.000005149842,0|8,1:0|0:0,0:0:0:0:
207,374,221489,6,0,B|120:359|115:281|115:281|148:228|148:228|132:151,1,270.000010299683,4|0,0:0|0:0,0:0:0:0:
335,22,221843,1,8,0:0:0:0:
233,129,221961,1,2,3:2:0:0:
94,77,222079,1,2,3:2:0:0:
244,136,222197,1,2,3:2:0:0:
397,200,222315,1,2,3:2:0:0:
341,14,222434,1,4,0:0:0:0:
306,257,222552,5,0,3:2:0:0:
312,309,222630,1,0,3:2:0:0:
340,342,222709,1,0,3:2:0:0:
374,354,222788,1,0,3:2:0:0:
404,357,222867,1,0,3:2:0:0:
420,349,222945,1,0,3:2:0:0:
424,338,223024,1,2,3:2:0:0:
418,319,223103,1,2,3:2:0:0:
394,299,223182,1,2,3:2:0:0:
360,292,223260,1,2,3:2:0:0:
320,307,223339,1,2,3:2:0:0:
263,304,223418,1,2,3:2:0:0:
209,254,223497,6,0,B|167:163|270:149|290:72|226:6,1,261.000007965088,4|0,1:0|0:0,0:0:0:0:
325,191,223851,1,2,0:0:0:0:
137,73,223969,2,0,P|81:71|19:125,1,130.500003982544,0|0,1:0|0:0,0:0:0:0:
101,229,224205,1,0,1:0:0:0:
30,315,224324,1,2,0:0:0:0:
208,384,224441,2,0,P|254:316|157:163,1,261.000007965088,0|0,1:0|0:0,0:0:0:0:
253,75,224796,1,2,0:0:0:0:
350,274,224914,2,0,P|389:319|463:314,1,130.500003982544,0|0,1:0|0:0,0:0:0:0:
512,215,225150,1,2,0:0:0:0:
402,132,225268,1,0,0:0:0:0:
487,0,225387,6,0,B|497:148|402:107|428:246,1,261.000007965088,4|0,0:0|1:0,0:0:0:0:
335,64,225741,2,0,B|280:22|227:51|227:51|180:3|180:3|106:28,1,261.000007965088,0|0,1:0|1:0,0:0:0:0:
6,211,226095,2,0,P|26:171|112:202,1,130.500003982544,0|0,1:0|0:0,0:0:0:0:
257,355,226331,2,0,B|319:326|309:250|309:250|253:209|268:125,1,261.000007965088,4|2,0:0|0:0,0:0:0:0:
356,52,226686,1,0,0:0:0:0:
403,243,226804,2,0,P|464:254|486:183,1,130.500003982544,0|0,1:0|0:0,0:0:0:0:
257,355,227041,2,0,B|222:317|222:317|240:235,1,130.500003982544,0|0,1:0|0:0,0:0:0:0:
127,33,227276,6,0,B|40:21|11:122|94:140|59:251,1,261.000007965088,4|0,1:0|0:0,0:0:0:0:
3,334,227631,1,2,0:0:0:0:
169,176,227749,2,0,P|220:140|289:176,1,130.500003982544,0|0,1:0|0:0,0:0:0:0:
370,261,227985,1,0,1:0:0:0:
484,184,228103,1,2,0:0:0:0:
387,381,228221,2,0,B|350:348|350:348|360:246,1,130.500003982544,0|0,1:0|0:0,0:0:0:0:
223,62,228457,2,0,B|269:78|269:78|298:177,1,130.500003982544,0|0,1:0|0:0,0:0:0:0:
230,285,228694,5,2,3:2:0:0:
33,335,228812,1,2,3:2:0:0:
304,373,228930,1,2,3:2:0:0:
121,271,229048,1,2,3:2:0:0:
307,135,229166,5,4,0:0:0:0:
186,21,229285,2,0,B|164:82|164:82|186:105|186:105|192:164,1,130.500003982544,2|0,1:0|0:0,0:0:0:0:
446,258,229520,2,0,B|468:197|468:197|446:174|446:174|440:115,1,130.500003982544,2|0,1:0|0:0,0:0:0:0:
137,231,229756,2,0,B|115:292|115:292|137:315|137:315|143:374,1,130.500003982544,2|0,1:0|0:0,0:0:0:0:
300,121,229994,2,0,B|199:41|199:41|64:103,2,261.000007965088,8|0|8,0:0|1:0|3:2,0:0:0:0:
417,255,230584,5,8,0:0:0:0:
283,297,230701,1,8,3:2:0:0:
303,128,230819,1,0,3:2:0:0:
372,346,230938,1,0,3:2:0:0:
408,131,231057,6,0,B|415:58|360:2|360:2|326:46|326:46|284:35|252:56,1,261.000007965088,4|0,1:0|0:0,0:0:0:0:
216,137,231410,1,2,0:0:0:0:
51,16,231528,2,0,P|123:22|172:76,1,130.500003982544,0|0,1:0|0:0,0:0:0:0:
89,159,231764,1,0,1:0:0:0:
191,256,231883,1,2,0:0:0:0:
1,354,232002,6,0,B|31:296|31:296|129:278|112:371|250:345,1,261.000007965088,0|0,1:0|0:0,0:0:0:0:
285,264,232355,1,2,0:0:0:0:
436,363,232473,2,0,B|397:324|397:324|321:349,1,130.500003982544,0|0,1:0|0:0,0:0:0:0:
484,254,232709,1,2,0:0:0:0:
391,176,232827,1,0,0:0:0:0:
506,34,232945,6,0,B|406:51|406:51|373:8|373:8|260:27,1,261.000007965088,4|0,0:0|0:0,0:0:0:0:
151,189,233300,2,0,B|170:232|170:232|235:204|235:204|179:33,1,261.000007965088,0|0,1:0|1:0,0:0:0:0:
62,212,233654,2,0,B|27:180|27:180|56:81,1,130.500003982544,0|0,1:0|0:0,0:0:0:0:
78,363,233891,2,0,B|126:292|126:292|203:308|203:308|226:344|226:344|292:354,1,261.000007965088,4|2,0:0|0:0,0:0:0:0:
387,312,234245,1,0,0:0:0:0:
322,111,234363,2,0,P|262:115|250:181,1,130.500003982544,0|0,1:0|0:0,0:0:0:0:
153,312,234599,2,0,B|180:269|180:269|265:262,1,130.500003982544,0|0,1:0|0:0,0:0:0:0:
466,383,234835,6,0,B|548:342|534:232|437:275|472:144,1,261.000007965088,4|0,1:0|0:0,0:0:0:0:
512,51,235190,1,2,0:0:0:0:
320,178,235308,2,0,B|244:211|178:158|239:93|170:34|109:65,1,261.000007965088,0|0,1:0|1:0,0:0:0:0:
46,122,235662,1,2,0:0:0:0:
170,321,235780,2,0,P|130:283|140:174,1,130.500003982544,0|0,1:0|0:0,0:0:0:0:
395,112,236016,2,0,B|406:47|406:47|345:16,1,130.500003982544,0|0,1:0|0:0,0:0:0:0:
416,236,236253,5,2,3:2:0:0:
263,310,236371,1,2,3:2:0:0:
305,158,236489,5,2,3:2:0:0:
455,307,236607,1,2,3:2:0:0:
178,357,236725,6,0,B|132:333|132:333|126:232,1,130.500003982544,4|2,0:0|1:0,0:0:0:0:
48,365,236961,1,0,0:0:0:0:
119,171,237079,2,0,B|123:92|123:92|169:68,1,130.500003982544,2|0,1:0|0:0,0:0:0:0:
377,223,237315,2,0,B|400:148|400:148|366:109,1,130.500003982544,2|0,1:0|0:0,0:0:0:0:
174,318,237553,2,0,B|220:361|220:361|287:349,2,130.500003982544,8|0|0,0:0|0:0|1:0,0:0:0:0:
106,161,237906,2,0,P|74:134|38:199,1,130.500003982544,0|8,0:0|3:2,0:0:0:0:
177,225,238142,5,2,3:2:0:0:
255,122,238260,1,2,3:2:0:0:
433,219,238378,1,2,3:2:0:0:
511,116,238496,1,0,1:0:0:0:
273,218,238615,5,6,3:2:0:0:
243,301,238733,1,2,3:2:0:0:
310,356,238851,1,2,3:2:0:0:
164,367,238969,6,0,P|271:326|364:353,1,180,0|0,1:0|0:0,0:0:0:0:
311,155,239323,2,0,P|284:163|290:235,1,90,0|0,1:0|0:0,0:0:0:0:
456,338,239560,6,0,L|473:228,1,90,0|0,1:0|0:0,0:0:0:0:
336,69,239796,2,0,L|349:157,1,90,0|0,0:3|0:0,0:0:0:0:
204,275,240033,2,0,B|272:217|272:217|194:168,1,180,8|0,0:0|0:0,0:0:0:0:
129,352,240387,1,0,3:2:0:0:
129,352,240446,1,0,3:2:0:0:
129,352,240505,6,0,B|66:309|66:309|101:186,1,180,4|0,0:0|0:0,0:0:0:0:
239,371,240859,2,0,B|311:350|311:350|316:222,1,180,4|0,0:0|0:0,0:0:0:0:
239,66,241213,6,0,B|176:108|176:108|211:231,1,180,4|0,0:0|0:0,0:0:0:0:
451,169,241567,2,0,B|447:64|447:64|375:44,1,180,0|0,1:0|0:0,0:0:0:0:
342,266,241922,5,2,1:2:0:0:
110,205,242041,1,0,1:0:0:0:
480,357,242276,6,0,B|471:272|471:272|447:258|447:258|432:136,1,215.999993408203,4|0,1:0|0:0,0:0:0:0:
291,29,242630,2,0,B|325:44|325:44|334:134,1,107.999996704102,8|0,0:0|0:0,0:0:0:0:
257,261,242866,2,0,P|211:260|197:199,1,107.999996704102,0|0,1:0|0:0,0:0:0:0:
245,133,243103,1,8,0:0:0:0:
25,78,243221,6,0,B|59:21|59:21|224:60,1,215.999993408203,0|4,1:0|2:3,0:0:0:0:
24,177,243575,2,0,B|51:211|51:211|134:188,1,107.999996704102,8|0,0:0|0:0,0:0:0:0:
212,359,243811,2,0,L|226:240,1,107.999996704102,0|0,1:0|0:0,0:0:0:0:
323,344,244047,1,8,0:0:0:0:
440,100,244166,6,0,P|378:104|368:252,1,215.999993408203,0|0,1:0|0:0,0:0:0:0:
285,39,244520,2,0,P|269:91|207:106,1,107.999996704102,8|0,0:0|0:0,0:0:0:0:
24,177,244756,2,0,B|77:201|77:201|143:186,1,107.999996704102,0|0,1:0|0:0,0:0:0:0:
197,287,244992,1,8,0:0:0:0:
354,117,245110,2,0,B|359:185|359:185|300:236|300:236|309:317,1,215.999993408203,0|0,1:0|1:0,0:0:0:0:
508,339,245465,2,0,B|454:361|454:361|392:315,1,107.999996704102,8|0,0:0|0:0,0:0:0:0:
255,369,245701,1,0,1:0:0:0:
217,194,245819,1,0,1:0:0:0:
183,301,245937,1,8,0:0:0:0:
113,74,246055,6,0,B|146:120|146:120|249:86|249:86|288:141,1,215.999993408203,4|0,0:0|0:0,0:0:0:0:
479,300,246410,2,0,B|459:263|459:263|367:261,1,107.999996704102,0|0,1:0|0:0,0:0:0:0:
355,20,246646,2,0,B|333:54|333:54|377:135,1,107.999996704102,0|0,1:2|0:0,0:0:0:0:
168,255,246882,2,0,B|210:256|210:256|258:177,1,107.999996704102,0|0,1:2|0:0,0:0:0:0:
128,7,247119,6,0,B|109:41|109:41|128:138,1,107.999996704102,0|0,1:2|0:0,0:0:0:0:
351,324,247355,2,0,B|369:289|369:289|351:193,1,107.999996704102,0|0,1:2|0:0,0:0:0:0:
30,82,247591,2,0,B|11:116|11:116|30:213,1,107.999996704102,0|0,1:2|0:0,0:0:0:0:
114,264,247827,1,8,0:0:0:0:
230,45,247945,6,0,P|292:11|376:124,1,215.999993408203,4|0,0:0|0:0,0:0:0:0:
512,237,248299,2,0,B|501:191|501:191|410:163,1,107.999996704102,8|0,0:0|0:0,0:0:0:0:
320,240,248536,1,2,1:0:0:0:
512,347,248654,2,0,L|394:373,1,107.999996704102,0|0,1:0|0:0,0:0:0:0:
221,253,248890,6,0,P|192:320|54:286,1,215.999993408203,4|0,0:0|0:0,0:0:0:0:
134,111,249244,1,8,0:0:0:0:
5,215,249362,1,0,0:0:0:0:
138,124,249481,1,0,1:0:0:0:
294,155,249599,1,8,0:0:0:0:
116,11,249717,1,0,1:0:0:0:
471,312,249953,6,0,P|449:323|401:273,1,94.499997116089,4|0,2:3|0:0,0:0:0:0:
396,262,250189,6,0,P|396:204|279:255,1,233.999989288331,4|0,1:0|1:0,0:0:0:0:
314,325,250544,1,0,0:0:0:0:
100,360,250662,1,8,0:0:0:0:
30,289,250780,2,0,B|42:243|42:243|125:225,1,116.999994644165,0|0,1:0|0:0,0:0:0:0:
110,370,251016,1,4,2:3:0:0:
198,162,251134,2,0,B|186:116|186:116|103:98,1,116.999994644165,8|0,0:0|0:0,0:0:0:0:
351,223,251371,6,0,P|397:187|401:114,1,116.999994644165,0|0,1:0|0:0,0:0:0:0:
457,289,251607,1,8,0:0:0:0:
366,55,251725,2,0,P|312:33|202:155,1,233.999989288331,0|0,1:0|0:0,0:0:0:0:
25,308,252079,2,0,B|46:264|46:264|135:258,1,116.999994644165,8|0,0:0|0:0,0:0:0:0:
258,344,252315,1,0,1:0:0:0:
339,199,252434,1,0,0:0:0:0:
366,305,252552,1,8,0:0:0:0:
200,140,252670,6,0,B|178:74|226:18|226:18|251:78|314:87,1,233.999989288331,0|0,1:0|1:0,0:0:0:0:
464,232,253024,2,0,B|487:166|487:166|454:103,1,116.999994644165,8|0,0:0|0:0,0:0:0:0:
357,327,253260,1,0,1:0:0:0:
186,351,253378,1,0,1:0:0:0:
113,192,253497,1,8,0:0:0:0:
20,353,253615,2,0,B|71:267|-5:203|-5:203|-7:154|7:132,1,233.999989288331,4|0,0:0|0:0,0:0:0:0:
239,164,253969,6,0,B|232:115|232:115|214:108|214:108|209:59,1,116.999994644165,0|0,1:0|0:0,0:0:0:0:
468,272,254205,2,0,B|474:223|474:223|492:216|492:216|497:167,1,116.999994644165,0|0,1:0|0:0,0:0:0:0:
164,360,254441,2,0,B|157:311|157:311|139:304|139:304|134:255,1,116.999994644165,0|0,1:0|0:0,0:0:0:0:
429,113,254678,6,0,B|405:59|405:59|331:53,1,116.999994644165,0|0,1:0|0:0,0:0:0:0:
237,381,254914,2,0,B|296:387|296:387|338:326,1,116.999994644165,0|0,1:0|0:0,0:0:0:0:
101,81,255150,2,0,B|66:129|66:129|98:196,1,116.999994644165,0|0,1:0|0:0,0:0:0:0:
228,103,255386,1,8,0:0:0:0:
442,267,255504,2,0,B|458:216|397:173|328:217|358:284|235:279,1,233.999989288331,4|0,0:0|0:0,0:0:0:0:
169,215,255859,5,8,0:0:0:0:
151,217,255918,1,0,2:3:0:0:
135,224,255977,1,0,2:3:0:0:
122,236,256036,1,0,2:3:0:0:
116,253,256095,1,0,1:0:0:0:
98,276,256154,1,0,2:3:0:0:
70,286,256213,1,0,2:3:0:0:
41,279,256272,1,0,2:3:0:0:
21,257,256331,1,0,1:0:0:0:
20,227,256390,1,0,2:3:0:0:
29,199,256449,1,0,2:3:0:0:
23,170,256508,1,0,2:3:0:0:
3,147,256567,2,0,P|5:119|18:89,3,58.4999973220826,4|0|0|0,0:0|0:0|0:0|0:0,0:0:0:0:
68,13,256804,5,8,0:0:0:0:
204,105,256922,1,2,3:2:0:0:
363,69,257040,1,0,1:0:0:0:
188,197,257158,1,2,3:2:0:0:
219,17,257276,1,2,3:2:0:0:
170,291,257394,1,2,3:2:0:0:
219,365,257512,5,2,0:0:0:0:
