osu file format v14

[General]
AudioFilename: audio.mp3
AudioLeadIn: 0
PreviewTime: 72536
Countdown: 0
SampleSet: Soft
StackLeniency: 0.7
Mode: 0
LetterboxInBreaks: 0
WidescreenStoryboard: 0

[Editor]
Bookmarks: 27976,34164,37977,76661,89164,98758,99079,116881,118569,123852
DistanceSpacing: 1.6
BeatDivisor: 4
GridSize: 4
TimelineZoom: 2.9

[Metadata]
Title:Free Bird
TitleUnicode:Free Bird
Artist:ELEMENTASvo. NAGISA
ArtistUnicode:ELEMENTAS/vo. NAGISA
Creator:ncuh
Version:Insane
Source:
Tags:Eurobeat
BeatmapID:996360
BeatmapSetID:464509

[Difficulty]
HPDrainRate:7
CircleSize:4
OverallDifficulty:8
ApproachRate:9
SliderMultiplier:1.4
SliderTickRate:1

[Events]
//Background and Video events
Video,0,"NG.mp4"
0,0,"insanebg.jpg",0,0
//Break Periods
2,61833,67033
2,97833,104197
//Storyboard Layer 0 (Background)
//Storyboard Layer 1 (Fail)
//Storyboard Layer 2 (Pass)
//Storyboard Layer 3 (Foreground)
//Storyboard Sound Samples

[TimingPoints]
133,375,4,2,1,70,1,0
37164,-100,4,2,1,10,0,0
37351,-100,4,2,1,70,0,0
73633,-100,4,2,1,70,0,1
88500,-57.1428571428571,4,2,1,70,0,1
89719,-100,4,2,1,70,0,1
94445,-100,4,2,1,70,0,1
97633,-100,4,2,1,70,0,0
98797,375,4,2,1,70,1,0
104718,-50,4,2,1,70,0,0
113703,-100,4,2,1,70,0,0
119515,-57.1428571428571,4,2,1,70,0,0
119890,-57.1428571428571,4,2,1,10,0,0
120078,-57.1428571428571,4,2,1,70,0,0
120265,-57.1428571428571,4,2,1,10,0,0
120453,-57.1428571428571,4,2,1,70,0,0
120640,-57.1428571428571,4,2,1,10,0,0
120828,-57.1428571428571,4,2,1,70,0,0
122609,-100,4,2,1,70,0,0

[Colours]
Combo1 : 191,19,122
Combo2 : 202,0,0
Combo3 : 55,29,243
Combo4 : 119,6,23

[HitObjects]
104,92,12133,6,0,B|151:95|172:117,1,70,6|0,0:0|0:0,0:0:0:0:
248,196,12508,1,8,0:0:0:0:
248,196,12601,1,0,0:0:0:0:
248,196,12695,1,0,0:0:0:0:
352,240,12883,2,0,P|398:229|418:213,1,70,2|0,0:0|0:0,0:0:0:0:
468,116,13258,1,8,0:0:0:0:
380,48,13445,1,0,0:0:0:0:
268,68,13633,2,0,L|178:58,1,70
92,92,14008,2,0,B|78:161,1,70,8|2,0:0|0:0,0:0:0:0:
56,272,14383,1,0,0:0:0:0:
176,288,14570,5,0,0:0:0:0:
176,288,14664,1,2,0:0:0:0:
176,288,14758,1,8,0:0:0:0:
224,188,14945,1,0,0:0:0:0:
260,296,15133,6,2,L|260:352,2,35,2|0|0,0:0|0:0|0:0,0:0:0:0:
395,285,15508,2,2,L|432:336,2,35,10|0|0,0:0|0:0|0:0,0:0:0:0:
445,121,15883,2,2,L|496:96,2,35,2|0|0,0:0|0:0|0:0,0:0:0:0:
336,96,16258,5,8,0:0:0:0:
312,83,16351,1,0,0:0:0:0:
287,69,16445,1,2,0:0:0:0:
272,180,16633,1,0,0:0:0:0:
296,193,16726,1,0,0:0:0:0:
321,207,16820,1,2,0:0:0:0:
432,200,17008,5,8,0:0:0:0:
436,88,17195,1,0,0:0:0:0:
332,44,17383,2,0,P|301:69|282:103,1,70,2|0,0:0|0:0,0:0:0:0:
270,127,17664,1,2,0:0:0:0:
249,156,17758,2,0,P|224:192|184:215,1,70,8|0,0:0|0:0,0:0:0:0:
87,269,18133,5,4,0:0:0:0:
87,269,18226,1,0,0:0:0:0:
87,269,18320,1,0,0:0:0:0:
192,308,18508,1,8,0:0:0:0:
212,308,18601,1,0,0:0:0:0:
232,307,18695,1,0,0:0:0:0:
340,280,18883,6,0,P|378:249|389:219,1,70,2|0,0:0|0:0,0:0:0:0:
408,120,19258,2,0,L|320:85,1,70,8|0,0:0|0:0,0:0:0:0:
236,56,19633,5,0,0:0:0:0:
140,140,19820,1,0,0:0:0:0:
236,196,20008,1,8,0:0:0:0:
188,292,20195,6,0,L|246:292,2,35,0|0|2,0:0|0:0|0:0,0:0:0:0:
390,206,20570,1,0,0:0:0:0:
390,206,20664,1,0,0:0:0:0:
390,206,20758,1,8,0:0:0:0:
292,152,20945,1,0,0:0:0:0:
128,161,21133,6,2,L|80:134,2,35
236,92,21508,2,2,L|221:37,2,35,10|2|2,0:0|0:0|0:0,0:0:0:0:
424,80,21883,2,2,L|448:28,2,35
397,234,22258,5,8,0:0:0:0:
113,148,22445,1,0,0:0:0:0:
299,49,22633,1,0,0:0:0:0:
212,333,22820,1,0,0:0:0:0:
297,117,23008,2,0,B|344:131|352:195,1,70,8|2,0:0|0:0,0:0:0:0:
160,268,23383,1,2,0:0:0:0:
160,268,23476,1,0,0:0:0:0:
160,268,23570,1,0,0:0:0:0:
44,92,23758,1,10,0:0:0:0:
60,82,23851,1,2,0:0:0:0:
78,74,23945,1,2,0:0:0:0:
96,69,24039,1,2,0:0:0:0:
113,66,24133,6,0,L|154:66,2,35,4|0|0,0:0|0:0|0:0,0:0:0:0:
340,32,24508,2,0,P|301:66|286:108,1,70,8|0,0:0|0:0,0:0:0:0:
401,141,24883,2,0,P|403:195|384:236,1,70,0|2,0:0|0:0,0:0:0:0:
192,232,25258,2,0,P|194:187|225:152,1,70,8|0,0:0|0:0,0:0:0:0:
220,56,25633,1,0,0:0:0:0:
332,56,25820,2,0,L|371:75,1,35
408,144,26008,2,0,L|419:189,1,35,8|0,0:0|0:0,0:0:0:0:
400,260,26195,2,0,L|386:306,1,35
389,293,26383,1,0,0:0:0:0:
288,240,26570,1,0,0:0:0:0:
208,320,26758,1,8,0:0:0:0:
132,236,26945,1,0,0:0:0:0:
176,44,27133,6,8,B|217:35|250:39,1,70,0|0,0:0|0:0,0:0:0:0:
293,43,27414,1,2,0:0:0:0:
338,58,27508,2,8,B|376:74|395:101,1,70,8|0,0:0|0:0,0:0:0:0:
419,139,27789,1,0,0:0:0:0:
421,186,27883,2,0,B|422:227|406:255,1,70,2|0,0:0|0:0,0:0:0:0:
148,204,28258,1,8,0:0:0:0:
256,240,28445,5,2,0:0:0:0:
277,231,28539,1,2,0:0:0:0:
293,214,28633,1,2,0:0:0:0:
308,196,28726,1,2,0:0:0:0:
318,175,28820,1,2,0:0:0:0:
323,154,28914,1,2,0:0:0:0:
326,131,29008,1,10,0:0:0:0:
327,108,29101,1,2,0:0:0:0:
327,84,29195,1,2,0:0:0:0:
468,60,29383,6,0,L|412:68,2,35,2|0|0,0:0|0:0|0:0,0:0:0:0:
232,84,29758,2,8,P|185:99|152:120,1,70,8|0,0:0|0:0,0:0:0:0:
68,248,30133,6,2,L|68:308,2,35,6|0|0,0:0|0:0|0:0,0:0:0:0:
240,264,30508,2,2,L|259:294,2,35,10|0|0,0:0|0:0|0:0,0:0:0:0:
420,197,30883,2,2,L|482:205,2,35
240,264,31258,6,8,P|196:243|172:204,1,70,8|0,0:0|0:0,0:0:0:0:
325,131,31633,1,0,0:0:0:0:
276,299,31820,1,0,0:0:0:0:
155,174,32008,1,8,0:0:0:0:
411,246,32195,5,0,0:0:0:0:
133,314,32382,1,2,0:0:0:0:
211,41,32570,1,0,0:0:0:0:
396,72,32758,1,8,0:0:0:0:
256,196,32945,1,0,0:0:0:0:
356,300,33133,6,2,L|393:336,2,35,2|0|0,0:0|0:0|0:0,0:0:0:0:
125,141,33508,2,2,L|69:117,2,35,10|0|0,0:0|0:0|0:0,0:0:0:0:
443,59,33883,2,0,L|487:27,2,35,2|0|0,0:0|0:0|0:0,0:0:0:0:
464,228,34258,5,8,0:0:0:0:
429,231,34351,1,0,0:0:0:0:
394,227,34445,1,0,0:0:0:0:
362,214,34539,1,0,0:0:0:0:
332,200,34633,2,0,L|300:181,3,35
274,163,35008,5,8,0:0:0:0:
241,150,35101,1,0,0:0:0:0:
206,146,35195,1,0,0:0:0:0:
172,150,35289,1,0,0:0:0:0:
140,162,35383,2,0,L|82:179,4,35,2|0|0|0|12,0:0|0:0|0:0|0:0|0:0,0:0:0:0:
208,336,35945,5,12,0:0:0:0:
474,144,36133,1,12,0:0:0:0:
256,192,36226,12,0,37258,0:0:0:0:
143,147,37633,5,6,0:0:0:0:
175,161,37726,1,2,0:0:0:0:
208,173,37820,1,2,0:0:0:0:
243,178,37914,1,2,0:0:0:0:
278,177,38008,1,10,0:0:0:0:
312,173,38101,1,2,0:0:0:0:
347,171,38195,1,2,0:0:0:0:
379,184,38289,1,2,0:0:0:0:
382,218,38383,1,2,0:0:0:0:
348,232,38476,1,2,0:0:0:0:
312,224,38570,1,2,0:0:0:0:
288,196,38664,1,2,0:0:0:0:
288,160,38758,2,8,P|292:136|304:108,3,35,8|0|0|0,0:0|0:0|0:0|0:0,0:0:0:0:
308,93,39133,5,0,0:0:0:0:
336,72,39226,1,2,0:0:0:0:
372,64,39320,1,2,0:0:0:0:
408,64,39414,1,2,0:0:0:0:
440,80,39508,1,10,0:0:0:0:
460,108,39601,1,2,0:0:0:0:
468,144,39695,1,2,0:0:0:0:
464,180,39789,1,2,0:0:0:0:
448,212,39883,1,2,0:0:0:0:
420,232,39976,1,2,0:0:0:0:
384,236,40070,1,2,0:0:0:0:
348,232,40164,1,2,0:0:0:0:
320,212,40258,2,8,P|307:201|293:182,3,35,8|0|0|0,0:0|0:0|0:0|0:0,0:0:0:0:
284,156,40633,5,0,0:0:0:0:
276,124,40726,1,2,0:0:0:0:
268,88,40820,1,2,0:0:0:0:
248,56,40914,1,2,0:0:0:0:
216,40,41008,1,10,0:0:0:0:
180,40,41101,1,2,0:0:0:0:
148,52,41195,1,2,0:0:0:0:
120,72,41289,1,2,0:0:0:0:
100,100,41383,1,2,0:0:0:0:
92,132,41476,1,2,0:0:0:0:
92,168,41570,1,2,0:0:0:0:
108,200,41664,1,2,0:0:0:0:
128,228,41758,2,8,P|149:243|187:235,3,35,8|0|0|0,0:0|0:0|0:0|0:0,0:0:0:0:
196,240,42133,5,0,0:0:0:0:
228,228,42226,1,2,0:0:0:0:
256,208,42320,1,2,0:0:0:0:
276,180,42414,1,2,0:0:0:0:
288,148,42508,1,10,0:0:0:0:
292,112,42601,1,2,0:0:0:0:
300,76,42695,1,2,0:0:0:0:
324,52,42789,1,2,0:0:0:0:
360,44,42883,1,2,0:0:0:0:
396,48,42976,1,2,0:0:0:0:
424,68,43070,1,2,0:0:0:0:
448,96,43164,1,2,0:0:0:0:
456,132,43258,1,10,0:0:0:0:
460,217,43445,5,12,0:0:0:0:
369,237,43633,1,6,0:0:0:0:
337,223,43726,5,2,0:0:0:0:
304,211,43820,1,2,0:0:0:0:
269,206,43914,1,2,0:0:0:0:
234,207,44008,1,10,0:0:0:0:
200,211,44101,1,2,0:0:0:0:
165,213,44195,1,2,0:0:0:0:
133,200,44289,1,2,0:0:0:0:
130,166,44383,1,2,0:0:0:0:
164,152,44476,1,2,0:0:0:0:
200,160,44570,1,2,0:0:0:0:
224,188,44664,1,2,0:0:0:0:
224,224,44758,2,8,P|220:248|208:276,3,35,8|0|0|0,0:0|0:0|0:0|0:0,0:0:0:0:
204,291,45133,5,0,0:0:0:0:
176,312,45226,1,2,0:0:0:0:
140,320,45320,1,2,0:0:0:0:
104,320,45414,1,2,0:0:0:0:
72,304,45508,1,10,0:0:0:0:
52,276,45601,1,2,0:0:0:0:
44,240,45695,1,2,0:0:0:0:
48,204,45789,1,2,0:0:0:0:
64,172,45883,1,2,0:0:0:0:
92,152,45976,1,2,0:0:0:0:
128,148,46070,1,2,0:0:0:0:
164,152,46164,1,2,0:0:0:0:
192,172,46258,2,8,P|205:183|219:202,3,35,8|0|0|0,0:0|0:0|0:0|0:0,0:0:0:0:
228,228,46633,5,0,0:0:0:0:
236,260,46726,1,2,0:0:0:0:
244,296,46820,1,2,0:0:0:0:
264,328,46914,1,2,0:0:0:0:
296,344,47008,1,10,0:0:0:0:
332,344,47101,1,2,0:0:0:0:
364,332,47195,1,2,0:0:0:0:
392,312,47289,1,2,0:0:0:0:
412,284,47383,1,2,0:0:0:0:
420,252,47476,1,2,0:0:0:0:
420,216,47570,1,2,0:0:0:0:
404,184,47664,1,2,0:0:0:0:
384,156,47758,2,8,P|363:141|325:149,3,35,8|0|0|0,0:0|0:0|0:0|0:0,0:0:0:0:
316,144,48133,5,0,0:0:0:0:
284,156,48226,1,2,0:0:0:0:
256,176,48320,1,2,0:0:0:0:
236,204,48414,1,2,0:0:0:0:
224,236,48508,1,10,0:0:0:0:
220,272,48601,1,2,0:0:0:0:
212,308,48695,1,2,0:0:0:0:
188,332,48789,1,2,0:0:0:0:
480,40,49070,6,8,P|468:73|451:77,1,35,8|0,0:0|0:0,0:0:0:0:
368,172,49258,2,8,P|380:138|397:135,1,35,8|0,0:0|0:0,0:0:0:0:
456,256,49445,2,8,P|444:289|427:293,1,35,8|0,0:0|0:0,0:0:0:0:
316,344,49633,2,8,P|328:310|345:307,2,35,12|0|0,0:0|0:0|0:0,0:0:0:0:
120,126,50008,5,0,0:0:0:0:
391,257,50195,1,0,0:0:0:0:
245,41,50383,1,2,0:0:0:0:
266,342,50570,1,0,0:0:0:0:
380,107,50758,1,8,0:0:0:0:
131,276,50945,1,0,0:0:0:0:
179,94,51133,5,0,0:0:0:0:
252,180,51320,1,0,0:0:0:0:
328,96,51508,1,8,0:0:0:0:
252,264,51695,1,0,0:0:0:0:
252,264,51789,1,0,0:0:0:0:
252,264,51883,1,2,0:0:0:0:
352,208,52070,5,0,0:0:0:0:
152,312,52258,1,8,0:0:0:0:
392,69,52445,5,0,0:0:0:0:
88,128,52633,1,0,0:0:0:0:
259,226,52820,1,0,0:0:0:0:
259,226,53008,1,8,0:0:0:0:
256,112,53195,1,0,0:0:0:0:
256,112,53289,1,0,0:0:0:0:
256,112,53383,1,2,0:0:0:0:
144,112,53570,5,0,0:0:0:0:
256,256,53758,1,8,0:0:0:0:
352,112,53945,1,0,0:0:0:0:
248,152,54133,5,0,0:0:0:0:
344,286,54320,1,0,0:0:0:0:
40,104,54508,1,8,0:0:0:0:
184,312,54695,1,0,0:0:0:0:
192,68,54883,5,10,0:0:0:0:
440,116,55071,1,8,0:0:0:0:
184,232,55258,1,8,0:0:0:0:
464,328,55445,1,8,0:0:0:0:
304,32,55632,1,4,0:0:0:0:
304,216,55820,5,0,0:0:0:0:
304,216,56007,2,8,P|304:152|304:152,2,35
384,136,56383,5,2,0:0:0:0:
416,240,56570,1,0,0:0:0:0:
264,88,56758,5,8,0:0:0:0:
308,254,56945,1,0,0:0:0:0:
112,72,57133,1,0,0:0:0:0:
221,241,57320,1,0,0:0:0:0:
120,288,57508,5,8,0:0:0:0:
246,157,57695,1,0,0:0:0:0:
342,315,57883,1,2,0:0:0:0:
354,45,58070,2,0,B|327:75|340:100|340:108,1,35
422,149,58258,1,8,0:0:0:0:
222,108,58445,2,0,B|195:138|208:163|208:171,1,35
352,244,58633,1,0,0:0:0:0:
108,194,58820,2,0,B|81:224|94:249|94:257,1,35
280,336,59008,1,8,0:0:0:0:
208,248,59195,5,0,0:0:0:0:
98,277,59383,1,2,0:0:0:0:
211,109,59570,1,0,0:0:0:0:
310,309,59758,1,8,0:0:0:0:
423,141,59945,1,0,0:0:0:0:
344,64,60133,6,8,L|312:83,2,35
86,167,60508,2,8,L|115:146,2,35
395,278,60883,5,2,0:0:0:0:
424,108,61070,1,0,0:0:0:0:
136,339,61258,5,8,0:0:0:0:
261,32,61445,1,0,0:0:0:0:
56,192,61633,1,12,0:0:0:0:
101,267,67633,5,4,0:0:0:0:
144,168,67820,1,0,0:0:0:0:
216,256,68008,2,8,P|252:214|285:200,1,70,8|0,0:0|0:0,0:0:0:0:
372,176,68383,5,2,0:0:0:0:
268,132,68570,1,0,0:0:0:0:
164,176,68758,1,8,0:0:0:0:
269,55,68945,1,0,0:0:0:0:
269,55,69039,1,0,0:0:0:0:
269,55,69133,2,0,P|222:53|181:78,1,70
89,61,69508,1,8,0:0:0:0:
127,164,69695,5,0,0:0:0:0:
127,164,69789,1,0,0:0:0:0:
127,164,69883,1,2,0:0:0:0:
387,159,70070,5,0,0:0:0:0:
387,159,70164,1,0,0:0:0:0:
387,159,70258,6,0,L|372:116,1,35,8|0,0:0|0:0,0:0:0:0:
127,283,70445,2,0,B|156:278|188:284,1,35,8|0,0:0|0:0,0:0:0:0:
232,312,70633,2,0,P|255:317|279:310,1,35,8|0,0:0|0:0,0:0:0:0:
334,281,70820,2,0,B|362:278|395:282,1,35
396,197,71008,5,8,0:0:0:0:
344,96,71195,1,0,0:0:0:0:
264,176,71383,1,2,0:0:0:0:
200,80,71570,1,0,0:0:0:0:
128,168,71758,2,0,L|90:143,2,35,8|0|0,0:0|0:0|0:0,0:0:0:0:
216,240,72133,1,0,0:0:0:0:
332,248,72320,1,0,0:0:0:0:
440,200,72508,1,8,0:0:0:0:
440,200,72695,1,0,0:0:0:0:
464,96,72883,6,0,L|434:78,1,35,2|0,0:0|0:0,0:0:0:0:
414,112,73070,2,0,L|384:94,1,35
320,192,73258,1,8,0:0:0:0:
232,272,73445,1,0,0:0:0:0:
72,176,73633,1,4,0:0:0:0:
252,28,73820,1,0,0:0:0:0:
320,192,74008,1,8,0:0:0:0:
232,272,74195,2,0,P|186:266|177:243,1,70,0|2,0:0|0:0,0:0:0:0:
349,127,74570,1,0,0:0:0:0:
412,317,74758,6,0,L|460:316,2,35,8|0|0,0:0|0:0|0:0,0:0:0:0:
203,170,75133,2,0,L|168:170,2,35
413,90,75508,5,8,0:0:0:0:
166,284,75695,1,0,0:0:0:0:
386,150,75883,1,2,0:0:0:0:
80,96,76070,1,0,0:0:0:0:
323,297,76258,1,8,0:0:0:0:
454,145,76445,1,0,0:0:0:0:
265,45,76633,6,0,B|300:56,2,35
144,152,77008,2,0,B|111:141,2,35,8|0|0,0:0|0:0|0:0,0:0:0:0:
300,288,77383,2,0,B|335:304,2,35,2|0|0,0:0|0:0|0:0,0:0:0:0:
77,39,77758,5,8,0:0:0:0:
133,247,77945,1,0,0:0:0:0:
210,46,78133,1,0,0:0:0:0:
29,163,78320,1,0,0:0:0:0:
244,174,78508,1,8,0:0:0:0:
144,128,78695,2,0,L|115:96,1,35
244,174,78883,1,0,0:0:0:0:
80,224,79070,1,0,0:0:0:0:
80,224,79164,1,0,0:0:0:0:
80,224,79258,1,8,0:0:0:0:
136,320,79445,1,0,0:0:0:0:
312,236,79633,6,0,L|332:264,1,35,4|0,0:0|0:0,0:0:0:0:
200,148,79820,2,0,L|180:120,1,35
199,235,80008,2,0,L|179:263,1,35,8|0,0:0|0:0,0:0:0:0:
313,147,80196,2,0,L|333:119,1,35
256,36,80383,2,0,L|256:112,1,70,2|0,0:0|0:0,0:0:0:0:
352,244,80758,5,8,0:0:0:0:
160,244,80945,1,0,0:0:0:0:
444,136,81133,1,0,0:0:0:0:
68,136,81320,1,0,0:0:0:0:
256,352,81508,2,0,L|256:280,1,70,8|0,0:0|0:0,0:0:0:0:
256,192,81883,5,2,0:0:0:0:
168,92,82070,1,0,0:0:0:0:
344,292,82258,1,8,0:0:0:0:
201,252,82445,5,0,0:0:0:0:
310,132,82633,1,0,0:0:0:0:
338,283,82820,1,0,0:0:0:0:
172,100,83008,1,8,0:0:0:0:
254,344,83195,5,0,0:0:0:0:
256,38,83383,1,2,0:0:0:0:
416,288,83570,1,0,0:0:0:0:
116,288,83758,1,8,0:0:0:0:
116,288,83945,1,0,0:0:0:0:
100,164,84132,1,0,0:0:0:0:
134,158,84226,1,0,0:0:0:0:
169,162,84320,1,0,0:0:0:0:
202,173,84413,1,0,0:0:0:0:
233,190,84507,1,8,0:0:0:0:
336,224,84695,1,0,0:0:0:0:
412,146,84883,6,0,L|388:99,1,35,2|0,0:0|0:0,0:0:0:0:
298,42,85070,2,0,L|329:57,1,35
295,163,85257,1,8,0:0:0:0:
295,163,85351,1,0,0:0:0:0:
295,163,85445,1,0,0:0:0:0:
208,232,85633,6,0,L|171:259,1,35,4|0,0:0|0:0,0:0:0:0:
176,312,85821,2,0,L|216:284,1,35
248,256,86008,6,0,L|285:283,1,35,8|0,0:0|0:0,0:0:0:0:
280,336,86196,2,0,L|240:308,1,35
375,113,86383,6,0,L|400:88,1,35,2|0,0:0|0:0,0:0:0:0:
344,72,86571,2,0,L|309:109,1,35
180,156,86758,2,0,L|224:116,1,35,8|0,0:0|0:0,0:0:0:0:
176,80,86946,2,0,L|139:121,1,35
331,183,87133,6,0,L|303:161,1,35
264,200,87321,2,0,L|290:222,1,35
76,200,87508,5,8,0:0:0:0:
288,128,87696,1,0,0:0:0:0:
150,173,87883,1,2,0:0:0:0:
445,90,88071,1,0,0:0:0:0:
400,296,88258,1,8,0:0:0:0:
172,276,88445,1,0,0:0:0:0:
176,44,88633,6,0,B|233:69,2,61.2500005841255
96,280,89008,2,0,B|35:257,2,61.2500005841255,8|0|0,0:0|0:0|0:0,0:0:0:0:
419,194,89383,2,0,B|475:219,2,61.2500005841255,2|0|0,0:0|0:0|0:0,0:0:0:0:
252,192,89758,5,8,0:0:0:0:
68,192,89945,1,0,0:0:0:0:
444,192,90133,1,0,0:0:0:0:
160,192,90320,1,0,0:0:0:0:
352,192,90508,1,8,0:0:0:0:
256,192,90695,5,0,0:0:0:0:
344,292,90883,1,2,0:0:0:0:
168,92,91070,1,0,0:0:0:0:
310,132,91258,1,8,0:0:0:0:
201,252,91445,1,0,0:0:0:0:
178,106,91633,1,4,0:0:0:0:
332,277,91820,1,0,0:0:0:0:
379,98,92008,1,8,0:0:0:0:
131,283,92195,1,0,0:0:0:0:
116,80,92383,6,0,L|53:101,2,35,2|0|0,0:0|0:0|0:0,0:0:0:0:
294,144,92758,2,0,L|289:178,2,35,8|0|0,0:0|0:0|0:0,0:0:0:0:
89,343,93133,2,0,L|56:330,2,35,0|0|0,0:3|0:3|0:3,0:3:0:0:
394,329,93508,2,0,L|410:294,2,35,8|0|0,0:0|0:0|0:0,0:0:0:0:
481,104,93882,2,0,L|460:132,2,35,2|0|0,0:3|0:3|0:3,0:3:0:0:
320,232,94258,6,0,L|304:273,1,35,8|0,0:0|0:0,0:0:0:0:
280,312,94445,2,0,L|231:315,1,35
136,326,94633,2,0,B|128:264,1,35
168,248,94820,2,0,B|166:247|179:287,1,35
331,93,95008,2,0,B|296:46,1,35,8|0,0:0|0:0,0:0:0:0:
360,40,95195,2,0,B|391:73,1,35
271,239,95383,2,0,B|233:189,1,35,2|0,0:0|0:0,0:0:0:0:
248,152,95570,2,0,B|272:177,1,35
332,47,95758,6,0,P|294:34|253:39,1,70,8|0,0:0|0:0,0:0:0:0:
168,96,96133,1,0,0:0:0:0:
168,96,96226,1,0,0:0:0:0:
168,96,96320,1,0,0:0:0:0:
168,96,96414,1,0,0:0:0:0:
168,96,96508,1,8,0:0:0:0:
269,139,96695,5,0,0:0:0:0:
200,224,96883,1,2,0:0:0:0:
312,240,97070,1,0,0:0:0:0:
312,240,97164,1,0,0:0:0:0:
312,240,97258,1,8,0:0:0:0:
376,63,97445,5,12,0:0:0:0:
152,286,97633,1,12,0:0:0:0:
68,138,104797,6,0,L|101:200,2,70,6|0|0,0:0|0:0|0:0,0:0:0:0:
272,240,105172,2,0,L|217:196,2,70,8|0|0,0:0|0:0|0:0,0:0:0:0:
376,40,105547,2,0,L|459:49,2,70
412,188,105922,5,8,0:0:0:0:
312,304,106109,1,0,0:0:0:0:
120,232,106297,1,2,0:0:0:0:
284,36,106484,1,0,0:0:0:0:
213,265,106672,5,8,0:0:0:0:
213,118,106859,1,0,0:0:0:0:
340,192,107047,1,0,0:0:0:0:
142,249,107234,5,0,0:0:0:0:
262,65,107422,1,8,0:0:0:0:
362,261,107609,1,0,0:0:0:0:
171,184,107797,5,2,0:0:0:0:
304,122,107985,1,0,0:0:0:0:
291,268,108172,1,8,0:0:0:0:
72,265,108359,5,2,0:0:0:0:
89,232,108453,1,2,0:0:0:0:
110,201,108547,1,2,0:0:0:0:
135,173,108640,1,2,0:0:0:0:
164,149,108734,1,2,0:0:0:0:
195,129,108828,1,2,0:0:0:0:
229,113,108922,1,10,0:0:0:0:
264,100,109015,1,2,0:0:0:0:
300,96,109109,1,2,0:0:0:0:
415,68,109859,6,0,L|340:192,1,140,2|0,0:0|0:0,0:0:0:0:
415,307,110234,2,0,L|340:183,1,140,2|0,0:0|0:0,0:0:0:0:
342,187,110609,5,0,0:0:0:0:
65,79,110797,6,0,P|77:114|114:153,2,70,6|0|0,0:0|0:0|0:0,0:0:0:0:
264,176,111172,2,0,P|249:141|209:105,2,70,8|0|0,0:0|0:0|0:0,0:0:0:0:
80,304,111547,5,0,0:0:0:0:
56,80,111734,1,0,0:0:0:0:
341,333,111922,1,8,0:0:0:0:
458,49,112109,1,0,0:0:0:0:
253,315,112297,5,2,0:0:0:0:
320,95,112484,1,0,0:0:0:0:
136,233,112672,1,8,0:0:0:0:
366,229,112859,1,0,0:0:0:0:
178,98,113047,1,0,0:0:0:0:
253,315,113234,1,0,0:0:0:0:
320,95,113422,1,8,0:0:0:0:
136,233,113609,1,0,0:0:0:0:
444,95,113797,6,0,B|396:54,2,35,2|0|0,0:0|0:0|0:0,0:0:0:0:
326,256,114172,2,0,B|330:312,2,35,8|0|0,0:0|0:0|0:0,0:0:0:0:
137,147,114547,2,0,B|115:109,2,35
278,52,114922,5,10,0:0:0:0:
292,104,115015,1,2,0:0:0:0:
292,156,115109,1,2,0:0:0:0:
272,204,115203,1,2,0:0:0:0:
260,256,115297,1,2,0:0:0:0:
268,308,115390,1,2,0:0:0:0:
296,352,115484,1,2,0:0:0:0:
440,323,115672,6,0,P|449:281|437:254,1,70,8|0,0:0|0:0,0:0:0:0:
76,116,116047,2,0,P|67:74|79:47,1,70
256,264,116422,1,8,0:0:0:0:
256,264,116609,1,0,0:0:0:0:
172,192,116797,5,6,0:0:0:0:
256,120,116984,1,0,0:0:0:0:
340,192,117172,1,8,0:0:0:0:
167,274,117359,5,0,0:0:0:0:
173,103,117547,1,0,0:0:0:0:
344,109,117734,1,0,0:0:0:0:
338,280,117922,1,8,0:0:0:0:
258,40,118109,5,0,0:0:0:0:
104,189,118297,1,2,0:0:0:0:
253,343,118484,1,0,0:0:0:0:
407,194,118672,1,8,0:0:0:0:
167,274,118859,1,0,0:0:0:0:
173,103,119047,1,0,0:0:0:0:
344,109,119234,1,0,0:0:0:0:
338,280,119422,1,8,0:0:0:0:
338,280,119515,1,0,0:0:0:0:
338,280,119609,1,0,0:0:0:0:
40,180,119797,6,2,L|154:233,1,122.500001168251
304,72,120172,2,0,L|180:107,1,122.500001168251,10|0,0:0|0:0,0:0:0:0:
344,280,120547,2,0,L|464:324,1,122.500001168251,2|0,0:0|0:0,0:0:0:0:
302,82,120922,5,10,0:0:0:0:
281,105,121015,1,2,0:0:0:0:
256,128,121109,1,2,0:0:0:0:
227,110,121203,1,2,0:0:0:0:
192,112,121297,1,2,0:0:0:0:
166,133,121390,1,2,0:0:0:0:
156,168,121484,1,2,0:0:0:0:
170,201,121578,1,2,0:0:0:0:
193,228,121672,1,10,0:0:0:0:
220,250,121765,1,2,0:0:0:0:
252,264,121859,1,2,0:0:0:0:
292,250,121953,1,2,0:0:0:0:
319,228,122047,1,2,0:0:0:0:
342,201,122140,1,2,0:0:0:0:
356,168,122234,1,2,0:0:0:0:
346,133,122328,1,2,0:0:0:0:
319,111,122422,1,10,0:0:0:0:
192,167,122609,5,2,0:0:0:0:
192,167,122797,6,6,B|142:112|104:130|71:162|34:237|131:331|196:344|196:344|272:331|360:237|318:163|287:130|250:112|202:161,1,700
