osu file format v14

[General]
AudioFilename: audio.mp3
AudioLeadIn: 0
PreviewTime:393
Countdown: 0
SampleSet: Soft
StackLeniency: 0.7
Mode: 0
LetterboxInBreaks: 0
WidescreenStoryboard: 1

[Editor]
Bookmarks: 21656,42755,58579,69129,90228,100777,111327,127151
DistanceSpacing: 0.9
BeatDivisor: 4
GridSize: 32
TimelineZoom: 2.5

[Metadata]
Title:Yoru ga Oritekuru ~ Evening Star
TitleUnicode:夜が降りてくる ~ Evening Star
Artist:ELEMENTAS (A-One)
ArtistUnicode:ELEMENTAS (A-One)
Creator:Shurelia
Version:nik's Hard
Source:東方憑依華 ~ Antinomy of Common Flowers.
Tags:東方Project Touhou Hyouibana TH15.5 Team Shanghai Alice Twilight Frontier 八雲 紫 Yakumo Yukari ykr instrumental video game MOE Moscow Event nm6 Advent pigeons arsalan 228 kudou chitose nik nikolomara
BeatmapID:4289566
BeatmapSetID:2027939

[Difficulty]
HPDrainRate:4
CircleSize:3.5
OverallDifficulty:6
ApproachRate:7.5
SliderMultiplier:1.4
SliderTickRate:1

[Events]
//Background and Video events
0,0,"yukaribg5.jpg",0,0
//Break Periods
2,58779,63029
//Storyboard Layer 0 (Background)
//Storyboard Layer 1 (Fail)
//Storyboard Layer 2 (Pass)
//Storyboard Layer 3 (Foreground)
//Storyboard Layer 4 (Overlay)
//Storyboard Sound Samples

[TimingPoints]
558,329.67032967033,4,2,1,65,1,0
558,-142.857142857143,4,2,1,65,0,0
11107,-100,4,2,1,75,0,0
21656,-111.111111111111,4,2,1,75,0,0
21821,-111.111111111111,4,2,1,65,0,0
32536,-100,4,2,1,70,0,0
42755,-125,4,2,1,70,0,0
42838,-125,4,2,1,60,0,0
49349,-125,4,2,1,55,0,0
50173,-125,4,2,1,60,0,0
58744,-125,4,2,1,55,0,0
63854,-125,4,2,1,60,0,0
68799,-50,4,2,1,90,0,0
69129,-111.111111111111,4,2,1,65,0,0
80008,-100,4,2,1,70,0,0
90228,-83.3333333333333,4,2,1,70,0,0
108689,-83.3333333333333,4,2,1,75,0,0
111327,-142.857142857143,4,2,1,70,0,0
111409,-142.857142857143,4,2,1,60,0,0
117920,-142.857142857143,4,2,1,55,0,0
118744,-142.857142857143,4,2,1,60,0,0
127151,-142.857142857143,4,2,1,70,0,0

[Colours]
Combo1 : 209,184,188
Combo2 : 62,45,61
Combo3 : 131,63,82
Combo4 : 185,108,75

[HitObjects]
49,384,558,5,4,1:0:0:0:
49,384,722,2,0,P|26:330|-17:304,3,97.9999970092774,0|2|0|0,3:0|3:2|3:0|3:0,0:0:0:0:
89,281,2041,2,0,P|122:250|139:199,3,97.9999970092774,0|2|0|0,3:0|3:2|3:0|3:0,0:0:0:0:
235,186,3360,2,0,P|212:132|169:106,3,97.9999970092774,2|2|0|0,3:0|3:2|3:0|3:0,0:0:0:0:
278,97,4679,2,0,P|311:66|326:13,3,97.9999970092774,0|2|0|0,3:0|3:2|3:0|3:0,0:0:0:0:
402,10,5832,5,2,3:2:0:0:
402,10,5997,2,0,P|427:16|443:36,1,48.9999985046387,0|2,3:0|3:2,0:0:0:0:
507,67,6327,2,0,B|424:65|448:105|375:131,1,146.999995513916,0|2,3:0|3:0,0:0:0:0:
298,80,7151,5,2,3:2:0:0:
298,80,7316,2,0,P|262:78|249:65,1,48.9999985046387,0|2,3:0|3:0,0:0:0:0:
199,17,7645,2,0,P|205:68|194:177,1,146.999995513916,0|2,3:0|3:0,0:0:0:0:
89,193,8470,5,4,3:2:0:0:
89,193,8634,2,0,P|61:171|54:150,1,48.9999985046387,0|2,3:0|3:2,0:0:0:0:
0,107,8964,2,0,B|89:125|59:87|147:97,1,146.999995513916,0|2,3:0|3:2,0:0:0:0:
219,19,9788,5,2,3:2:0:0:
219,19,9953,2,0,P|274:32|281:81,1,97.9999970092774,0|0,3:0|3:0,0:0:0:0:
244,132,10448,6,0,B|244:131|244:134|230:137|213:128,1,24.4999992523194,8|0,0:0|1:0,0:0:0:0:
307,177,10695,2,0,P|314:190|313:206,4,24.4999992523194,0|8|0|2|0,1:0|0:0|3:0|3:0|3:0,0:0:0:0:
335,146,11107,6,0,P|369:133|409:131,1,70,4|0,1:0|0:0,0:0:0:0:
471,82,11437,2,0,P|509:109|511:148,1,70,8|0,1:2|0:0,0:0:0:0:
459,194,11766,2,0,P|428:206|418:256,1,70,0|0,1:0|0:0,0:0:0:0:
476,292,12096,2,0,P|506:330|502:360,1,70,8|0,1:2|0:0,0:0:0:0:
424,373,12426,6,0,P|381:374|354:385,1,70,4|0,1:2|0:0,0:0:0:0:
272,376,12755,2,0,P|235:333|239:319,1,70,8|0,1:2|0:0,0:0:0:0:
262,245,13085,2,0,P|298:240|325:215,1,70,0|0,1:0|0:0,0:0:0:0:
361,143,13415,2,0,P|343:110|320:85,1,70,8|0,1:2|0:0,0:0:0:0:
240,63,13744,6,0,P|182:69|159:83,1,70,4|0,1:2|0:0,0:0:0:0:
126,144,14074,2,0,P|72:171|49:172,1,70,8|0,1:2|0:0,0:0:0:0:
9,107,14404,2,0,P|9:72|34:36,1,70,0|0,1:0|0:0,0:0:0:0:
106,16,14733,2,0,P|163:47|167:67,1,70,8|0,1:2|0:0,0:0:0:0:
241,79,15063,6,0,P|230:119|239:156,1,70,4|0,1:2|0:0,0:0:0:0:
304,194,15393,2,0,P|345:190|376:193,1,70,8|0,1:2|0:0,0:0:0:0:
448,154,15722,2,0,P|469:191|471:217,1,70,0|0,1:0|0:0,0:0:0:0:
440,296,16052,2,0,P|387:304|372:301,1,70,8|0,1:2|0:0,0:0:0:0:
308,357,16382,6,0,P|270:344|228:341,2,70,4|2|8,1:0|3:3|1:2,0:0:0:0:
378,309,16876,1,2,3:0:0:0:
329,240,17041,2,0,P|321:194|308:168,1,70,4|2,1:2|3:0,0:0:0:0:
258,106,17371,2,0,P|263:61|288:37,1,70,8|2,1:2|3:0,0:0:0:0:
357,13,17700,6,0,P|392:27|421:41,2,70,4|2|8,1:2|3:0|1:2,0:0:0:0:
277,35,18195,1,2,3:0:0:0:
197,7,18360,2,0,P|150:14|116:45,1,70,4|2,1:2|3:0,0:0:0:0:
48,18,18689,2,0,P|16:53|27:81,1,70,8|2,1:2|3:0,0:0:0:0:
256,192,19019,12,10,21327,1:2:0:0:
152,359,21656,5,4,1:0:0:0:
2,382,21986,2,0,P|-1:332|121:292,1,188.999994232178,2|0,3:2|0:0,0:0:0:0:
192,296,22645,1,2,3:2:0:0:
192,296,22728,1,0,3:0:0:0:
192,296,22810,2,0,P|204:278|206:248,2,31.4999990386963,2|0|2,3:0|3:0|1:2,0:0:0:0:
59,222,23305,6,0,B|38:107|115:164|89:22,1,188.999994232178,2|0,3:2|0:0,0:0:0:0:
21,13,23964,1,2,3:2:0:0:
21,13,24047,1,0,3:0:0:0:
21,13,24129,2,0,P|9:31|7:61,2,31.4999990386963,2|0|2,3:0|3:0|1:2,0:0:0:0:
178,179,24788,5,0,3:0:0:0:
246,216,24953,2,0,P|283:198|300:178,1,62.9999980773926,2|2,3:2|3:2,0:0:0:0:
364,145,25283,2,0,P|363:101|350:77,1,62.9999980773926,0|2,1:0|3:2,0:0:0:0:
327,66,25530,1,0,3:0:0:0:
327,66,25612,2,0,L|244:76,1,62.9999980773926,2|2,3:0|3:0,0:0:0:0:
202,25,25942,5,2,3:2:0:0:
202,25,26025,1,0,3:0:0:0:
202,25,26107,1,2,3:0:0:0:
202,25,26189,1,0,3:0:0:0:
202,25,26272,2,0,L|152:16,2,31.4999990386963,0|0|2,1:0|3:0|3:0,0:0:0:0:
266,64,26601,2,0,L|316:55,2,31.4999990386963,2|0|2,3:2|3:0|3:0,0:0:0:0:
234,132,26931,1,4,1:0:0:0:
500,3,27755,5,2,3:0:0:0:
500,3,27838,1,0,3:0:0:0:
500,3,27920,2,0,P|454:11|437:21,1,62.9999980773926,2|2,3:2|3:0,0:0:0:0:
385,71,28250,5,0,1:0:0:0:
411,141,28415,1,0,1:0:0:0:
485,147,28579,2,0,P|501:188|486:226,1,62.9999980773926,2|2,0:0|3:0,0:0:0:0:
470,232,28827,1,0,3:0:0:0:
470,232,28909,2,0,L|420:241,2,31.4999990386963,2|0|0,3:2|3:0|3:0,0:0:0:0:
481,307,29238,2,0,L|531:298,2,31.4999990386963,2|0|2,3:2|3:0|3:0,0:0:0:0:
460,380,29568,1,4,1:2:0:0:
334,294,29898,6,0,L|345:330,4,31.4999990386963,4|0|2|0|2,1:2|3:0|3:0|3:0|3:2,0:0:0:0:
274,253,30393,1,2,3:2:0:0:
274,253,30475,1,0,3:0:0:0:
274,253,30558,2,0,L|199:270,1,62.9999980773926,0|2,1:0|3:0,0:0:0:0:
163,324,30887,6,0,P|137:306|130:276,1,62.9999980773926,0|2,1:0|0:3,0:0:0:0:
121,200,31217,2,0,P|87:200|59:184,1,62.9999980773926,0|2,1:0|3:0,0:0:0:0:
30,117,31547,2,0,L|-1:122,2,31.4999990386963,0|0|2,1:0|3:0|3:0,0:0:0:0:
63,49,31876,2,0,L|31:43,2,31.4999990386963,2|0|2,1:2|0:0|0:0,0:0:0:0:
148,17,32206,5,2,1:2:0:0:
148,17,32288,1,0,0:0:0:0:
148,17,32371,1,0,3:0:0:0:
148,17,32453,1,0,0:0:0:0:
148,17,32536,2,0,P|183:53|154:154,1,140,6|0,1:0|1:0,0:0:0:0:
86,291,33195,5,0,1:0:0:0:
86,291,33277,1,0,3:0:0:0:
86,291,33360,1,0,3:2:0:0:
12,249,33525,2,0,P|10:211|2:164,1,70,2|0,1:2|0:0,0:0:0:0:
42,103,33854,2,0,B|135:113|92:164|177:170,1,140,2|0,1:0|1:0,0:0:0:0:
310,86,34513,5,2,1:0:0:0:
310,86,34596,1,0,3:0:0:0:
310,86,34678,1,2,3:0:0:0:
361,19,34843,2,0,P|399:40|497:58,1,140,6|0,1:0|1:0,0:0:0:0:
509,141,35338,5,2,3:0:0:0:
447,198,35503,2,0,P|413:190|378:187,1,70,2|2,1:0|3:0,0:0:0:0:
318,128,35832,2,0,P|284:137|249:140,1,70,2|2,1:0|3:0,0:0:0:0:
183,87,36162,1,2,1:0:0:0:
88,225,36492,6,0,L|31:238,3,35,2|0|2|0,1:2|3:0|1:2|0:0,0:0:0:0:
21,205,36821,2,0,P|-3:245|14:295,1,70,2|2,1:0|1:3,0:0:0:0:
59,332,37151,5,2,1:0:0:0:
59,332,37233,2,0,L|149:313,1,70,0|0,3:0|0:0,0:0:0:0:
164,338,37481,2,0,B|251:351|210:303|321:322,2,140,6|0|2,1:0|1:0|1:2,0:0:0:0:
110,272,38305,6,0,L|62:263,4,35,2|0|2|0|2,1:3|3:0|3:2|3:0|3:0,0:0:0:0:
186,235,38800,1,4,1:2:0:0:
176,151,38965,1,0,1:0:0:0:
101,113,39129,6,0,P|87:89|84:46,1,70,2|0,1:2|1:0,0:0:0:0:
125,33,39376,1,0,0:0:0:0:
125,33,39459,2,0,L|111:-20,2,35,2|0|0,1:2|0:0|1:0,0:0:0:0:
204,58,39788,2,0,L|213:3,2,35,2|0|0,1:2|0:0|1:0,0:0:0:0:
284,31,40118,1,4,3:2:0:0:
433,107,40448,6,0,L|474:95,4,35,0|0|0|0|4,3:0|3:0|3:0|3:0|3:2,0:0:0:0:
407,191,40942,1,0,3:0:0:0:
407,191,41025,1,0,3:0:0:0:
407,191,41107,2,0,P|416:231|415:278,1,70,0|0,3:0|3:0,0:0:0:0:
256,192,41437,12,2,42426,1:0:0:0:
422,87,42755,6,0,P|479:126|510:278,1,224,4|4,1:0|0:3,0:0:0:0:
451,363,43744,2,0,P|402:360|345:330,2,112,10|2|2,3:0|3:0|3:0,0:0:0:0:
401,262,44733,2,0,B|264:312|365:329|211:378,1,224,6|8,3:0|3:0,0:0:0:0:
102,374,45722,6,0,P|48:356|33:313,1,84,10|0,3:0|0:0,0:0:0:0:
11,321,46052,2,0,P|10:295|34:268,1,56,2|2,1:2|1:2,0:0:0:0:
100,258,46382,1,4,1:3:0:0:
156,161,46711,6,0,P|187:182|186:216,1,56,4|0,1:0|3:0,0:0:0:0:
185,229,46959,1,0,3:0:0:0:
185,229,47041,1,0,3:0:0:0:
99,270,47371,2,0,P|66:266|44:256,1,56,2|2,1:2|3:0,0:0:0:0:
1,197,47700,1,4,1:3:0:0:
58,93,48030,6,0,P|115:96|178:136,1,112,4|2,1:3|1:2,0:0:0:0:
238,150,48525,1,0,3:0:0:0:
280,87,48689,2,0,P|308:69|340:-16,2,112,4|4|4,1:0|1:3|1:3,0:0:0:0:
173,51,49678,2,0,B|93:68|141:83|75:100,1,112,2|4,3:0|3:3,0:0:0:0:
0,181,50338,5,2,3:2:0:0:
2,188,50420,1,0,3:0:0:0:
5,197,50503,1,2,3:0:0:0:
7,205,50585,1,0,3:0:0:0:
10,212,50667,2,0,P|73:284|184:237,1,224,4|4,1:0|3:0,0:0:0:0:
269,175,51656,2,0,P|262:128|212:78,2,112,2|2|2,3:0|3:2|3:0,0:0:0:0:
282,286,52645,6,0,B|390:270|309:233|492:200,1,224,4|8,1:0|3:0,0:0:0:0:
509,310,53634,6,0,P|467:323|424:308,1,84,2|0,3:0|0:0,0:0:0:0:
402,304,53964,2,0,P|375:279|374:242,1,56,2|2,1:2|1:3,0:0:0:0:
407,195,54294,1,4,1:3:0:0:
327,116,54623,6,0,P|310:77|329:45,1,56,4|2,1:0|3:2,0:0:0:0:
333,46,54871,1,0,3:0:0:0:
333,46,54953,1,2,1:3:0:0:
439,10,55283,2,0,P|475:37|483:60,1,56,2|2,1:2|3:0,0:0:0:0:
450,114,55612,1,2,1:2:0:0:
330,125,55942,6,0,P|276:99|206:88,1,112,0|2,1:0|1:2,0:0:0:0:
166,140,56437,1,2,3:0:0:0:
91,124,56601,2,0,B|74:94|74:94|25:79|4:33,2,112,4|10|2,1:0|3:0|3:2,0:0:0:0:
91,18,57590,6,0,P|56:62|3:337,1,336,2|4,3:0|1:0,0:0:0:0:
256,192,63854,12,0,68470,1:0:0:0:
359,99,68799,6,2,B|346:79|346:79|420:41|420:41|464:112|464:112|443:124,1,210,4|0,1:2|0:0,1:1:0:0:
433,131,69129,5,4,1:0:0:0:
303,204,69459,2,0,B|194:172|275:127|146:103,1,188.999994232178,2|0,3:2|0:0,0:0:0:0:
86,145,70118,1,2,3:2:0:0:
86,145,70200,1,0,3:0:0:0:
86,145,70283,2,0,P|77:164|71:194,2,31.4999990386963,2|0|2,3:0|3:0|1:2,0:0:0:0:
229,22,70777,6,0,P|194:82|155:219,1,188.999994232178,2|0,3:2|0:0,0:0:0:0:
222,255,71437,1,2,3:2:0:0:
222,255,71519,1,0,3:0:0:0:
222,255,71601,2,0,P|245:248|265:244,2,31.4999990386963,2|0|2,3:0|3:0|1:2,0:0:0:0:
23,382,72261,5,0,3:0:0:0:
60,316,72426,2,0,P|44:278|41:249,1,62.9999980773926,2|2,3:2|3:2,0:0:0:0:
11,187,72755,2,0,P|16:156|29:127,1,62.9999980773926,0|2,1:0|3:2,0:0:0:0:
62,107,73003,1,0,3:0:0:0:
62,107,73085,2,0,L|150:122,1,62.9999980773926,2|2,3:0|3:0,0:0:0:0:
200,79,73414,5,2,3:2:0:0:
200,79,73497,1,0,3:0:0:0:
200,79,73579,1,2,3:0:0:0:
200,79,73661,1,0,3:0:0:0:
200,79,73744,2,0,L|250:70,2,31.4999990386963,0|0|2,1:0|3:0|3:0,0:0:0:0:
133,124,74073,2,0,L|83:115,2,31.4999990386963,2|0|2,3:2|3:0|3:0,0:0:0:0:
168,186,74403,1,4,1:0:0:0:
12,3,75227,5,2,3:0:0:0:
12,3,75310,1,0,3:0:0:0:
12,3,75392,2,0,P|58:11|75:21,1,62.9999980773926,2|2,3:2|3:0,0:0:0:0:
127,71,75722,5,0,1:0:0:0:
101,141,75887,1,0,1:0:0:0:
27,147,76051,2,0,P|11:188|26:226,1,62.9999980773926,2|2,0:0|3:0,0:0:0:0:
42,232,76299,1,0,3:0:0:0:
42,232,76381,2,0,L|92:241,2,31.4999990386963,2|0|0,3:2|3:0|3:0,0:0:0:0:
31,307,76710,2,0,L|-19:298,2,31.4999990386963,2|0|2,3:2|3:0|3:0,0:0:0:0:
52,380,77040,1,4,1:2:0:0:
174,299,77370,6,0,L|163:335,4,31.4999990386963,4|0|2|0|2,1:2|3:0|3:0|3:0|3:2,0:0:0:0:
238,253,77865,1,2,3:2:0:0:
238,253,77947,1,0,3:0:0:0:
238,253,78030,2,0,L|313:270,1,62.9999980773926,0|2,1:0|3:0,0:0:0:0:
349,324,78359,6,0,P|375:306|382:276,1,62.9999980773926,0|2,1:0|0:3,0:0:0:0:
391,200,78689,2,0,P|425:200|453:184,1,62.9999980773926,0|2,1:0|3:0,0:0:0:0:
482,117,79019,2,0,L|513:122,2,31.4999990386963,0|0|2,1:0|3:0|3:0,0:0:0:0:
449,49,79348,2,0,L|481:43,2,31.4999990386963,2|0|2,1:2|0:0|0:0,0:0:0:0:
364,17,79678,5,2,1:2:0:0:
364,17,79760,1,0,0:0:0:0:
364,17,79843,1,0,3:0:0:0:
364,17,79925,1,0,0:0:0:0:
364,17,80008,2,0,P|329:53|358:154,1,140,6|0,1:0|1:0,0:0:0:0:
426,291,80667,5,0,1:0:0:0:
426,291,80749,1,0,3:0:0:0:
426,291,80832,1,0,3:2:0:0:
500,249,80997,2,0,P|502:211|510:164,1,70,2|0,1:2|0:0,0:0:0:0:
470,103,81326,2,0,B|377:113|420:164|335:170,1,140,2|0,1:0|1:0,0:0:0:0:
202,86,81985,5,2,1:0:0:0:
202,86,82068,1,0,3:0:0:0:
202,86,82150,1,2,3:0:0:0:
151,19,82315,2,0,P|113:40|15:58,1,140,6|0,1:0|1:0,0:0:0:0:
3,141,82810,5,2,3:0:0:0:
65,198,82975,2,0,P|99:190|134:187,1,70,2|2,1:0|3:0,0:0:0:0:
194,128,83304,2,0,P|228:137|263:140,1,70,2|2,1:0|3:0,0:0:0:0:
329,87,83634,1,2,1:0:0:0:
424,225,83964,6,0,L|481:238,3,35,2|0|2|0,1:2|3:0|1:2|0:0,0:0:0:0:
491,205,84293,2,0,P|515:245|498:295,1,70,2|2,1:0|1:3,0:0:0:0:
453,332,84623,5,2,1:0:0:0:
453,332,84705,2,0,L|363:313,1,70,0|0,3:0|0:0,0:0:0:0:
348,338,84953,2,0,B|261:351|302:303|191:322,2,140,6|0|2,1:0|1:0|1:2,0:0:0:0:
402,272,85777,6,0,L|450:263,4,35,2|0|2|0|2,1:3|3:0|3:2|3:0|3:0,0:0:0:0:
326,235,86272,1,4,1:2:0:0:
336,151,86437,1,0,1:0:0:0:
411,113,86601,6,0,P|425:89|428:46,1,70,2|0,1:2|1:0,0:0:0:0:
387,33,86848,1,0,0:0:0:0:
387,33,86931,2,0,L|401:-20,2,35,2|0|0,1:2|0:0|1:0,0:0:0:0:
308,58,87260,2,0,L|299:3,2,35,2|0|0,1:2|0:0|1:0,0:0:0:0:
228,31,87590,1,4,3:2:0:0:
79,107,87920,6,0,L|38:95,4,35,0|0|0|0|4,3:0|3:0|3:0|3:0|3:2,0:0:0:0:
122,184,88414,1,0,3:0:0:0:
122,184,88497,1,0,3:0:0:0:
122,184,88579,2,0,P|113:224|114:271,1,70,0|0,3:0|3:0,0:0:0:0:
256,192,88909,12,4,89898,1:2:0:0:
455,355,90228,6,0,P|446:310|445:269,1,83.9999974365235,6|0,1:0|0:0,0:0:0:0:
385,211,90558,2,0,P|386:169|395:128,1,83.9999974365235,8|0,1:2|0:0,0:0:0:0:
463,79,90887,1,2,1:0:0:0:
403,24,91052,1,0,0:0:0:0:
403,24,91134,1,0,3:0:0:0:
403,24,91217,2,0,L|295:35,1,83.9999974365235,8|0,1:2|0:0,0:0:0:0:
236,15,91547,6,0,P|195:55|209:86,1,83.9999974365235,6|0,1:2|0:0,0:0:0:0:
265,127,91876,2,0,P|263:168|254:209,1,83.9999974365235,8|0,1:2|0:0,0:0:0:0:
182,253,92206,1,0,1:0:0:0:
107,213,92371,1,0,0:0:0:0:
107,213,92453,1,0,3:0:0:0:
107,213,92536,2,0,L|13:228,1,83.9999974365235,8|0,1:2|0:0,0:0:0:0:
3,307,92865,6,0,P|22:345|81:353,1,83.9999974365235,6|0,1:0|0:0,0:0:0:0:
124,304,93195,2,0,P|169:315|204:331,1,83.9999974365235,8|0,1:2|0:0,0:0:0:0:
276,372,93525,1,2,1:0:0:0:
343,322,93689,1,0,0:0:0:0:
343,322,93772,1,0,3:0:0:0:
343,322,93854,2,0,L|433:314,1,83.9999974365235,8|0,1:2|0:0,0:0:0:0:
497,268,94184,6,0,P|500:225|475:190,1,83.9999974365235,4|0,1:2|0:0,0:0:0:0:
403,151,94514,2,0,P|360:170|337:210,1,83.9999974365235,8|0,1:2|0:0,0:0:0:0:
273,251,94843,1,0,1:0:0:0:
193,221,95008,1,0,0:0:0:0:
193,221,95090,1,0,3:0:0:0:
193,221,95173,2,0,L|186:138,1,83.9999974365235,8|0,1:2|0:0,0:0:0:0:
153,59,95503,6,0,P|98:24|22:63,1,125.999996154785,6|0,1:0|0:0,0:0:0:0:
16,71,95832,2,0,P|48:117|50:150,1,83.9999974365235,8|2,1:2|3:0,0:0:0:0:
19,222,96162,2,0,P|4:270|0:308,1,83.9999974365235,6|2,1:2|3:0,0:0:0:0:
28,341,96409,1,0,3:0:0:0:
28,341,96492,2,0,P|100:327|128:327,1,83.9999974365235,8|2,1:2|3:0,0:0:0:0:
185,364,96821,6,0,P|242:346|267:258,1,125.999996154785,6|0,1:0|0:0,0:0:0:0:
246,255,97151,2,0,P|240:199|250:154,1,83.9999974365235,8|2,1:2|3:0,0:0:0:0:
316,127,97481,2,0,P|364:138|409:129,1,83.9999974365235,4|2,1:2|3:0,0:0:0:0:
427,103,97728,1,0,3:0:0:0:
427,103,97810,2,0,P|428:47|419:18,1,83.9999974365235,8|2,1:2|3:0,0:0:0:0:
337,3,98140,6,0,B|253:7|314:38|217:62,1,125.999996154785,6|0,1:0|0:0,0:0:0:0:
190,43,98470,2,0,P|149:65|155:105,1,83.9999974365235,10|2,1:1|3:0,0:0:0:0:
210,156,98799,2,0,P|267:147|311:151,1,83.9999974365235,6|2,1:2|3:0,0:0:0:0:
325,176,99047,1,0,3:0:0:0:
325,176,99129,2,0,P|315:226|312:262,1,83.9999974365235,10|0,1:2|3:0,0:0:0:0:
355,331,99459,6,0,P|300:373|235:343,1,125.999996154785,6|0,1:1|0:0,0:0:0:0:
229,322,99788,2,0,P|172:302|136:302,1,83.9999974365235,10|2,1:1|3:0,0:0:0:0:
100,231,100118,2,0,P|106:174|128:150,1,83.9999974365235,4|2,1:2|3:0,0:0:0:0:
156,129,100365,1,0,3:0:0:0:
156,129,100448,2,0,P|207:115|241:115,1,83.9999974365235,10|2,1:2|3:0,0:0:0:0:
296,174,100777,6,0,B|339:148|339:148|371:164|371:164|411:167,1,125.999996154785,6|0,1:0|0:0,0:0:0:0:
449,183,101107,2,0,P|492:148|492:110,1,83.9999974365235,2|4,1:0|1:3,0:0:0:0:
453,54,101437,1,2,1:0:0:0:
453,54,101601,1,8,1:3:0:0:
373,71,101766,1,2,1:0:0:0:
373,71,101931,1,4,1:3:0:0:
301,26,102096,6,0,B|256:2|200:25|200:25|174:65,1,125.999996154785,2|0,1:0|0:0,0:0:0:0:
166,79,102426,2,0,B|108:67|142:52|84:47,1,83.9999974365235,2|4,1:0|1:3,0:0:0:0:
16,83,102755,1,2,1:0:0:0:
16,83,102920,1,8,1:3:0:0:
23,170,103085,1,2,1:0:0:0:
23,170,103250,1,4,1:3:0:0:
107,171,103415,6,0,B|153:178|182:223|182:223|240:239,1,125.999996154785,2|0,1:0|0:0,0:0:0:0:
250,213,103744,2,0,P|303:238|308:284,1,83.9999974365235,2|4,1:0|1:3,0:0:0:0:
280,339,104074,1,2,1:0:0:0:
280,339,104239,1,8,1:3:0:0:
362,371,104404,1,2,1:0:0:0:
362,371,104568,1,4,1:3:0:0:
442,347,104733,6,0,B|487:311|451:258|451:258|400:252,1,125.999996154785,2|0,1:0|0:0,0:0:0:0:
389,234,105063,2,0,P|392:193|421:160,1,83.9999974365235,2|4,1:0|1:3,0:0:0:0:
489,112,105393,1,2,1:0:0:0:
489,112,105558,1,8,1:3:0:0:
448,39,105722,1,2,1:0:0:0:
448,39,105887,1,4,1:3:0:0:
364,26,106052,6,0,L|318:40,8,41.9999987182618,6|0|2|0|2|0|2|0|2,1:0|3:0|1:3|3:0|1:0|3:0|1:3|3:0|1:0,3:0:0:0:
252,127,107041,1,2,1:0:0:0:
252,127,107206,1,2,1:3:0:0:
252,127,107371,6,0,L|211:114,8,41.9999987182618,6|0|2|0|2|0|2|0|2,1:0|0:0|1:3|3:0|1:0|3:0|1:3|3:0|1:0,0:0:0:0:
148,23,108360,1,2,1:0:0:0:
148,23,108525,1,2,1:3:0:0:
256,192,108689,12,2,110997,1:3:0:0:
224,358,111327,6,0,P|131:335|72:243,1,195.999994018555,4|4,1:0|3:0,0:0:0:0:
81,158,112316,2,0,P|73:116|14:83,2,97.9999970092774,2|2|2,3:0|3:0|3:0,0:0:0:0:
2,217,113305,2,0,B|139:195|40:163|195:140,1,195.999994018555,6|2,3:0|0:0,0:0:0:0:
270,175,114294,6,0,P|314:152|323:129,1,73.4999977569581,6|0,3:0|0:0,0:0:0:0:
341,116,114623,2,0,P|341:79|325:66,1,48.9999985046387,2|2,1:2|1:2,0:0:0:0:
264,40,114953,1,4,1:3:0:0:
166,26,115283,6,0,P|134:54|127:77,1,48.9999985046387,4|0,1:0|3:0,0:0:0:0:
135,92,115530,1,0,3:0:0:0:
135,92,115612,1,0,3:0:0:0:
190,172,115942,2,0,P|223:162|251:158,1,48.9999985046387,2|2,1:2|3:0,0:0:0:0:
305,190,116272,1,4,1:3:0:0:
396,155,116601,6,0,P|440:107|432:73,1,97.9999970092774,4|2,1:3|1:2,0:0:0:0:
375,28,117096,1,0,0:0:0:0:
306,67,117261,2,0,P|258:59|199:41,2,97.9999970092774,4|4|4,1:0|1:3|1:3,0:0:0:0:
377,21,118250,2,0,P|422:28|448:90,1,97.9999970092774,6|0,3:0|0:0,0:0:0:0:
512,181,118909,5,2,3:2:0:0:
510,188,118991,1,0,3:0:0:0:
507,197,119074,1,2,3:0:0:0:
505,205,119156,1,0,3:0:0:0:
502,212,119238,2,0,P|432:274|328:237,1,195.999994018555,4|6,1:0|3:0,0:0:0:0:
269,182,120227,2,0,P|276:135|315:91,2,97.9999970092774,2|2|2,3:0|3:2|3:0,0:0:0:0:
227,270,121216,6,0,B|119:254|200:217|49:191,1,195.999994018555,4|2,1:0|0:0,0:0:0:0:
5,277,122205,6,0,P|16:316|52:331,1,73.4999977569581,2|0,3:0|0:0,0:0:0:0:
57,350,122535,2,0,P|87:350|106:330,1,48.9999985046387,2|2,1:2|1:3,0:0:0:0:
137,269,122865,1,4,1:3:0:0:
202,196,123194,6,0,P|213:159|204:143,1,48.9999985046387,4|2,1:0|3:2,0:0:0:0:
198,134,123442,1,0,3:0:0:0:
198,134,123524,1,2,1:3:0:0:
137,56,123854,2,0,P|92:49|71:55,1,48.9999985046387,2|2,1:2|3:0,0:0:0:0:
29,97,124183,1,2,1:2:0:0:
92,171,124513,6,0,P|141:147|195:131,1,97.9999970092774,0|2,1:0|1:2,0:0:0:0:
254,171,125008,1,2,3:0:0:0:
330,147,125172,2,0,B|354:118|354:118|391:117|416:72,2,97.9999970092774,4|2|2,1:0|3:0|3:2,0:0:0:0:
351,32,126161,6,0,P|363:127|514:241,1,293.999991027832,6|4,3:0|1:0,0:0:0:0:
