osu file format v14

[General]
AudioFilename: audio.mp3
AudioLeadIn: 0
PreviewTime: 42494
Countdown: 0
SampleSet: None
StackLeniency: 0.7
Mode: 3
LetterboxInBreaks: 0
SpecialStyle: 0
WidescreenStoryboard: 0

[Editor]
Bookmarks: 297,5571,10846,16121,21395,32275,37220,42494,50406,58318,68867,79746,89966,100515,105790,108427,111065,118977,126889
DistanceSpacing: 1
BeatDivisor: 4
GridSize: 4
TimelineZoom: 1.6

[Metadata]
Title:Night Falls ~ Evening Star
TitleUnicode:夜が降りてくる ~ Evening Star
Artist:ELEMENTAS (A-ONE)
ArtistUnicode:ELEMENTAS (A-ONE)
Creator:[OSC]Amagai
Version:A Train Spellcard!?
Source:東方憑依華 ~ Antinomy of Common Flowers.
Tags:Yukari Yakumo
BeatmapID:3208708
BeatmapSetID:1571400

[Difficulty]
HPDrainRate:9
CircleSize:4
OverallDifficulty:8
ApproachRate:5
SliderMultiplier:3.1
SliderTickRate:1

[Events]
//Background and Video events
0,0,"59572603_p0_master1200.jpg",0,0
//Break Periods
//Storyboard Layer 0 (Background)
//Storyboard Layer 1 (Fail)
//Storyboard Layer 2 (Pass)
//Storyboard Layer 3 (Foreground)
//Storyboard Layer 4 (Overlay)
//Storyboard Sound Samples

[TimingPoints]
297,329.67032967033,4,1,0,20,1,0
42494,329.67032967033,3,1,0,20,1,1
58318,329.67032967033,4,1,0,20,1,0
89966,-100,4,1,0,20,0,1
105790,-100,4,1,0,20,0,0
111065,329.67032967033,3,1,0,20,1,1
126889,329.67032967033,4,1,0,20,1,0

[HitObjects]
320,192,297,5,0,0:0:0:0:
192,192,297,1,0,0:0:0:0:
64,192,297,1,0,0:0:0:0:
448,192,461,128,0,626:0:0:0:0:
192,192,626,1,0,0:0:0:0:
320,192,791,128,0,956:0:0:0:0:
64,192,956,1,0,0:0:0:0:
192,192,1121,128,0,1286:0:0:0:0:
448,192,1286,1,0,0:0:0:0:
64,192,1450,128,0,1615:0:0:0:0:
320,192,1615,1,0,0:0:0:0:
64,192,1780,128,0,1945:0:0:0:0:
320,192,1945,1,0,0:0:0:0:
192,192,2110,128,0,2275:0:0:0:0:
448,192,2275,1,0,0:0:0:0:
320,192,2439,128,0,2604:0:0:0:0:
64,192,2604,1,0,0:0:0:0:
448,192,2769,128,0,2934:0:0:0:0:
192,192,2934,1,0,0:0:0:0:
448,192,3099,128,0,3264:0:0:0:0:
192,192,3264,1,0,0:0:0:0:
320,192,3428,128,0,3593:0:0:0:0:
64,192,3593,1,0,0:0:0:0:
192,192,3758,128,0,3923:0:0:0:0:
448,192,3923,1,0,0:0:0:0:
64,192,4088,128,0,4253:0:0:0:0:
320,192,4253,1,0,0:0:0:0:
64,192,4417,128,0,4582:0:0:0:0:
320,192,4582,1,0,0:0:0:0:
192,192,4747,128,0,4912:0:0:0:0:
448,192,4912,1,0,0:0:0:0:
320,192,5077,128,0,5242:0:0:0:0:
64,192,5242,1,0,0:0:0:0:
448,192,5406,128,0,5571:0:0:0:0:
192,192,5571,1,0,0:0:0:0:
64,192,5571,128,0,5736:0:0:0:0:
448,192,5736,128,0,5901:0:0:0:0:
192,192,5901,1,0,0:0:0:0:
64,192,5901,128,0,6066:0:0:0:0:
320,192,6066,128,0,6231:0:0:0:0:
64,192,6231,128,0,6395:0:0:0:0:
192,192,6395,128,0,6560:0:0:0:0:
448,192,6560,1,0,0:0:0:0:
320,192,6560,128,0,6725:0:0:0:0:
64,192,6725,128,0,6890:0:0:0:0:
320,192,6890,1,0,0:0:0:0:
448,192,6890,128,0,7055:0:0:0:0:
64,192,7055,128,0,7220:0:0:0:0:
320,192,7220,1,0,0:0:0:0:
448,192,7220,128,0,7384:0:0:0:0:
192,192,7384,128,0,7549:0:0:0:0:
448,192,7549,1,0,0:0:0:0:
64,192,7549,128,0,7714:0:0:0:0:
320,192,7714,128,0,7879:0:0:0:0:
64,192,7879,1,0,0:0:0:0:
192,192,7879,128,0,8044:0:0:0:0:
448,192,8044,128,0,8209:0:0:0:0:
192,192,8209,1,0,0:0:0:0:
64,192,8209,128,0,8373:0:0:0:0:
448,192,8373,128,0,8538:0:0:0:0:
192,192,8538,1,0,0:0:0:0:
64,192,8538,128,0,8703:0:0:0:0:
320,192,8703,128,0,8868:0:0:0:0:
64,192,8868,1,0,0:0:0:0:
448,192,8868,128,0,9033:0:0:0:0:
192,192,9033,128,0,9198:0:0:0:0:
448,192,9198,1,0,0:0:0:0:
320,192,9198,128,0,9362:0:0:0:0:
64,192,9362,128,0,9527:0:0:0:0:
320,192,9527,1,0,0:0:0:0:
192,192,9527,128,0,9692:0:0:0:0:
64,192,9692,128,0,9857:0:0:0:0:
320,192,9857,1,0,0:0:0:0:
448,192,9857,128,0,10022:0:0:0:0:
192,192,10022,128,0,10187:0:0:0:0:
448,192,10187,1,0,0:0:0:0:
320,192,10187,1,0,0:0:0:0:
192,192,10269,1,0,0:0:0:0:
64,192,10269,1,0,0:0:0:0:
320,192,10351,1,0,0:0:0:0:
448,192,10351,1,0,0:0:0:0:
192,192,10434,1,0,0:0:0:0:
64,192,10516,1,0,0:0:0:0:
448,192,10516,1,0,0:0:0:0:
320,192,10599,1,0,0:0:0:0:
192,192,10599,1,0,0:0:0:0:
448,192,10681,1,0,0:0:0:0:
64,192,10681,1,0,0:0:0:0:
320,192,10764,1,0,0:0:0:0:
64,192,10846,128,0,11011:0:0:0:0:
448,192,10846,128,0,11011:0:0:0:0:
192,192,10846,128,0,11176:0:0:0:0:
320,192,11011,1,0,0:0:0:0:
320,192,11176,128,0,11340:0:0:0:0:
448,192,11176,128,0,11340:0:0:0:0:
64,192,11176,128,0,11340:0:0:0:0:
192,192,11340,1,0,0:0:0:0:
64,192,11505,128,0,11670:0:0:0:0:
448,192,11505,128,0,11670:0:0:0:0:
320,192,11505,128,0,11835:0:0:0:0:
192,192,11670,1,0,0:0:0:0:
192,192,11835,128,0,12000:0:0:0:0:
64,192,11835,128,0,12000:0:0:0:0:
448,192,11835,128,0,12000:0:0:0:0:
320,192,12000,1,0,0:0:0:0:
320,192,12165,128,0,12329:0:0:0:0:
192,192,12165,128,0,12329:0:0:0:0:
448,192,12165,128,0,12494:0:0:0:0:
64,192,12329,1,0,0:0:0:0:
64,192,12494,128,0,12659:0:0:0:0:
320,192,12494,128,0,12659:0:0:0:0:
192,192,12494,128,0,12659:0:0:0:0:
448,192,12659,1,0,0:0:0:0:
320,192,12824,128,0,12989:0:0:0:0:
192,192,12824,128,0,12989:0:0:0:0:
64,192,12824,128,0,13154:0:0:0:0:
448,192,12989,1,0,0:0:0:0:
448,192,13154,128,0,13318:0:0:0:0:
192,192,13154,128,0,13318:0:0:0:0:
320,192,13154,128,0,13318:0:0:0:0:
64,192,13318,1,0,0:0:0:0:
448,192,13483,128,0,13648:0:0:0:0:
192,192,13483,128,0,13648:0:0:0:0:
320,192,13483,128,0,13813:0:0:0:0:
64,192,13648,1,0,0:0:0:0:
192,192,13813,128,0,13978:0:0:0:0:
64,192,13813,128,0,13978:0:0:0:0:
448,192,13813,128,0,13978:0:0:0:0:
320,192,13978,1,0,0:0:0:0:
320,192,14143,128,0,14307:0:0:0:0:
64,192,14143,128,0,14307:0:0:0:0:
192,192,14143,128,0,14472:0:0:0:0:
448,192,14307,1,0,0:0:0:0:
320,192,14472,128,0,14637:0:0:0:0:
448,192,14472,128,0,14637:0:0:0:0:
64,192,14472,128,0,14637:0:0:0:0:
192,192,14637,1,0,0:0:0:0:
448,192,14802,128,0,14967:0:0:0:0:
192,192,14802,128,0,14967:0:0:0:0:
64,192,14802,128,0,15132:0:0:0:0:
320,192,14967,1,0,0:0:0:0:
448,192,15132,128,0,15297:0:0:0:0:
192,192,15132,128,0,15297:0:0:0:0:
320,192,15132,128,0,15297:0:0:0:0:
64,192,15297,1,0,0:0:0:0:
320,192,15461,128,0,15626:0:0:0:0:
64,192,15461,128,0,15626:0:0:0:0:
448,192,15461,128,0,15791:0:0:0:0:
192,192,15626,1,0,0:0:0:0:
64,192,15791,128,0,15956:0:0:0:0:
320,192,15791,128,0,15956:0:0:0:0:
192,192,15791,128,0,15956:0:0:0:0:
448,192,15956,1,0,0:0:0:0:
64,192,16121,128,0,16286:0:0:0:0:
448,192,16121,128,0,16203:0:0:0:0:
192,192,16121,128,0,16450:0:0:0:0:
320,192,16286,1,0,0:0:0:0:
448,192,16286,1,0,0:0:0:0:
320,192,16450,128,0,16533:0:0:0:0:
448,192,16450,128,0,16615:0:0:0:0:
64,192,16450,128,0,16615:0:0:0:0:
192,192,16615,1,0,0:0:0:0:
320,192,16615,1,0,0:0:0:0:
64,192,16780,128,0,16862:0:0:0:0:
448,192,16780,128,0,16945:0:0:0:0:
320,192,16780,128,0,17110:0:0:0:0:
192,192,16945,1,0,0:0:0:0:
64,192,16945,1,0,0:0:0:0:
64,192,17110,128,0,17275:0:0:0:0:
448,192,17110,128,0,17275:0:0:0:0:
192,192,17110,128,0,17192:0:0:0:0:
192,192,17275,1,0,0:0:0:0:
320,192,17275,1,0,0:0:0:0:
320,192,17439,128,0,17604:0:0:0:0:
192,192,17439,128,0,17522:0:0:0:0:
448,192,17439,128,0,17769:0:0:0:0:
64,192,17604,1,0,0:0:0:0:
192,192,17604,1,0,0:0:0:0:
64,192,17769,128,0,17934:0:0:0:0:
192,192,17769,128,0,17934:0:0:0:0:
320,192,17769,128,0,17851:0:0:0:0:
320,192,17934,1,0,0:0:0:0:
448,192,17934,1,0,0:0:0:0:
192,192,18099,128,0,18264:0:0:0:0:
320,192,18099,128,0,18181:0:0:0:0:
64,192,18099,128,0,18428:0:0:0:0:
448,192,18264,1,0,0:0:0:0:
320,192,18264,1,0,0:0:0:0:
448,192,18428,128,0,18593:0:0:0:0:
320,192,18428,128,0,18593:0:0:0:0:
192,192,18428,128,0,18511:0:0:0:0:
192,192,18593,1,0,0:0:0:0:
64,192,18593,1,0,0:0:0:0:
448,192,18758,128,0,18923:0:0:0:0:
192,192,18758,128,0,18840:0:0:0:0:
320,192,18758,128,0,19088:0:0:0:0:
64,192,18923,1,0,0:0:0:0:
192,192,18923,1,0,0:0:0:0:
64,192,19088,128,0,19253:0:0:0:0:
448,192,19088,128,0,19253:0:0:0:0:
192,192,19088,128,0,19170:0:0:0:0:
192,192,19253,1,0,0:0:0:0:
320,192,19253,1,0,0:0:0:0:
64,192,19417,128,0,19582:0:0:0:0:
320,192,19417,128,0,19500:0:0:0:0:
192,192,19417,128,0,19747:0:0:0:0:
448,192,19582,1,0,0:0:0:0:
320,192,19582,1,0,0:0:0:0:
320,192,19747,128,0,19912:0:0:0:0:
448,192,19747,128,0,19912:0:0:0:0:
64,192,19747,128,0,19912:0:0:0:0:
192,192,19912,1,0,0:0:0:0:
448,192,20077,128,0,20242:0:0:0:0:
192,192,20077,128,0,20242:0:0:0:0:
64,192,20077,128,0,20406:0:0:0:0:
320,192,20242,1,0,0:0:0:0:
448,192,20406,128,0,20571:0:0:0:0:
192,192,20406,128,0,20571:0:0:0:0:
320,192,20406,128,0,20571:0:0:0:0:
64,192,20571,1,0,0:0:0:0:
320,192,20736,128,0,20901:0:0:0:0:
64,192,20736,128,0,20901:0:0:0:0:
448,192,20736,128,0,21066:0:0:0:0:
192,192,20901,1,0,0:0:0:0:
64,192,21066,128,0,21231:0:0:0:0:
320,192,21066,128,0,21231:0:0:0:0:
192,192,21066,128,0,21231:0:0:0:0:
448,192,21231,1,0,0:0:0:0:
64,192,21395,1,0,0:0:0:0:
320,192,21395,1,0,0:0:0:0:
448,192,21560,1,0,0:0:0:0:
64,192,21725,128,0,22055:0:0:0:0:
320,192,21725,128,0,22137:0:0:0:0:
448,192,21725,128,0,21972:0:0:0:0:
192,192,21890,1,0,0:0:0:0:
192,192,22055,1,0,0:0:0:0:
448,192,22055,1,0,0:0:0:0:
320,192,22220,1,0,0:0:0:0:
64,192,22384,1,0,0:0:0:0:
192,192,22384,128,0,22467:0:0:0:0:
320,192,22467,128,0,22549:0:0:0:0:
448,192,22549,128,0,22632:0:0:0:0:
64,192,22632,128,0,22714:0:0:0:0:
192,192,22714,128,0,22797:0:0:0:0:
448,192,22714,1,0,0:0:0:0:
320,192,22879,1,0,0:0:0:0:
448,192,23044,128,0,23291:0:0:0:0:
192,192,23044,128,0,23456:0:0:0:0:
64,192,23044,128,0,23373:0:0:0:0:
320,192,23209,1,0,0:0:0:0:
448,192,23373,1,0,0:0:0:0:
320,192,23373,1,0,0:0:0:0:
192,192,23538,1,0,0:0:0:0:
192,192,23703,128,0,23786:0:0:0:0:
64,192,23703,1,0,0:0:0:0:
320,192,23786,128,0,23868:0:0:0:0:
448,192,23868,128,0,23950:0:0:0:0:
192,192,23950,128,0,24033:0:0:0:0:
448,192,24033,1,0,0:0:0:0:
64,192,24033,128,0,24527:0:0:0:0:
320,192,24198,1,0,0:0:0:0:
192,192,24362,1,0,0:0:0:0:
448,192,24362,1,0,0:0:0:0:
320,192,24527,128,0,24692:0:0:0:0:
192,192,24692,128,0,24857:0:0:0:0:
448,192,24692,1,0,0:0:0:0:
64,192,24857,128,0,25022:0:0:0:0:
320,192,25022,128,0,25104:0:0:0:0:
192,192,25022,1,0,0:0:0:0:
448,192,25104,128,0,25187:0:0:0:0:
192,192,25187,128,0,25269:0:0:0:0:
320,192,25269,128,0,25351:0:0:0:0:
448,192,25351,128,0,25434:0:0:0:0:
192,192,25351,1,0,0:0:0:0:
64,192,25434,128,0,25516:0:0:0:0:
192,192,25516,128,0,25599:0:0:0:0:
320,192,25599,128,0,25681:0:0:0:0:
64,192,25681,128,0,25764:0:0:0:0:
448,192,25681,1,0,0:0:0:0:
192,192,25764,128,0,25846:0:0:0:0:
448,192,25846,128,0,25928:0:0:0:0:
320,192,25928,128,0,26011:0:0:0:0:
64,192,26011,1,0,0:0:0:0:
448,192,26011,1,0,0:0:0:0:
320,192,26093,128,0,26176:0:0:0:0:
192,192,26176,128,0,26258:0:0:0:0:
64,192,26258,128,0,26340:0:0:0:0:
320,192,26340,128,0,26423:0:0:0:0:
448,192,26340,1,0,0:0:0:0:
192,192,26423,128,0,26505:0:0:0:0:
448,192,26505,128,0,26588:0:0:0:0:
320,192,26588,128,0,26670:0:0:0:0:
448,192,26670,128,0,26917:0:0:0:0:
64,192,26670,128,0,26917:0:0:0:0:
192,192,26835,1,0,0:0:0:0:
64,192,27000,1,0,0:0:0:0:
448,192,27000,1,0,0:0:0:0:
320,192,27165,1,0,0:0:0:0:
192,192,27329,1,0,0:0:0:0:
448,192,27329,1,0,0:0:0:0:
64,192,27494,1,0,0:0:0:0:
192,192,27577,128,0,27659:0:0:0:0:
448,192,27659,1,0,0:0:0:0:
320,192,27659,128,0,27742:0:0:0:0:
64,192,27742,128,0,27824:0:0:0:0:
448,192,27824,128,0,27906:0:0:0:0:
192,192,27906,128,0,27989:0:0:0:0:
448,192,27989,128,0,28071:0:0:0:0:
320,192,27989,128,0,28071:0:0:0:0:
448,192,28154,128,0,28236:0:0:0:0:
320,192,28154,128,0,28236:0:0:0:0:
448,192,28318,128,0,28401:0:0:0:0:
64,192,28318,1,0,0:0:0:0:
192,192,28401,128,0,28483:0:0:0:0:
320,192,28483,128,0,28566:0:0:0:0:
64,192,28566,128,0,28648:0:0:0:0:
448,192,28648,128,0,28731:0:0:0:0:
192,192,28648,1,0,0:0:0:0:
320,192,28731,128,0,28813:0:0:0:0:
192,192,28813,128,0,28895:0:0:0:0:
64,192,28895,128,0,28978:0:0:0:0:
320,192,28978,128,0,29060:0:0:0:0:
448,192,28978,1,0,0:0:0:0:
192,192,29060,128,0,29143:0:0:0:0:
320,192,29143,128,0,29225:0:0:0:0:
448,192,29225,128,0,29307:0:0:0:0:
64,192,29307,128,0,29555:0:0:0:0:
320,192,29307,128,0,29637:0:0:0:0:
192,192,29472,1,0,0:0:0:0:
64,192,29637,128,0,29720:0:0:0:0:
448,192,29637,1,0,0:0:0:0:
192,192,29720,128,0,29802:0:0:0:0:
320,192,29802,128,0,29884:0:0:0:0:
64,192,29884,128,0,29967:0:0:0:0:
192,192,29967,128,0,30049:0:0:0:0:
320,192,29967,1,0,0:0:0:0:
448,192,30049,128,0,30132:0:0:0:0:
320,192,30132,128,0,30214:0:0:0:0:
192,192,30214,128,0,30297:0:0:0:0:
448,192,30297,128,0,30379:0:0:0:0:
64,192,30297,1,0,0:0:0:0:
320,192,30379,128,0,30461:0:0:0:0:
64,192,30461,128,0,30544:0:0:0:0:
192,192,30544,128,0,30626:0:0:0:0:
320,192,30626,128,0,30709:0:0:0:0:
448,192,30626,128,0,30709:0:0:0:0:
448,192,30791,128,0,30873:0:0:0:0:
64,192,30791,128,0,30873:0:0:0:0:
192,192,30956,128,0,31038:0:0:0:0:
64,192,30956,1,0,0:0:0:0:
320,192,31038,128,0,31121:0:0:0:0:
64,192,31121,128,0,31203:0:0:0:0:
448,192,31203,128,0,31286:0:0:0:0:
192,192,31286,128,0,31368:0:0:0:0:
320,192,31368,128,0,31450:0:0:0:0:
64,192,31450,128,0,31533:0:0:0:0:
448,192,31533,128,0,31615:0:0:0:0:
192,192,31615,128,0,31698:0:0:0:0:
64,192,31698,128,0,31780:0:0:0:0:
320,192,31780,128,0,31862:0:0:0:0:
192,192,31862,128,0,31945:0:0:0:0:
64,192,31945,1,0,0:0:0:0:
64,192,32027,1,0,0:0:0:0:
64,192,32110,1,0,0:0:0:0:
64,192,32192,1,0,0:0:0:0:
192,192,32275,128,0,32604:0:0:0:0:
320,192,32275,128,0,32687:0:0:0:0:
448,192,32275,128,0,32522:0:0:0:0:
64,192,32439,1,0,0:0:0:0:
64,192,32604,1,0,0:0:0:0:
448,192,32604,1,0,0:0:0:0:
320,192,32769,1,0,0:0:0:0:
448,192,32934,1,0,0:0:0:0:
64,192,32934,128,0,33016:0:0:0:0:
192,192,33016,128,0,33099:0:0:0:0:
320,192,33099,128,0,33181:0:0:0:0:
448,192,33181,128,0,33264:0:0:0:0:
64,192,33264,128,0,33346:0:0:0:0:
192,192,33264,1,0,0:0:0:0:
320,192,33428,1,0,0:0:0:0:
64,192,33593,128,0,33923:0:0:0:0:
320,192,33593,128,0,33840:0:0:0:0:
448,192,33593,128,0,34005:0:0:0:0:
192,192,33758,1,0,0:0:0:0:
320,192,33923,1,0,0:0:0:0:
192,192,33923,1,0,0:0:0:0:
192,192,34088,1,0,0:0:0:0:
448,192,34253,128,0,34335:0:0:0:0:
64,192,34253,1,0,0:0:0:0:
320,192,34335,128,0,34417:0:0:0:0:
192,192,34417,128,0,34500:0:0:0:0:
64,192,34500,128,0,34582:0:0:0:0:
448,192,34582,128,0,34665:0:0:0:0:
320,192,34582,1,0,0:0:0:0:
192,192,34747,1,0,0:0:0:0:
64,192,34912,1,0,0:0:0:0:
320,192,34912,1,0,0:0:0:0:
448,192,35077,128,0,35159:0:0:0:0:
64,192,35159,128,0,35242:0:0:0:0:
320,192,35242,128,0,35324:0:0:0:0:
448,192,35242,1,0,0:0:0:0:
192,192,35324,128,0,35406:0:0:0:0:
448,192,35406,128,0,35489:0:0:0:0:
64,192,35489,128,0,35571:0:0:0:0:
192,192,35571,128,0,35654:0:0:0:0:
448,192,35571,1,0,0:0:0:0:
320,192,35654,128,0,35736:0:0:0:0:
64,192,35736,128,0,35818:0:0:0:0:
448,192,35818,128,0,35901:0:0:0:0:
192,192,35901,128,0,35983:0:0:0:0:
64,192,35901,1,0,0:0:0:0:
320,192,35983,128,0,36066:0:0:0:0:
64,192,36066,128,0,36148:0:0:0:0:
448,192,36148,128,0,36231:0:0:0:0:
320,192,36231,128,0,36313:0:0:0:0:
64,192,36231,1,0,0:0:0:0:
192,192,36313,128,0,36395:0:0:0:0:
448,192,36395,128,0,36478:0:0:0:0:
64,192,36478,128,0,36560:0:0:0:0:
320,192,36560,1,0,0:0:0:0:
448,192,36560,1,0,0:0:0:0:
64,192,36643,128,0,36725:0:0:0:0:
192,192,36725,128,0,36807:0:0:0:0:
320,192,36807,128,0,36890:0:0:0:0:
448,192,36890,128,0,36972:0:0:0:0:
192,192,36890,1,0,0:0:0:0:
64,192,36972,128,0,37055:0:0:0:0:
192,192,37055,128,0,37137:0:0:0:0:
320,192,37137,128,0,37220:0:0:0:0:
64,192,37220,128,0,37384:0:0:0:0:
448,192,37220,128,0,37302:0:0:0:0:
192,192,37220,128,0,37549:0:0:0:0:
320,192,37384,1,0,0:0:0:0:
448,192,37384,1,0,0:0:0:0:
320,192,37549,128,0,37632:0:0:0:0:
448,192,37549,128,0,37714:0:0:0:0:
64,192,37549,128,0,37714:0:0:0:0:
192,192,37714,1,0,0:0:0:0:
320,192,37714,1,0,0:0:0:0:
64,192,37879,128,0,37961:0:0:0:0:
448,192,37879,128,0,38044:0:0:0:0:
320,192,37879,128,0,38209:0:0:0:0:
192,192,38044,1,0,0:0:0:0:
64,192,38044,1,0,0:0:0:0:
64,192,38209,128,0,38373:0:0:0:0:
192,192,38209,128,0,38291:0:0:0:0:
448,192,38291,128,0,38373:0:0:0:0:
320,192,38373,1,0,0:0:0:0:
192,192,38373,128,0,38456:0:0:0:0:
64,192,38456,128,0,38538:0:0:0:0:
320,192,38538,128,0,38703:0:0:0:0:
192,192,38538,128,0,38621:0:0:0:0:
448,192,38538,128,0,38868:0:0:0:0:
64,192,38703,1,0,0:0:0:0:
192,192,38703,128,0,38786:0:0:0:0:
64,192,38868,128,0,38950:0:0:0:0:
192,192,38868,128,0,39033:0:0:0:0:
320,192,38868,128,0,38950:0:0:0:0:
448,192,38950,128,0,39033:0:0:0:0:
64,192,39033,1,0,0:0:0:0:
320,192,39033,128,0,39115:0:0:0:0:
192,192,39115,128,0,39198:0:0:0:0:
448,192,39198,128,0,39280:0:0:0:0:
320,192,39198,128,0,39280:0:0:0:0:
64,192,39198,128,0,39527:0:0:0:0:
192,192,39280,128,0,39362:0:0:0:0:
448,192,39362,1,0,0:0:0:0:
320,192,39362,128,0,39445:0:0:0:0:
192,192,39445,128,0,39527:0:0:0:0:
320,192,39527,128,0,39692:0:0:0:0:
448,192,39527,128,0,39610:0:0:0:0:
192,192,39610,128,0,39692:0:0:0:0:
64,192,39692,1,0,0:0:0:0:
448,192,39692,128,0,39775:0:0:0:0:
192,192,39775,128,0,39857:0:0:0:0:
448,192,39857,128,0,40022:0:0:0:0:
320,192,39857,128,0,40187:0:0:0:0:
64,192,39857,128,0,39939:0:0:0:0:
64,192,40022,1,0,0:0:0:0:
192,192,40022,1,0,0:0:0:0:
64,192,40187,128,0,40351:0:0:0:0:
448,192,40187,128,0,40351:0:0:0:0:
192,192,40187,128,0,40269:0:0:0:0:
192,192,40351,1,0,0:0:0:0:
320,192,40351,128,0,40434:0:0:0:0:
448,192,40434,128,0,40516:0:0:0:0:
192,192,40516,128,0,40599:0:0:0:0:
64,192,40516,1,0,0:0:0:0:
320,192,40599,128,0,40681:0:0:0:0:
448,192,40681,128,0,40764:0:0:0:0:
64,192,40764,128,0,40846:0:0:0:0:
192,192,40846,128,0,40928:0:0:0:0:
448,192,40846,1,0,0:0:0:0:
320,192,40928,128,0,41011:0:0:0:0:
448,192,41011,128,0,41093:0:0:0:0:
64,192,41093,128,0,41176:0:0:0:0:
192,192,41176,128,0,41258:0:0:0:0:
448,192,41176,128,0,41258:0:0:0:0:
448,192,41340,128,0,41423:0:0:0:0:
192,192,41340,128,0,41423:0:0:0:0:
64,192,41505,128,0,41588:0:0:0:0:
320,192,41513,128,0,41596:0:0:0:0:
192,192,41515,128,0,41598:0:0:0:0:
192,192,41670,128,0,41753:0:0:0:0:
448,192,41675,128,0,41758:0:0:0:0:
320,192,41681,128,0,41764:0:0:0:0:
320,192,41835,128,0,41917:0:0:0:0:
64,192,41840,128,0,41922:0:0:0:0:
192,192,41849,128,0,41932:0:0:0:0:
448,192,42000,128,0,42082:0:0:0:0:
192,192,42003,128,0,42085:0:0:0:0:
320,192,42009,128,0,42092:0:0:0:0:
64,192,42165,128,0,42247:0:0:0:0:
320,192,42170,128,0,42252:0:0:0:0:
192,192,42174,128,0,42257:0:0:0:0:
192,192,42329,128,0,42412:0:0:0:0:
320,192,42339,128,0,42421:0:0:0:0:
448,192,42352,128,0,42435:0:0:0:0:
64,192,42494,1,0,0:0:0:0:
192,192,42548,1,0,0:0:0:0:
320,192,42603,1,0,0:0:0:0:
448,192,42658,1,0,0:0:0:0:
64,192,42713,1,0,0:0:0:0:
192,192,42768,1,0,0:0:0:0:
320,192,42823,1,0,0:0:0:0:
64,192,42878,1,0,0:0:0:0:
448,192,42933,1,0,0:0:0:0:
192,192,42988,1,0,0:0:0:0:
448,192,43043,1,0,0:0:0:0:
320,192,43098,1,0,0:0:0:0:
192,192,43153,1,0,0:0:0:0:
64,192,43208,1,0,0:0:0:0:
448,192,43263,1,0,0:0:0:0:
320,192,43318,1,0,0:0:0:0:
192,192,43373,1,0,0:0:0:0:
448,192,43428,1,0,0:0:0:0:
64,192,43483,1,0,0:0:0:0:
192,192,43537,1,0,0:0:0:0:
320,192,43592,1,0,0:0:0:0:
448,192,43647,1,0,0:0:0:0:
64,192,43702,1,0,0:0:0:0:
448,192,43757,1,0,0:0:0:0:
64,192,43812,1,0,0:0:0:0:
192,192,43867,1,0,0:0:0:0:
320,192,43922,1,0,0:0:0:0:
448,192,43977,1,0,0:0:0:0:
64,192,44032,1,0,0:0:0:0:
448,192,44087,1,0,0:0:0:0:
64,192,44142,1,0,0:0:0:0:
192,192,44197,1,0,0:0:0:0:
320,192,44252,1,0,0:0:0:0:
448,192,44307,1,0,0:0:0:0:
64,192,44362,1,0,0:0:0:0:
448,192,44417,1,0,0:0:0:0:
64,192,44472,1,0,0:0:0:0:
192,192,44526,1,0,0:0:0:0:
320,192,44581,1,0,0:0:0:0:
448,192,44636,1,0,0:0:0:0:
64,192,44691,1,0,0:0:0:0:
448,192,44746,1,0,0:0:0:0:
320,192,44801,1,0,0:0:0:0:
192,192,44856,1,0,0:0:0:0:
64,192,44911,1,0,0:0:0:0:
448,192,44966,1,0,0:0:0:0:
64,192,45021,1,0,0:0:0:0:
192,192,45076,1,0,0:0:0:0:
320,192,45131,1,0,0:0:0:0:
448,192,45186,1,0,0:0:0:0:
64,192,45241,1,0,0:0:0:0:
448,192,45296,1,0,0:0:0:0:
320,192,45351,1,0,0:0:0:0:
192,192,45406,1,0,0:0:0:0:
448,192,45461,1,0,0:0:0:0:
320,192,45515,1,0,0:0:0:0:
192,192,45570,1,0,0:0:0:0:
64,192,45625,1,0,0:0:0:0:
448,192,45680,1,0,0:0:0:0:
320,192,45735,1,0,0:0:0:0:
64,192,45790,1,0,0:0:0:0:
192,192,45845,1,0,0:0:0:0:
320,192,45900,1,0,0:0:0:0:
448,192,45955,1,0,0:0:0:0:
64,192,46010,1,0,0:0:0:0:
192,192,46065,1,0,0:0:0:0:
448,192,46120,1,0,0:0:0:0:
320,192,46175,1,0,0:0:0:0:
64,192,46230,1,0,0:0:0:0:
192,192,46285,1,0,0:0:0:0:
64,192,46340,1,0,0:0:0:0:
448,192,46395,1,0,0:0:0:0:
192,192,46450,1,0,0:0:0:0:
320,192,46491,1,0,0:0:0:0:
448,192,46532,1,0,0:0:0:0:
64,192,46573,1,0,0:0:0:0:
320,192,46614,1,0,0:0:0:0:
192,192,46656,1,0,0:0:0:0:
64,192,46697,1,0,0:0:0:0:
448,192,46738,1,0,0:0:0:0:
192,192,46779,1,0,0:0:0:0:
320,192,46820,1,0,0:0:0:0:
448,192,46862,1,0,0:0:0:0:
64,192,46903,1,0,0:0:0:0:
320,192,46944,1,0,0:0:0:0:
192,192,46985,1,0,0:0:0:0:
64,192,47026,1,0,0:0:0:0:
448,192,47068,1,0,0:0:0:0:
192,192,47109,1,0,0:0:0:0:
320,192,47164,1,0,0:0:0:0:
448,192,47219,1,0,0:0:0:0:
64,192,47274,1,0,0:0:0:0:
192,192,47329,1,0,0:0:0:0:
320,192,47384,1,0,0:0:0:0:
448,192,47439,1,0,0:0:0:0:
192,192,47494,1,0,0:0:0:0:
320,192,47548,1,0,0:0:0:0:
448,192,47603,1,0,0:0:0:0:
64,192,47658,1,0,0:0:0:0:
192,192,47713,1,0,0:0:0:0:
320,192,47768,1,0,0:0:0:0:
448,192,47823,1,0,0:0:0:0:
64,192,47878,1,0,0:0:0:0:
192,192,47933,1,0,0:0:0:0:
320,192,47988,1,0,0:0:0:0:
64,192,48043,1,0,0:0:0:0:
448,192,48098,1,0,0:0:0:0:
320,192,48153,1,0,0:0:0:0:
192,192,48208,1,0,0:0:0:0:
448,192,48263,1,0,0:0:0:0:
64,192,48318,1,0,0:0:0:0:
192,192,48373,1,0,0:0:0:0:
448,192,48428,1,0,0:0:0:0:
64,192,48483,1,0,0:0:0:0:
320,192,48537,1,0,0:0:0:0:
192,192,48592,1,0,0:0:0:0:
448,192,48647,1,0,0:0:0:0:
64,192,48702,1,0,0:0:0:0:
320,192,48757,1,0,0:0:0:0:
192,192,48812,1,0,0:0:0:0:
448,192,48867,1,0,0:0:0:0:
64,192,48922,1,0,0:0:0:0:
320,192,48977,1,0,0:0:0:0:
192,192,49032,1,0,0:0:0:0:
448,192,49087,1,0,0:0:0:0:
64,192,49142,1,0,0:0:0:0:
320,192,49197,1,0,0:0:0:0:
192,192,49252,1,0,0:0:0:0:
64,192,49307,1,0,0:0:0:0:
448,192,49362,1,0,0:0:0:0:
192,192,49417,1,0,0:0:0:0:
320,192,49472,1,0,0:0:0:0:
64,192,49526,1,0,0:0:0:0:
448,192,49581,1,0,0:0:0:0:
192,192,49636,1,0,0:0:0:0:
320,192,49691,1,0,0:0:0:0:
64,192,49746,1,0,0:0:0:0:
448,192,49801,1,0,0:0:0:0:
192,192,49856,1,0,0:0:0:0:
320,192,49911,128,0,50021:0:0:0:0:
448,192,49966,128,0,50076:0:0:0:0:
192,192,50021,128,0,50131:0:0:0:0:
320,192,50076,128,0,50186:0:0:0:0:
64,192,50131,128,0,50241:0:0:0:0:
192,192,50186,128,0,50296:0:0:0:0:
448,192,50241,128,0,50351:0:0:0:0:
320,192,50296,128,0,50406:0:0:0:0:
192,192,50351,128,0,50461:0:0:0:0:
64,192,50406,1,0,0:0:0:0:
448,192,50406,1,0,0:0:0:0:
320,192,50461,1,0,0:0:0:0:
192,192,50515,1,0,0:0:0:0:
448,192,50570,1,0,0:0:0:0:
320,192,50625,1,0,0:0:0:0:
448,192,50680,1,0,0:0:0:0:
64,192,50735,1,0,0:0:0:0:
192,192,50790,1,0,0:0:0:0:
320,192,50845,1,0,0:0:0:0:
64,192,50900,1,0,0:0:0:0:
192,192,50955,1,0,0:0:0:0:
64,192,51010,1,0,0:0:0:0:
448,192,51065,1,0,0:0:0:0:
320,192,51120,1,0,0:0:0:0:
192,192,51175,1,0,0:0:0:0:
448,192,51230,1,0,0:0:0:0:
64,192,51285,1,0,0:0:0:0:
320,192,51395,1,0,0:0:0:0:
192,192,51450,1,0,0:0:0:0:
64,192,51504,1,0,0:0:0:0:
448,192,51559,1,0,0:0:0:0:
64,192,51614,1,0,0:0:0:0:
192,192,51669,1,0,0:0:0:0:
448,192,51724,1,0,0:0:0:0:
320,192,51779,1,0,0:0:0:0:
192,192,51834,1,0,0:0:0:0:
448,192,51889,1,0,0:0:0:0:
320,192,51944,1,0,0:0:0:0:
64,192,51999,1,0,0:0:0:0:
448,192,52054,1,0,0:0:0:0:
192,192,52109,1,0,0:0:0:0:
320,192,52164,1,0,0:0:0:0:
64,192,52219,1,0,0:0:0:0:
448,192,52274,1,0,0:0:0:0:
192,192,52329,1,0,0:0:0:0:
320,192,52384,1,0,0:0:0:0:
448,192,52439,1,0,0:0:0:0:
192,192,52494,1,0,0:0:0:0:
320,192,52548,1,0,0:0:0:0:
64,192,52603,1,0,0:0:0:0:
192,192,52658,1,0,0:0:0:0:
448,192,52713,1,0,0:0:0:0:
320,192,52768,1,0,0:0:0:0:
192,192,52823,1,0,0:0:0:0:
64,192,52878,1,0,0:0:0:0:
320,192,52933,1,0,0:0:0:0:
192,192,52988,1,0,0:0:0:0:
448,192,53043,1,0,0:0:0:0:
320,192,53098,1,0,0:0:0:0:
64,192,53153,1,0,0:0:0:0:
192,192,53208,1,0,0:0:0:0:
320,192,53263,1,0,0:0:0:0:
448,192,53318,1,0,0:0:0:0:
192,192,53373,1,0,0:0:0:0:
64,192,53428,1,0,0:0:0:0:
320,192,53483,1,0,0:0:0:0:
192,192,53537,1,0,0:0:0:0:
64,192,53592,1,0,0:0:0:0:
192,192,53647,1,0,0:0:0:0:
320,192,53702,1,0,0:0:0:0:
448,192,53757,1,0,0:0:0:0:
192,192,53812,1,0,0:0:0:0:
320,192,53867,1,0,0:0:0:0:
448,192,53922,1,0,0:0:0:0:
64,192,53977,1,0,0:0:0:0:
320,192,54032,1,0,0:0:0:0:
192,192,54087,1,0,0:0:0:0:
64,192,54142,1,0,0:0:0:0:
320,192,54197,1,0,0:0:0:0:
192,192,54252,1,0,0:0:0:0:
64,192,54307,1,0,0:0:0:0:
448,192,54362,1,0,0:0:0:0:
320,192,54417,1,0,0:0:0:0:
192,192,54472,1,0,0:0:0:0:
448,192,54526,1,0,0:0:0:0:
320,192,54581,1,0,0:0:0:0:
192,192,54636,1,0,0:0:0:0:
448,192,54691,1,0,0:0:0:0:
320,192,54746,1,0,0:0:0:0:
64,192,54801,1,0,0:0:0:0:
192,192,54856,1,0,0:0:0:0:
448,192,54911,1,0,0:0:0:0:
320,192,54966,1,0,0:0:0:0:
192,192,55021,1,0,0:0:0:0:
448,192,55076,1,0,0:0:0:0:
320,192,55131,1,0,0:0:0:0:
64,192,55186,1,0,0:0:0:0:
192,192,55241,1,0,0:0:0:0:
320,192,55296,1,0,0:0:0:0:
64,192,55351,1,0,0:0:0:0:
192,192,55406,1,0,0:0:0:0:
448,192,55461,1,0,0:0:0:0:
320,192,55515,1,0,0:0:0:0:
192,192,55570,1,0,0:0:0:0:
448,192,55625,1,0,0:0:0:0:
320,192,55680,1,0,0:0:0:0:
448,192,55735,1,0,0:0:0:0:
64,192,55790,1,0,0:0:0:0:
192,192,55845,1,0,0:0:0:0:
320,192,55900,1,0,0:0:0:0:
64,192,55955,1,0,0:0:0:0:
192,192,56010,1,0,0:0:0:0:
64,192,56065,1,0,0:0:0:0:
448,192,56120,1,0,0:0:0:0:
320,192,56175,1,0,0:0:0:0:
192,192,56230,1,0,0:0:0:0:
64,192,56285,1,0,0:0:0:0:
448,192,56340,1,0,0:0:0:0:
320,192,56395,1,0,0:0:0:0:
192,192,56450,1,0,0:0:0:0:
320,192,56504,1,0,0:0:0:0:
192,192,56559,1,0,0:0:0:0:
64,192,56614,1,0,0:0:0:0:
448,192,56669,1,0,0:0:0:0:
320,192,56724,1,0,0:0:0:0:
192,192,56779,1,0,0:0:0:0:
320,192,56834,1,0,0:0:0:0:
192,192,56889,1,0,0:0:0:0:
64,192,56944,1,0,0:0:0:0:
448,192,56999,1,0,0:0:0:0:
320,192,57054,1,0,0:0:0:0:
192,192,57109,1,0,0:0:0:0:
320,192,57164,1,0,0:0:0:0:
192,192,57219,1,0,0:0:0:0:
64,192,57274,1,0,0:0:0:0:
448,192,57329,1,0,0:0:0:0:
320,192,57384,1,0,0:0:0:0:
192,192,57439,1,0,0:0:0:0:
320,192,57494,1,0,0:0:0:0:
192,192,57548,1,0,0:0:0:0:
64,192,57603,1,0,0:0:0:0:
320,192,57658,1,0,0:0:0:0:
448,192,57713,1,0,0:0:0:0:
192,192,57768,1,0,0:0:0:0:
320,192,57823,1,0,0:0:0:0:
448,192,57878,1,0,0:0:0:0:
64,192,57933,1,0,0:0:0:0:
320,192,57988,1,0,0:0:0:0:
192,192,58043,1,0,0:0:0:0:
448,192,58098,1,0,0:0:0:0:
320,192,58153,1,0,0:0:0:0:
192,192,58208,1,0,0:0:0:0:
448,192,58263,1,0,0:0:0:0:
320,192,58318,1,0,0:0:0:0:
192,192,58318,1,0,0:0:0:0:
64,192,58318,1,0,0:0:0:0:
64,192,58482,128,0,58647:0:0:0:0:
320,192,58647,1,0,0:0:0:0:
192,192,58812,128,0,58977:0:0:0:0:
448,192,58977,1,0,0:0:0:0:
320,192,59142,128,0,59307:0:0:0:0:
448,192,59142,1,0,0:0:0:0:
448,192,59224,1,0,0:0:0:0:
64,192,59307,1,0,0:0:0:0:
448,192,59471,128,0,59636:0:0:0:0:
320,192,59471,1,0,0:0:0:0:
320,192,59554,1,0,0:0:0:0:
192,192,59636,1,0,0:0:0:0:
448,192,59801,128,0,59966:0:0:0:0:
192,192,59966,1,0,0:0:0:0:
320,192,60131,128,0,60296:0:0:0:0:
64,192,60296,1,0,0:0:0:0:
192,192,60460,128,0,60625:0:0:0:0:
64,192,60460,1,0,0:0:0:0:
64,192,60543,1,0,0:0:0:0:
448,192,60625,1,0,0:0:0:0:
64,192,60790,128,0,60955:0:0:0:0:
192,192,60790,1,0,0:0:0:0:
192,192,60872,1,0,0:0:0:0:
320,192,60955,1,0,0:0:0:0:
64,192,61120,128,0,61285:0:0:0:0:
320,192,61285,1,0,0:0:0:0:
192,192,61449,128,0,61614:0:0:0:0:
448,192,61614,1,0,0:0:0:0:
320,192,61779,128,0,61944:0:0:0:0:
448,192,61779,1,0,0:0:0:0:
448,192,61861,1,0,0:0:0:0:
64,192,61944,1,0,0:0:0:0:
448,192,62109,128,0,62274:0:0:0:0:
320,192,62109,1,0,0:0:0:0:
320,192,62191,1,0,0:0:0:0:
192,192,62274,1,0,0:0:0:0:
448,192,62438,128,0,62603:0:0:0:0:
192,192,62603,1,0,0:0:0:0:
320,192,62768,128,0,62933:0:0:0:0:
64,192,62933,1,0,0:0:0:0:
192,192,63098,128,0,63263:0:0:0:0:
64,192,63098,1,0,0:0:0:0:
64,192,63180,1,0,0:0:0:0:
448,192,63263,1,0,0:0:0:0:
64,192,63427,128,0,63592:0:0:0:0:
192,192,63427,1,0,0:0:0:0:
192,192,63510,1,0,0:0:0:0:
320,192,63592,1,0,0:0:0:0:
448,192,63592,128,0,63757:0:0:0:0:
64,192,63757,128,0,63922:0:0:0:0:
320,192,63922,1,0,0:0:0:0:
448,192,63922,128,0,64087:0:0:0:0:
192,192,64087,128,0,64252:0:0:0:0:
64,192,64252,128,0,64416:0:0:0:0:
320,192,64416,128,0,64581:0:0:0:0:
448,192,64416,1,0,0:0:0:0:
448,192,64499,1,0,0:0:0:0:
64,192,64581,1,0,0:0:0:0:
192,192,64581,128,0,64746:0:0:0:0:
448,192,64746,128,0,64911:0:0:0:0:
320,192,64746,1,0,0:0:0:0:
320,192,64828,1,0,0:0:0:0:
192,192,64911,1,0,0:0:0:0:
64,192,64911,128,0,65076:0:0:0:0:
448,192,65076,128,0,65241:0:0:0:0:
192,192,65241,1,0,0:0:0:0:
64,192,65241,128,0,65405:0:0:0:0:
320,192,65405,128,0,65570:0:0:0:0:
64,192,65570,1,0,0:0:0:0:
448,192,65570,128,0,65735:0:0:0:0:
192,192,65735,128,0,65900:0:0:0:0:
64,192,65735,1,0,0:0:0:0:
64,192,65818,1,0,0:0:0:0:
448,192,65900,1,0,0:0:0:0:
320,192,65900,128,0,66065:0:0:0:0:
64,192,66065,128,0,66230:0:0:0:0:
192,192,66065,1,0,0:0:0:0:
192,192,66147,1,0,0:0:0:0:
320,192,66230,1,0,0:0:0:0:
448,192,66230,128,0,66394:0:0:0:0:
64,192,66394,128,0,66559:0:0:0:0:
320,192,66559,1,0,0:0:0:0:
448,192,66559,128,0,66724:0:0:0:0:
192,192,66724,128,0,66889:0:0:0:0:
448,192,66889,1,0,0:0:0:0:
64,192,66889,128,0,67054:0:0:0:0:
320,192,67054,128,0,67219:0:0:0:0:
448,192,67054,1,0,0:0:0:0:
448,192,67136,1,0,0:0:0:0:
64,192,67219,1,0,0:0:0:0:
192,192,67219,128,0,67383:0:0:0:0:
448,192,67383,128,0,67548:0:0:0:0:
320,192,67383,1,0,0:0:0:0:
320,192,67466,1,0,0:0:0:0:
192,192,67548,1,0,0:0:0:0:
64,192,67548,128,0,67713:0:0:0:0:
448,192,67713,128,0,67878:0:0:0:0:
192,192,67878,1,0,0:0:0:0:
64,192,67878,128,0,68043:0:0:0:0:
320,192,68043,128,0,68208:0:0:0:0:
64,192,68208,128,0,68372:0:0:0:0:
192,192,68372,128,0,68537:0:0:0:0:
448,192,68537,1,0,0:0:0:0:
320,192,68565,1,0,0:0:0:0:
192,192,68592,1,0,0:0:0:0:
64,192,68620,1,0,0:0:0:0:
448,192,68647,1,0,0:0:0:0:
320,192,68675,1,0,0:0:0:0:
192,192,68702,1,0,0:0:0:0:
64,192,68730,1,0,0:0:0:0:
448,192,68757,1,0,0:0:0:0:
320,192,68785,1,0,0:0:0:0:
192,192,68812,1,0,0:0:0:0:
64,192,68839,1,0,0:0:0:0:
448,192,68867,1,0,0:0:0:0:
320,192,68867,1,0,0:0:0:0:
64,192,69197,128,0,69444:0:0:0:0:
192,192,69197,128,0,69609:0:0:0:0:
448,192,69361,1,0,0:0:0:0:
320,192,69526,1,0,0:0:0:0:
64,192,69526,1,0,0:0:0:0:
192,192,69691,1,0,0:0:0:0:
448,192,69856,1,0,0:0:0:0:
320,192,69856,128,0,69938:0:0:0:0:
192,192,69938,128,0,70021:0:0:0:0:
320,192,70021,128,0,70103:0:0:0:0:
448,192,70103,128,0,70186:0:0:0:0:
320,192,70186,128,0,70268:0:0:0:0:
64,192,70186,1,0,0:0:0:0:
192,192,70350,1,0,0:0:0:0:
192,192,70515,128,0,70763:0:0:0:0:
320,192,70515,128,0,70927:0:0:0:0:
64,192,70680,1,0,0:0:0:0:
192,192,70845,1,0,0:0:0:0:
448,192,70845,1,0,0:0:0:0:
320,192,71010,1,0,0:0:0:0:
320,192,71175,128,0,71257:0:0:0:0:
448,192,71175,1,0,0:0:0:0:
64,192,71257,128,0,71339:0:0:0:0:
192,192,71339,128,0,71422:0:0:0:0:
320,192,71422,128,0,71504:0:0:0:0:
64,192,71504,1,0,0:0:0:0:
448,192,71504,128,0,71999:0:0:0:0:
192,192,71669,1,0,0:0:0:0:
320,192,71834,1,0,0:0:0:0:
64,192,71834,1,0,0:0:0:0:
64,192,71999,128,0,72164:0:0:0:0:
192,192,72164,128,0,72328:0:0:0:0:
320,192,72164,1,0,0:0:0:0:
448,192,72328,128,0,72493:0:0:0:0:
320,192,72493,128,0,72576:0:0:0:0:
64,192,72493,1,0,0:0:0:0:
192,192,72576,128,0,72658:0:0:0:0:
448,192,72658,128,0,72741:0:0:0:0:
64,192,72741,128,0,72823:0:0:0:0:
320,192,72823,128,0,72905:0:0:0:0:
448,192,72823,1,0,0:0:0:0:
192,192,72905,128,0,72988:0:0:0:0:
64,192,72988,128,0,73070:0:0:0:0:
448,192,73070,128,0,73153:0:0:0:0:
192,192,73153,128,0,73235:0:0:0:0:
64,192,73153,1,0,0:0:0:0:
320,192,73235,128,0,73318:0:0:0:0:
64,192,73318,128,0,73400:0:0:0:0:
448,192,73400,128,0,73482:0:0:0:0:
192,192,73482,1,0,0:0:0:0:
64,192,73482,1,0,0:0:0:0:
448,192,73565,128,0,73647:0:0:0:0:
320,192,73647,128,0,73730:0:0:0:0:
192,192,73730,128,0,73812:0:0:0:0:
448,192,73812,128,0,73894:0:0:0:0:
320,192,73812,1,0,0:0:0:0:
64,192,73894,128,0,73977:0:0:0:0:
192,192,73977,128,0,74059:0:0:0:0:
320,192,74059,128,0,74142:0:0:0:0:
64,192,74142,128,0,74389:0:0:0:0:
448,192,74142,128,0,74389:0:0:0:0:
320,192,74307,1,0,0:0:0:0:
448,192,74471,1,0,0:0:0:0:
64,192,74471,1,0,0:0:0:0:
192,192,74636,1,0,0:0:0:0:
448,192,74801,1,0,0:0:0:0:
64,192,74801,1,0,0:0:0:0:
320,192,74966,1,0,0:0:0:0:
448,192,75048,128,0,75131:0:0:0:0:
64,192,75131,1,0,0:0:0:0:
192,192,75131,128,0,75213:0:0:0:0:
320,192,75213,128,0,75296:0:0:0:0:
64,192,75296,128,0,75378:0:0:0:0:
320,192,75378,128,0,75460:0:0:0:0:
64,192,75460,128,0,75543:0:0:0:0:
192,192,75460,128,0,75543:0:0:0:0:
64,192,75625,128,0,75708:0:0:0:0:
192,192,75625,128,0,75708:0:0:0:0:
64,192,75790,128,0,75872:0:0:0:0:
448,192,75790,1,0,0:0:0:0:
320,192,75872,128,0,75955:0:0:0:0:
192,192,75955,128,0,76037:0:0:0:0:
448,192,76037,128,0,76120:0:0:0:0:
64,192,76120,128,0,76202:0:0:0:0:
320,192,76120,1,0,0:0:0:0:
192,192,76202,128,0,76285:0:0:0:0:
320,192,76285,128,0,76367:0:0:0:0:
448,192,76367,128,0,76449:0:0:0:0:
192,192,76449,128,0,76532:0:0:0:0:
64,192,76449,1,0,0:0:0:0:
448,192,76532,128,0,76614:0:0:0:0:
192,192,76614,128,0,76697:0:0:0:0:
64,192,76697,128,0,76779:0:0:0:0:
448,192,76779,128,0,77026:0:0:0:0:
192,192,76779,128,0,77109:0:0:0:0:
320,192,76944,1,0,0:0:0:0:
448,192,77109,128,0,77191:0:0:0:0:
64,192,77109,1,0,0:0:0:0:
320,192,77191,128,0,77274:0:0:0:0:
192,192,77274,128,0,77356:0:0:0:0:
448,192,77356,128,0,77438:0:0:0:0:
320,192,77438,128,0,77521:0:0:0:0:
192,192,77438,1,0,0:0:0:0:
64,192,77521,128,0,77603:0:0:0:0:
192,192,77603,128,0,77686:0:0:0:0:
320,192,77686,128,0,77768:0:0:0:0:
64,192,77768,128,0,77850:0:0:0:0:
448,192,77768,1,0,0:0:0:0:
192,192,77850,128,0,77933:0:0:0:0:
448,192,77933,128,0,78015:0:0:0:0:
320,192,78015,128,0,78098:0:0:0:0:
192,192,78098,128,0,78180:0:0:0:0:
64,192,78098,128,0,78180:0:0:0:0:
64,192,78263,128,0,78345:0:0:0:0:
448,192,78263,128,0,78345:0:0:0:0:
320,192,78427,128,0,78510:0:0:0:0:
448,192,78427,1,0,0:0:0:0:
192,192,78510,128,0,78592:0:0:0:0:
448,192,78592,128,0,78675:0:0:0:0:
64,192,78675,128,0,78757:0:0:0:0:
320,192,78757,128,0,78839:0:0:0:0:
192,192,78839,128,0,78922:0:0:0:0:
448,192,78922,128,0,79004:0:0:0:0:
64,192,79004,128,0,79087:0:0:0:0:
320,192,79087,128,0,79169:0:0:0:0:
448,192,79169,128,0,79252:0:0:0:0:
192,192,79252,128,0,79334:0:0:0:0:
320,192,79334,128,0,79416:0:0:0:0:
448,192,79416,1,0,0:0:0:0:
448,192,79499,1,0,0:0:0:0:
448,192,79581,1,0,0:0:0:0:
448,192,79664,1,0,0:0:0:0:
320,192,79746,1,0,0:0:0:0:
192,192,79746,1,0,0:0:0:0:
64,192,79746,1,0,0:0:0:0:
448,192,79911,1,0,0:0:0:0:
320,192,80076,1,0,0:0:0:0:
64,192,80076,1,0,0:0:0:0:
192,192,80241,1,0,0:0:0:0:
64,192,80405,1,0,0:0:0:0:
448,192,80405,128,0,80488:0:0:0:0:
320,192,80488,128,0,80570:0:0:0:0:
192,192,80570,128,0,80653:0:0:0:0:
64,192,80653,128,0,80735:0:0:0:0:
448,192,80735,128,0,80818:0:0:0:0:
320,192,80735,1,0,0:0:0:0:
192,192,80900,1,0,0:0:0:0:
64,192,81065,128,0,81394:0:0:0:0:
448,192,81065,128,0,81312:0:0:0:0:
320,192,81230,1,0,0:0:0:0:
192,192,81394,1,0,0:0:0:0:
448,192,81394,1,0,0:0:0:0:
320,192,81559,1,0,0:0:0:0:
64,192,81724,128,0,81807:0:0:0:0:
448,192,81724,1,0,0:0:0:0:
192,192,81807,128,0,81889:0:0:0:0:
320,192,81889,128,0,81971:0:0:0:0:
448,192,81971,128,0,82054:0:0:0:0:
64,192,82054,128,0,82136:0:0:0:0:
192,192,82054,1,0,0:0:0:0:
320,192,82219,1,0,0:0:0:0:
448,192,82383,1,0,0:0:0:0:
192,192,82383,1,0,0:0:0:0:
64,192,82548,128,0,82631:0:0:0:0:
448,192,82631,128,0,82713:0:0:0:0:
192,192,82713,128,0,82796:0:0:0:0:
64,192,82713,1,0,0:0:0:0:
320,192,82796,128,0,82878:0:0:0:0:
64,192,82878,128,0,82960:0:0:0:0:
448,192,82960,128,0,83043:0:0:0:0:
320,192,83043,128,0,83125:0:0:0:0:
64,192,83043,1,0,0:0:0:0:
192,192,83125,128,0,83208:0:0:0:0:
448,192,83208,128,0,83290:0:0:0:0:
64,192,83290,128,0,83372:0:0:0:0:
320,192,83372,128,0,83455:0:0:0:0:
448,192,83372,1,0,0:0:0:0:
192,192,83455,128,0,83537:0:0:0:0:
448,192,83537,128,0,83620:0:0:0:0:
64,192,83620,128,0,83702:0:0:0:0:
192,192,83702,128,0,83785:0:0:0:0:
448,192,83702,1,0,0:0:0:0:
320,192,83785,128,0,83867:0:0:0:0:
64,192,83867,128,0,83949:0:0:0:0:
448,192,83949,128,0,84032:0:0:0:0:
192,192,84032,1,0,0:0:0:0:
64,192,84032,1,0,0:0:0:0:
448,192,84114,128,0,84197:0:0:0:0:
320,192,84197,128,0,84279:0:0:0:0:
192,192,84279,128,0,84361:0:0:0:0:
64,192,84361,128,0,84444:0:0:0:0:
320,192,84361,1,0,0:0:0:0:
448,192,84444,128,0,84526:0:0:0:0:
320,192,84526,128,0,84609:0:0:0:0:
192,192,84609,128,0,84691:0:0:0:0:
64,192,84691,128,0,84774:0:0:0:0:
448,192,84691,128,0,84938:0:0:0:0:
320,192,84856,1,0,0:0:0:0:
448,192,85021,1,0,0:0:0:0:
192,192,85021,1,0,0:0:0:0:
64,192,85186,1,0,0:0:0:0:
320,192,85350,1,0,0:0:0:0:
448,192,85350,1,0,0:0:0:0:
192,192,85515,128,0,85598:0:0:0:0:
448,192,85598,128,0,85680:0:0:0:0:
64,192,85680,128,0,85763:0:0:0:0:
192,192,85680,1,0,0:0:0:0:
320,192,85763,128,0,85845:0:0:0:0:
192,192,85845,128,0,85927:0:0:0:0:
448,192,85927,128,0,86010:0:0:0:0:
320,192,86010,128,0,86092:0:0:0:0:
64,192,86010,128,0,86092:0:0:0:0:
320,192,86175,128,0,86257:0:0:0:0:
64,192,86175,128,0,86257:0:0:0:0:
64,192,86339,128,0,86422:0:0:0:0:
320,192,86339,128,0,86422:0:0:0:0:
192,192,86422,128,0,86504:0:0:0:0:
448,192,86504,128,0,86587:0:0:0:0:
320,192,86587,128,0,86669:0:0:0:0:
192,192,86669,128,0,86752:0:0:0:0:
64,192,86669,1,0,0:0:0:0:
448,192,86752,128,0,86834:0:0:0:0:
320,192,86834,128,0,86916:0:0:0:0:
64,192,86916,128,0,86999:0:0:0:0:
192,192,86999,128,0,87081:0:0:0:0:
448,192,86999,1,0,0:0:0:0:
320,192,87081,128,0,87164:0:0:0:0:
64,192,87164,128,0,87246:0:0:0:0:
192,192,87246,128,0,87328:0:0:0:0:
320,192,87328,128,0,87411:0:0:0:0:
448,192,87328,1,0,0:0:0:0:
448,192,87493,1,0,0:0:0:0:
448,192,87658,1,0,0:0:0:0:
64,192,87658,128,0,87741:0:0:0:0:
192,192,87741,128,0,87823:0:0:0:0:
448,192,87823,128,0,87905:0:0:0:0:
320,192,87905,128,0,87988:0:0:0:0:
448,192,87988,1,0,0:0:0:0:
192,192,87988,128,0,88070:0:0:0:0:
64,192,88070,128,0,88153:0:0:0:0:
320,192,88153,128,0,88235:0:0:0:0:
192,192,88235,128,0,88318:0:0:0:0:
448,192,88318,128,0,88400:0:0:0:0:
320,192,88318,1,0,0:0:0:0:
64,192,88400,128,0,88482:0:0:0:0:
320,192,88482,128,0,88565:0:0:0:0:
192,192,88565,128,0,88647:0:0:0:0:
64,192,88647,128,0,88730:0:0:0:0:
448,192,88647,128,0,88730:0:0:0:0:
448,192,88812,128,0,88894:0:0:0:0:
64,192,88812,128,0,88894:0:0:0:0:
448,192,88977,128,0,89059:0:0:0:0:
64,192,88977,128,0,89059:0:0:0:0:
192,192,89059,128,0,89142:0:0:0:0:
320,192,89142,128,0,89224:0:0:0:0:
448,192,89224,128,0,89307:0:0:0:0:
192,192,89307,128,0,89389:0:0:0:0:
320,192,89307,1,0,0:0:0:0:
64,192,89389,128,0,89471:0:0:0:0:
320,192,89471,128,0,89554:0:0:0:0:
192,192,89554,128,0,89636:0:0:0:0:
64,192,89636,1,0,0:0:0:0:
320,192,89636,1,0,0:0:0:0:
448,192,89636,1,0,0:0:0:0:
64,192,89966,128,0,90131:0:0:0:0:
448,192,89966,128,0,90048:0:0:0:0:
192,192,89966,128,0,90296:0:0:0:0:
320,192,90131,128,0,90213:0:0:0:0:
448,192,90131,128,0,90213:0:0:0:0:
320,192,90296,128,0,90378:0:0:0:0:
448,192,90296,128,0,90460:0:0:0:0:
64,192,90296,128,0,90460:0:0:0:0:
320,192,90460,128,0,90543:0:0:0:0:
192,192,90460,128,0,90543:0:0:0:0:
64,192,90625,128,0,90708:0:0:0:0:
448,192,90625,128,0,90790:0:0:0:0:
320,192,90625,128,0,90955:0:0:0:0:
192,192,90790,128,0,90872:0:0:0:0:
64,192,90790,128,0,90872:0:0:0:0:
64,192,90955,128,0,91120:0:0:0:0:
448,192,90955,128,0,91120:0:0:0:0:
192,192,90955,128,0,91037:0:0:0:0:
192,192,91120,128,0,91202:0:0:0:0:
320,192,91120,128,0,91202:0:0:0:0:
320,192,91285,128,0,91449:0:0:0:0:
192,192,91285,128,0,91367:0:0:0:0:
448,192,91285,128,0,91614:0:0:0:0:
192,192,91449,128,0,91532:0:0:0:0:
64,192,91449,128,0,91532:0:0:0:0:
64,192,91614,128,0,91779:0:0:0:0:
192,192,91614,128,0,91779:0:0:0:0:
320,192,91614,128,0,91697:0:0:0:0:
320,192,91779,128,0,91861:0:0:0:0:
448,192,91779,128,0,91861:0:0:0:0:
192,192,91944,128,0,92109:0:0:0:0:
320,192,91944,128,0,92026:0:0:0:0:
64,192,91944,128,0,92274:0:0:0:0:
320,192,92109,128,0,92191:0:0:0:0:
448,192,92109,128,0,92191:0:0:0:0:
448,192,92274,128,0,92438:0:0:0:0:
320,192,92274,128,0,92438:0:0:0:0:
192,192,92274,128,0,92356:0:0:0:0:
192,192,92438,128,0,92521:0:0:0:0:
64,192,92438,128,0,92521:0:0:0:0:
448,192,92603,128,0,92768:0:0:0:0:
192,192,92603,128,0,92686:0:0:0:0:
320,192,92603,128,0,92933:0:0:0:0:
192,192,92768,128,0,92850:0:0:0:0:
64,192,92768,128,0,92850:0:0:0:0:
64,192,92933,128,0,93098:0:0:0:0:
448,192,92933,128,0,93098:0:0:0:0:
192,192,92933,128,0,93015:0:0:0:0:
192,192,93098,128,0,93180:0:0:0:0:
320,192,93098,128,0,93180:0:0:0:0:
192,192,93263,128,0,93592:0:0:0:0:
448,192,93263,128,0,93345:0:0:0:0:
64,192,93263,128,0,93427:0:0:0:0:
320,192,93427,128,0,93510:0:0:0:0:
448,192,93427,128,0,93510:0:0:0:0:
64,192,93592,128,0,93757:0:0:0:0:
448,192,93592,128,0,93757:0:0:0:0:
320,192,93592,128,0,93675:0:0:0:0:
320,192,93757,128,0,93839:0:0:0:0:
192,192,93757,128,0,93839:0:0:0:0:
320,192,93922,128,0,94252:0:0:0:0:
448,192,93922,128,0,94087:0:0:0:0:
64,192,93922,128,0,94004:0:0:0:0:
192,192,94087,128,0,94169:0:0:0:0:
64,192,94087,128,0,94169:0:0:0:0:
192,192,94252,128,0,94334:0:0:0:0:
448,192,94252,128,0,94416:0:0:0:0:
64,192,94252,128,0,94416:0:0:0:0:
320,192,94416,128,0,94499:0:0:0:0:
192,192,94416,128,0,94499:0:0:0:0:
448,192,94581,128,0,94911:0:0:0:0:
192,192,94581,128,0,94664:0:0:0:0:
320,192,94581,128,0,94746:0:0:0:0:
192,192,94746,128,0,94828:0:0:0:0:
64,192,94746,128,0,94828:0:0:0:0:
320,192,94911,128,0,94993:0:0:0:0:
192,192,94911,128,0,95076:0:0:0:0:
64,192,94911,128,0,95076:0:0:0:0:
320,192,95076,128,0,95158:0:0:0:0:
448,192,95076,128,0,95158:0:0:0:0:
64,192,95241,128,0,95570:0:0:0:0:
320,192,95241,128,0,95323:0:0:0:0:
192,192,95241,128,0,95405:0:0:0:0:
448,192,95405,128,0,95488:0:0:0:0:
320,192,95405,128,0,95488:0:0:0:0:
192,192,95570,128,0,95653:0:0:0:0:
320,192,95570,128,0,95735:0:0:0:0:
448,192,95570,128,0,95735:0:0:0:0:
192,192,95735,128,0,95818:0:0:0:0:
64,192,95735,128,0,95818:0:0:0:0:
320,192,95900,128,0,96230:0:0:0:0:
192,192,95900,128,0,95982:0:0:0:0:
448,192,95900,128,0,96065:0:0:0:0:
192,192,96065,128,0,96147:0:0:0:0:
64,192,96065,128,0,96147:0:0:0:0:
192,192,96230,128,0,96312:0:0:0:0:
448,192,96230,128,0,96394:0:0:0:0:
64,192,96230,128,0,96394:0:0:0:0:
192,192,96394,128,0,96477:0:0:0:0:
320,192,96394,128,0,96477:0:0:0:0:
448,192,96559,128,0,96724:0:0:0:0:
64,192,96559,128,0,96642:0:0:0:0:
320,192,96559,128,0,96889:0:0:0:0:
192,192,96724,128,0,96807:0:0:0:0:
64,192,96724,128,0,96807:0:0:0:0:
192,192,96889,128,0,96971:0:0:0:0:
64,192,96889,128,0,97054:0:0:0:0:
448,192,96889,128,0,97054:0:0:0:0:
320,192,97054,128,0,97136:0:0:0:0:
192,192,97054,128,0,97136:0:0:0:0:
448,192,97219,128,0,97301:0:0:0:0:
64,192,97219,128,0,97383:0:0:0:0:
192,192,97219,128,0,97548:0:0:0:0:
320,192,97383,128,0,97466:0:0:0:0:
448,192,97383,128,0,97466:0:0:0:0:
448,192,97548,128,0,97713:0:0:0:0:
64,192,97548,128,0,97713:0:0:0:0:
320,192,97548,128,0,97631:0:0:0:0:
320,192,97713,128,0,97796:0:0:0:0:
192,192,97713,128,0,97796:0:0:0:0:
192,192,97878,128,0,98043:0:0:0:0:
320,192,97878,128,0,97960:0:0:0:0:
64,192,97878,128,0,98208:0:0:0:0:
320,192,98043,128,0,98125:0:0:0:0:
448,192,98043,128,0,98125:0:0:0:0:
448,192,98208,128,0,98372:0:0:0:0:
320,192,98208,128,0,98372:0:0:0:0:
192,192,98208,128,0,98290:0:0:0:0:
64,192,98372,128,0,98455:0:0:0:0:
192,192,98372,128,0,98455:0:0:0:0:
320,192,98537,128,0,98702:0:0:0:0:
192,192,98537,128,0,98620:0:0:0:0:
448,192,98537,128,0,98867:0:0:0:0:
192,192,98702,128,0,98785:0:0:0:0:
64,192,98702,128,0,98785:0:0:0:0:
64,192,98867,128,0,99032:0:0:0:0:
192,192,98867,128,0,99032:0:0:0:0:
320,192,98867,128,0,98949:0:0:0:0:
448,192,99032,128,0,99114:0:0:0:0:
320,192,99032,128,0,99114:0:0:0:0:
64,192,99197,128,0,99361:0:0:0:0:
320,192,99197,128,0,99279:0:0:0:0:
192,192,99197,128,0,99526:0:0:0:0:
320,192,99361,128,0,99444:0:0:0:0:
448,192,99361,128,0,99444:0:0:0:0:
448,192,99526,128,0,99691:0:0:0:0:
64,192,99526,128,0,99691:0:0:0:0:
320,192,99526,128,0,99609:0:0:0:0:
320,192,99691,128,0,99774:0:0:0:0:
192,192,99691,128,0,99774:0:0:0:0:
448,192,99856,128,0,100021:0:0:0:0:
64,192,99856,128,0,99938:0:0:0:0:
320,192,99856,128,0,100186:0:0:0:0:
192,192,100021,128,0,100103:0:0:0:0:
64,192,100021,128,0,100103:0:0:0:0:
192,192,100186,128,0,100268:0:0:0:0:
64,192,100186,128,0,100350:0:0:0:0:
448,192,100186,128,0,100350:0:0:0:0:
192,192,100350,128,0,100433:0:0:0:0:
320,192,100350,128,0,100433:0:0:0:0:
192,192,100515,128,0,100598:0:0:0:0:
64,192,100515,128,0,100927:0:0:0:0:
320,192,100515,128,0,100598:0:0:0:0:
448,192,100515,128,0,100598:0:0:0:0:
192,192,100680,128,0,100763:0:0:0:0:
320,192,100680,128,0,100763:0:0:0:0:
448,192,100680,128,0,100763:0:0:0:0:
320,192,100845,128,0,100927:0:0:0:0:
192,192,100845,128,0,100927:0:0:0:0:
448,192,100845,128,0,101257:0:0:0:0:
64,192,101010,128,0,101092:0:0:0:0:
192,192,101010,128,0,101092:0:0:0:0:
320,192,101010,128,0,101092:0:0:0:0:
320,192,101175,128,0,101257:0:0:0:0:
192,192,101175,128,0,101257:0:0:0:0:
64,192,101175,128,0,101587:0:0:0:0:
448,192,101339,128,0,101422:0:0:0:0:
192,192,101339,128,0,101422:0:0:0:0:
320,192,101339,128,0,101422:0:0:0:0:
192,192,101504,128,0,101587:0:0:0:0:
320,192,101504,128,0,101587:0:0:0:0:
448,192,101504,128,0,101916:0:0:0:0:
320,192,101669,128,0,101752:0:0:0:0:
192,192,101669,128,0,101752:0:0:0:0:
64,192,101669,128,0,101752:0:0:0:0:
64,192,101834,128,0,101916:0:0:0:0:
192,192,101834,128,0,102246:0:0:0:0:
320,192,101834,128,0,101916:0:0:0:0:
64,192,101999,128,0,102081:0:0:0:0:
448,192,101999,128,0,102081:0:0:0:0:
320,192,101999,128,0,102081:0:0:0:0:
64,192,102164,128,0,102246:0:0:0:0:
320,192,102164,128,0,102576:0:0:0:0:
448,192,102164,128,0,102246:0:0:0:0:
448,192,102328,128,0,102411:0:0:0:0:
192,192,102328,128,0,102411:0:0:0:0:
64,192,102328,128,0,102411:0:0:0:0:
448,192,102493,128,0,102576:0:0:0:0:
192,192,102493,128,0,102905:0:0:0:0:
64,192,102493,128,0,102576:0:0:0:0:
64,192,102658,128,0,102741:0:0:0:0:
320,192,102658,128,0,102741:0:0:0:0:
448,192,102658,128,0,102741:0:0:0:0:
448,192,102823,128,0,102905:0:0:0:0:
320,192,102823,128,0,103235:0:0:0:0:
64,192,102823,128,0,102905:0:0:0:0:
448,192,102988,128,0,103070:0:0:0:0:
192,192,102988,128,0,103070:0:0:0:0:
64,192,102988,128,0,103070:0:0:0:0:
448,192,103153,128,0,103235:0:0:0:0:
192,192,103153,128,0,103235:0:0:0:0:
64,192,103153,128,0,103565:0:0:0:0:
192,192,103318,128,0,103400:0:0:0:0:
320,192,103318,128,0,103400:0:0:0:0:
448,192,103318,128,0,103400:0:0:0:0:
320,192,103482,128,0,103565:0:0:0:0:
192,192,103482,128,0,103565:0:0:0:0:
448,192,103482,128,0,103894:0:0:0:0:
64,192,103647,128,0,103730:0:0:0:0:
192,192,103647,128,0,103730:0:0:0:0:
320,192,103647,128,0,103730:0:0:0:0:
320,192,103812,128,0,103894:0:0:0:0:
192,192,103812,128,0,103894:0:0:0:0:
64,192,103812,128,0,104224:0:0:0:0:
448,192,103977,128,0,104059:0:0:0:0:
192,192,103977,128,0,104059:0:0:0:0:
320,192,103977,128,0,104059:0:0:0:0:
192,192,104142,128,0,104224:0:0:0:0:
320,192,104142,128,0,104224:0:0:0:0:
448,192,104142,128,0,104554:0:0:0:0:
320,192,104307,128,0,104389:0:0:0:0:
192,192,104307,128,0,104389:0:0:0:0:
64,192,104307,128,0,104389:0:0:0:0:
64,192,104471,128,0,104554:0:0:0:0:
192,192,104471,128,0,104883:0:0:0:0:
320,192,104471,128,0,104554:0:0:0:0:
64,192,104636,128,0,104719:0:0:0:0:
448,192,104636,128,0,104719:0:0:0:0:
320,192,104636,128,0,104719:0:0:0:0:
64,192,104801,128,0,104883:0:0:0:0:
320,192,104801,128,0,105213:0:0:0:0:
448,192,104801,128,0,104883:0:0:0:0:
448,192,104966,128,0,105048:0:0:0:0:
192,192,104966,128,0,105048:0:0:0:0:
64,192,104966,128,0,105048:0:0:0:0:
448,192,105131,128,0,105213:0:0:0:0:
192,192,105131,128,0,105543:0:0:0:0:
64,192,105131,128,0,105213:0:0:0:0:
64,192,105296,128,0,105378:0:0:0:0:
320,192,105296,128,0,105378:0:0:0:0:
448,192,105296,128,0,105378:0:0:0:0:
448,192,105460,128,0,105543:0:0:0:0:
320,192,105460,128,0,105872:0:0:0:0:
64,192,105460,128,0,105543:0:0:0:0:
448,192,105625,128,0,105708:0:0:0:0:
192,192,105625,128,0,105708:0:0:0:0:
64,192,105625,128,0,105708:0:0:0:0:
448,192,105790,128,0,105872:0:0:0:0:
192,192,105790,1,0,0:0:0:0:
64,192,105790,1,0,0:0:0:0:
64,192,105872,1,0,0:0:0:0:
192,192,105872,1,0,0:0:0:0:
320,192,105955,1,0,0:0:0:0:
448,192,105955,1,0,0:0:0:0:
448,192,106037,1,0,0:0:0:0:
320,192,106037,1,0,0:0:0:0:
192,192,106120,1,0,0:0:0:0:
64,192,106120,1,0,0:0:0:0:
192,192,106202,1,0,0:0:0:0:
64,192,106202,1,0,0:0:0:0:
320,192,106285,1,0,0:0:0:0:
448,192,106285,1,0,0:0:0:0:
448,192,106367,1,0,0:0:0:0:
320,192,106367,1,0,0:0:0:0:
64,192,106449,1,0,0:0:0:0:
192,192,106449,1,0,0:0:0:0:
320,192,106532,1,0,0:0:0:0:
448,192,106614,1,0,0:0:0:0:
192,192,106614,1,0,0:0:0:0:
64,192,106697,1,0,0:0:0:0:
320,192,106779,1,0,0:0:0:0:
448,192,106779,1,0,0:0:0:0:
192,192,106861,1,0,0:0:0:0:
320,192,106944,1,0,0:0:0:0:
64,192,106944,1,0,0:0:0:0:
448,192,107026,1,0,0:0:0:0:
320,192,107109,1,0,0:0:0:0:
64,192,107109,1,0,0:0:0:0:
192,192,107191,1,0,0:0:0:0:
320,192,107274,1,0,0:0:0:0:
448,192,107274,1,0,0:0:0:0:
64,192,107356,1,0,0:0:0:0:
192,192,107438,1,0,0:0:0:0:
448,192,107438,1,0,0:0:0:0:
320,192,107521,1,0,0:0:0:0:
192,192,107603,1,0,0:0:0:0:
64,192,107603,1,0,0:0:0:0:
448,192,107686,1,0,0:0:0:0:
320,192,107768,1,0,0:0:0:0:
192,192,107768,1,0,0:0:0:0:
64,192,107850,1,0,0:0:0:0:
320,192,107933,1,0,0:0:0:0:
448,192,107933,1,0,0:0:0:0:
192,192,108015,1,0,0:0:0:0:
448,192,108098,1,0,0:0:0:0:
320,192,108098,1,0,0:0:0:0:
64,192,108180,1,0,0:0:0:0:
192,192,108263,1,0,0:0:0:0:
320,192,108263,1,0,0:0:0:0:
448,192,108345,1,0,0:0:0:0:
64,192,108427,1,0,0:0:0:0:
192,192,108427,128,0,108757:0:0:0:0:
320,192,108510,1,0,0:0:0:0:
448,192,108592,1,0,0:0:0:0:
64,192,108675,1,0,0:0:0:0:
320,192,108757,128,0,109087:0:0:0:0:
448,192,108757,1,0,0:0:0:0:
192,192,108839,1,0,0:0:0:0:
64,192,108922,1,0,0:0:0:0:
448,192,109004,1,0,0:0:0:0:
192,192,109087,128,0,109416:0:0:0:0:
64,192,109087,1,0,0:0:0:0:
320,192,109169,1,0,0:0:0:0:
448,192,109252,1,0,0:0:0:0:
64,192,109334,1,0,0:0:0:0:
320,192,109416,128,0,109746:0:0:0:0:
448,192,109416,1,0,0:0:0:0:
64,192,109499,1,0,0:0:0:0:
192,192,109581,1,0,0:0:0:0:
448,192,109664,1,0,0:0:0:0:
64,192,109746,128,0,110076:0:0:0:0:
192,192,109746,1,0,0:0:0:0:
448,192,109828,1,0,0:0:0:0:
320,192,109911,1,0,0:0:0:0:
192,192,109993,1,0,0:0:0:0:
448,192,110076,128,0,110405:0:0:0:0:
320,192,110076,1,0,0:0:0:0:
64,192,110158,1,0,0:0:0:0:
192,192,110241,1,0,0:0:0:0:
320,192,110323,1,0,0:0:0:0:
64,192,110405,128,0,110735:0:0:0:0:
192,192,110405,1,0,0:0:0:0:
448,192,110488,1,0,0:0:0:0:
320,192,110570,1,0,0:0:0:0:
192,192,110653,1,0,0:0:0:0:
320,192,110735,1,0,0:0:0:0:
448,192,110776,1,0,0:0:0:0:
192,192,110818,1,0,0:0:0:0:
64,192,110859,1,0,0:0:0:0:
320,192,110900,1,0,0:0:0:0:
448,192,110941,1,0,0:0:0:0:
192,192,110982,1,0,0:0:0:0:
64,192,111024,1,0,0:0:0:0:
448,192,111065,1,0,0:0:0:0:
320,192,111119,1,0,0:0:0:0:
192,192,111174,1,0,0:0:0:0:
64,192,111229,1,0,0:0:0:0:
320,192,111284,1,0,0:0:0:0:
448,192,111339,1,0,0:0:0:0:
192,192,111394,1,0,0:0:0:0:
320,192,111449,1,0,0:0:0:0:
64,192,111504,1,0,0:0:0:0:
320,192,111559,1,0,0:0:0:0:
64,192,111614,1,0,0:0:0:0:
192,192,111669,1,0,0:0:0:0:
64,192,111724,1,0,0:0:0:0:
448,192,111779,1,0,0:0:0:0:
320,192,111834,1,0,0:0:0:0:
192,192,111889,1,0,0:0:0:0:
448,192,111944,1,0,0:0:0:0:
64,192,111999,1,0,0:0:0:0:
448,192,112054,1,0,0:0:0:0:
320,192,112108,1,0,0:0:0:0:
192,192,112163,1,0,0:0:0:0:
64,192,112218,1,0,0:0:0:0:
320,192,112273,1,0,0:0:0:0:
192,192,112328,1,0,0:0:0:0:
448,192,112383,1,0,0:0:0:0:
320,192,112438,1,0,0:0:0:0:
192,192,112493,1,0,0:0:0:0:
64,192,112548,1,0,0:0:0:0:
320,192,112603,1,0,0:0:0:0:
192,192,112658,1,0,0:0:0:0:
448,192,112713,1,0,0:0:0:0:
320,192,112768,1,0,0:0:0:0:
192,192,112823,1,0,0:0:0:0:
64,192,112878,1,0,0:0:0:0:
320,192,112933,1,0,0:0:0:0:
192,192,112988,1,0,0:0:0:0:
448,192,113043,1,0,0:0:0:0:
320,192,113097,1,0,0:0:0:0:
192,192,113152,1,0,0:0:0:0:
64,192,113207,1,0,0:0:0:0:
320,192,113262,1,0,0:0:0:0:
64,192,113317,1,0,0:0:0:0:
192,192,113372,1,0,0:0:0:0:
320,192,113427,1,0,0:0:0:0:
448,192,113482,1,0,0:0:0:0:
192,192,113537,1,0,0:0:0:0:
448,192,113592,1,0,0:0:0:0:
320,192,113647,1,0,0:0:0:0:
192,192,113702,1,0,0:0:0:0:
64,192,113757,1,0,0:0:0:0:
320,192,113812,1,0,0:0:0:0:
64,192,113867,1,0,0:0:0:0:
192,192,113922,1,0,0:0:0:0:
320,192,113977,1,0,0:0:0:0:
64,192,114032,1,0,0:0:0:0:
192,192,114086,1,0,0:0:0:0:
320,192,114141,1,0,0:0:0:0:
448,192,114196,1,0,0:0:0:0:
64,192,114251,1,0,0:0:0:0:
192,192,114306,1,0,0:0:0:0:
448,192,114361,1,0,0:0:0:0:
320,192,114416,1,0,0:0:0:0:
192,192,114471,1,0,0:0:0:0:
64,192,114526,1,0,0:0:0:0:
448,192,114581,1,0,0:0:0:0:
192,192,114636,1,0,0:0:0:0:
320,192,114691,1,0,0:0:0:0:
64,192,114746,1,0,0:0:0:0:
448,192,114801,1,0,0:0:0:0:
320,192,114856,1,0,0:0:0:0:
448,192,114911,1,0,0:0:0:0:
64,192,114966,1,0,0:0:0:0:
448,192,115021,1,0,0:0:0:0:
320,192,115062,1,0,0:0:0:0:
192,192,115103,1,0,0:0:0:0:
448,192,115144,1,0,0:0:0:0:
64,192,115185,1,0,0:0:0:0:
192,192,115227,1,0,0:0:0:0:
320,192,115268,1,0,0:0:0:0:
64,192,115309,1,0,0:0:0:0:
448,192,115350,1,0,0:0:0:0:
320,192,115391,1,0,0:0:0:0:
192,192,115433,1,0,0:0:0:0:
448,192,115474,1,0,0:0:0:0:
64,192,115515,1,0,0:0:0:0:
192,192,115556,1,0,0:0:0:0:
320,192,115597,1,0,0:0:0:0:
64,192,115639,1,0,0:0:0:0:
448,192,115680,1,0,0:0:0:0:
192,192,115735,1,0,0:0:0:0:
64,192,115790,1,0,0:0:0:0:
448,192,115845,1,0,0:0:0:0:
320,192,115900,1,0,0:0:0:0:
192,192,115955,1,0,0:0:0:0:
64,192,116010,1,0,0:0:0:0:
448,192,116065,1,0,0:0:0:0:
320,192,116119,1,0,0:0:0:0:
192,192,116174,1,0,0:0:0:0:
448,192,116229,1,0,0:0:0:0:
320,192,116284,1,0,0:0:0:0:
192,192,116339,1,0,0:0:0:0:
64,192,116394,1,0,0:0:0:0:
448,192,116449,1,0,0:0:0:0:
320,192,116504,1,0,0:0:0:0:
192,192,116559,1,0,0:0:0:0:
448,192,116614,1,0,0:0:0:0:
64,192,116669,1,0,0:0:0:0:
192,192,116724,1,0,0:0:0:0:
320,192,116779,1,0,0:0:0:0:
64,192,116834,1,0,0:0:0:0:
448,192,116889,1,0,0:0:0:0:
320,192,116944,1,0,0:0:0:0:
64,192,116999,1,0,0:0:0:0:
448,192,117054,1,0,0:0:0:0:
192,192,117108,1,0,0:0:0:0:
320,192,117163,1,0,0:0:0:0:
64,192,117218,1,0,0:0:0:0:
448,192,117273,1,0,0:0:0:0:
192,192,117328,1,0,0:0:0:0:
320,192,117383,1,0,0:0:0:0:
64,192,117438,1,0,0:0:0:0:
448,192,117493,1,0,0:0:0:0:
192,192,117548,1,0,0:0:0:0:
320,192,117603,1,0,0:0:0:0:
64,192,117658,1,0,0:0:0:0:
448,192,117713,1,0,0:0:0:0:
192,192,117768,1,0,0:0:0:0:
320,192,117823,1,0,0:0:0:0:
448,192,117878,1,0,0:0:0:0:
64,192,117933,1,0,0:0:0:0:
320,192,117988,1,0,0:0:0:0:
192,192,118043,1,0,0:0:0:0:
448,192,118097,1,0,0:0:0:0:
64,192,118152,1,0,0:0:0:0:
320,192,118207,1,0,0:0:0:0:
192,192,118262,1,0,0:0:0:0:
448,192,118317,1,0,0:0:0:0:
64,192,118372,1,0,0:0:0:0:
320,192,118427,1,0,0:0:0:0:
192,192,118482,128,0,118592:0:0:0:0:
64,192,118537,128,0,118647:0:0:0:0:
448,192,118592,128,0,118702:0:0:0:0:
192,192,118647,128,0,118757:0:0:0:0:
320,192,118702,128,0,118812:0:0:0:0:
448,192,118757,128,0,118867:0:0:0:0:
192,192,118812,128,0,118922:0:0:0:0:
64,192,118867,128,0,118977:0:0:0:0:
448,192,118922,128,0,119032:0:0:0:0:
320,192,118977,1,0,0:0:0:0:
192,192,118977,1,0,0:0:0:0:
64,192,119032,1,0,0:0:0:0:
320,192,119086,1,0,0:0:0:0:
192,192,119141,1,0,0:0:0:0:
64,192,119196,1,0,0:0:0:0:
448,192,119251,1,0,0:0:0:0:
192,192,119306,1,0,0:0:0:0:
320,192,119361,1,0,0:0:0:0:
448,192,119416,1,0,0:0:0:0:
192,192,119471,1,0,0:0:0:0:
320,192,119526,1,0,0:0:0:0:
192,192,119581,1,0,0:0:0:0:
448,192,119636,1,0,0:0:0:0:
320,192,119691,1,0,0:0:0:0:
64,192,119746,1,0,0:0:0:0:
192,192,119801,1,0,0:0:0:0:
448,192,119856,1,0,0:0:0:0:
192,192,119966,1,0,0:0:0:0:
320,192,120021,1,0,0:0:0:0:
448,192,120075,1,0,0:0:0:0:
64,192,120130,1,0,0:0:0:0:
192,192,120185,1,0,0:0:0:0:
320,192,120240,1,0,0:0:0:0:
64,192,120295,1,0,0:0:0:0:
192,192,120350,1,0,0:0:0:0:
320,192,120405,1,0,0:0:0:0:
64,192,120460,1,0,0:0:0:0:
192,192,120515,1,0,0:0:0:0:
448,192,120570,1,0,0:0:0:0:
64,192,120625,1,0,0:0:0:0:
320,192,120680,1,0,0:0:0:0:
192,192,120735,1,0,0:0:0:0:
448,192,120790,1,0,0:0:0:0:
64,192,120845,1,0,0:0:0:0:
320,192,120900,1,0,0:0:0:0:
192,192,120955,1,0,0:0:0:0:
64,192,121010,1,0,0:0:0:0:
320,192,121065,1,0,0:0:0:0:
192,192,121119,1,0,0:0:0:0:
448,192,121174,1,0,0:0:0:0:
320,192,121229,1,0,0:0:0:0:
64,192,121284,1,0,0:0:0:0:
192,192,121339,1,0,0:0:0:0:
320,192,121394,1,0,0:0:0:0:
448,192,121449,1,0,0:0:0:0:
192,192,121504,1,0,0:0:0:0:
320,192,121559,1,0,0:0:0:0:
64,192,121614,1,0,0:0:0:0:
192,192,121669,1,0,0:0:0:0:
448,192,121724,1,0,0:0:0:0:
320,192,121779,1,0,0:0:0:0:
192,192,121834,1,0,0:0:0:0:
64,192,121889,1,0,0:0:0:0:
320,192,121944,1,0,0:0:0:0:
448,192,121999,1,0,0:0:0:0:
192,192,122054,1,0,0:0:0:0:
320,192,122108,1,0,0:0:0:0:
64,192,122163,1,0,0:0:0:0:
320,192,122218,1,0,0:0:0:0:
192,192,122273,1,0,0:0:0:0:
64,192,122328,1,0,0:0:0:0:
320,192,122383,1,0,0:0:0:0:
192,192,122438,1,0,0:0:0:0:
64,192,122493,1,0,0:0:0:0:
448,192,122548,1,0,0:0:0:0:
192,192,122603,1,0,0:0:0:0:
320,192,122658,1,0,0:0:0:0:
448,192,122713,1,0,0:0:0:0:
192,192,122768,1,0,0:0:0:0:
320,192,122823,1,0,0:0:0:0:
448,192,122878,1,0,0:0:0:0:
64,192,122933,1,0,0:0:0:0:
192,192,122988,1,0,0:0:0:0:
320,192,123043,1,0,0:0:0:0:
64,192,123097,1,0,0:0:0:0:
192,192,123152,1,0,0:0:0:0:
320,192,123207,1,0,0:0:0:0:
64,192,123262,1,0,0:0:0:0:
192,192,123317,1,0,0:0:0:0:
448,192,123372,1,0,0:0:0:0:
320,192,123427,1,0,0:0:0:0:
64,192,123482,1,0,0:0:0:0:
192,192,123537,1,0,0:0:0:0:
448,192,123592,1,0,0:0:0:0:
64,192,123647,1,0,0:0:0:0:
192,192,123702,1,0,0:0:0:0:
448,192,123757,1,0,0:0:0:0:
320,192,123812,1,0,0:0:0:0:
64,192,123867,1,0,0:0:0:0:
448,192,123922,1,0,0:0:0:0:
320,192,123977,1,0,0:0:0:0:
64,192,124032,1,0,0:0:0:0:
192,192,124086,1,0,0:0:0:0:
320,192,124141,1,0,0:0:0:0:
64,192,124196,1,0,0:0:0:0:
192,192,124251,1,0,0:0:0:0:
64,192,124306,1,0,0:0:0:0:
448,192,124361,1,0,0:0:0:0:
320,192,124416,1,0,0:0:0:0:
192,192,124471,1,0,0:0:0:0:
448,192,124526,1,0,0:0:0:0:
320,192,124581,1,0,0:0:0:0:
448,192,124636,1,0,0:0:0:0:
64,192,124691,1,0,0:0:0:0:
192,192,124746,1,0,0:0:0:0:
320,192,124801,1,0,0:0:0:0:
448,192,124856,1,0,0:0:0:0:
64,192,124911,1,0,0:0:0:0:
192,192,124966,1,0,0:0:0:0:
320,192,125021,1,0,0:0:0:0:
64,192,125075,1,0,0:0:0:0:
320,192,125130,1,0,0:0:0:0:
448,192,125185,1,0,0:0:0:0:
64,192,125240,1,0,0:0:0:0:
192,192,125295,1,0,0:0:0:0:
320,192,125350,1,0,0:0:0:0:
64,192,125405,1,0,0:0:0:0:
320,192,125460,1,0,0:0:0:0:
448,192,125515,1,0,0:0:0:0:
64,192,125570,1,0,0:0:0:0:
192,192,125625,1,0,0:0:0:0:
320,192,125680,1,0,0:0:0:0:
64,192,125735,1,0,0:0:0:0:
320,192,125790,1,0,0:0:0:0:
448,192,125845,1,0,0:0:0:0:
64,192,125900,1,0,0:0:0:0:
192,192,125955,1,0,0:0:0:0:
320,192,126010,1,0,0:0:0:0:
64,192,126065,1,0,0:0:0:0:
320,192,126119,1,0,0:0:0:0:
448,192,126174,1,0,0:0:0:0:
192,192,126229,1,0,0:0:0:0:
64,192,126284,1,0,0:0:0:0:
320,192,126339,1,0,0:0:0:0:
192,192,126394,1,0,0:0:0:0:
64,192,126449,1,0,0:0:0:0:
320,192,126504,1,0,0:0:0:0:
192,192,126559,1,0,0:0:0:0:
448,192,126614,1,0,0:0:0:0:
64,192,126669,1,0,0:0:0:0:
320,192,126724,1,0,0:0:0:0:
192,192,126779,1,0,0:0:0:0:
448,192,126834,1,0,0:0:0:0:
320,192,126894,1,0,0:0:0:0:
64,192,126897,1,0,0:0:0:0:
192,192,126909,1,0,0:0:0:0:
