osu file format v14

[General]
AudioFilename: audio.mp3
AudioLeadIn: 0
PreviewTime: 94143
Countdown: 1
SampleSet: Normal
StackLeniency: 0.7
Mode: 0
LetterboxInBreaks: 0
WidescreenStoryboard: 1

[Editor]
Bookmarks: 14721,176126,201833,217480,262221,294032
DistanceSpacing: 0.5
BeatDivisor: 4
GridSize: 32
TimelineZoom: 2.2

[Metadata]
Title:Illusionika
TitleUnicode:Illusionika
Artist:ELECTROCUTICA feat. yanaginagi
ArtistUnicode:ELECTROCUTICA feat. yanaginagi
Creator:byfar
Version:Light Extra
Source:
Tags:japanese electronic reversus treow downtempo edm dance music trip-hop やなぎなぎ トレオゥ
BeatmapID:3327538
BeatmapSetID:1145494

[Difficulty]
HPDrainRate:5
CircleSize:4
OverallDifficulty:8
ApproachRate:9
SliderMultiplier:1.09999990463257
SliderTickRate:1

[Events]
//Background and Video events
0,0,"bg_mugon.jpg",0,0
//Break Periods
2,43935,59453
2,77039,93332
2,114280,115056
2,116091,116866
2,117901,118677
2,159797,164711
2,168073,175056
//Storyboard Layer 0 (Background)
//Storyboard Layer 1 (Fail)
//Storyboard Layer 2 (Pass)
//Storyboard Layer 3 (Foreground)
//Storyboard Layer 4 (Overlay)
//Storyboard Sound Samples

[TimingPoints]
229,517.241379310345,4,1,1,10,1,0
229,-200,4,1,1,10,0,0
14711,-200,4,1,1,30,0,0
28418,-160,4,1,1,30,0,0
28677,-133.333333333333,4,1,1,30,0,0
28935,-113.636363636364,4,1,1,30,0,0
29194,-100,4,1,1,50,0,0
31004,-66.6666666666667,4,1,1,50,0,0
32297,-66.6666666666667,4,1,1,50,0,0
32815,-100,4,1,1,50,0,0
34625,-66.6666666666667,4,1,1,50,0,0
70573,-50,4,1,1,50,0,0
71608,-66.6666666666667,4,1,1,50,0,0
94108,-100,4,1,1,20,0,0
94366,-100,4,1,1,20,0,0
94496,-100,4,1,1,5,0,0
94625,-100,4,1,1,30,0,0
94754,-100,4,1,1,5,0,0
94884,-100,4,1,1,40,0,0
95013,-100,4,1,1,5,0,0
95142,-100,4,1,1,50,0,0
95272,-100,4,1,1,5,0,0
95401,-66.6666666666667,4,1,1,50,0,1
109884,-100,4,1,1,50,0,0
115832,-100,4,1,1,30,0,0
121263,-100,4,1,1,50,0,0
153332,-66.6666666666667,4,1,1,50,0,0
154108,-100,4,1,1,50,0,0
165487,-400,4,1,1,50,0,0
176091,-100,4,1,1,50,0,0
200918,-100,4,1,1,30,0,0
217470,-80,4,1,1,50,0,0
236091,-400,4,1,1,25,0,0
238160,-400,4,1,1,5,0,0
238935,-400,4,1,1,20,0,0
240229,-400,4,1,1,40,0,0
240293,-400,4,1,1,20,0,0
242297,-400,4,1,1,30,0,0
242362,-400,4,1,1,20,0,0
244366,-400,4,1,1,20,0,0
256910,-100,4,1,1,50,0,0
258849,-66.6666666666667,4,1,1,50,0,1
274884,-100,4,1,1,50,0,0
277470,-66.6666666666667,4,1,1,50,0,0

[Colours]
Combo1 : 166,124,241
Combo2 : 69,9,193

[HitObjects]
256,192,229,12,0,1780,0:0:0:0:
256,192,2039,12,0,3590,0:0:0:0:
256,192,3849,12,0,5400,0:0:0:0:
256,192,5660,12,0,6953,0:0:0:0:
256,192,7470,12,0,9021,0:0:0:0:
256,192,9280,12,0,10831,0:0:0:0:
256,192,11091,12,0,12642,0:0:0:0:
256,192,12901,12,0,14194,0:0:0:0:
98,161,14711,6,0,L|98:175,3,13.7499988079071,0|0|0|0,3:0|0:0|3:0|0:0,0:0:0:0:
156,231,15229,2,0,L|156:247,7,13.7499988079071,0|0|0|0|0|0|0|0,2:2|0:0|0:0|0:0|0:0|0:0|3:0|3:0,0:0:0:0:
214,299,16263,2,0,L|214:312,1,13.7499988079071,0|0,2:0|0:0,0:0:0:0:
194,127,16522,6,0,L|194:140,3,13.7499988079071,0|0|0|0,3:0|0:0|3:0|0:0,0:0:0:0:
252,196,17040,2,0,L|252:212,5,13.7499988079071,0|0|0|0|0|0,2:2|0:0|0:0|0:0|0:0|0:0,0:0:0:0:
310,265,17815,2,0,L|310:278,1,13.7499988079071,0|0,2:0|0:0,0:0:0:0:
368,334,18073,2,0,L|368:347,1,13.7499988079071,0|0,3:0|3:0,0:0:0:0:
278,55,18332,6,0,L|278:68,3,13.7499988079071,0|0|0|0,3:0|0:0|3:0|0:0,0:0:0:0:
336,124,18850,2,0,L|336:140,5,13.7499988079071,0|0|0|0|0|0,2:0|0:0|0:0|0:0|0:0|0:0,0:0:0:0:
394,193,19625,2,0,L|394:209,1,13.7499988079071,0|0,3:0|3:0,0:0:0:0:
452,262,19884,2,0,L|452:278,1,13.7499988079071,0|0,2:0|0:0,0:0:0:0:
219,292,20142,6,0,L|219:279,3,13.7499988079071,0|0|0|0,3:0|0:0|3:0|0:0,0:0:0:0:
277,223,20660,2,0,L|277:210,1,13.7499988079071,0|0,2:0|0:0,0:0:0:0:
335,154,20918,2,0,L|335:141,3,13.7499988079071,0|0|0|0,0:0|0:0|0:0|0:0,0:0:0:0:
393,85,21435,2,0,L|393:72,1,13.7499988079071,0|0,2:0|2:0,0:0:0:0:
451,16,21694,2,0,L|451:3,1,13.7499988079071,0|0,0:0|2:0,0:0:0:0:
393,224,21953,6,0,L|393:210,3,13.7499988079071,0|0|0|0,3:0|0:0|3:0|0:0,0:0:0:0:
335,154,22471,2,0,L|335:138,7,13.7499988079071,0|0|0|0|0|0|0|0,2:0|0:0|0:0|0:0|0:0|0:0|3:0|3:0,0:0:0:0:
277,85,23505,2,0,L|277:69,1,13.7499988079071,0|0,2:0|0:0,0:0:0:0:
297,258,23763,6,0,L|297:245,3,13.7499988079071,0|0|0|0,3:0|0:0|3:0|0:0,0:0:0:0:
239,189,24280,2,0,L|239:173,5,13.7499988079071,0|0|0|0|0|0,2:0|0:0|0:0|0:0|0:0|0:0,0:0:0:0:
181,120,25057,2,0,L|181:104,1,13.7499988079071,0|0,2:0|0:0,0:0:0:0:
123,51,25315,2,0,L|123:35,1,13.7499988079071,0|0,3:0|3:0,0:0:0:0:
213,330,25574,6,0,L|213:317,3,13.7499988079071,0|0|0|0,3:0|0:0|3:0|0:0,0:0:0:0:
155,261,26092,2,0,L|155:245,5,13.7499988079071,0|0|0|0|0|0,2:0|0:0|0:0|0:0|0:0|0:0,0:0:0:0:
97,192,26867,6,0,L|97:176,1,13.7499988079071,0|0,3:0|3:0,0:0:0:0:
39,123,27125,2,0,L|39:107,1,13.7499988079071,0|0,2:0|0:0,0:0:0:0:
256,0,27384,6,0,L|256:13,3,13.7499988079071,0|0|0|0,0:0|0:0|0:0|0:0,0:0:0:0:
322,55,27901,2,0,L|315:67,3,13.7499988079071,0|0|0|0,2:0|0:0|0:0|0:0,0:0:0:0:
355,142,28418,2,0,L|339:151,1,17.1874985098839,0|0,0:0|0:0,0:0:0:0:
339,244,28677,2,0,L|314:246,1,20.624998998642,0|2,2:1|2:0,0:0:0:0:
279,346,28935,2,0,L|256:336,1,24.1999986404419,2|0,3:0|2:1,0:0:0:0:
86,232,29194,6,0,L|60:239,2,27.4999976158142,2|0|0,3:0|0:0|0:0,0:0:0:0:
236,257,29582,1,0,0:0:0:0:
166,215,29711,6,0,L|166:187,2,27.4999976158142,8|0|0,2:3|0:0|0:0,0:0:0:0:
55,362,30099,1,2,0:3:0:0:
55,362,30229,6,0,P|61:373|71:385,1,27.4999976158142,0|0,3:0|3:0,0:0:0:0:
131,294,30487,2,0,P|130:309|133:322,1,27.4999976158142,0|0,3:0|0:0,0:0:0:0:
231,274,30746,2,0,P|223:285|219:298,1,27.4999976158142,8|0,2:3|0:0,0:0:0:0:
488,366,31004,6,0,P|500:349|507:330,1,41.2499979972839,0|0,3:2|0:0,0:0:0:0:
291,160,31263,2,0,P|277:176|269:195,1,41.2499979972839,0|0,3:0|0:0,0:0:0:0:
379,292,31522,6,0,L|382:251,2,41.2499979972839,8|0|0,2:3|0:0|3:0,0:0:0:0:
153,139,31910,6,0,L|150:98,1,41.2499979972839,8|0,2:3|0:0,0:0:0:0:
457,175,32168,1,0,0:0:0:0:
412,56,32297,6,0,P|416:77|414:97,1,41.2499979972839,10|0,3:0|0:0,0:0:0:0:
82,302,32556,2,0,P|80:281|83:261,1,41.2499979972839,0|0,3:0|3:0,0:0:0:0:
289,25,32815,6,0,L|291:53,2,27.4999976158142,0|0|0,3:0|0:0|0:0,0:0:0:0:
310,288,33203,1,0,0:0:0:0:
244,243,33332,6,0,L|246:215,2,27.4999976158142,8|0|0,2:3|0:0|0:0,0:0:0:0:
326,193,33720,1,2,0:3:0:0:
326,193,33849,6,0,L|324:165,1,27.4999976158142,0|0,3:2|0:0,0:0:0:0:
406,179,34108,2,0,L|404:151,1,27.4999976158142,0|0,0:0|0:0,0:0:0:0:
444,82,34366,2,0,L|418:69,1,27.4999976158142,8|0,2:3|0:0,0:0:0:0:
251,112,34625,6,0,L|205:89,1,41.2499979972839,2|0,3:3|0:0,0:0:0:0:
508,248,34884,2,0,L|462:225,1,41.2499979972839,2|0,3:3|0:0,0:0:0:0:
217,264,35142,6,0,L|253:245,2,41.2499979972839,8|0|8,2:3|0:0|3:0,0:0:0:0:
364,300,35530,2,0,L|361:342,1,41.2499979972839,8|0,2:3|0:0,0:3:0:0:
383,3,35789,1,0,0:0:0:0:
397,11,35918,6,0,P|396:32|393:52,1,41.2499979972839,8|8,2:3|2:3,0:3:0:0:
153,170,36177,2,0,P|132:165|112:163,1,41.2499979972839,2|8,3:0|2:3,0:0:0:0:
347,198,36435,6,0,P|366:191|386:189,2,41.2499979972839,0|0|0,3:0|0:0|0:0,0:0:0:0:
512,117,36823,1,0,0:0:0:0:
466,183,36953,2,0,L|462:229,2,41.2499979972839,8|0|0,2:3|0:0|0:0,0:0:0:0:
297,263,37341,1,2,0:3:0:0:
297,263,37470,6,0,L|301:309,1,41.2499979972839,0|0,3:0|3:0,0:0:0:0:
227,340,37729,2,0,L|223:386,1,41.2499979972839,0|0,3:0|0:0,0:0:0:0:
18,122,37987,1,8,2:3:0:0:
0,198,38116,1,0,0:0:0:0:
41,264,38246,6,0,L|88:253,1,41.2499979972839,0|0,3:0|0:0,0:0:0:0:
355,183,38504,2,0,L|402:172,1,41.2499979972839,0|0,3:0|0:0,0:0:0:0:
104,46,38763,6,0,L|63:36,2,41.2499979972839,2|0|0,2:3|0:0|3:0,0:0:0:0:
271,88,39151,2,0,P|277:107|281:127,1,41.2499979972839,2|0,2:3|0:0,0:0:0:0:
318,350,39410,1,0,0:0:0:0:
393,370,39539,1,10,3:0:0:0:
446,314,39668,1,2,1:2:0:0:
371,294,39797,1,0,2:2:0:0:
318,350,39927,1,0,2:2:0:0:
236,336,40056,6,0,P|208:328|193:327,2,41.2499979972839,0|0|0,3:0|0:0|0:0,0:0:0:0:
46,274,40444,1,0,0:0:0:0:
108,322,40574,2,0,L|112:368,2,41.2499979972839,10|0|2,2:3|0:0|0:3,0:0:0:0:
291,236,40962,1,2,0:3:0:0:
291,236,41091,2,0,L|287:282,1,41.2499979972839,0|0,3:0|0:0,0:0:0:0:
50,207,41350,2,0,L|54:253,1,41.2499979972839,0|0,0:0|0:0,0:0:0:0:
243,118,41608,2,0,L|239:164,1,41.2499979972839,8|0,2:3|0:0,0:0:0:0:
2,131,41866,6,0,P|22:129|41:122,1,41.2499979972839,0|0,0:0|0:0,0:0:0:0:
243,29,42125,2,0,P|263:30|283:38,1,41.2499979972839,0|0,3:0|0:0,0:0:0:0:
435,227,42384,2,0,L|482:214,2,41.2499979972839,10|0|0,2:3|0:0|0:0,0:0:0:0:
223,306,42772,2,0,L|227:265,1,41.2499979972839,2|0,2:3|0:0,0:0:0:0:
256,192,43030,12,0,43677,0:0:0:0:
0,192,60229,5,0,3:0:0:0:
132,255,60487,1,0,3:0:0:0:
132,255,60616,1,0,0:0:0:0:
132,255,60746,2,0,P|186:248|227:178,1,123.749993991852,8|0,2:3|1:0,0:0:0:0:
217,116,61263,2,0,L|211:66,1,41.2499979972839,2|0,3:0|0:0,0:0:0:0:
298,68,61522,2,0,L|304:18,1,41.2499979972839,0|0,0:0|0:0,0:0:0:0:
230,236,61780,6,0,L|224:186,1,41.2499979972839,8|0,2:3|0:0,0:0:0:0:
311,188,62039,2,0,L|317:138,1,41.2499979972839,0|0,3:0|3:0,0:0:0:0:
137,36,62297,6,0,P|103:28|41:26,2,82.4999959945678,0|0|8,3:0|3:0|2:3,0:0:0:0:
463,162,63073,1,0,0:0:0:0:
463,162,63203,1,0,0:0:0:0:
463,162,63332,2,0,P|462:185|450:204,1,41.2499979972839,0|0,0:0|0:0,0:0:0:0:
368,173,63591,2,0,P|369:150|381:131,1,41.2499979972839,0|0,0:0|0:0,0:0:0:0:
401,266,63849,6,0,P|378:265|359:253,1,41.2499979972839,10|0,2:3|0:0,0:3:0:0:
429,68,64108,2,0,P|452:69|471:81,1,41.2499979972839,2|2,3:0|3:0,0:3:0:0:
425,355,64366,6,0,P|388:373|347:370,1,82.4999959945678,0|0,3:0|3:0,0:0:0:0:
282,326,64754,1,0,0:0:0:0:
282,326,64884,2,0,L|194:318,1,82.4999959945678,8|0,2:3|0:0,0:0:0:0:
124,341,65272,1,0,0:0:0:0:
124,341,65401,2,0,L|72:347,1,41.2499979972839,0|0,0:0|0:0,0:0:0:0:
41,277,65660,2,0,L|-11:271,1,41.2499979972839,0|0,0:0|0:0,0:0:0:0:
251,237,65918,6,0,L|303:243,1,41.2499979972839,8|0,2:3|0:0,0:0:0:0:
333,173,66177,2,0,L|385:167,1,41.2499979972839,0|0,0:0|0:0,0:0:0:0:
146,226,66435,5,0,3:0:0:0:
211,28,66694,1,0,3:0:0:0:
211,28,66823,1,0,0:0:0:0:
211,28,66953,1,8,2:3:0:0:
12,79,67211,1,0,0:0:0:0:
12,79,67341,1,0,0:0:0:0:
12,79,67470,2,0,L|8:127,1,41.2499979972839,0|0,0:0|0:0,0:0:0:0:
201,113,67729,2,0,L|205:161,1,41.2499979972839,0|0,0:0|0:0,0:0:0:0:
145,215,67987,6,0,P|124:216|104:221,1,41.2499979972839,8|0,2:3|3:0,0:0:0:0:
279,76,68246,2,0,P|299:78|319:83,1,41.2499979972839,0|0,3:0|3:0,0:0:0:0:
420,222,68504,6,0,P|468:232|506:226,2,82.4999959945678,0|0|2,3:0|3:0|2:3,0:0:0:0:
85,317,69410,5,0,0:0:0:0:
85,317,69539,1,0,0:0:0:0:
427,317,69927,5,0,0:0:0:0:
427,317,70056,1,0,0:0:0:0:
256,192,70444,5,0,0:0:0:0:
256,192,70573,2,0,B|278:226|278:226|262:293,2,109.999990463257,0|0|0,3:0|3:0|2:0,0:0:0:0:
57,40,71349,1,0,0:0:0:0:
57,40,71479,1,0,0:0:0:0:
57,40,71608,2,0,L|16:44,1,41.2499979972839,0|0,0:0|0:0,0:0:0:0:
91,118,71866,1,0,0:0:0:0:
91,118,71996,2,0,L|51:122,1,41.2499979972839,0|8,0:0|2:3,0:0:0:0:
239,62,72254,1,0,0:0:0:0:
239,62,72384,2,0,P|234:81|234:102,1,41.2499979972839,0|0,0:0|0:0,0:0:0:0:
347,304,72642,5,0,3:0:0:0:
347,304,72772,1,0,3:0:0:0:
347,304,72901,2,0,L|391:297,1,41.2499979972839,0|0,3:0|3:0,0:0:0:0:
175,228,73160,2,0,L|77:239,2,82.4999959945678,8|0|0,2:3|0:0|0:0,0:0:0:0:
415,119,73935,2,0,P|419:78|408:38,2,82.4999959945678,0|8|0,0:0|2:3|0:0,0:0:0:0:
256,352,74711,5,0,3:0:0:0:
256,32,74970,1,0,3:0:0:0:
256,352,75229,1,8,2:3:0:0:
112,187,75746,6,0,L|121:234,2,41.2499979972839,0|0|0,0:0|0:0|3:0,0:0:0:0:
410,101,76263,2,0,L|401:148,2,41.2499979972839,8|0|0,2:3|3:0|3:0,0:0:0:0:
80,15,76780,5,4,0:0:0:0:
140,241,94108,5,0,0:0:0:0:
61,211,94366,6,0,L|36:201,1,27.4999976158142,0|0,0:0|0:3,0:3:0:0:
217,271,94624,2,0,L|243:281,1,27.4999976158142,0|0,0:0|0:3,0:3:0:0:
182,139,94884,6,0,L|192:114,1,27.4999976158142,0|0,0:0|0:3,0:3:0:0:
99,344,95142,2,0,L|89:369,1,27.4999976158142,0|0,0:0|0:3,0:3:0:0:
90,107,95401,6,0,L|70:56,1,41.2499979972839,4|0,3:1|0:0,0:3:0:0:
337,332,95660,1,0,3:0:0:0:
278,384,95789,1,0,0:0:0:0:
200,375,95918,6,0,P|192:334|194:292,1,82.4999959945678,2|0,2:1|0:0,0:0:0:0:
285,105,96306,1,0,0:0:0:0:
318,178,96435,2,0,L|360:185,1,41.2499979972839,2|0,3:3|0:0,0:0:0:0:
478,207,96694,2,0,L|438:201,1,41.2499979972839,2|0,3:3|0:0,0:0:0:0:
349,24,96953,5,10,2:1:0:0:
426,7,97082,1,0,0:0:0:0:
402,82,97211,2,0,L|408:123,1,41.2499979972839,0|0,0:0|0:0,0:0:0:0:
438,353,97470,6,0,P|402:341|354:338,1,82.4999959945678,2|0,3:0|3:0,0:0:0:0:
204,383,97858,1,0,0:0:0:0:
277,354,97987,2,0,P|313:341|361:338,1,82.4999959945678,2|0,2:1|0:0,0:0:0:0:
158,277,98375,1,0,0:0:0:0:
158,277,98504,2,0,L|154:325,1,41.2499979972839,2|0,3:0|0:0,0:0:0:0:
31,338,98763,2,0,L|74:317,1,41.2499979972839,10|0,0:3|0:0,0:2:0:0:
273,215,99022,6,0,L|235:232,1,41.2499979972839,10|0,2:1|0:0,0:0:0:0:
57,193,99280,2,0,L|90:216,1,41.2499979972839,10|0,0:3|0:0,0:0:0:0:
350,327,99539,6,0,P|367:289|379:249,1,82.4999959945678,2|0,3:0|0:0,0:0:0:0:
164,43,99927,2,0,P|147:81|135:121,1,82.4999959945678,2|0,2:1|0:0,0:0:0:0:
188,181,100315,1,0,0:0:0:0:
263,153,100444,1,0,0:0:0:0:
240,337,100573,6,0,P|223:299|211:259,1,82.4999959945678,2|0,3:0|0:0,0:0:0:0:
467,149,100961,2,0,P|483:186|495:226,1,82.4999959945678,2|0,2:1|0:0,0:0:0:0:
472,302,101349,2,0,L|432:290,1,41.2499979972839
393,118,101608,6,0,L|382:79,1,41.2499979972839,2|0,3:0|0:0,0:0:0:0:
240,337,101866,2,0,L|227:383,1,41.2499979972839,2|0,3:0|0:0,0:0:0:0:
181,90,102125,2,0,L|169:50,1,41.2499979972839,2|0,2:2|0:0,0:0:0:0:
315,235,102384,1,0,3:0:0:0:
238,216,102513,1,2,3:3:0:0:
238,216,102772,5,0,3:3:0:0:
266,143,102901,2,0,L|278:103,1,41.2499979972839,2|0,2:1|0:0,0:0:0:0:
161,242,103160,5,10,2:3:0:0:
96,144,103289,1,2,3:2:0:0:
108,304,103418,5,2,3:2:0:0:
6,272,103547,1,2,3:2:0:0:
113,383,103677,6,0,L|194:368,1,82.4999959945678,6|0,3:3|0:0,0:0:0:0:
271,353,104065,1,0,0:0:0:0:
271,353,104194,2,0,P|292:348|312:350,1,41.2499979972839,2|0,2:1|0:0,3:0:0:0:
480,375,104453,2,0,P|461:367|441:365,1,41.2499979972839,0|0,0:0|0:3,3:0:0:0:
328,173,104711,6,0,L|334:214,1,41.2499979972839,2|0,0:2|0:0,0:0:0:0:
506,116,104970,2,0,L|499:157,1,41.2499979972839,2|0,0:2|0:0,0:0:0:0:
430,256,105229,1,2,2:1:0:0:
430,256,105358,1,0,0:0:0:0:
417,178,105487,2,0,L|409:126,1,41.2499979972839
236,21,105746,6,0,P|274:38|314:45,1,82.4999959945678,0|0,3:2|0:0,0:0:0:0:
151,9,106134,1,0,0:0:0:0:
314,45,106263,2,0,P|273:52|236:69,1,82.4999959945678,2|0,2:1|0:0,0:0:0:0:
397,57,106651,1,0,0:0:0:0:
180,132,106780,2,0,P|140:125|102:108,1,82.4999959945678,6|8,3:2|0:0,0:0:0:0:
179,212,107168,1,0,0:0:0:0:
249,177,107297,1,10,2:1:0:0:
321,208,107427,1,0,3:0:0:0:
330,285,107556,2,0,L|327:334,1,41.2499979972839,0|0,3:0|3:0,0:0:0:0:
46,329,107815,5,2,0:2:0:0:
7,261,107944,1,2,0:2:0:0:
8,182,108073,1,2,0:2:0:0:
56,122,108203,2,0,P|106:132|153:157,1,82.4999959945678,2|0,0:2|0:0,0:0:0:0:
286,326,108591,2,0,P|260:338|226:344,1,41.2499979972839,2|0,0:2|0:0,0:0:0:0:
202,88,108849,5,2,0:2:0:0:
321,69,108978,1,2,0:0:0:0:
440,50,109107,1,2,0:2:0:0:
499,103,109237,2,0,P|489:153|464:200,1,82.4999959945678,2|0,0:0|0:3,0:3:0:0:
500,366,109625,2,0,P|497:345|488:327,1,41.2499979972839,0|0,0:0|0:0,0:3:0:0:
169,195,109884,6,0,L|70:176,1,82.4999959945678,6|0,3:2|0:0,0:0:0:0:
70,175,110401,1,10,2:2:0:0:
425,115,110660,6,0,P|467:103|517:75,1,82.4999928474427,6|0,3:2|0:0,0:0:0:0:
336,74,111177,2,0,L|341:102,1,27.4999976158142,10|0,2:2|0:0,0:0:0:0:
480,351,111435,6,0,B|215:364|266:87|385:57|512:193|355:309,1,549.999952316285,6|4,3:1|0:0,0:0:0:0:
370,296,115832,5,0,0:0:0:0:
370,296,117642,5,0,0:0:0:0:
331,229,119453,5,0,0:0:0:0:
254,209,119970,5,0,0:0:0:0:
210,272,120229,1,0,0:0:0:0:
134,277,120746,5,0,0:0:0:0:
74,224,121004,1,0,0:0:0:0:
89,80,121263,5,0,3:0:0:0:
147,28,121780,5,2,2:1:0:0:
11,97,122297,5,0,3:0:0:0:
11,97,122556,1,0,3:0:0:0:
227,16,122815,1,2,2:1:0:0:
432,276,123073,5,0,3:0:0:0:
451,196,123332,1,0,3:0:0:0:
383,152,123590,5,2,2:1:0:0:
262,286,124108,6,0,L|244:307,2,27.4999976158142,0|4|0,3:0|2:0|3:0,0:0:0:0:
435,85,124625,1,2,2:1:0:0:
314,224,124884,5,0,3:0:0:0:
295,145,125401,5,2,2:1:0:0:
346,80,125918,5,0,3:0:0:0:
346,80,126177,1,0,3:0:0:0:
314,224,126436,1,2,2:1:0:0:
80,276,126694,6,0,L|71:310,1,27.4999976158142,0|8,0:0|2:0,0:0:0:0:
149,342,126953,1,0,0:0:0:0:
149,342,127211,6,0,L|140:376,1,27.4999976158142,8|0,2:0|0:0,0:0:0:0:
36,179,127470,1,0,0:0:0:0:
36,179,127729,2,0,L|27:213,1,27.4999976158142,0|0,2:2|0:0,0:0:0:0:
170,128,127988,2,0,L|153:158,1,27.4999976158142,2|0,3:1|0:0,0:3:0:0:
329,151,128246,2,0,L|304:175,1,27.4999976158142,8|8,2:1|2:1,0:3:0:0:
471,332,128504,5,0,3:0:0:0:
477,101,129021,5,2,2:1:0:0:
393,317,129538,1,0,3:0:0:0:
319,346,129797,1,0,3:0:0:0:
453,175,130056,1,2,2:1:0:0:
241,342,130314,5,0,3:3:0:0:
180,297,130573,1,0,0:3:0:0:
442,250,130831,5,2,2:1:0:0:
164,223,131349,2,0,L|126:218,2,27.4999976158142,0|2|0,3:0|0:0|3:0,0:0:0:0:
263,115,131866,1,2,2:1:0:0:
490,353,132125,5,0,3:0:0:0:
256,320,132642,1,2,2:1:0:0:
191,95,133159,1,0,3:0:0:0:
191,95,133418,1,0,3:0:0:0:
256,320,133677,1,2,2:1:0:0:
74,245,133935,6,0,P|99:234|126:230,1,54.9999952316285,0|0,3:0|3:0,0:0:0:0:
205,242,134323,1,0,0:0:0:0:
205,242,134452,6,0,L|196:276,1,27.4999976158142,2|0,2:1|0:0,0:0:0:0:
18,187,134711,2,0,P|6:148|7:111,1,54.9999952316285,4|0,2:2|0:0,0:0:0:0:
255,141,135229,2,0,L|238:171,1,27.4999976158142,2|0,3:0|0:0,0:3:0:0:
412,261,135487,2,0,L|387:285,1,27.4999976158142,2|0,2:1|0:0,0:3:0:0:
119,48,135745,5,0,3:0:0:0:
256,352,136263,1,2,2:1:0:0:
186,323,136780,5,0,3:0:0:0:
151,254,137039,1,0,3:0:0:0:
180,182,137297,1,2,2:1:0:0:
385,127,137556,5,0,3:0:0:0:
366,201,138074,1,2,2:1:0:0:
306,247,138591,5,0,3:0:0:0:
228,243,138850,1,0,3:0:0:0:
180,182,139108,1,2,2:1:0:0:
29,62,139366,5,0,3:0:0:0:
108,42,139884,1,2,2:1:0:0:
180,182,140401,5,0,3:0:0:0:
259,202,140660,1,0,3:0:0:0:
375,20,140918,1,2,2:1:0:0:
512,315,141177,5,4,0:0:0:0:
121,216,142987,5,2,3:0:0:0:
121,216,143246,2,0,L|125:249,1,27.4999976158142,0|0,3:0|0:0,0:0:0:0:
136,322,143504,2,0,P|179:314|221:297,1,82.4999928474427,2|0,2:1|0:0,0:0:0:0:
254,226,144022,2,0,L|218:217,1,27.4999976158142,0|0,0:0|0:0,0:0:0:0:
276,154,144280,2,0,L|240:145,1,27.4999976158142,0|0,0:0|0:0,0:0:0:0:
298,82,144539,2,0,L|262:73,1,27.4999976158142,2|0,2:1|0:0,0:0:0:0:
171,29,144797,2,0,L|144:35,1,27.4999976158142,0|0,3:0|3:0,0:0:0:0:
434,103,145056,5,2,3:0:0:0:
434,103,145315,2,0,L|429:69,1,27.4999976158142,2|0,3:0|0:0,0:0:0:0:
350,68,145573,2,0,P|320:72|292:84,1,54.9999952316285,2|0,2:1|0:0,0:0:0:0:
259,156,145961,1,0,0:0:0:0:
259,156,146091,2,0,L|295:165,1,27.4999976158142,0|0,0:0|0:0,0:0:0:0:
234,236,146349,2,0,L|261:243,1,27.4999976158142,0|0,0:0|0:0,0:0:0:0:
347,229,146608,6,0,L|373:222,1,27.4999976158142,2|0,2:1|3:0,0:0:0:0:
165,104,146866,2,0,L|192:98,1,27.4999976158142,0|0,3:0|3:0,0:0:0:0:
308,354,147125,6,0,P|281:354|255:347,1,54.9999952316285,6|0,3:0|3:0,0:0:0:0:
194,297,147513,1,0,0:0:0:0:
194,297,147642,2,0,L|127:301,1,54.9999952316285,2|0,2:1|0:0,0:0:0:0:
68,269,148030,1,0,0:0:0:0:
68,269,148160,2,0,P|60:258|55:246,1,27.4999976158142,0|0,0:0|0:0,0:0:0:0:
170,187,148418,2,0,P|168:173|170:159,1,27.4999976158142,0|0,0:0|0:0,0:0:0:0:
335,153,148677,2,0,P|340:140|349:129,1,27.4999976158142,2|0,2:1|0:0,0:0:0:0:
439,361,148935,2,0,P|444:373|453:384,1,27.4999976158142,0|0,3:0|0:0,0:0:0:0:
294,315,149194,6,0,L|184:327,1,109.999990463257,0|2,3:1|2:1,0:0:0:0:
451,219,149970,2,0,L|498:232,1,27.4999976158142,0|0,0:0|0:0,0:0:0:0:
378,302,150229,2,0,L|385:275,1,27.4999976158142,0|0,3:0|0:0,0:0:0:0:
180,218,150487,2,0,L|172:191,1,27.4999976158142,0|0,3:0|0:0,0:0:0:0:
427,126,150746,2,0,L|435:99,1,27.4999976158142,2|0,2:1|3:0,0:0:0:0:
279,12,151004,2,0,L|282:42,1,27.4999976158142,0|0,3:0|3:0,0:0:0:0:
290,124,151263,6,0,P|236:113|182:116,1,109.999990463257,0|2,3:0|2:1,0:0:0:0:
58,343,152168,5,0,0:0:0:0:
58,343,152297,2,0,P|105:321|153:311,1,82.4999928474427
301,292,152815,2,0,P|342:294|382:304,1,82.4999928474427,2|0,2:1|0:0,0:0:0:0:
109,168,153332,2,0,L|125:87,2,82.4999959945678,2|2|2,3:3|3:3|2:1,0:0:0:0:
469,262,154108,1,0,0:0:0:0:
469,262,154237,1,0,0:0:0:0:
399,217,154366,6,0,L|348:225,1,27.4999976158142,0|0,0:0|0:0,0:0:0:0:
454,164,154625,1,0,0:0:0:0:
396,114,154754,2,0,L|334:124,1,54.9999952316285,2|0,2:1|0:0,0:0:0:0:
266,136,155142,2,0,L|239:141,1,27.4999976158142,0|0,0:0|0:0,0:0:0:0:
170,378,155401,6,0,P|142:376|117:366,2,54.9999952316285,0|0|2,3:0|3:0|2:1,0:0:0:0:
238,255,156177,2,0,P|216:220|181:199,1,82.4999928474427,0|0,0:0|0:0,0:0:0:0:
101,188,156694,2,0,L|68:193,1,27.4999976158142,0|0,0:0|0:0,0:0:0:0:
208,56,156953,2,0,L|202:23,1,27.4999976158142,2|0,2:1|0:0,0:0:0:0:
340,151,157211,1,0,0:0:0:0:
256,192,157341,12,0,159539,0:0:0:0:
174,320,165487,6,0,P|133:282|63:275,1,123.749989271164,0|4,3:0|0:0,0:0:0:0:
48,189,176091,6,0,L|48:253,1,54.9999952316285,4|0,3:0|0:0,0:0:0:0:
108,292,176479,1,0,0:0:0:0:
166,242,176608,6,0,L|166:187,1,54.9999952316285,8|0,2:1|0:0,0:0:0:0:
214,127,176996,1,0,0:0:0:0:
264,185,177125,6,0,L|291:185,1,27.4999976158142,0|0,3:0|0:0,0:0:0:0:
343,39,177384,2,0,L|370:39,1,27.4999976158142,0|0,0:0|0:0,0:0:0:0:
233,38,177642,6,0,L|260:38,1,27.4999976158142,8|0,2:1|0:0,0:0:0:0:
450,40,177901,2,0,L|477:40,1,27.4999976158142,0|0,0:0|0:0,0:0:0:0:
512,179,178160,6,0,L|512:243,1,54.9999952316285,4|0,3:0|0:0,0:0:0:0:
452,282,178548,1,0,0:0:0:0:
394,232,178677,6,0,L|394:177,1,54.9999952316285,8|0,2:1|0:0,0:0:0:0:
325,141,179065,1,0,0:0:0:0:
270,194,179194,2,0,L|236:194,1,27.4999976158142,0|0,3:0|0:0,0:0:0:0:
202,63,179453,2,0,L|168:63,1,27.4999976158142,0|0,0:0|0:0,0:0:0:0:
312,24,179711,6,0,L|285:24,1,27.4999976158142,8|0,2:1|0:0,0:0:0:0:
95,26,179970,2,0,L|68:26,1,27.4999976158142
256,288,180229,5,4,3:0:0:0:
256,288,180487,2,0,L|256:320,1,27.4999976158142,0|0,0:0|0:0,0:0:0:0:
184,195,180746,6,0,L|184:227,1,27.4999976158142,8|0,2:1|0:0,0:0:0:0:
256,315,181004,2,0,L|256:347,1,27.4999976158142,0|0,0:0|0:0,0:0:0:0:
404,216,181263,6,0,L|436:216,1,27.4999976158142,0|0,0:0|0:0,0:0:0:0:
149,336,181522,2,0,L|121:336,1,27.4999976158142,0|0,0:0|0:0,0:0:0:0:
363,336,181780,6,0,L|390:336,1,27.4999976158142,8|0,2:1|0:0,0:0:0:0:
108,216,182039,2,0,L|80:216,1,27.4999976158142,0|0,0:0|0:0,0:0:0:0:
443,96,182297,5,4,3:0:0:0:
302,27,182556,1,0,0:0:0:0:
236,67,182685,1,0,0:0:0:0:
221,142,182815,2,0,L|221:168,1,27.4999976158142,8|0,2:1|0:0,0:0:0:0:
313,239,183073,2,0,L|313:265,1,27.4999976158142,0|0,0:0|0:0,0:0:0:0:
256,320,183332,6,0,L|256:346,1,27.4999976158142,0|0,0:0|0:0,0:0:0:0:
256,32,183591,2,0,L|256:58,1,27.4999976158142,0|0,0:0|0:0,0:0:0:0:
64,192,183849,5,8,2:1:0:0:
448,192,184108,1,0,3:0:0:0:
256,320,184366,6,0,L|192:320,1,54.9999952316285,4|0,3:0|0:0,0:0:0:0:
153,260,184754,1,0,0:0:0:0:
202,202,184883,6,0,L|258:202,1,54.9999952316285,8|0,2:1|0:0,0:0:0:0:
318,154,185271,1,0,0:0:0:0:
260,104,185400,6,0,L|260:77,1,27.4999976158142,0|0,3:0|0:0,0:0:0:0:
469,54,185659,2,0,L|469:27,1,27.4999976158142,0|0,0:0|0:0,0:0:0:0:
153,87,185917,6,0,L|153:60,1,27.4999976158142,8|0,2:1|0:0,0:0:0:0:
362,37,186176,2,0,L|362:10,1,27.4999976158142,0|0,0:0|0:0,0:0:0:0:
256,320,186435,6,0,L|192:320,1,54.9999952316285,4|0,3:0|0:0,0:0:0:0:
153,260,186823,1,0,0:0:0:0:
202,202,186952,6,0,L|258:202,1,54.9999952316285,8|0,2:1|0:0,0:0:0:0:
318,154,187340,1,0,0:0:0:0:
260,104,187469,6,0,L|260:77,1,27.4999976158142,0|0,3:0|0:0,0:0:0:0:
256,319,187728,2,0,L|256:347,1,27.4999976158142,0|0,0:0|0:0,0:0:0:0:
438,102,187987,6,0,L|438:75,1,27.4999976158142,8|0,2:1|0:0,0:0:0:0:
434,317,188246,2,0,L|434:345,1,27.4999976158142,0|0,0:0|0:0,0:0:0:0:
160,192,188504,5,4,3:0:0:0:
160,192,188762,2,0,L|128:192,1,27.4999976158142,0|0,0:0|0:0,0:0:0:0:
358,294,189021,6,0,L|326:294,1,27.4999976158142,8|0,2:1|0:0,0:0:0:0:
132,192,189279,6,0,L|100:192,1,27.4999976158142,0|0,0:0|0:0,0:0:0:0:
389,115,189538,6,0,L|421:114,1,27.4999976158142,0|0,0:0|0:0,0:0:0:0:
112,299,189797,2,0,L|112:327,1,27.4999976158142,0|0,3:0|0:0,0:0:0:0:
112,85,190055,6,0,L|112:58,1,27.4999976158142,8|0,3:1|0:0,0:0:0:0:
353,335,190314,2,0,L|353:363,1,27.4999976158142,0|0,0:0|0:0,0:0:0:0:
256,0,190572,5,4,3:0:0:0:
468,254,190831,1,0,0:0:0:0:
428,320,190960,1,0,0:0:0:0:
353,335,191090,2,0,L|326:335,1,27.4999976158142,8|0,2:1|0:0,0:0:0:0:
208,215,191348,2,0,L|181:215,1,27.4999976158142,0|0,0:0|0:0,0:0:0:0:
417,104,191607,6,0,L|390:104,1,27.4999976158142,0|0,3:0|0:0,0:0:0:0:
96,192,191866,2,0,L|69:192,1,27.4999976158142,0|0,0:0|0:0,0:0:0:0:
256,384,192124,5,4,3:2:0:0:
256,0,192383,1,0,0:0:0:0:
256,192,192642,6,0,L|370:193,1,109.999990463257,4|8,3:0|3:0,0:0:0:0:
426,125,193677,6,0,L|397:124,1,27.4999976158142,0|0,3:0|0:0,0:0:0:0:
427,41,193935,2,0,L|398:40,1,27.4999976158142,0|0,0:0|0:0,0:0:0:0:
222,122,194194,2,0,L|194:122,1,27.4999976158142,8|0,3:0|0:0,0:0:0:0:
221,39,194452,2,0,L|193:39,1,27.4999976158142,0|0,0:0|0:0,0:0:0:0:
24,119,194711,6,0,L|23:233,1,109.999990463257,4|8,3:0|3:0,0:0:0:0:
90,304,195746,6,0,L|91:275,1,27.4999976158142,0|0,3:0|0:0,0:0:0:0:
174,305,196004,2,0,L|175:276,1,27.4999976158142,0|0,0:0|0:0,0:0:0:0:
92,68,196263,6,0,L|92:40,1,27.4999976158142,8|0,3:0|0:0,0:0:0:0:
176,67,196521,2,0,L|176:39,1,27.4999976158142,0|0,0:0|0:0,0:0:0:0:
308,134,196780,6,0,P|306:162|308:190,2,54.9999952316285,0|0|8,3:0|0:0|3:0,0:0:0:0:
422,252,197815,2,0,P|395:244|366:245,1,54.9999952316285,0|0,3:0|0:0,0:0:0:0:
229,228,198203,1,0,0:0:0:0:
294,270,198332,2,0,L|303:308,2,27.4999976158142,8|0|0,3:0|0:0|0:0,0:0:0:0:
17,321,198849,6,0,P|44:321|70:313,1,54.9999952316285,0|0,3:0|0:0,0:0:0:0:
67,236,199237,1,0,0:0:0:0:
139,270,199366,2,0,L|171:274,2,27.4999976158142,8|0|0,3:0|0:0|0:0,0:0:0:0:
223,361,199754,1,0,0:0:0:0:
145,377,199884,6,0,L|142:349,1,27.4999976158142,0|0,3:0|0:0,0:0:0:0:
365,291,200142,2,0,L|367:263,1,27.4999976158142,0|0,3:0|0:0,0:0:0:0:
91,168,200401,6,0,L|88:136,1,27.4999976158142,0|0,3:0|0:0,0:0:0:0:
385,61,200659,2,0,L|387:33,1,27.4999976158142,0|0,3:0|0:0,0:0:0:0:
15,268,200918,6,0,P|38:254|66:250,1,54.9999952316285,4|0,3:1|0:0,0:0:0:0:
148,238,201435,2,0,P|166:273|307:226,1,219.999980926514,0|0,3:0|3:0,0:0:0:0:
226,218,202729,1,0,0:0:0:0:
226,218,202987,6,0,P|218:163|197:112,1,109.999990463257,0|0,3:1|3:0,0:0:0:0:
161,44,203763,1,0,0:0:0:0:
303,2,204022,2,0,P|341:18|382:25,2,82.4999928474427,0|0|0,3:1|3:0|0:0,0:0:0:0:
390,166,205056,6,0,P|417:150|472:136,2,82.4999928474427,0|0|0,3:0|3:0|0:0,0:0:0:0:
88,26,206091,2,0,P|105:77|107:133,1,109.999990463257,0|0,3:0|3:0,0:0:0:0:
145,346,207125,6,0,P|147:291|164:239,1,109.999990463257,0|0,3:0|3:0,0:0:0:0:
255,95,208160,2,0,P|253:123|243:148,1,54.9999952316285,0|0,3:0|0:0,0:0:0:0:
196,28,208677,2,0,L|132:28,1,54.9999952316285,0|0,3:0|0:0,0:0:0:0:
343,93,209194,6,0,L|407:93,1,54.9999952316285,0|0,3:0|0:0,0:0:0:0:
477,324,209711,6,0,P|422:322|370:305,1,109.999990463257,0|0,3:0|3:0,0:0:0:0:
301,213,210746,2,0,P|328:215|355:224,1,54.9999952316285,0|0,3:0|0:0,0:0:0:0:
210,47,211263,6,0,P|182:49|156:57,1,54.9999952316285,0|0,3:0|0:0,0:0:0:0:
66,195,211780,2,0,P|31:156|12:93,1,109.999990463257,0|0,3:0|3:0,0:0:0:0:
12,102,212815,1,0,3:0:0:0:
87,73,213073,1,0,0:0:0:0:
178,338,213332,6,0,P|152:289|150:235,4,109.999990463257,0|0|0|0|0,3:0|3:0|3:0|3:0|3:0,0:0:0:0:
178,338,216435,5,2,0:3:0:0:
256,327,216694,1,2,0:3:0:0:
308,260,216953,1,2,0:3:0:0:
268,85,217211,1,2,0:3:0:0:
95,125,217470,6,0,P|82:157|78:191,1,68.7499940395356,2|0,3:3|3:0,0:0:0:0:
100,273,217858,1,0,0:0:0:0:
100,273,217987,2,0,L|141:266,2,34.3749970197678,8|0|0,2:0|0:0|0:0,0:0:0:0:
429,212,218504,2,0,P|421:250|417:291,1,68.7499940395356,2|0,1:3|0:0,0:0:0:0:
290,20,219022,2,0,P|279:6|264:-1,2,34.3749970197678,8|0|0,2:0|0:0|0:0,0:0:0:0:
354,76,219410,1,0,0:0:0:0:
354,76,219538,6,0,P|345:111|342:155,1,68.7499940395356,2|0,3:3|3:0,0:0:0:0:
337,226,219927,1,0,0:0:0:0:
336,225,220056,2,0,P|339:239|341:258,2,34.3749970197678,8|0|0,2:0|0:0|0:0,0:0:0:0:
158,307,220573,6,0,P|125:316|90:319,1,68.7499940395356,2|0,3:3|0:0,0:3:0:0:
309,7,221091,2,0,P|342:12|374:25,1,68.7499940395356,8|0,2:0|3:0,0:3:0:0:
450,70,221479,1,0,0:0:0:0:
450,70,221608,5,2,3:3:0:0:
317,348,221866,1,0,0:0:0:0:
99,184,222125,2,0,P|133:185|165:196,1,68.7499940395356,8|0,2:2|3:0,0:0:0:0:
241,236,222513,1,0,0:0:0:0:
242,235,222642,2,0,L|252:268,2,34.3749970197678,2|0|0,1:3|0:0|0:0,0:0:0:0:
256,352,223160,6,0,L|246:384,1,34.3749970197678,8|0,2:0|0:0,0:0:0:0:
336,95,223418,2,0,L|346:62,1,34.3749970197678,0|0,0:0|0:0,0:0:0:0:
478,257,223677,6,0,P|436:274|368:284,1,103.124991059303,2|0,1:3|0:0,0:0:0:0:
227,27,224194,2,0,P|277:35|325:53,1,103.124991059303,8|0,2:0|0:0,0:0:0:0:
122,243,224711,2,0,L|46:259,2,68.7499940395356,2|0|8,1:3|0:0|2:0,0:0:0:0:
206,233,225358,1,0,0:0:0:0:
206,233,225487,1,0,3:0:0:0:
17,25,225746,6,0,P|50:32|80:50,1,68.7499940395356,2|0,3:0|0:0,0:3:0:0:
190,153,226134,1,0,0:0:0:0:
190,153,226263,2,0,P|172:123|148:100,1,68.7499940395356,8|0,2:0|0:0,0:0:0:0:
200,368,226780,6,0,P|233:361|263:343,1,68.7499940395356,2|0,1:3|0:0,0:3:0:0:
373,239,227168,1,0,0:0:0:0:
373,239,227297,2,0,P|355:269|331:293,1,68.7499940395356,8|0,2:0|0:0,0:0:0:0:
191,3,227815,6,0,P|180:35|181:70,1,68.7499940395356,10|8,0:3|0:3,0:3:0:0:
214,216,228203,1,0,0:0:0:0:
214,215,228332,2,0,P|197:186|190:153,1,68.7499940395356,10|2,2:0|0:3,0:3:0:0:
459,98,228849,5,2,1:3:0:0:
438,174,228979,1,0,0:0:0:0:
379,120,229108,1,0,0:0:0:0:
397,42,229238,1,0,0:0:0:0:
442,189,229366,6,0,L|449:222,2,34.3749970197678,8|0|0,2:0|0:0|3:0,0:0:0:0:
471,96,229754,1,0,0:0:0:0:
312,66,229884,5,2,3:0:0:0:
418,306,230142,1,2,1:0:0:0:
418,306,230272,1,2,1:0:0:0:
418,306,230401,1,2,1:0:0:0:
442,189,230660,1,2,1:0:0:0:
255,336,230918,5,2,1:0:0:0:
418,306,231177,1,2,1:0:0:0:
365,91,231435,5,2,3:0:0:0:
174,262,231694,1,2,3:0:0:0:
244,7,231953,5,2,1:0:0:0:
80,236,232211,1,2,1:0:0:0:
479,153,232470,2,0,L|516:146,2,34.3749970197678,2|2|8,1:0|0:0|2:1,0:0:0:0:
170,211,232987,5,2,3:0:0:0:
264,86,233245,1,2,3:0:0:0:
404,165,233504,1,2,2:1:0:0:
308,271,233763,1,2,1:0:0:0:
308,271,233892,1,0,1:0:0:0:
308,271,234022,6,0,P|307:211|317:162,2,103.124991059303,2|2|2,0:0|0:0|0:0,0:0:0:0:
123,86,235056,6,0,P|168:111|208:144,2,103.124991059303,2|2|2,0:2|0:0|0:0,0:0:0:0:
0,384,236091,6,0,P|52:368|99:339,1,109.999990463257,4|0,0:1|0:0,0:0:0:0:
42,207,238935,5,0,0:0:0:0:
227,149,239194,5,0,0:0:0:0:
145,134,239453,1,0,0:0:0:0:
172,211,239711,1,0,0:0:0:0:
253,226,239970,1,0,0:0:0:0:
74,91,240229,6,0,L|46:94,1,27.4999976158142,4|0,0:0|0:0,0:0:0:0:
258,32,241004,1,0,0:0:0:0:
339,40,241263,6,0,L|353:41,2,13.7499988079071,0|0|0,0:0|0:0|0:0,0:0:0:0:
258,32,242039,1,0,0:0:0:0:
438,293,242297,6,0,L|466:290,1,27.4999976158142,4|0,0:0|0:0,0:0:0:0:
502,218,243073,1,0,0:0:0:0:
442,148,243332,6,0,L|456:149,2,13.7499988079071,8|0|0,0:0|0:0|0:0,0:0:0:0:
502,218,244108,1,0,0:0:0:0:
367,335,244366,6,0,L|347:338,2,20.6249982118607,4|0|0,0:0|0:0|0:0,0:0:0:0:
472,72,245401,6,0,L|492:74,2,20.6249982118607,0|0|0,0:0|0:0|0:0,0:0:0:0:
452,291,246435,6,0,L|438:293,1,13.7499988079071,0|0,0:0|0:0,0:0:0:0:
361,104,246953,2,0,L|375:105,1,13.7499988079071,0|0,0:0|0:0,0:0:0:0:
269,352,247470,6,0,L|255:354,1,13.7499988079071,0|0,0:0|0:0,0:0:0:0:
236,49,247988,2,0,L|250:50,1,13.7499988079071,0|0,0:0|0:0,0:0:0:0:
62,383,248504,6,0,L|48:385,1,13.7499988079071,0|0,0:0|0:0,0:0:0:0:
205,332,249022,6,0,L|219:333,2,13.7499988079071,0|0|0,0:0|0:0|0:0,0:0:0:0:
123,325,249797,1,0,0:0:0:0:
131,242,250056,1,0,0:0:0:0:
139,159,250315,1,0,0:0:0:0:
81,100,250573,6,0,L|58:102,2,20.6249982118607,0|0|0,0:0|0:0|0:0,0:0:0:0:
335,37,251607,6,0,L|349:38,2,13.7499988079071,0|0|0,0:0|0:0|0:0,0:0:0:0:
255,30,252384,1,0,0:0:0:0:
446,267,252642,6,0,P|450:255|450:246,1,20.6249982118607,0|0,0:0|0:0,0:0:0:0:
415,120,253418,1,0,0:0:0:0:
54,70,253677,6,0,P|49:81|49:90,1,20.6249982118607,0|0,0:0|0:0,0:0:0:0:
105,298,254453,1,0,0:0:0:0:
347,154,254711,5,0,0:0:0:0:
182,126,254970,1,0,0:0:0:0:
240,285,255229,5,0,0:0:0:0:
256,192,255487,5,0,0:0:0:0:
256,192,255616,1,0,0:0:0:0:
256,192,255746,12,0,256780,0:0:0:0:
256,192,256910,5,2,0:0:0:0:
256,192,257039,5,0,3:0:0:0:
66,256,257297,2,0,L|73:192,1,54.9999952316285,14|0,2:0|0:0,0:0:0:0:
84,123,257685,1,0,0:0:0:0:
33,62,257815,1,0,0:0:0:0:
347,161,258073,1,2,0:3:0:0:
216,267,258332,5,2,0:3:0:0:
183,29,258591,5,2,0:3:0:0:
130,290,258849,6,0,L|90:297,1,41.2499979972839,4|8,3:1|0:0,0:0:0:0:
315,144,259108,1,8,0:3:0:0:
367,201,259237,1,0,0:0:0:0:
371,280,259366,2,0,P|413:285|451:298,1,82.4999959945678,2|0,2:1|0:0,0:0:0:0:
314,336,259754,1,0,0:0:0:0:
296,259,259884,2,0,L|286:206,1,41.2499979972839,0|0,3:0|0:0,0:0:0:0:
482,180,260142,2,0,L|492:127,1,41.2499979972839,0|0,3:0|0:0,0:0:0:0:
357,8,260401,1,2,2:1:0:0:
400,73,260530,1,0,0:0:0:0:
373,147,260660,2,0,P|351:142|331:141,1,41.2499979972839,0|0,0:0|0:0,0:0:0:0:
43,40,260918,6,0,P|84:33|122:17,1,82.4999959945678,0|0,3:0|3:0,0:0:0:0:
197,55,261306,1,0,0:0:0:0:
197,55,261435,2,0,L|179:135,1,82.4999959945678,2|0,2:1|0:0,0:0:0:0:
273,27,261823,1,0,0:0:0:0:
273,27,261953,2,0,P|287:40|299:58,1,41.2499979972839,0|0,3:0|0:0,0:0:0:0:
387,67,262211,2,0,P|380:90|369:112,1,41.2499979972839,0|0,3:3|0:0,3:0:0:0:
431,185,262470,2,0,P|411:204|392:214,1,41.2499979972839,2|0,2:1|0:0,3:0:0:0:
364,311,262729,2,0,L|315:316,1,41.2499979972839,0|0,0:0|0:0,3:0:0:0:
147,340,262987,6,0,L|56:323,1,82.4999959945678,2|0,3:2|0:0,3:0:0:0:
49,94,263375,2,0,L|107:105,1,41.2499979972839,2|0,0:0|2:1,3:0:0:0:
169,118,263634,2,0,L|157:176,1,41.2499979972839,2|0,0:1|0:0,3:0:0:0:
227,362,263892,1,0,0:0:0:0:
226,361,264022,6,0,L|307:377,1,82.4999959945678,2|0,3:2|0:0,3:0:0:0:
347,225,264410,2,0,L|267:210,1,82.4999959945678,2|0,0:0|0:0,3:0:0:0:
185,197,264797,2,0,L|178:150,1,41.2499979972839,2|0,0:0|0:0,0:0:0:0:
459,75,265056,6,0,L|452:115,1,41.2499979972839,2|0,3:2|0:0,0:0:0:0:
418,284,265315,2,0,L|425:244,1,41.2499979972839,2|0,3:1|0:0,0:0:0:0:
172,74,265573,2,0,P|152:68|131:66,1,41.2499979972839,2|0,2:1|0:0,0:0:0:0:
48,80,265832,1,0,3:0:0:0:
244,120,265961,2,0,P|270:89|290:53,1,82.4999959945678,2|0,3:2|3:0,0:0:0:0:
40,248,266349,2,0,L|-11:255,1,41.2499979972839,2|2,0:0|3:0,0:0:0:0:
125,264,266608,1,2,2:1:0:0:
155,336,266737,1,2,3:2:0:0:
231,351,266866,1,2,3:2:0:0:
289,299,266995,1,2,3:2:0:0:
278,221,267125,6,0,P|238:215|190:222,1,82.4999959945678,4|0,3:2|0:0,0:0:0:0:
361,336,267513,1,0,0:0:0:0:
361,336,267642,2,0,L|405:326,1,41.2499979972839,10|0,2:1|0:0,0:0:0:0:
455,114,267901,2,0,L|499:124,1,41.2499979972839,0|0,0:2|0:3,0:0:0:0:
247,84,268160,2,0,L|239:36,1,41.2499979972839,2|0,0:0|0:0,0:0:0:0:
163,67,268418,2,0,L|156:26,1,41.2499979972839,2|0,0:0|0:0,0:0:0:0:
458,224,268677,1,10,2:1:0:0:
404,281,268806,1,0,0:0:0:0:
326,275,268935,2,0,L|318:227,1,41.2499979972839,0|0,0:0|0:0,0:0:0:0:
398,5,269194,6,0,P|386:44|365:79,1,82.4999959945678,2|0,3:0|0:0,0:0:0:0:
189,154,269582,1,0,0:0:0:0:
193,232,269711,2,0,P|157:252|117:262,1,82.4999959945678,10|0,2:1|0:0,0:0:0:0:
286,71,270099,1,0,0:0:0:0:
364,79,270229,2,0,P|385:44|397:5,1,82.4999959945678,0|2,3:0|3:0,0:0:0:0:
411,143,270616,1,0,3:0:0:0:
490,132,270746,1,10,2:1:0:0:
490,132,270875,1,0,3:0:0:0:
506,266,271004,2,0,L|447:256,1,41.2499979972839,0|0,0:0|0:0,0:0:0:0:
243,355,271263,5,2,3:0:0:0:
291,225,271392,1,2,0:0:0:0:
380,336,271522,1,2,0:0:0:0:
306,304,271651,1,2,0:0:0:0:
306,304,271780,1,10,2:1:0:0:
494,138,272039,6,0,L|483:185,1,41.2499979972839,0|0,0:0|0:0,0:0:0:0:
97,227,272297,5,2,3:0:0:0:
203,138,272426,1,2,0:0:0:0:
225,279,272556,1,2,0:0:0:0:
177,214,272685,1,2,0:0:0:0:
177,214,272814,5,10,2:1:0:0:
330,139,273073,6,0,L|370:148,1,41.2499979972839,0|0,0:0|0:0,0:0:0:0:
29,336,273332,2,0,P|16:289|26:202,1,123.749993991852,6|2,3:2|0:0,0:0:0:0:
58,144,273849,1,10,2:0:0:0:
439,38,274108,2,0,L|415:170,1,123.749993991852,6|2,3:2|0:0,0:0:0:0:
406,284,274625,2,0,L|399:234,1,41.2499979972839,8|0,2:0|0:2,3:0:0:0:
5,52,274884,6,0,B|250:-24|160:332|405:242,1,494.999957084656,6|0,3:1|0:0,0:0:0:0:
258,337,277470,6,0,P|237:332|217:331,1,41.2499979972839,6|0,3:2|0:0,0:0:0:0:
175,264,277729,2,0,P|154:270|136:279,1,41.2499979972839,0|0,3:0|0:0,0:3:0:0:
3,378,277987,1,8,2:0:0:0:
191,135,278246,5,0,0:0:0:0:
221,207,278375,1,0,0:0:0:0:
175,264,278504,2,0,L|115:240,1,41.2499979972839,0|0,3:0|0:0,0:0:0:0:
361,130,278763,2,0,L|351:66,1,41.2499979972839,0|0,3:0|0:0,0:3:0:0:
495,368,279022,1,10,2:0:0:0:
420,345,279151,1,2,0:0:0:0:
386,274,279280,1,2,0:0:0:0:
408,198,279410,1,2,0:0:0:0:
298,333,279539,6,0,P|318:334|338:340,1,41.2499979972839,0|0,3:1|0:0,0:0:0:0:
464,257,279797,2,0,P|484:269|500:288,1,41.2499979972839,0|0,0:0|0:0,0:3:0:0:
194,172,280056,2,0,P|235:170|275:156,1,82.4999959945678,8|0,2:0|0:0,0:0:0:0:
334,103,280444,1,0,0:0:0:0:
334,103,280573,2,0,L|345:48,1,41.2499979972839,0|0,3:0|0:0,0:0:0:0:
82,18,280832,2,0,L|90:58,1,41.2499979972839,0|0,3:0|0:0,0:0:0:0:
17,368,281091,1,10,2:2:0:0:
92,345,281220,1,2,0:0:0:0:
126,274,281349,1,2,0:0:0:0:
104,198,281479,1,2,0:0:0:0:
172,329,281608,6,0,P|131:331|92:345,1,82.4999959945678,0|0,3:0|0:0,0:0:0:0:
424,274,281996,1,0,0:0:0:0:
424,274,282125,6,0,P|382:271|343:258,1,82.4999959945678,8|0,2:0|0:0,0:0:0:0:
483,215,282513,1,0,0:0:0:0:
322,180,282642,2,0,L|314:124,1,41.2499979972839,0|0,3:3|0:3,0:0:0:0:
510,139,282901,2,0,L|502:83,1,41.2499979972839,0|0,3:3|0:3,0:0:0:0:
296,55,283160,1,8,2:0:0:0:
296,55,283418,2,0,L|255:49,1,41.2499979972839,0|0,0:3|0:0,3:0:0:0:
46,360,283677,6,0,L|97:346,1,41.2499979972839,0|0,3:0|0:0,0:0:0:0:
254,206,283935,2,0,L|214:216,1,41.2499979972839,0|0,0:0|0:0,0:0:0:0:
46,360,284194,6,0,L|83:322,1,41.2499979972839,8|0,2:0|0:0,0:3:0:0:
296,55,284452,2,0,L|267:84,1,41.2499979972839,0|0,0:0|0:0,0:3:0:0:
46,360,284711,6,0,L|97:346,1,41.2499979972839,8|0,3:3|3:0,0:0:0:0:
466,263,284970,2,0,L|426:273,1,41.2499979972839,0|0,3:0|3:0,0:0:0:0:
188,269,285229,5,8,2:0:0:0:
354,164,285358,1,0,2:0:0:0:
158,164,285487,1,0,2:0:0:0:
324,269,285616,1,0,2:0:0:0:
63,218,285746,6,0,P|61:197|84:130,1,82.4999959945678,4|0,3:1|0:0,0:0:0:0:
256,192,286134,1,0,0:0:0:0:
239,112,286263,1,8,2:0:0:0:
499,82,286522,1,0,0:0:0:0:
421,109,286651,1,0,0:0:0:0:
354,61,286780,6,0,L|361:21,1,41.2499979972839,2|0,3:2|0:0,0:0:0:0:
456,321,287039,2,0,L|464:373,1,41.2499979972839,2|0,3:1|0:0,0:0:0:0:
168,273,287297,1,8,2:0:0:0:
221,214,287427,1,2,0:0:0:0:
296,192,287556,1,2,0:0:0:0:
374,198,287686,1,2,0:0:0:0:
438,244,287815,6,0,P|454:206|461:152,1,82.4999959945678,0|0,3:0|0:0,0:0:0:0:
190,350,288203,1,0,0:0:0:0:
168,273,288332,2,0,L|127:265,2,41.2499979972839,8|0|0,2:0|0:0|0:0,0:0:0:0:
245,165,288720,1,0,0:0:0:0:
245,165,288849,2,0,L|236:115,1,41.2499979972839,2|0,3:2|0:0,0:0:0:0:
412,323,289108,2,0,L|405:364,1,41.2499979972839,2|0,3:2|0:0,0:0:0:0:
344,18,289366,1,10,2:0:0:0:
420,36,289496,1,2,0:0:0:0:
470,95,289625,1,2,0:0:0:0:
476,173,289755,1,2,0:0:0:0:
438,244,289884,6,0,L|347:232,1,82.4999959945678,2|0,3:2|0:0,0:0:0:0:
300,180,290272,1,0,0:0:0:0:
165,270,290401,2,0,L|84:281,1,82.4999959945678,8|0,2:0|0:0,0:0:0:0:
34,221,290789,1,0,0:0:0:0:
34,221,290918,2,0,L|45:172,1,41.2499979972839,2|0,3:2|0:2,0:0:0:0:
252,347,291177,2,0,L|241:298,1,41.2499979972839,2|0,3:0|0:0,0:0:0:0:
176,75,291435,2,0,P|138:75|94:85,1,82.4999959945678,8|2,2:0|0:0,0:0:0:0:
250,122,291823,1,2,0:0:0:0:
250,122,291953,2,0,L|261:73,1,41.2499979972839,2|0,3:3|0:0,0:0:0:0:
417,374,292211,2,0,L|406:325,1,41.2499979972839,2|0,0:0|0:0,0:0:0:0:
176,75,292470,6,0,L|165:26,1,41.2499979972839,8|0,2:0|0:0,0:0:0:0:
104,371,292729,2,0,L|115:322,1,41.2499979972839,2|0,0:0|0:0,0:0:0:0:
336,75,292987,6,0,L|347:26,1,41.2499979972839,2|2,3:0|0:0,0:0:0:0:
417,374,293246,2,0,L|406:325,1,41.2499979972839,2|2,0:0|0:0,0:0:0:0:
128,192,293504,5,10,3:2:0:0:
320,256,293634,1,2,0:0:0:0:
192,256,293763,1,2,0:0:0:0:
384,192,293892,1,2,0:0:0:0:
256,319,294022,6,0,P|221:345|178:355,2,82.4999959945678,12|0|8,3:1|0:0|3:0,0:0:0:0:
203,115,295056,6,0,L|194:75,1,41.2499979972839,0|0,3:0|0:0,0:0:0:0:
330,215,295315,2,0,L|320:255,1,41.2499979972839,0|0,0:0|0:0,0:0:0:0:
181,352,295573,1,8,3:0:0:0:
134,369,295703,1,0,0:0:0:0:
85,359,295832,1,0,0:0:0:0:
46,328,295961,1,0,0:0:0:0:
34,279,296091,6,0,P|36:235|47:191,2,82.4999959945678,0|0|8,3:0|0:0|3:0,0:0:0:0:
317,64,297125,2,0,L|360:74,1,41.2499979972839,0|0,3:0|0:0,0:0:0:0:
237,278,297384,2,0,L|197:288,1,41.2499979972839,0|0,0:0|0:0,0:0:0:0:
93,86,297642,1,8,3:0:0:0:
134,75,297772,1,0,0:0:0:0:
176,74,297901,1,0,0:0:0:0:
215,88,298030,1,0,0:0:0:0:
248,113,298160,6,0,P|236:150|235:201,2,82.4999959945678,0|0|8,3:0|0:0|3:0,0:0:0:0:
501,207,298935,2,0,P|471:202|456:196,1,41.2499979972839,0|0,0:0|0:0,0:0:0:0:
392,41,299194,5,0,3:0:0:0:
404,84,299323,1,0,0:0:0:0:
393,128,299453,1,0,0:0:0:0:
362,161,299581,1,0,0:0:0:0:
324,178,299711,5,8,3:0:0:0:
330,218,299841,1,0,0:0:0:0:
336,258,299969,1,0,0:0:0:0:
342,298,300098,1,0,0:0:0:0:
357,378,300229,6,0,P|401:379|454:362,2,82.4999959945678,0|0|8,3:0|0:0|3:0,0:0:0:0:
0,384,301004,2,0,P|20:383|39:375,1,41.2499979972839,0|0,0:0|0:0,0:0:0:0:
277,224,301263,5,0,3:0:0:0:
252,192,301392,1,0,0:0:0:0:
210,188,301522,1,0,0:0:0:0:
171,202,301651,1,0,0:0:0:0:
178,236,301780,5,8,3:0:0:0:
125,294,301910,1,2,0:2:0:0:
48,279,302039,1,2,0:2:0:0:
24,204,302168,1,2,0:2:0:0:
76,146,302297,6,0,P|53:116|4:105,2,82.4999959945678,0|0|8,3:0|0:0|3:0,0:0:0:0:
392,50,303332,5,0,3:0:0:0:
392,50,303461,1,0,0:0:0:0:
392,50,303591,1,0,0:0:0:0:
341,255,303849,1,8,3:0:0:0:
263,243,303979,1,0,0:0:0:0:
197,285,304108,1,0,0:0:0:0:
180,361,304237,1,0,0:0:0:0:
253,335,304366,6,0,L|352:342,2,82.4999959945678,0|0|8,3:0|0:0|3:0,0:0:0:0:
80,262,305401,6,0,L|72:310,1,41.2499979972839,0|0,3:0|0:0,0:0:0:0:
134,158,305660,2,0,L|142:206,1,41.2499979972839,0|0,0:0|0:0,0:0:0:0:
71,108,305918,5,8,3:0:0:0:
118,121,306047,1,0,0:0:0:0:
167,118,306177,1,0,0:0:0:0:
207,89,306306,1,0,0:0:0:0:
226,43,306435,6,0,P|188:25|131:30,2,82.4999959945678,0|0|8,3:0|0:0|3:0,0:0:0:0:
359,239,307211,1,0,0:0:0:0:
379,241,307341,1,0,0:0:0:0:
399,245,307470,6,0,L|456:250,2,41.2499979972839,0|0|0,3:0|3:0|3:0,0:0:0:0:
255,352,307987,2,0,P|215:347|177:331,1,82.4999959945678,0|0,0:0|0:0,0:0:0:0:
0,102,308504,6,0,L|7:142,1,41.2499979972839,0|0,3:0|0:0,0:0:0:0:
144,198,308763,2,0,L|103:205,1,41.2499979972839,0|0,0:0|0:0,0:0:0:0:
22,222,309022,1,8,3:0:0:0:
460,142,309280,1,0,3:0:0:0:
455,162,309410,1,0,0:0:0:0:
449,181,309539,6,0,L|496:173,1,41.2499979972839,0|0,3:0|3:0,0:0:0:0:
433,271,309797,2,0,L|472:263,1,41.2499979972839,0|0,3:0|3:0,0:0:0:0:
372,60,310056,6,0,L|419:52,1,41.2499979972839,0|0,3:0|3:0,0:0:0:0:
302,349,310315,2,0,L|349:341,1,41.2499979972839,0|0,3:0|3:0,0:0:0:0:
256,192,310573,5,0,3:0:0:0:
256,192,310832,1,0,0:0:0:0:
256,192,311091,1,8,3:0:0:0:
443,248,311608,6,0,L|440:206,1,41.2499979972839,0|0,3:0|0:0,0:0:0:0:
333,213,311866,2,0,L|337:171,1,41.2499979972839,0|0,0:0|0:0,0:0:0:0:
510,93,312125,2,0,L|513:135,3,41.2499979972839,8|0|0|0,3:0|0:0|0:0|0:0,0:0:0:0:
256,288,312642,5,0,3:0:0:0:
256,288,312901,1,0,0:0:0:0:
256,288,313160,1,8,3:0:0:0:
45,255,313677,6,0,L|48:211,1,41.2499979972839,0|0,3:0|0:0,0:0:0:0:
182,214,313935,2,0,L|178:170,1,41.2499979972839,0|0,0:0|0:0,0:0:0:0:
97,89,314194,2,0,L|95:131,3,41.2499979972839,8|0|0|0,3:0|0:0|0:0|0:0,0:0:0:0:
256,64,314711,5,0,3:0:0:0:
256,64,314970,1,0,0:0:0:0:
256,64,315229,1,8,3:0:0:0:
61,334,315487,6,0,L|58:376,1,41.2499979972839,0|0,0:0|0:0,0:0:0:0:
69,248,315746,6,0,L|72:206,1,41.2499979972839,0|0,3:0|0:0,0:0:0:0:
179,213,316004,2,0,L|175:171,1,41.2499979972839,0|0,0:0|0:0,0:0:0:0:
2,93,316263,2,0,L|-1:135,3,41.2499979972839,8|0|0|0,3:0|0:0|0:0|0:0,0:0:0:0:
160,320,316780,5,0,3:0:0:0:
160,320,317039,1,0,0:0:0:0:
160,320,317298,1,8,3:0:0:0:
412,110,317556,5,0,0:0:0:0:
430,118,317685,1,0,0:0:0:0:
443,136,317815,2,0,L|440:178,1,41.2499979972839,0|0,3:0|0:0,0:0:0:0:
333,171,318073,2,0,L|337:213,1,41.2499979972839,0|0,3:0|0:0,0:0:0:0:
510,291,318332,6,0,L|513:249,1,41.2499979972839,8|0,3:0|0:0,0:0:0:0:
234,113,318591,2,0,L|237:71,1,41.2499979972839,0|0,0:0|0:0,0:0:0:0:
512,32,318849,5,0,3:0:0:0:
512,32,319108,1,0,0:0:0:0:
512,32,319367,1,8,3:0:0:0:
96,288,319884,6,0,L|88:341,2,41.2499979972839,0|0|0,3:0|0:0|0:0,0:0:0:0:
28,82,320401,1,8,3:0:0:0:
68,72,320530,1,0,0:0:0:0:
107,85,320660,1,0,0:0:0:0:
124,122,320789,1,0,0:0:0:0:
120,162,320918,6,0,L|289:140,1,164.999991989136,0|8,3:0|3:0,0:0:0:0:
96,288,321953,6,0,L|88:341,1,41.2499979972839,0|0,3:0|0:0,0:0:0:0:
180,280,322211,2,0,L|172:333,1,41.2499979972839,0|0,0:0|0:0,0:0:0:0:
28,82,322470,1,8,3:0:0:0:
68,72,322599,1,0,0:0:0:0:
107,85,322729,1,0,0:0:0:0:
124,122,322858,1,0,0:0:0:0:
120,162,322987,6,0,L|204:150,2,82.4999959945678,0|0|8,3:0|0:0|3:0,0:0:0:0:
316,252,323763,2,0,P|309:282|295:305,1,41.2499979972839,0|0,0:0|0:0,0:0:0:0:
274,368,324022,1,0,3:0:0:0:
274,368,324151,1,0,0:0:0:0:
274,368,324280,1,0,0:0:0:0:
221,19,324539,5,8,3:0:0:0:
105,340,324927,1,0,0:0:0:0:
105,340,325056,6,0,P|107:300|118:260,1,82.4999959945678,0|0,3:0|0:0,0:0:0:0:
165,194,325444,1,0,0:0:0:0:
165,194,325573,2,0,L|259:205,1,82.4999959945678,8|0,3:0|3:3,0:0:0:0:
288,209,325961,1,0,3:0:0:0:
288,209,326091,2,0,L|278:157,1,41.2499979972839,2|2,0:0|0:0,0:0:0:0:
253,20,326349,1,2,0:0:0:0:
329,0,326479,1,2,0:0:0:0:
393,44,326608,1,2,0:0:0:0:
300,292,326866,1,2,0:0:0:0:
512,192,327125,5,2,3:2:0:0:
512,192,329194,5,0,0:0:0:0:
512,192,330229,5,0,0:0:0:0:
263,229,331004,1,0,0:0:0:0:
248,151,331263,5,2,0:3:0:0:
248,151,331780,1,0,0:0:0:0:
248,151,332815,1,0,0:0:0:0:
0,192,333332,5,2,0:3:0:0:
0,192,333849,1,0,0:0:0:0:
256,256,334366,5,2,0:3:0:0:
512,192,335401,5,2,0:3:0:0:
256,192,337470,5,2,0:3:0:0:
256,192,339539,5,2,0:3:0:0:
256,192,341608,5,2,0:3:0:0:
