osu file format v14

[General]
AudioFilename: audio.mp3
AudioLeadIn: 0
PreviewTime: 180673
Countdown: 0
SampleSet: Soft
StackLeniency: 0.6
Mode: 0
LetterboxInBreaks: 0
WidescreenStoryboard: 1

[Editor]
Bookmarks: 36228,71784,116228,142895,169561,198450,216228,247339,291784,327339,356228,391784
DistanceSpacing: 1
BeatDivisor: 8
GridSize: 32
TimelineZoom: 3.799999

[Metadata]
Title:#006F86
TitleUnicode:#006F86
Artist:ELECTROCUTICA feat. Luschka
ArtistUnicode:ELECTROCUTICA feat. Luschka
Creator:Kalibe
Version:REVERSUS
Source:
Tags:rlc collab japanese electronic cute-0001 エレクトロキューティカ elektlyze ルシュカ treow リヴェルサス naturale 逆衝動p sakashoudou-p
BeatmapID:3010391
BeatmapSetID:1465755

[Difficulty]
HPDrainRate:5
CircleSize:4
OverallDifficulty:8.5
ApproachRate:9.3
SliderMultiplier:3
SliderTickRate:1

[Events]
//Background and Video events
0,0,"urmom.jpg",0,0
//Break Periods
2,160673,169007
2,257538,271575
2,349761,355674
//Storyboard Layer 0 (Background)
//Storyboard Layer 1 (Fail)
//Storyboard Layer 2 (Pass)
//Storyboard Layer 3 (Foreground)
//Storyboard Layer 4 (Overlay)
//Storyboard Sound Samples

[TimingPoints]
673,555.555555555556,4,2,1,40,1,0
9492,-100,4,2,1,5,0,0
9561,-500,4,2,1,40,0,0
9596,-500,4,2,1,5,0,0
9631,-500,4,2,1,40,0,0
18381,-500,4,2,1,5,0,0
18450,-500,4,2,1,40,0,0
18867,-153.846153846153,4,2,1,40,0,0
22200,-83.3333333333333,4,2,1,40,0,0
22478,-100,4,2,1,40,0,0
22895,-153.846153846153,4,2,1,40,0,0
31089,-86.9565217391304,4,2,1,40,0,0
31367,-153.846153846153,4,2,1,40,0,0
34561,-222.222222222221,4,2,1,30,0,0
36228,-100,4,2,1,50,0,0
37617,-83.3333333333333,4,2,1,50,0,0
37895,-100,4,2,1,50,0,0
38450,-133.333333333333,4,2,1,50,0,0
39284,-100,4,2,1,50,0,0
42895,-133.333333333333,4,2,1,50,0,0
43728,-100,4,2,1,50,0,0
44700,-100,4,2,2,50,0,0
44839,-100,4,2,1,50,0,0
46506,-83.3333333333333,4,2,1,50,0,0
47061,-100,4,2,1,50,0,0
47339,-133.333333333333,4,2,1,50,0,0
48173,-100,4,2,1,50,0,0
49561,-133.333333333333,4,2,1,50,0,0
50673,-100,4,2,1,50,0,0
71784,-111.111111111111,4,2,1,45,0,0
85117,-100,4,2,1,50,0,0
87339,-90.9090909090909,4,2,1,55,0,0
88173,-83.3333333333333,4,2,1,60,0,0
88450,-76.9230769230769,4,2,1,65,0,0
88728,-71.4285714285714,4,2,1,70,0,0
89006,-133.333333333333,4,2,1,60,0,0
89492,-133.333333333333,4,2,1,5,0,0
89561,-90.9090909090909,4,2,1,70,0,0
97895,-83.3333333333333,4,2,1,70,0,0
98173,-90.9090909090909,4,2,1,70,0,0
99561,-76.9230769230769,4,2,1,70,0,0
99839,-90.9090909090909,4,2,1,70,0,0
100673,-83.3333333333333,4,2,1,70,0,0
100950,-90.9090909090909,4,2,1,70,0,0
102895,-76.9230769230769,4,2,1,70,0,0
103173,-90.9090909090909,4,2,1,70,0,0
103728,-80,4,2,1,70,0,0
104006,-90.9090909090909,4,2,1,70,0,0
105117,-83.3333333333333,4,2,1,70,0,0
105395,-90.9090909090909,4,2,1,70,0,0
106784,-74.0740740740741,4,2,1,70,0,0
107061,-90.9090909090909,4,2,1,65,0,0
111784,-83.3333333333333,4,2,1,65,0,0
112061,-90.9090909090909,4,2,1,65,0,0
116228,-166.666666666667,4,2,3,45,0,0
120673,-333.333333333333,4,2,3,40,0,0
124561,-333.333333333333,4,2,1,50,0,0
125117,-166.666666666667,4,2,2,50,0,0
134006,-100,4,2,2,50,0,0
135117,-166.666666666667,4,2,2,50,0,0
138450,-100,4,2,2,50,0,0
139561,-166.666666666667,4,2,2,50,0,0
140534,-100,4,2,2,50,0,0
141784,-166.666666666667,4,2,2,50,0,0
142895,-100,4,2,1,60,0,0
144006,-133.333333333333,4,2,1,60,0,0
144561,-83.3333333333333,4,2,1,60,0,0
144839,-100,4,2,1,60,0,0
145325,-100,4,2,1,5,0,0
145395,-100,4,2,1,60,0,0
146784,-125,4,2,1,60,0,0
147339,-100,4,2,1,60,0,0
148450,-133.333333333333,4,2,1,60,0,0
149006,-83.3333333333333,4,2,1,60,0,0
149284,-100,4,2,1,60,0,0
155811,-105.263157894737,4,2,1,60,0,0
155950,-133.333333333333,4,2,1,60,0,0
156089,-181.818181818181,4,2,1,60,0,0
156228,-100,4,2,1,60,0,0
157339,-125,4,2,1,60,0,0
157895,-83.3333333333333,4,2,1,60,0,0
158450,-100,4,2,1,60,0,0
160603,-100,4,2,1,15,0,0
160673,-100,4,2,1,55,0,0
179284,-100,4,2,2,40,0,0
180673,-153.846153846154,4,2,1,45,0,0
186784,-100,4,2,1,45,0,0
187339,-153.846153846154,4,2,1,45,0,0
189561,-117.647058823529,4,2,1,45,0,0
197895,-83.3333333333333,4,2,1,60,0,0
198450,-71.4285714285714,4,2,1,70,0,0
198728,-52.6315789473684,4,2,1,70,0,0
199006,-111.111111111111,4,2,1,55,0,0
202339,-55.5555555555556,4,2,1,55,0,0
202825,-66.6666666666667,4,2,1,5,0,0
202895,-100,4,2,1,55,0,0
206784,-52.6315789473684,4,2,1,70,0,0
206923,-66.6666666666667,4,2,1,70,0,0
208173,-100,4,2,1,55,0,0
214006,-90.9090909090909,4,2,1,60,0,0
214978,-90.9090909090909,4,2,1,65,0,0
216228,-90.9090909090909,4,2,1,70,0,0
230325,-90.9090909090909,4,2,1,5,0,0
230395,-90.9090909090909,4,2,1,70,0,0
234006,-76.9230769230769,4,2,1,75,0,0
241784,-100,4,2,1,65,0,0
242895,-133.333333333333,4,2,1,45,0,0
246228,-333.333333333333,4,2,3,40,0,0
247339,-200,4,2,3,45,0,0
251784,-500,4,2,3,40,0,0
274006,-105.263157894737,4,2,1,50,0,0
278311,-100,4,2,1,50,0,0
291784,-100,4,2,1,60,0,0
326506,-100,4,2,1,50,0,0
326645,-200,4,2,1,40,0,0
327339,-200,4,2,2,65,0,0
327617,-76.9230769230769,4,2,1,65,0,0
328450,-66.6666666666667,4,2,1,65,0,0
328728,-76.9230769230769,4,2,1,65,0,0
336228,-71.4285714285714,4,2,1,70,0,0
340673,-71.4285714285714,4,2,2,75,0,0
340742,-71.4285714285714,4,2,1,75,0,0
341784,-71.4285714285714,4,2,2,75,0,0
341853,-71.4285714285714,4,2,1,75,0,0
343728,-66.6666666666667,4,2,1,75,0,0
344839,-71.4285714285714,4,2,2,80,0,0
345117,-588.235294117647,4,2,1,40,0,0
345152,-588.235294117647,4,2,1,15,0,0
346784,-588.235294117647,4,2,2,15,0,0
349561,-588.235294117647,4,2,1,5,0,0
356228,-166.666666666667,4,2,2,40,0,0
374006,-117.647058823529,4,2,1,50,0,0
391784,-105.263157894737,4,2,1,60,0,0
395950,-222.222222222221,4,2,1,60,0,0
396228,-86.9565217391302,4,2,1,60,0,0
396645,-105.263157894737,4,2,1,60,0,0
398450,-222.222222222221,4,2,1,60,0,0
398867,-105.263157894737,4,2,1,60,0,0
400673,-95.238095238095,4,2,1,60,0,0
400950,-105.263157894737,4,2,1,60,0,0
402895,-95.238095238095,4,2,1,60,0,0
403728,-86.9565217391302,4,2,1,60,0,0
405950,-95.2380952380952,4,2,1,45,0,0
411506,-181.818181818182,4,2,1,40,0,0
411784,-105.263157894737,4,2,1,35,0,0
414006,-105.263157894737,4,2,1,30,0,0
416228,-105.263157894737,4,2,1,25,0,0
418520,-105.263157894737,4,2,1,25,0,0
422895,-105.263157894737,4,2,1,20,0,0
425117,-105.263157894737,4,2,1,15,0,0
427339,-105.263157894737,4,2,1,5,0,0

[Colours]
Combo1 : 196,204,132
Combo2 : 213,211,202
Combo3 : 153,156,172
Combo4 : 123,85,202
Combo5 : 193,146,194
Combo6 : 0,111,134
Combo7 : 104,230,189
Combo8 : 99,169,112

[HitObjects]
256,192,673,12,0,9492,2:0:0:0:
504,234,9561,70,0,L|505:229,1,3.75,6|0,0:3|0:0,0:0:0:0:
256,192,9631,12,0,18381,0:0:0:0:
509,221,18450,53,6,3:3:0:0:
223,49,18867,2,0,B|299:37|312:85|383:70,1,146.249993305207,2|0,0:0|0:0,0:0:0:0:
441,57,19423,1,0,0:0:0:0:
441,57,19561,1,0,1:0:0:0:
335,326,19839,6,0,P|358:330|400:343,1,48.7499977684022,2|0,0:0|0:0,0:0:0:0:
415,265,20117,2,0,P|371:252|299:248,1,97.4999955368044
319,247,20464,1,0,3:0:0:0:
319,247,20534,1,0,3:0:0:0:
290,83,20673,102,0,P|250:86|250:137,1,97.4999955368044,2|0,3:0|0:0,0:0:0:0:
152,173,21089,2,0,P|113:202|137:244,1,97.4999955368044,2|0,0:2|0:0,0:0:0:0:
51,304,21506,2,0,P|35:346|73:371,1,97.4999955368044,2|0,1:2|0:0,0:0:0:0:
299,316,22200,22,0,B|332:341|332:341|356:275,1,89.9999972534181,2|0,1:2|1:0,0:0:0:0:
495,226,22478,6,2,L|420:218,1,75,0|2,1:0|0:0,0:0:0:0:
400,212,22686,1,0,3:0:0:0:
374,213,22756,1,0,3:0:0:0:
440,136,22895,70,0,B|417:123|394:119|394:119|371:70|414:27,2,146.249993305207,6|2|0,3:0|0:0|0:0,0:0:0:0:
256,231,24006,2,0,P|203:237|110:284,1,146.249993305207,2|0,1:2|0:0,0:0:0:0:
64,328,24561,1,4,3:0:0:0:
64,328,24839,6,0,L|29:316,2,24.3749988842011,0|0|0,3:0|3:0|3:0,3:0:0:0:
18,244,25117,2,0,P|23:211|25:85,1,146.249993305207,2|2,3:0|0:0,0:0:0:0:
102,102,25673,2,0,P|98:78|87:55,1,48.7499977684022,2|0,0:0|0:0,0:0:0:0:
142,6,25950,1,0,1:0:0:0:
142,6,26228,101,2,0:0:0:0:
208,22,26367,1,0,0:0:0:0:
287,17,26506,1,0,0:0:0:0:
363,42,26645,1,2,0:2:0:0:
363,42,26784,2,0,L|356:108,1,48.7499977684022,0|0,1:0|0:0,0:0:0:0:
330,204,27061,5,0,3:0:0:0:
343,211,27131,1,0,3:0:0:0:
357,209,27200,1,0,3:0:0:0:
288,282,27339,2,0,P|315:287|437:300,2,146.249993305207,6|2|0,3:0|0:0|0:0,0:0:0:0:
221,346,28311,1,2,0:0:0:0:
116,322,28450,1,0,1:0:0:0:
116,322,28728,102,0,P|96:329|65:347,1,48.7499977684022,2|0,0:3|0:0,0:0:0:0:
16,288,29006,2,0,P|58:263|103:247,1,97.4999955368044,2|0,0:0|0:0,0:0:0:0:
103,247,29353,1,0,3:0:0:0:
103,247,29423,1,0,3:0:0:0:
54,143,29561,6,0,B|101:134|101:134|134:181,1,97.4999955368044,2|0,3:0|0:0,0:0:0:0:
224,235,29978,2,0,B|271:226|271:226|304:273,1,97.4999955368044,2|0,0:3|0:0,0:0:0:0:
383,342,30395,2,0,B|430:333|430:333|463:380,1,97.4999955368044,2|0,1:2|0:0,0:0:0:0:
381,96,31089,21,2,0:0:0:0:
459,114,31228,2,0,P|432:121|373:79,1,86.2500016450882,0|0,1:0|0:0,0:0:0:0:
200,25,31506,101,0,3:0:0:0:
200,25,31575,1,0,3:0:0:0:
270,46,31714,1,0,3:0:0:0:
270,46,31784,86,0,P|210:47|111:69,1,146.249993305207,4|2,3:0|0:0,0:0:0:0:
49,99,32339,2,0,P|26:94|-5:82,2,48.7499977684022,0|2|0,0:0|0:0|0:0,0:0:0:0:
253,192,32895,2,0,L|229:348,1,146.249993305207,0|0,1:0|0:0,0:0:0:0:
230,336,33450,1,2,0:0:0:0:
501,251,33728,2,0,L|493:215,2,24.3749988842011,0|0|0,3:0|3:0|3:0,3:0:0:0:
459,364,34006,1,14,3:0:0:0:
441,347,34561,38,0,B|395:300|411:210|512:253|521:148|454:107,1,269.999991760254,2|0,0:3|0:0,0:0:0:0:
282,34,35950,101,0,3:0:0:0:
282,34,36020,1,0,3:0:0:0:
211,56,36159,1,0,1:0:0:0:
211,56,36228,102,0,L|41:45,1,150,6|0,3:2|0:0,0:0:0:0:
12,108,36645,1,2,0:0:0:0:
96,188,36784,2,0,P|182:189|224:192,1,112.5,8|0,0:0|0:0,0:0:0:0:
234,202,37061,2,0,L|277:196,2,37.5,0|2|0,0:0|0:3|0:0,0:0:0:0:
386,219,37339,1,4,0:3:0:0:
187,268,37617,54,0,B|213:240|213:240|199:125,1,134.999995880127,2|0,3:0|0:0,0:0:0:0:
176,77,37895,1,8,0:0:0:0:
461,23,38173,2,0,B|448:48|448:48|406:71|349:61,1,112.5,6|0,0:3|0:0,0:0:0:0:
354,66,38450,38,0,B|413:147|360:136|424:219,1,168.750006437302,2|2,3:2|0:0,0:0:0:0:
306,294,39006,1,8,0:0:0:0:
306,294,39145,1,0,0:0:0:0:
251,184,39284,69,2,0:3:0:0:
331,211,39423,1,0,1:0:0:0:
225,269,39561,2,0,P|177:270|130:274,1,75,4|0,0:3|0:0,0:0:0:0:
80,305,39839,1,2,3:0:0:0:
145,103,39978,1,2,3:0:0:0:
70,67,40117,2,0,P|12:95|37:178,1,150,8|6,0:0|0:3,0:0:0:0:
24,169,40673,38,0,P|82:157|199:153,1,150,2|0,3:0|0:0,0:0:0:0:
229,214,41089,1,2,0:0:0:0:
405,104,41228,2,0,P|354:112|322:133,1,75,8|2,0:0|0:0,0:0:0:0:
305,198,41506,1,0,0:0:0:0:
252,136,41645,1,0,1:0:0:0:
388,182,41784,2,0,P|412:212|430:306,1,112.5,6|0,0:3|0:0,0:0:0:0:
430,281,42061,2,0,P|434:243|439:206,1,75,0|0,3:0|0:0,0:0:0:0:
177,296,42339,1,8,0:0:0:0:
177,296,42617,2,0,P|133:261|45:268,1,112.5,6|0,0:3|0:0,0:0:0:0:
55,269,42895,70,0,B|160:263|105:221|217:224,1,168.750006437302,2|2,3:2|0:0,0:0:0:0:
285,260,43450,1,8,0:0:0:0:
285,260,43589,1,0,0:0:0:0:
411,176,43728,37,2,0:3:0:0:
331,183,43867,1,8,0:0:0:0:
459,342,44006,2,0,P|453:300|451:259,1,75,4|0,0:3|0:0,0:0:0:0:
491,196,44284,1,0,3:0:0:0:
327,111,44423,1,2,3:0:0:0:
412,92,44561,69,8,0:0:0:0:
342,202,44700,2,0,P|314:195|295:189,1,37.5,2|0,0:0|0:0,0:0:0:0:
244,127,44839,2,0,B|196:136|196:136|181:154|181:154|131:164,1,112.5,6|0,0:3|0:0,0:0:0:0:
61,180,45117,37,0,3:0:0:0:
61,180,45395,1,0,0:0:0:0:
139,234,45534,1,2,0:3:0:0:
204,129,45673,2,0,P|212:171|227:254,1,112.5,8|0,0:0|0:0,0:0:0:0:
214,268,45950,2,0,P|217:298|219:319,2,37.5,0|2|0,0:0|0:3|1:0,0:0:0:0:
349,236,46228,1,4,0:3:0:0:
139,234,46506,70,0,B|207:242|207:242|214:249|214:249|301:261,1,134.999995880127,2|0,3:0|0:0,0:0:0:0:
349,236,46784,1,8,0:0:0:0:
364,32,47061,2,0,P|396:70|371:138,1,112.5,6|0,0:3|0:0,0:0:0:0:
384,128,47339,38,0,L|261:117,1,112.500004291535,2|2,3:0|0:0,0:0:0:0:
194,138,47756,1,2,0:3:0:0:
388,237,47895,1,8,0:0:0:0:
388,237,48173,2,0,P|345:229|314:236,1,75,2|0,0:0|1:0,0:0:0:0:
238,226,48450,70,0,P|235:275|233:343,1,112.5,6|0,0:3|0:0,0:0:0:0:
233,338,48728,1,0,3:0:0:0:
157,368,48867,1,2,0:3:0:0:
124,228,49006,2,0,P|126:180|129:142,1,75,8|0,0:0|0:0,0:0:0:0:
23,47,49284,2,0,P|29:99|34:173,1,112.5,4|0,0:3|0:0,0:0:0:0:
21,178,49561,38,0,P|82:183|142:82,1,168.750006437302,2|2,3:0|0:3,0:0:0:0:
125,30,50117,1,8,0:0:0:0:
125,30,50256,1,0,0:0:0:0:
214,147,50395,69,2,0:0:0:0:
228,73,50534,1,2,1:3:0:0:
260,210,50673,2,0,B|292:200|323:201|323:201|342:212|342:212|371:214|430:197,2,150,4|0|8,0:3|3:0|0:0,0:0:0:0:
322,63,51367,1,2,0:0:0:0:
322,63,51506,1,4,0:3:0:0:
322,63,51645,1,2,0:3:0:0:
398,213,51784,38,0,P|446:167|438:96,1,112.5,2|0,3:0|0:0,0:0:0:0:
449,123,52061,2,0,P|464:137|485:150,2,37.5,0|0|2,0:0|0:0|0:3,0:0:0:0:
410,284,52339,2,0,P|381:244|354:128,1,150,8|0,0:0|0:0,0:0:0:0:
307,88,52756,1,0,1:0:0:0:
224,263,52895,70,0,P|256:242|286:192,1,75,4|0,0:3|0:0,0:0:0:0:
234,144,53173,1,2,3:0:0:0:
268,343,53450,2,0,P|241:316|131:273,1,150,8|4,0:0|0:3,0:0:0:0:
98,195,53867,1,4,0:3:0:0:
205,102,54006,21,6,0:2:0:0:
25,182,54284,2,0,P|62:188|113:198,1,75,2|2,0:0|0:3,0:0:0:0:
84,368,54561,22,0,B|61:333|61:333|83:244,1,112.5,8|0,0:0|0:0,0:0:0:0:
97,195,54839,2,0,P|139:192|164:193,2,37.5,2|2|0,0:0|0:3|1:0,0:0:0:0:
270,22,55117,85,4,0:3:0:0:
134,193,55395,2,0,P|175:203|252:220,1,112.5,2|0,3:2|0:0,0:0:0:0:
98,268,55673,21,8,0:0:0:0:
244,219,55950,2,0,B|276:212|276:212|315:217|353:260,1,112.5,6|0,0:3|0:0,0:0:0:0:
371,273,56228,86,0,P|421:275|466:180,1,150,2|2,3:2|0:0,0:0:0:0:
462,118,56645,1,2,0:3:0:0:
368,66,56784,21,8,0:0:0:0:
368,66,56923,1,0,0:0:0:0:
267,182,57061,2,0,P|302:202|345:208,1,75,2|0,0:0|1:0,0:0:0:0:
255,53,57339,85,6,0:3:0:0:
255,53,57478,1,6,0:3:0:0:
138,251,57617,2,0,P|143:212|166:178,1,75,2|2,3:2|0:3,0:0:0:0:
86,12,57895,22,0,P|57:54|92:155,1,150,8|0,0:0|0:0,0:0:0:0:
279,351,58311,1,0,1:0:0:0:
279,351,58381,1,0,1:0:0:0:
279,351,58450,86,0,P|320:323|320:252,1,112.5,2|0,3:2|0:0,0:0:0:0:
307,238,58728,1,2,0:0:0:0:
242,187,58867,1,2,0:3:0:0:
159,193,59006,22,0,L|62:204,1,75,8|0,0:0|0:0,0:0:0:0:
242,187,59284,1,2,0:0:0:0:
295,124,59423,1,0,1:0:0:0:
374,137,59561,86,0,L|471:148,1,75,6|0,0:3|0:0,0:0:0:0:
295,124,59839,1,0,3:2:0:0:
248,57,59978,1,0,0:0:0:0:
164,72,60117,22,0,L|77:86,1,75,8|0,0:0|0:0,0:0:0:0:
9,175,60395,2,0,P|57:166|127:154,1,112.5,4|0,0:3|0:0,0:0:0:0:
195,158,60673,2,0,P|144:167|60:180,1,112.5,6|0,3:0|0:0,0:0:0:0:
9,175,60950,85,2,0:0:0:0:
31,265,61089,1,2,0:3:0:0:
50,354,61228,1,8,0:0:0:0:
166,116,61506,21,2,0:3:0:0:
159,190,61645,1,8,0:0:0:0:
152,264,61784,1,4,0:3:0:0:
262,53,62061,85,0,3:0:0:0:
273,187,62200,1,2,3:0:0:0:
285,321,62339,2,0,L|288:364,2,37.5,8|2|0,0:0|0:0|0:0,0:0:0:0:
342,121,62617,22,0,P|397:119|433:191,1,112.5,4|0,0:3|0:0,0:0:0:0:
437,235,62895,85,4,0:1:0:0:
203,264,63173,2,0,P|213:223|223:186,1,75,2|2,0:0|0:3,0:0:0:0:
108,63,63450,22,0,P|107:110|164:150,1,112.5,8|0,0:0|0:0,0:0:0:0:
221,191,63728,2,0,P|254:187|262:186,2,37.5,2|2|0,0:0|0:3|1:0,0:0:0:0:
406,234,64006,85,4,0:3:0:0:
258,186,64284,2,0,B|266:137|266:137|262:125|262:125|271:68,1,112.5,2|0,3:2|0:0,0:0:0:0:
185,167,64561,21,8,0:0:0:0:
269,75,64839,2,0,P|319:71|396:60,1,112.5,6|0,0:3|0:0,0:0:0:0:
404,46,65117,86,0,P|435:81|388:173,1,150,2|2,3:2|0:0,0:0:0:0:
329,151,65534,1,2,0:3:0:0:
400,252,65673,21,8,0:0:0:0:
400,252,65811,1,0,0:0:0:0:
292,344,65950,2,0,P|256:335|228:303,1,75,2|0,0:0|1:0,0:0:0:0:
202,106,66228,85,6,0:3:0:0:
202,106,66367,1,6,0:3:0:0:
119,302,66506,2,0,P|149:280|165:247,1,75,2|2,3:2|0:3,0:0:0:0:
136,162,66784,22,0,P|107:120|117:14,1,150,8|2,0:0|0:0,0:0:0:0:
369,164,67200,1,0,1:0:0:0:
369,164,67270,1,0,1:0:0:0:
369,164,67339,86,0,B|339:196|339:196|280:206|239:162,1,150,2|2,3:0|0:0,0:0:0:0:
168,131,67756,1,2,0:3:0:0:
125,265,67895,1,8,0:0:0:0:
193,220,68034,1,0,0:0:0:0:
82,195,68173,2,0,P|36:186|7:188,2,75,2|2|6,0:0|1:3|0:3,0:0:0:0:
328,288,68728,1,0,3:0:0:0:
82,195,69006,22,0,P|113:146|121:114,1,75,8|0,0:0|0:0,0:0:0:0:
229,66,69284,2,0,P|211:106|210:190,1,112.5,4|0,0:0|0:0,0:0:0:0:
194,207,69561,2,0,P|236:176|303:147,1,112.5,6|0,3:0|0:0,0:0:0:0:
328,139,69839,85,2,0:0:0:0:
426,168,69978,1,2,0:3:0:0:
445,69,70117,1,8,0:0:0:0:
267,268,70395,21,2,0:0:0:0:
343,283,70534,1,8,0:0:0:0:
358,209,70673,1,2,0:3:0:0:
84,301,70950,85,2,3:2:0:0:
256,344,71089,1,0,3:0:0:0:
292,171,71228,2,0,L|299:125,2,37.5,10|0|0,0:0|0:0|0:0,0:0:0:0:
104,220,71506,22,0,P|82:188|95:108,1,112.5,4|0,0:3|0:0,0:0:0:0:
53,111,71784,70,0,B|102:77|140:106|191:65,1,134.999995880127,6|0,3:2|0:0,0:0:0:0:
307,11,72200,2,0,P|302:47|302:154,1,134.999995880127,8|0,0:0|0:0,0:0:0:0:
301,145,72617,1,4,3:0:0:0:
296,161,72895,2,0,P|332:164|418:180,1,101.249996910095
396,174,73173,2,0,P|392:198|388:249,1,67.4999979400635
376,320,73450,1,4,1:2:0:0:
307,242,73589,1,2,0:0:0:0:
376,320,73728,1,2,0:0:0:0:
489,258,73867,1,8,0:0:0:0:
293,322,74006,102,0,P|257:330|153:365,1,134.999995880127,2|0,3:0|0:0,0:0:0:0:
163,360,74561,1,2,0:0:0:0:
194,254,74700,2,0,P|187:223|185:175,1,67.4999979400635,0|4,3:0|3:0,0:0:0:0:
80,142,74978,1,8,0:0:0:0:
104,224,75117,1,2,0:0:0:0:
104,224,75256,1,2,0:0:0:0:
157,117,75395,2,0,P|166:69|97:22,1,134.999995880127,8|0,0:0|3:0,0:0:0:0:
247,92,75811,2,0,B|253:73|245:42|245:42|256:10,2,67.4999979400635,0|0|0,3:0|1:0|3:0,0:0:0:0:
311,231,76228,5,2,3:0:0:0:
311,231,76506,1,2,0:0:0:0:
467,181,76645,2,0,P|422:155|398:147,1,67.4999979400635,8|2,0:0|0:0,0:0:0:0:
336,163,76923,1,2,3:2:0:0:
421,255,77061,1,4,3:0:0:0:
351,316,77200,2,0,B|258:295|241:374|141:338,1,202.499993820191,0|2,0:0|0:0,0:0:0:0:
104,286,77756,1,0,3:0:0:0:
0,346,77895,1,8,0:0:0:0:
160,196,78173,1,2,0:0:0:0:
66,126,78311,1,2,3:2:0:0:
160,196,78450,102,0,L|151:95,1,67.4999979400635,2|0,3:0|0:0,0:0:0:0:
215,62,78728,1,0,0:0:0:0:
247,199,78867,2,0,B|293:211|293:211|320:236|320:236|384:253,1,134.999995880127,8|0,0:0|3:0,0:0:0:0:
419,189,79284,2,0,L|385:331,2,134.999995880127,2|2|2,3:2|0:0|0:0,0:0:0:0:
500,260,79978,1,2,0:0:0:0:
429,112,80117,2,0,P|444:113|507:135,1,67.4999979400635,8|0,0:0|0:0,0:0:0:0:
325,186,80395,2,0,P|303:180|261:157,1,67.4999979400635,2|0,0:0|3:0,0:0:0:0:
182,55,80673,5,2,3:0:0:0:
182,55,80950,1,0,0:0:0:0:
254,13,81089,2,0,L|275:101,1,67.4999979400635,8|0,0:0|0:0,0:0:0:0:
120,124,81367,1,0,3:0:0:0:
120,124,81506,2,0,L|91:268,1,134.999995880127,2|2,3:2|0:0,0:0:0:0:
93,256,82061,1,0,0:0:0:0:
162,332,82200,1,0,3:0:0:0:
11,276,82339,1,8,0:0:0:0:
325,181,82617,102,0,L|311:136,2,33.7499989700318,2|2|0,0:0|0:0|3:0,0:0:0:0:
364,262,82895,2,0,P|366:217|399:132,1,134.999995880127,2|0,3:0|0:0,0:0:0:0:
214,22,83450,2,0,P|211:45|244:147,1,101.249996910095,2|0,0:0|3:0,0:0:0:0:
226,120,83728,2,0,P|196:116|82:152,1,134.999995880127,4|2,3:0|0:0,0:0:0:0:
37,192,84145,1,2,0:0:0:0:
134,215,84284,1,2,0:0:0:0:
66,311,84423,1,0,3:0:0:0:
220,273,84561,1,8,0:0:0:0:
220,273,84839,2,0,L|226:373,1,67.4999979400635,0|0,0:0|1:0,0:0:0:0:
224,340,85048,1,0,1:0:0:0:
224,340,85117,6,0,B|268:334|293:344|293:344|304:354|304:354|333:369|384:363,1,150,2|2,3:0|0:0,0:0:0:0:
509,266,85534,1,8,0:0:0:0:
406,292,85673,2,0,P|399:231|399:209,1,75,2|0,0:0|3:0,0:0:0:0:
313,265,85950,2,0,P|322:159|331:115,1,150,2|0,3:0|0:0,0:0:0:0:
330,116,86506,2,0,P|298:110|232:83,1,75,2|0,0:0|3:0,0:0:0:0:
79,205,86784,1,8,0:0:0:0:
79,205,87061,1,2,0:0:0:0:
190,162,87200,1,0,1:0:0:0:
58,109,87339,102,0,P|54:153|6:269,1,165.000005035401,2|0,3:0|0:0,0:0:0:0:
101,365,87756,1,8,1:0:0:0:
244,234,87895,1,0,0:0:0:0:
113,283,88034,85,0,3:0:0:0:
113,283,88103,1,0,3:0:0:0:
113,283,88173,2,0,P|92:306|30:352,1,89.9999972534181,8|0,1:0|0:0,0:0:0:0:
272,312,88450,2,0,P|312:324|388:384,1,97.4999955368044,10|0,1:0|0:0,0:0:0:0:
189,169,88728,2,0,P|172:127|196:48,1,104.999996795654,8|0,1:0|0:0,0:0:0:0:
490,30,89006,102,0,B|454:63|461:122|461:122|413:91|366:101,1,196.875007510186,10|0,1:0|0:0,0:0:0:0:
312,39,89561,22,0,B|288:49|275:70|275:70|256:131|313:184,1,165.000005035401,6|0,1:0|0:0,0:0:0:0:
180,236,89978,2,0,B|122:247|122:247|86:273|86:273|18:287,1,165.000005035401,0|0,3:0|0:0,0:0:0:0:
249,375,90395,2,0,L|263:250,1,123.75000377655,8|0,1:0|0:0,0:0:0:0:
262,252,90673,1,2,0:0:0:0:
417,49,90950,1,0,3:0:0:0:
318,75,91089,1,2,0:0:0:0:
410,201,91228,2,0,P|441:200|505:182,1,82.5000025177003,8|0,1:0|0:0,0:0:0:0:
172,106,91506,2,0,P|133:107|35:131,1,123.75000377655,2|0,0:0|0:0,0:0:0:0:
26,119,91784,6,0,P|15:184|117:222,1,165.000005035401,2|0,3:0|0:0,0:0:0:0:
177,194,92200,1,0,0:0:0:0:
124,309,92339,1,2,0:0:0:0:
177,194,92478,1,2,0:0:0:0:
282,301,92617,2,0,P|300:315|368:340,1,82.5000025177003,8|0,1:0|0:0,0:0:0:0:
430,144,92895,101,2,1:3:0:0:
301,210,93034,1,2,1:3:0:0:
472,211,93173,5,2,3:0:0:0:
478,213,93311,1,2,0:0:0:0:
318,135,93450,101,8,1:0:0:0:
311,132,93589,1,2,0:0:0:0:
385,234,93728,1,2,0:0:0:0:
188,285,93867,1,0,1:0:0:0:
148,303,93936,1,0,1:0:0:0:
119,308,94006,6,0,P|101:187|124:147,1,165.000005035401,2|0,3:0|0:0,0:0:0:0:
290,12,94423,1,8,1:0:0:0:
290,12,94561,2,0,P|288:44|273:103,1,82.5000025177003,2|0,0:0|0:0,0:0:0:0:
358,156,94839,2,0,P|370:120|375:18,1,123.75000377655,4|2,3:0|0:0,0:0:0:0:
376,34,95117,1,2,0:0:0:0:
460,82,95256,1,0,3:0:0:0:
432,170,95395,1,0,3:0:0:0:
510,233,95534,1,8,3:0:0:0:
280,319,95673,1,12,1:0:0:0:
280,319,95950,2,0,P|210:358|141:349,1,123.75000377655,6|0,0:3|0:0,0:0:0:0:
96,316,96228,102,0,L|86:255,2,41.2500012588501,2|2|2,3:0|0:0|0:0,0:0:0:0:
168,250,96506,1,2,0:0:0:0:
0,330,96645,2,0,B|17:282|10:254|10:254|0:244|0:244|-6:224|12:168,1,165.000005035401,8|0,1:0|0:0,0:0:0:0:
86,110,97061,2,0,L|181:129,1,82.5000025177003,6|0,1:3|0:0,0:0:0:0:
326,203,97339,2,0,L|306:94,1,82.5000025177003,2|0,1:2|0:0,0:0:0:0:
255,45,97617,1,2,0:0:0:0:
392,117,97756,1,2,0:3:0:0:
299,278,97895,2,0,P|339:293|423:198,1,179.999994506836,10|2,1:0|0:0,0:0:0:0:
211,101,98311,1,0,1:0:0:0:
211,101,98381,1,0,1:0:0:0:
211,101,98450,6,0,L|105:117,1,82.5000025177003,6|0,1:2|0:0,0:0:0:0:
46,185,98728,1,2,0:3:0:0:
199,273,98867,1,0,3:0:0:0:
46,185,99006,2,0,L|175:202,1,123.75000377655,2|0,3:2|0:0,0:0:0:0:
197,195,99284,2,0,P|221:198|302:218,1,82.5000025177003,8|0,1:0|0:0,0:0:0:0:
483,155,99561,2,0,P|492:182|430:223,1,97.4999955368044,2|0,0:3|0:0,0:0:0:0:
352,292,99839,2,0,P|357:232|369:145,1,123.75000377655,0|0,3:0|0:0,0:0:0:0:
365,168,100117,1,8,1:0:0:0:
253,122,100256,1,2,0:0:0:0:
278,269,100395,1,2,1:3:0:0:
436,320,100534,101,2,0:0:0:0:
455,326,100603,1,2,0:0:0:0:
475,334,100673,2,0,P|486:308|476:160,2,179.999994506836,2|0|2,3:0|0:0|0:3,0:0:0:0:
328,255,101367,1,2,1:3:0:0:
396,363,101506,2,0,P|358:354|307:326,1,82.5000025177003,8|0,1:0|0:0,0:0:0:0:
104,206,101784,5,2,1:3:0:0:
244,355,101923,1,2,1:3:0:0:
260,209,102061,101,0,3:0:0:0:
116,312,102200,1,0,1:0:0:0:
116,312,102270,1,0,1:0:0:0:
116,312,102339,2,0,P|150:306|220:271,1,82.5000025177003,8|0,1:0|0:0,0:0:0:0:
382,139,102617,2,0,P|348:125|278:49,1,123.75000377655,2|4,3:2|0:3,0:0:0:0:
321,55,102895,6,0,B|282:62|248:38|248:38|235:40|235:40|194:60|219:85|155:108,1,194.999991073609,6|2,3:2|0:0,0:0:0:0:
2,125,103311,1,0,3:0:0:0:
0,38,103450,2,0,P|15:40|86:63,1,82.5000025177003,2|0,0:0|0:0,0:0:0:0:
219,173,103728,1,8,1:0:0:0:
188,268,103867,101,2,0:3:0:0:
188,268,103936,1,2,0:3:0:0:
188,268,104006,1,2,0:0:0:0:
138,173,104145,1,0,1:0:0:0:
274,254,104284,1,0,3:0:0:0:
274,254,104423,1,2,0:0:0:0:
127,341,104561,2,0,P|100:354|21:371,1,82.5000025177003,8|0,1:0|0:0,0:0:0:0:
290,167,104839,2,0,P|303:169|386:207,1,82.5000025177003,2|0,1:3|0:0,0:0:0:0:
512,233,105117,6,0,P|508:266|410:319,1,134.999995880127,2|0,1:2|0:0,0:0:0:0:
430,321,105395,1,0,0:0:0:0:
291,256,105534,1,8,1:0:0:0:
219,368,105673,2,0,P|240:367|301:334,1,82.5000025177003,2|0,1:2|0:0,0:0:0:0:
211,193,105950,2,0,P|245:171|286:165,1,82.5000025177003,2|0,1:2|0:0,0:0:0:0:
455,271,106228,2,0,P|379:256|263:260,1,165.000005035401,2|4,3:0|3:0,0:0:0:0:
188,297,106645,1,12,3:0:0:0:
215,95,106784,2,0,B|174:100|142:115|142:115|93:84|93:84|65:96|21:101,1,202.500000772476,14|6,1:0|0:3,0:0:0:0:
226,384,107200,1,0,1:0:0:0:
226,384,107270,1,0,1:0:0:0:
226,384,107339,102,0,P|224:355|233:289,2,82.5000025177003,4|0|2,1:2|0:0|0:0,0:0:0:0:
317,316,107756,2,0,P|316:274|326:139,1,165.000005035401,0|0,3:0|0:0,0:0:0:0:
505,36,108173,1,8,1:0:0:0:
505,36,108450,2,0,P|497:59|488:128,1,82.5000025177003,2|0,1:2|0:0,0:0:0:0:
332,0,108728,2,0,P|331:25|342:93,1,82.5000025177003,0|0,3:0|0:0,0:0:0:0:
457,192,109006,2,0,P|419:192|328:170,1,123.75000377655,8|0,1:0|0:0,0:0:0:0:
305,149,109284,1,2,1:3:0:0:
216,181,109423,1,2,1:2:0:0:
48,43,109561,6,0,P|127:32|217:73,1,165.000005035401,2|0,3:0|0:0,0:0:0:0:
284,75,109978,2,0,B|311:73|343:66|343:66|360:72|360:72|393:62|459:59,1,165.000005035401,2|2,0:1|0:0,0:0:0:0:
378,147,110395,1,8,1:0:0:0:
499,114,110534,1,2,0:2:0:0:
366,222,110673,101,2,1:3:0:0:
286,168,110811,1,2,1:3:0:0:
361,311,110950,5,0,1:0:0:0:
444,195,111089,1,2,0:0:0:0:
484,203,111159,1,2,0:0:0:0:
511,235,111228,1,8,1:0:0:0:
133,366,111506,1,6,0:3:0:0:
133,366,111784,102,0,P|133:326|136:179,1,179.999994506836,6|0,1:2|0:0,0:0:0:0:
222,125,112200,1,0,3:0:0:0:
298,73,112339,1,2,0:0:0:0:
212,38,112478,1,2,0:0:0:0:
378,137,112617,2,0,P|376:110|382:25,1,82.5000025177003,8|2,1:0|0:0,0:0:0:0:
397,41,112825,1,2,1:2:0:0:
425,34,112895,1,2,1:2:0:0:
461,151,113034,1,0,0:0:0:0:
316,220,113173,2,0,P|313:248|317:353,1,123.75000377655,0|0,3:0|0:0,0:0:0:0:
315,343,113450,2,0,L|363:351,2,41.2500012588501,8|2|0,1:0|0:0|1:0,0:0:0:0:
152,261,113728,2,0,P|124:268|45:271,1,82.5000025177003,2|0,1:3|0:0,0:0:0:0:
0,154,114006,6,0,P|69:188|160:168,1,165.000005035401,2|2,1:2|0:0,0:0:0:0:
332,244,114423,1,0,3:0:0:0:
332,244,114561,2,0,P|351:218|351:156,1,82.5000025177003,2|0,0:0|0:0,0:0:0:0:
227,99,114839,2,0,P|178:149|195:246,1,165.000005035401,8|2,1:0|0:0,0:0:0:0:
276,384,115256,1,2,1:2:0:0:
276,384,115325,1,2,1:2:0:0:
276,384,115395,1,2,3:2:0:0:
141,297,115534,1,2,3:2:0:0:
411,368,115673,1,8,1:0:0:0:
416,371,115950,1,6,0:3:0:0:
467,277,116228,38,0,P|473:231|490:136,1,134.999995880127,2|0,0:0|0:0,0:0:0:0:
461,72,116784,1,2,0:0:0:0:
285,111,117061,1,0,0:0:0:0:
120,42,117339,2,0,P|155:64|217:77,1,89.9999972534181,2|0,0:0|0:0,0:0:0:0:
316,197,117895,2,0,P|273:200|226:220,1,89.9999972534181,2|0,0:0|0:0,0:0:0:0:
87,351,118450,2,0,P|68:312|55:162,2,179.999994506836,2|0|2,0:0|0:0|0:0,0:0:0:0:
256,91,120117,2,0,P|323:74|401:71,1,134.999995880127
388,70,120673,6,0,P|393:103|405:171,1,89.9999972534181,2|0,0:0|0:0,0:0:0:0:
431,228,121784,2,0,P|433:199|445:136,2,89.9999972534181,0|0|2,0:0|0:0|0:0,0:0:0:0:
256,192,123034,12,0,124006,0:0:0:0:
419,53,124561,102,0,B|444:83|444:83|438:122,1,78.7499975967408,8|0,1:2|0:0,1:0:0:0:
376,179,125117,38,0,P|376:212|401:273,1,89.9999972534181,2|0,0:0|0:0,0:0:0:0:
395,264,125464,1,0,0:0:0:0:
395,264,125534,1,0,0:0:0:0:
304,245,125673,2,0,P|273:239|208:234,1,89.9999972534181,8|2,0:0|0:3,0:0:0:0:
131,352,126089,85,0,0:0:0:0:
131,352,126159,1,0,0:0:0:0:
131,352,126228,1,0,1:0:0:0:
81,269,126367,1,0,0:0:0:0:
81,269,126506,1,0,0:0:0:0:
160,225,126645,1,8,0:0:0:0:
160,225,126784,2,0,P|216:233|263:239,1,89.9999972534181,2|8,0:3|0:0,0:0:0:0:
360,160,127200,1,0,1:0:0:0:
360,160,127270,1,0,1:0:0:0:
360,160,127339,22,0,P|354:188|349:208,1,44.999998626709,2|0,0:0|0:0,0:0:0:0:
438,104,127617,2,0,P|443:142|447:162,1,44.999998626709,2|0,0:0|0:0,0:0:0:0:
346,60,127895,1,8,0:0:0:0:
346,60,128034,1,0,0:0:0:0:
349,228,128173,2,0,P|387:235|452:245,2,89.9999972534181,2|2|0,0:3|1:3|0:0,0:0:0:0:
291,168,128867,1,0,1:0:0:0:
204,305,129006,85,2,0:0:0:0:
261,242,129145,1,2,0:0:0:0:
190,315,129284,1,10,0:0:0:0:
276,258,129423,1,2,0:0:0:0:
179,325,129561,2,0,P|146:328|86:338,1,89.9999972534181,2|0,1:3|0:0,0:0:0:0:
276,258,130117,21,10,0:0:0:0:
306,336,130256,1,2,0:0:0:0:
291,248,130395,1,2,0:0:0:0:
296,351,130534,1,2,0:0:0:0:
305,240,130673,2,0,P|308:205|315:144,1,89.9999972534181,2|2,1:2|0:3,0:0:0:0:
382,111,131089,1,8,0:0:0:0:
382,111,131228,2,0,L|484:121,1,89.9999972534181,0|8,0:0|0:0,0:0:0:0:
227,72,131645,1,0,1:0:0:0:
227,72,131714,1,0,1:0:0:0:
227,72,131784,86,0,P|196:86|121:98,1,89.9999972534181,2|0,0:3|0:0,0:0:0:0:
127,95,132131,1,0,0:0:0:0:
113,92,132200,1,0,0:0:0:0:
78,164,132339,2,0,P|89:199|94:241,1,67.4999979400635,10|0,0:0|0:0,0:0:0:0:
92,246,132617,2,0,P|123:231|157:225,1,67.4999979400635,2|0,0:3|0:0,0:0:0:0:
171,228,132895,2,0,P|167:258|163:373,1,134.999995880127,2|8,0:3|0:0,0:0:0:0:
247,357,133450,22,0,L|252:315,2,29.9999990844727,2|2|2,0:0|0:0|0:0,0:0:0:0:
276,184,133728,85,2,0:3:0:0:
333,172,133821,1,2,0:3:0:0:
373,212,133913,1,2,0:3:0:0:
311,249,134006,22,0,B|211:222|251:287|142:247,1,150,2|2,1:2|0:3,0:0:0:0:
114,186,134423,1,0,0:0:0:0:
114,186,134561,1,8,0:0:0:0:
31,215,134700,1,0,0:0:0:0:
31,215,134770,1,0,0:0:0:0:
31,215,134839,1,0,0:0:0:0:
201,173,134978,1,0,1:0:0:0:
211,153,135048,1,0,1:0:0:0:
218,131,135117,86,0,P|224:86|218:31,1,89.9999972534181,2|0,1:3|0:0,0:0:0:0:
143,25,135534,1,8,0:0:0:0:
218,131,135673,2,0,P|261:124|308:122,1,89.9999972534181,2|8,0:3|0:0,0:0:0:0:
491,162,136089,1,0,1:0:0:0:
491,162,136159,1,0,1:0:0:0:
491,162,136228,22,0,P|475:127|467:106,1,44.999998626709,2|0,1:2|0:0,0:0:0:0:
390,89,136506,2,0,L|383:59,2,22.4999993133545
397,251,136784,2,0,P|407:220|413:178,1,67.4999979400635,8|0,0:0|0:0,0:0:0:0:
405,173,137061,1,0,1:0:0:0:
332,309,137200,1,0,0:0:0:0:
408,334,137339,2,0,P|441:326|511:320,1,89.9999972534181,2|2,1:2|0:3,0:0:0:0:
257,293,137756,85,8,0:0:0:0:
337,252,137895,2,0,L|370:245,2,22.4999993133545,2|2|0,0:0|0:0|0:0,0:0:0:0:
123,306,138173,22,0,L|159:297,1,22.4999993133545,8|8,0:0|0:0,0:0:0:0:
252,165,138311,2,0,L|221:161,1,22.4999993133545,8|8,0:0|0:0,0:0:0:0:
166,371,138450,86,0,B|148:270|193:319|169:195,1,150,12|0,1:3|0:0,0:0:0:0:
124,157,138867,1,0,0:3:0:0:
247,66,139006,21,10,0:0:0:0:
165,49,139145,1,2,0:0:0:0:
247,83,139284,1,2,0:0:0:0:
162,64,139423,1,2,0:0:0:0:
249,98,139561,2,0,P|296:90|348:83,1,89.9999972534181,2|0,1:2|0:0,0:0:0:0:
410,103,139978,1,8,0:0:0:0:
214,174,140117,2,0,P|176:167|110:161,1,89.9999972534181,2|8,0:3|0:0,0:0:0:0:
326,266,140534,1,0,1:0:0:0:
326,266,140603,1,0,1:0:0:0:
326,266,140673,86,0,P|364:260|510:261,2,150,2|2|8,1:3|0:3|0:0,0:0:0:0:
157,283,141367,1,0,0:0:0:0:
142,256,141436,1,0,0:0:0:0:
145,225,141506,1,0,0:0:0:0:
216,163,141645,1,0,1:0:0:0:
233,250,141784,2,0,P|241:302|236:348,1,89.9999972534181,2|0,0:3|0:0,0:0:0:0:
237,339,142200,1,2,0:3:0:0:
295,192,142339,22,0,L|327:188,1,22.4999993133545,6|0,0:3|0:0,0:0:0:0:
505,166,142478,2,0,L|472:169,1,22.4999993133545,6|0,0:3|0:0,0:0:0:0:
402,185,142617,1,2,0:2:0:0:
397,180,142686,1,2,0:2:0:0:
402,175,142756,1,2,0:2:0:0:
406,180,142825,1,2,0:2:0:0:
409,185,142895,102,0,P|359:182|241:163,1,150,6|8,3:2|3:0,0:0:0:0:
161,125,143311,1,8,3:0:0:0:
231,263,143450,1,8,0:0:0:0:
102,352,143589,1,0,1:0:0:0:
102,352,143659,1,0,1:0:0:0:
102,352,143728,1,2,2:0:0:0:
231,263,143867,1,8,0:0:0:0:
302,325,144006,2,0,P|320:338|371:356,1,56.2500021457673,0|0,3:0|1:0,0:0:0:0:
141,252,144284,5,0,3:0:0:0:
141,252,144423,1,0,3:0:0:0:
308,331,144561,2,0,P|355:293|336:181,1,179.999994506836,8|0,0:0|1:0,0:0:0:0:
155,115,144978,1,0,1:0:0:0:
155,115,145048,1,0,1:0:0:0:
155,115,145117,102,0,L|16:93,1,112.5
43,97,145395,1,0,3:0:0:0:
69,189,145534,1,0,3:0:0:0:
194,220,145673,1,8,0:0:0:0:
255,362,145811,5,0,1:0:0:0:
255,362,145881,1,0,1:0:0:0:
255,362,145950,1,0,1:0:0:0:
218,290,146089,1,8,0:0:0:0:
295,301,146228,1,0,3:0:0:0:
172,354,146367,1,0,1:0:0:0:
271,225,146506,101,0,3:0:0:0:
271,225,146645,1,0,3:0:0:0:
373,338,146784,2,0,L|386:381,2,30,8|2|0,0:0|1:2|0:0,0:0:0:0:
325,163,147061,1,0,1:0:0:0:
325,163,147131,1,0,1:0:0:0:
325,163,147200,1,0,1:0:0:0:
325,163,147270,1,0,1:0:0:0:
325,163,147339,6,0,B|335:117|329:92|329:92|318:84|318:84|313:57|326:9,1,150,2|4,3:0|3:0,0:0:0:0:
323,19,147756,1,0,3:0:0:0:
192,158,147895,2,0,L|201:238,1,75,8|0,0:0|3:0,0:0:0:0:
204,246,148103,1,0,1:0:0:0:
195,255,148173,1,2,2:0:0:0:
343,362,148311,1,8,0:0:0:0:
390,257,148450,102,0,P|364:275|330:284,1,56.2500021457673,0|0,3:0|1:0,0:0:0:0:
123,374,148728,1,0,3:0:0:0:
123,374,148867,1,0,3:0:0:0:
270,329,149006,2,0,P|315:318|451:378,1,179.999994506836,8|0,0:0|1:0,0:0:0:0:
512,278,149423,1,0,3:0:0:0:
512,278,149492,1,0,3:0:0:0:
512,278,149561,6,0,L|492:187,1,75,2|0,1:2|0:0,0:0:0:0:
403,102,149839,1,0,3:0:0:0:
500,130,149978,1,0,3:0:0:0:
370,185,150117,1,8,0:0:0:0:
277,93,150256,1,0,1:0:0:0:
277,93,150325,1,0,1:0:0:0:
277,93,150395,1,2,0:3:0:0:
140,187,150534,101,8,0:0:0:0:
223,155,150673,1,0,1:0:0:0:
109,123,150811,1,0,1:0:0:0:
277,223,150950,1,0,3:0:0:0:
277,223,151089,1,0,3:0:0:0:
136,222,151228,5,8,0:0:0:0:
205,247,151321,101,8,0:0:0:0:
157,277,151413,5,8,0:0:0:0:
91,308,151506,101,8,0:0:0:0:
45,338,151598,5,8,0:0:0:0:
71,266,151691,101,8,0:0:0:0:
143,308,151784,6,0,P|182:324|290:360,1,150,2|4,3:0|3:0,0:0:0:0:
371,310,152200,1,0,3:0:0:0:
252,262,152339,1,8,0:0:0:0:
367,384,152478,1,0,1:0:0:0:
403,376,152548,1,0,1:0:0:0:
437,368,152617,1,2,2:0:0:0:
504,289,152756,2,0,L|514:204,2,75,8|2|0,0:0|3:0|1:0,0:0:0:0:
287,170,153173,101,0,3:0:0:0:
471,100,153311,1,0,3:0:0:0:
287,170,153450,2,0,B|271:134|265:107|265:107|277:61|310:24,1,150,8|0,0:0|1:0,0:0:0:0:
400,14,153867,1,0,3:0:0:0:
400,14,153936,1,0,3:0:0:0:
400,14,154006,5,2,1:2:0:0:
43,193,154284,1,0,3:0:0:0:
148,243,154423,1,0,3:0:0:0:
2,339,154561,1,8,0:0:0:0:
126,372,154700,1,0,1:0:0:0:
126,372,154770,1,0,1:0:0:0:
126,372,154839,2,0,L|224:354,1,75,2|8,0:0|0:0,0:0:0:0:
371,254,155117,101,0,3:0:0:0:
321,268,155256,1,0,1:0:0:0:
428,189,155395,5,8,3:0:0:0:
335,157,155534,1,8,3:0:0:0:
506,110,155673,101,2,1:3:0:0:
453,294,155811,6,0,L|447:249,1,35.6249990487099,6|0,3:3|0:0,0:0:0:0:
428,189,155950,2,0,L|423:149,1,28.1250010728836,2|0,3:2|0:0,0:0:0:0:
427,111,156089,2,0,L|423:76,1,20.6250006294251,2|0,0:0|0:0,0:0:0:0:
438,54,156228,101,2,1:2:0:0:
166,223,156506,1,4,3:0:0:0:
178,151,156645,1,2,3:0:0:0:
226,262,156784,1,8,0:0:0:0:
109,159,156923,1,0,1:0:0:0:
109,159,156992,1,0,1:0:0:0:
109,159,157061,1,2,0:0:0:0:
292,221,157200,1,8,0:0:0:0:
181,332,157339,2,0,L|103:353,1,60,6|0,3:0|1:0,0:0:0:0:
113,265,157617,5,8,3:0:0:0:
290,357,157756,1,8,3:0:0:0:
447,222,157895,2,0,B|446:195|438:148|438:148|461:130|461:130|454:81|451:36,1,179.999994506836,8|0,0:0|1:0,0:0:0:0:
363,27,158311,1,0,3:0:0:0:
363,27,158381,1,0,3:0:0:0:
363,27,158450,101,2,1:3:0:0:
266,314,158728,1,2,0:0:0:0:
266,314,159006,6,0,B|248:293|269:261|301:302|301:302|276:236|324:184|378:204,1,225,4|0,3:0|2:0,0:0:0:0:
502,232,159561,5,14,1:0:0:0:
270,190,169561,38,0,L|257:319,1,112.5,6|0,0:0|0:0,0:0:0:0:
268,317,169839,2,0,L|262:377,2,37.5,4|0|2,3:0|0:0|0:3,0:0:0:0:
488,228,170117,2,0,P|450:179|397:180,1,112.5,8|0,0:0|0:0,0:0:0:0:
389,156,170395,2,0,P|357:162|308:174,1,75,2|0,0:3|1:0,0:0:0:0:
234,116,170673,1,2,0:0:0:0:
234,116,170811,1,0,1:0:0:0:
110,239,170950,37,4,3:0:0:0:
238,206,171089,1,2,0:0:0:0:
132,159,171228,2,0,P|139:219|149:323,1,150,8|2,0:0|0:0,0:0:0:0:
57,296,171645,1,0,1:0:0:0:
224,364,171784,2,0,P|240:322|252:294,1,75,2|0,0:0|1:0,0:0:0:0:
251,295,172061,1,2,3:0:0:0:
350,62,172339,70,0,P|348:118|359:194,1,112.5,8|0,0:0|0:0,0:0:0:0:
354,173,172617,1,8,3:0:0:0:
390,265,172756,1,0,3:0:0:0:
225,253,172895,2,0,P|270:237|314:228,1,75,2|0,0:3|1:0,0:0:0:0:
460,210,173173,1,4,3:0:0:0:
460,210,173311,1,4,3:0:0:0:
350,62,173450,2,0,P|403:55|432:149,1,150,10|2,0:0|0:3,0:0:0:0:
216,146,173867,1,0,1:0:0:0:
216,146,173936,1,0,1:0:0:0:
216,146,174006,38,0,P|163:131|140:129,1,75,6|0,3:0|0:0,0:0:0:0:
16,42,174284,2,0,P|55:57|95:66,1,75,4|0,3:0|0:0,0:0:0:0:
95,194,174561,2,0,P|102:243|68:351,1,150,8|2,0:0|0:3,0:0:0:0:
188,261,174978,1,8,0:0:0:0:
212,346,175117,1,2,0:0:0:0:
259,219,175256,1,0,1:0:0:0:
282,300,175395,1,0,3:0:0:0:
510,324,175673,70,0,P|435:326|361:339,1,150,10|2,0:0|0:0,0:0:0:0:
282,300,176089,1,0,1:0:0:0:
360,251,176228,1,0,3:0:0:0:
326,28,176506,2,0,P|308:97|307:143,1,112.5,4|0,3:0|0:0,0:0:0:0:
306,137,176784,2,0,P|309:179|312:231,1,75,8|0,0:0|0:0,0:0:0:0:
104,213,177061,2,0,P|101:171|98:119,1,75,2|8,0:3|0:0,0:0:0:0:
99,138,177270,1,0,1:0:0:0:
99,138,177339,38,0,L|19:130,1,75,2|0,0:0|1:0,0:0:0:0:
178,192,177617,2,0,L|262:194,1,75,0|0,3:0|0:0,0:0:0:0:
25,245,177895,1,8,0:0:0:0:
252,193,178173,1,2,0:0:0:0:
377,253,178311,1,0,1:0:0:0:
407,112,178450,69,0,3:0:0:0:
355,166,178728,1,4,3:0:0:0:
407,112,179006,1,0,1:0:0:0:
355,166,179284,2,0,L|346:193,12,18.75,0|0|0|0|0|0|0|0|0|0|0|0|0,2:0|2:0|2:0|2:0|2:0|2:0|2:0|2:0|2:0|2:0|2:0|2:0|2:0,2:0:0:0:
442,322,180673,5,4,0:0:0:0:
442,322,180950,1,0,0:0:0:0:
369,352,181089,2,0,P|333:342|264:345,1,97.4999955368044,2|0,0:3|0:0,0:0:0:0:
266,77,181645,2,0,P|259:116|278:182,1,97.4999955368044,2|0,0:3|0:0,0:0:0:0:
272,171,182061,2,0,P|229:154|166:156,1,97.4999955368044,2|0,0:3|0:0,0:0:0:0:
150,82,182478,1,0,0:0:0:0:
131,89,182617,1,0,0:0:0:0:
117,103,182756,1,0,0:0:0:0:
178,153,182895,70,0,P|176:109|141:-8,2,146.249993305207,2|2|0,0:3|0:3|0:3,0:0:0:0:
458,267,184006,37,0,0:0:0:0:
380,278,184145,1,0,0:0:0:0:
302,290,184284,1,0,0:0:0:0:
364,125,184423,2,0,P|324:124|294:182,1,97.4999955368044,2|0,0:3|0:0,0:0:0:0:
363,203,184839,1,0,0:0:0:0:
149,279,185117,69,2,0:0:0:0:
149,279,185395,1,0,0:0:0:0:
185,215,185534,2,0,P|191:177|190:153,1,48.7499977684022,2|0,0:0|0:0,0:0:0:0:
217,98,185811,2,0,P|180:91|114:96,1,97.4999955368044,2|0,0:3|0:0,0:0:0:0:
316,61,186228,38,0,P|334:98|319:220,1,146.249993305207,2|0,0:3|0:0,0:0:0:0:
373,350,186784,86,0,B|361:316|382:271|382:271|343:231|287:223|229:246,1,225,2|0,0:1|0:0,0:0:0:0:
124,298,187339,102,0,B|219:296|166:332|281:323,1,146.249993305207,2|0,0:3|0:0,0:0:0:0:
307,248,187895,1,2,0:0:0:0:
190,30,188173,1,2,0:0:0:0:
307,248,188450,37,0,0:0:0:0:
315,170,188589,1,0,0:0:0:0:
322,92,188728,1,0,0:0:0:0:
208,228,188867,2,0,P|172:206|176:140,1,97.4999955368044,2|0,0:3|0:0,0:0:0:0:
222,96,189284,1,0,0:0:0:0:
465,142,189561,70,0,P|425:150|387:153,1,63.7500012159348,2|0,3:2|0:0,0:0:0:0:
402,152,189839,1,0,0:0:0:0:
332,112,189978,1,0,0:0:0:0:
364,233,190117,2,0,P|406:244|515:249,1,127.50000243187,0|0,1:0|0:0,0:0:0:0:
261,344,190534,38,0,P|253:303|277:212,1,127.50000243187,2|0,0:3|0:0,0:0:0:0:
374,109,190950,2,0,P|382:150|358:241,1,127.50000243187,2|0,0:3|1:0,0:0:0:0:
363,232,191506,2,0,P|309:217|288:217,1,63.7500012159348
192,237,191784,70,0,P|143:247|60:252,1,127.50000243187,2|0,0:3|0:0,0:0:0:0:
65,252,192200,1,2,0:3:0:0:
33,328,192339,1,0,1:0:0:0:
33,328,192617,1,2,0:0:0:0:
257,130,192895,37,0,3:0:0:0:
328,84,193034,1,0,0:0:0:0:
257,130,193173,1,2,0:0:0:0:
173,32,193311,2,0,P|175:67|179:98,1,63.7500012159348,2|0,0:3|1:0,0:0:0:0:
184,183,193589,1,2,0:2:0:0:
339,118,193728,2,0,P|337:165|330:221,1,95.6250018239022,0|0,3:3|0:0,0:0:0:0:
332,214,194006,70,0,P|321:256|316:289,1,63.7500012159348,6|0,0:3|0:0,0:0:0:0:
346,359,194284,1,0,0:0:0:0:
346,359,194423,1,2,0:0:0:0:
237,255,194561,1,0,1:0:0:0:
237,255,194700,2,0,P|202:244|151:238,1,63.7500012159348,2|0,0:0|0:0,0:0:0:0:
263,345,194978,38,0,P|215:330|134:316,1,127.50000243187,2|0,0:3|0:0,0:0:0:0:
71,262,195395,2,0,B|66:224|68:205|68:205|76:193|76:193|82:164|72:127,2,127.50000243187,2|0|0,0:3|1:0|0:0,0:0:0:0:
174,83,196228,69,2,0:3:0:0:
174,83,196506,1,0,0:0:0:0:
323,125,196645,2,0,P|328:85|334:54,1,63.7500012159348,2|0,0:0|1:0,0:0:0:0:
174,83,196923,2,0,P|169:123|163:154,1,63.7500012159348
332,61,197200,38,0,L|469:42,1,127.50000243187,2|0,0:3|0:0,0:0:0:0:
418,131,197617,2,0,P|457:125|490:119,1,63.7500012159348,2|0,0:0|0:0,0:0:0:0:
309,298,197895,102,0,B|276:265|276:265|289:200,1,89.9999972534181,8|0,1:0|0:0,0:0:0:0:
332,61,198173,1,2,3:0:0:0:
332,61,198450,70,0,B|315:65|290:84|290:84|259:51|259:51|211:114|148:101,1,209.999993591309,6|2,1:0|0:0,0:0:0:0:
61,98,198867,86,0,B|79:81|79:81|73:108|81:145,1,71.2499980974198,2|0,1:0|0:0,0:0:0:0:
168,184,199006,54,0,L|324:199,1,134.999995880127,8|0,0:0|0:0,0:0:0:0:
302,196,199423,1,0,0:0:0:0:
302,196,199561,1,2,0:0:0:0:
224,349,199839,1,0,3:0:0:0:
97,242,200117,2,0,L|69:320,2,67.4999979400635,8|0|0,0:0|0:0|0:0,0:0:0:0:
310,301,200673,6,0,B|338:324|397:321|397:321|409:302|406:255,1,134.999995880127,2|0,3:1|0:0,0:0:0:0:
340,223,201089,1,0,3:0:0:0:
446,164,201228,2,0,P|446:135|429:19,2,134.999995880127,8|0|0,0:0|0:0|0:0,0:0:0:0:
66,295,202061,2,0,L|69:277,6,16.8749994850159,2|0|2|0|2|0|2,0:1|0:0|0:1|0:1|0:1|0:0|0:1,0:0:0:0:
96,311,202339,70,2,B|43:248|86:157|248:236|196:122|246:24|125:-43|-11:20|40:107,1,472.499985580445,10|0,1:0|0:0,1:0:0:0:
17,105,202895,22,0,L|90:121,1,75,2|0,1:2|0:0,0:0:0:0:
90,121,203173,1,0,1:0:0:0:
10,187,203311,1,0,3:0:0:0:
128,231,203450,2,0,L|100:384,1,150,8|0,0:0|0:0,0:0:0:0:
40,303,203867,2,0,L|-11:295,2,37.5,0|0|2,0:0|0:0|0:0,0:0:0:0:
253,374,204284,1,0,3:0:0:0:
459,274,204561,2,0,P|459:236|416:122,1,150,8|0,0:0|0:0,0:0:0:0:
422,131,204978,1,0,0:0:0:0:
292,196,205117,6,0,P|329:199|385:229,2,75,6|0|0,1:2|0:0|0:0,0:0:0:0:
211,145,205534,1,0,3:0:0:0:
270,13,205673,2,0,P|222:19|145:70,1,112.5,8|0,0:0|0:0,0:0:0:0:
129,53,205950,2,0,P|128:80|136:160,1,75,2|0,0:0|0:0,0:0:0:0:
36,225,206228,2,0,P|29:180|30:61,1,150,2|6,1:2|3:0,0:0:0:0:
120,214,206645,1,2,3:0:0:0:
322,229,206784,38,2,B|326:213|326:213|300:188|300:188|314:147,1,71.2499980974198,10|0,1:0|0:0,1:0:0:0:
279,85,206923,22,2,B|301:125|301:125|272:171|272:171|243:181|243:181|218:228|218:228|234:274,1,225.000008583069,6|2,1:3|0:0,1:0:0:0:
263,339,207270,1,2,0:0:0:0:
283,367,207339,1,6,1:2:0:0:
512,180,207756,21,0,3:0:0:0:
403,247,207895,2,0,P|391:202|396:129,1,112.500004291535,8|0,0:0|0:0,0:0:0:0:
474,110,208173,6,0,P|486:160|488:269,1,150,0|2,0:0|0:0,0:0:0:0:
382,364,208589,1,0,0:0:0:0:
191,296,208728,1,0,3:0:0:0:
191,296,209006,2,0,P|150:290|63:265,1,112.5,8|0,0:0|0:0,0:0:0:0:
70,264,209284,1,2,0:0:0:0:
333,180,209492,101,0,0:0:0:0:
333,180,209561,2,0,P|357:177|418:158,1,75,2|0,3:0|0:0,0:0:0:0:
478,118,209839,1,2,0:0:0:0:
382,262,209978,1,0,3:0:0:0:
475,208,210117,2,0,B|487:215|504:232|504:232|529:294|476:343,1,150,8|0,0:0|0:0,0:0:0:0:
376,384,210534,1,2,0:0:0:0:
376,384,210603,1,2,0:0:0:0:
376,384,210673,5,0,0:0:0:0:
230,156,210950,1,0,3:0:0:0:
0,298,211228,2,0,P|56:295|161:265,1,150,8|0,0:0|0:0,0:0:0:0:
217,263,211575,2,0,P|234:252|251:235,2,37.5,2|2|2,0:2|0:0|0:0,0:0:0:0:
230,156,211784,102,0,B|341:188|335:128|468:153,1,225,2|0,3:0|3:0,0:0:0:0:
509,213,212339,1,8,0:0:0:0:
509,213,212617,2,0,P|476:229|432:243,1,75,2|0,0:0|0:0,0:0:0:0:
364,218,212895,2,0,P|367:179|383:130,1,75,2|0,0:3|0:0,0:0:0:0:
436,94,213173,2,0,P|469:109|521:153,1,75,0|0,3:0|0:0,0:0:0:0:
283,321,213450,1,8,0:0:0:0:
283,321,213728,2,0,P|280:292|279:241,1,75,2|0,1:2|0:0,0:0:0:0:
101,52,214006,6,0,P|91:95|87:182,1,123.75000377655,2|0,1:3|0:0,0:0:0:0:
94,199,214284,1,0,0:0:0:0:
215,172,214423,1,0,3:0:0:0:
46,270,214561,2,0,B|86:271|119:292|119:292|124:304|124:304|151:329|204:335,1,165.000005035401,8|0,0:0|0:0,0:0:0:0:
393,364,214978,101,8,1:0:0:0:
399,161,215117,5,2,1:3:0:0:
357,246,215256,1,0,1:0:0:0:
327,141,215395,85,8,1:0:0:0:
433,257,215534,1,0,1:0:0:0:
286,211,215673,101,2,1:3:0:0:
476,147,215811,1,0,1:0:0:0:
250,142,215950,86,0,P|228:148|204:160,1,41.2500012588501,8|0,1:0|0:0,0:0:0:0:
186,145,216089,2,0,P|163:151|144:162,1,41.2500012588501,8|0,1:0|0:0,0:0:0:0:
98,104,216228,22,0,P|57:114|4:116,1,82.5000025177003,6|0,1:1|0:0,0:0:0:0:
80,204,216506,1,2,0:0:0:0:
41,303,216645,1,0,3:0:0:0:
188,347,216784,2,0,P|229:337|282:335,1,82.5000025177003,2|0,0:0|0:0,0:0:0:0:
345,269,217061,1,8,1:0:0:0:
236,221,217200,2,0,P|229:191|227:173,2,41.2500012588501,0|2|2,0:0|0:0|0:3,0:0:0:0:
340,284,217478,1,0,1:0:0:0:
440,214,217617,2,0,P|427:263|423:307,1,82.5000025177003,0|0,3:0|1:0,0:0:0:0:
436,121,217895,5,8,1:0:0:0:
351,162,218034,1,2,0:0:0:0:
351,162,218173,1,2,0:3:0:0:
277,21,218311,1,0,1:0:0:0:
277,21,218381,1,0,1:0:0:0:
277,21,218450,102,0,P|281:75|248:193,1,165.000005035401,6|6,0:0|0:3,0:0:0:0:
173,129,218867,1,0,1:0:0:0:
27,93,219006,2,0,P|78:84|117:67,1,82.5000025177003,2|2,0:0|3:0,0:0:0:0:
173,235,219284,1,8,1:0:0:0:
82,193,219423,1,0,1:0:0:0:
131,322,219561,1,2,1:3:0:0:
259,271,219700,1,2,1:2:0:0:
259,271,219770,1,2,1:2:0:0:
259,271,219839,1,8,3:0:0:0:
208,135,219978,1,8,3:0:0:0:
173,235,220117,5,8,1:0:0:0:
336,219,220256,1,2,0:2:0:0:
351,224,220325,1,2,0:2:0:0:
366,228,220395,2,0,P|385:192|383:145,1,82.5000025177003,6|0,0:3|0:0,0:0:0:0:
382,331,220673,102,0,P|328:314|290:315,1,82.5000025177003,2|0,3:1|0:0,0:0:0:0:
208,358,220950,1,6,0:3:0:0:
119,127,221089,1,8,1:0:0:0:
119,127,221367,1,2,0:0:0:0:
57,184,221506,2,0,P|63:228|69:280,1,82.5000025177003,4|2,3:0|1:3,0:0:0:0:
223,238,221784,1,2,3:2:0:0:
156,279,221923,1,0,3:0:0:0:
150,195,222061,5,8,3:0:0:0:
301,296,222200,1,8,3:0:0:0:
359,122,222339,2,0,L|369:61,2,41.2500012588501,12|2|2,1:0|0:3|0:0,0:0:0:0:
209,41,222617,2,0,L|223:181,1,123.75000377655,6|0,0:3|0:0,0:0:0:0:
221,164,222895,102,0,P|172:164|127:146,1,82.5000025177003,2|0,3:1|0:0,0:0:0:0:
60,167,223173,1,6,0:3:0:0:
253,286,223311,1,8,1:0:0:0:
253,286,223589,1,2,0:0:0:0:
340,260,223728,2,0,P|340:218|347:178,1,82.5000025177003,0|0,3:0|1:0,0:0:0:0:
412,126,224006,1,2,0:0:0:0:
431,200,224145,1,0,1:0:0:0:
329,100,224284,5,8,3:0:0:0:
256,213,224423,1,8,3:0:0:0:
346,325,224561,2,0,P|376:319|400:315,2,41.2500012588501,8|0|2,1:0|1:0|0:0,0:0:0:0:
234,117,224839,2,0,P|182:108|96:93,1,123.75000377655,6|0,0:3|0:0,0:0:0:0:
37,53,225117,102,0,P|22:109|-7:143,1,82.5000025177003,6|0,1:2|0:0,0:0:0:0:
86,185,225395,1,2,1:3:0:0:
40,346,225534,2,0,P|84:327|129:327,1,82.5000025177003,0|2,3:0|0:2,0:0:0:0:
191,268,225811,1,0,1:0:0:0:
286,357,225950,1,8,1:0:0:0:
367,258,226089,1,2,0:3:0:0:
281,167,226228,2,0,P|270:121|272:78,1,82.5000025177003,6|0,1:3|1:0,0:0:0:0:
448,195,226506,2,0,P|459:241|457:284,1,82.5000025177003,8|0,3:0|3:0,0:0:0:0:
366,107,226784,5,8,1:0:0:0:
281,167,226923,2,0,L|262:223,2,41.2500012588501,2|2|0,0:0|0:3|0:0,0:0:0:0:
202,51,227200,1,0,1:0:0:0:
202,51,227270,1,0,1:0:0:0:
202,51,227339,102,0,P|148:45|110:21,1,82.5000025177003,6|0,1:2|0:0,0:0:0:0:
133,226,227617,1,2,0:3:0:0:
164,141,227756,1,0,3:0:0:0:
224,219,227895,5,2,1:2:0:0:
351,217,228034,1,2,1:2:0:0:
258,311,228173,1,8,1:0:0:0:
135,306,228311,1,0,1:0:0:0:
339,290,228450,2,0,P|352:336|354:378,1,82.5000025177003,6|0,1:3|0:0,0:0:0:0:
148,216,228728,2,0,P|88:231|41:231,1,82.5000025177003,6|0,3:0|0:0,0:0:0:0:
81,147,229006,1,8,1:0:0:0:
211,305,229145,1,2,0:0:0:0:
226,300,229214,1,2,0:0:0:0:
241,293,229284,2,0,P|260:257|265:204,1,82.5000025177003,6|0,0:3|0:0,0:0:0:0:
482,73,229561,102,0,P|441:51|318:40,1,165.000005035401,6|2,1:2|0:0,0:0:0:0:
264,93,229978,1,2,1:2:0:0:
444,146,230117,2,2,P|424:191|412:288,1,123.75000377655,2|2,1:2|1:2,1:2:0:0:
411,264,230395,2,0,P|431:308|442:353,1,82.5000025177003,8|0,1:0|0:0,0:0:0:0:
317,213,230673,2,0,P|297:169|286:124,1,82.5000025177003,6|0,1:3|0:0,0:0:0:0:
320,308,230950,5,12,3:0:0:0:
212,257,231089,1,8,3:0:0:0:
168,362,231228,1,8,1:0:0:0:
66,288,231367,1,2,1:2:0:0:
66,288,231436,1,2,1:2:0:0:
66,288,231506,2,0,P|23:272|-22:267,1,82.5000025177003,6|0,0:3|0:0,0:0:0:0:
331,207,231784,102,0,P|351:258|346:387,1,165.000005035401,2|2,3:2|1:3,0:0:0:0:
451,177,232200,1,8,1:0:0:0:
220,182,232339,2,0,P|200:131|205:2,1,165.000005035401,2|6,0:0|1:3,0:0:0:0:
196,324,232895,6,0,P|148:340|94:363,1,82.5000025177003,6|0,1:2|0:0,0:0:0:0:
314,280,233173,1,4,3:0:0:0:
220,182,233311,1,8,3:0:0:0:
340,50,233450,1,12,1:0:0:0:
340,50,233728,2,0,P|397:69|473:84,1,123.75000377655,6|0,0:3|0:0,0:0:0:0:
459,82,234006,102,0,P|411:95|375:146,1,97.4999955368044,4|0,1:0|0:0,0:0:0:0:
400,210,234284,1,2,0:0:0:0:
400,210,234423,1,0,3:0:0:0:
328,76,234561,2,0,P|271:52|148:112,1,194.999991073609,2|8,1:2|1:0,0:0:0:0:
61,236,234978,5,2,1:2:0:0:
87,214,235048,1,2,1:2:0:0:
89,180,235117,1,2,0:3:0:0:
26,125,235256,1,2,0:3:0:0:
39,314,235395,2,0,P|95:309|135:280,1,97.4999955368044,0|0,3:0|0:0,0:0:0:0:
221,207,235673,2,0,P|260:244|280:294,1,97.4999955368044,8|0,1:0|0:0,0:0:0:0:
359,363,235950,1,2,1:2:0:0:
414,174,236089,1,0,1:0:0:0:
414,174,236159,1,0,1:0:0:0:
414,174,236228,102,0,P|361:173|303:201,1,97.4999955368044,4|0,1:0|0:0,0:0:0:0:
251,318,236506,1,2,1:3:0:0:
251,318,236645,1,0,3:0:0:0:
85,260,236784,2,0,P|135:220|265:246,1,194.999991073609,2|8,1:0|1:0,0:0:0:0:
316,69,237200,1,2,1:2:0:0:
350,170,237339,6,0,P|302:161|255:134,1,97.4999955368044,2|0,1:3|0:0,0:0:0:0:
316,69,237617,1,2,3:0:0:0:
425,208,237756,1,2,1:2:0:0:
439,176,237825,1,2,1:2:0:0:
431,142,237895,1,8,1:0:0:0:
345,254,238034,2,0,P|356:311|385:345,1,97.4999955368044,0|6,1:0|0:3,0:0:0:0:
459,302,238311,1,2,1:3:0:0:
282,354,238450,102,0,P|225:363|126:270,1,194.999991073609,4|0,1:0|0:0,0:0:0:0:
169,198,238867,1,0,3:0:0:0:
71,80,239006,2,0,P|42:122|36:176,1,97.4999955368044,2|0,1:2|1:0,0:0:0:0:
248,228,239284,2,0,P|246:171|220:132,1,97.4999955368044,8|0,1:0|0:0,0:0:0:0:
183,40,239561,2,0,P|237:57|295:50,1,97.4999955368044,2|0,1:3|0:0,0:0:0:0:
355,19,239839,1,0,3:0:0:0:
480,159,239978,5,8,1:3:0:0:
480,159,240048,1,8,1:3:0:0:
480,159,240117,1,8,1:0:0:0:
397,139,240256,1,2,1:2:0:0:
325,300,240395,101,2,1:3:0:0:
404,275,240534,1,0,3:0:0:0:
352,214,240673,2,0,P|296:208|211:319,1,194.999991073609,6|2,1:2|1:3,0:0:0:0:
122,273,241089,2,0,P|124:325|139:373,2,97.4999955368044,0|2|0,3:0|1:2|0:0,0:0:0:0:
101,10,241506,2,0,P|121:71|116:127,1,97.4999955368044,8|0,1:0|0:0,0:0:0:0:
171,175,241784,6,0,P|139:194|11:191,1,150,2|8,1:3|3:0,0:0:0:0:
254,156,242200,1,2,0:0:0:0:
254,156,242270,1,2,0:0:0:0:
254,156,242339,1,8,1:0:0:0:
262,244,242478,2,0,P|263:296|265:333,1,75,6|2,0:3|1:3,0:0:0:0:
264,318,242895,22,0,P|211:314|137:311,1,112.500004291535,2|0,0:3|0:0,0:0:0:0:
56,347,243450,1,0,0:0:0:0:
25,254,243728,1,0,0:0:0:0:
150,32,244006,85,2,0:0:0:0:
199,93,244284,1,0,0:0:0:0:
206,171,244561,1,0,0:0:0:0:
178,244,244839,1,0,0:0:0:0:
382,349,245117,21,2,0:0:0:0:
398,319,245395,1,0,0:0:0:0:
397,285,245673,1,0,0:0:0:0:
380,255,245950,1,0,0:0:0:0:
438,39,246228,86,0,P|441:89|432:132,1,89.9999972534181,0|2,0:0|0:0,0:0:0:0:
207,313,247339,38,0,P|182:326|124:338,1,75,2|0,0:0|0:0,0:0:0:0:
357,243,247895,2,0,P|336:270|290:300,1,75,2|0,0:0|0:0,0:0:0:0:
357,243,248450,6,0,P|384:264|414:310,1,75,2|0,0:0|0:0,0:0:0:0:
230,132,249006,2,0,P|263:137|317:160,1,75,2|0,0:0|0:0,0:0:0:0:
101,253,249561,2,0,P|180:236|263:231,2,150,0|0|0,0:2|0:0|0:0,0:0:0:0:
265,68,251228,101,2,0:0:0:0:
265,68,251506,1,0,0:0:0:0:
265,68,251784,2,0,P|306:70|448:88,1,180,2|0,0:2|0:0,0:0:0:0:
511,115,253728,5,2,0:0:0:0:
511,115,254839,1,2,0:0:0:0:
511,115,255950,1,2,0:0:0:0:
498,229,257200,38,0,L|523:225,1,15,4|2,0:3|0:0,0:0:0:0:
108,45,274006,70,0,L|208:31,1,71.2499980974198,2|0,3:0|0:0,0:0:0:0:
266,66,274284,21,0,1:0:0:0:
310,59,274376,1,0,1:0:0:0:
370,64,274469,1,0,1:0:0:0:
412,57,274561,1,8,0:0:0:0:
488,136,274700,2,0,L|497:175,2,35.6249990487099,0|0|2,3:0|3:0|0:0,0:0:0:0:
511,53,274978,1,0,1:0:0:0:
400,139,275117,86,0,P|400:209|396:286,1,142.49999619484,2|0,3:0|0:0,0:0:0:0:
333,384,275534,1,0,1:0:0:0:
442,348,275673,2,0,P|462:352|520:368,1,71.2499980974198,2|0,0:0|0:0,0:0:0:0:
276,301,275950,2,0,P|240:297|170:279,1,94.9999974632264,8|0,0:0|3:0,0:0:0:0:
119,239,276228,22,0,B|98:262|100:288|100:288|53:270|-2:274,1,142.49999619484,2|0,3:0|0:0,0:0:0:0:
13,273,276784,1,8,0:0:0:0:
181,131,276969,1,2,0:0:0:0:
194,139,277061,2,0,P|240:134|311:132,1,94.9999974632264,0|0,1:0|1:0,0:0:0:0:
333,151,277339,85,2,3:0:0:0:
410,172,277478,1,0,0:0:0:0:
423,249,277617,1,2,0:0:0:0:
347,227,277756,1,0,1:0:0:0:
278,354,277895,2,0,P|324:356|429:370,1,142.49999619484,2|8,0:0|0:0,0:0:0:0:
265,203,278358,1,2,3:0:0:0:
276,191,278450,22,0,L|267:81,1,75,6|0,3:0|0:0,0:0:0:0:
361,207,278728,2,0,L|368:165,2,37.5
214,263,279006,1,0,1:0:0:0:
468,162,279191,1,0,1:0:0:0:
468,162,279284,2,0,P|459:193|446:275,1,100,2|0,0:0|1:0,0:0:0:0:
424,337,279561,86,0,L|330:322,1,75,2|0,3:0|0:0,0:0:0:0:
278,370,279839,1,0,0:3:0:0:
142,282,279978,1,0,1:0:0:0:
43,366,280117,2,0,B|111:354|111:354|122:358|122:358|208:344,1,150,2|8,0:0|0:0,0:0:0:0:
258,254,280534,1,0,3:0:0:0:
258,254,280603,1,0,3:0:0:0:
258,254,280673,22,0,B|280:223|316:220|316:220|355:187|325:143,1,150,6|0,1:3|0:0,0:0:0:0:
328,148,281089,1,0,0:0:0:0:
206,111,281228,2,0,L|39:123,1,150,8|2,0:0|0:0,0:0:0:0:
295,16,281691,1,0,1:0:0:0:
306,30,281784,86,0,B|389:49|382:7|469:25,1,150,2|0,3:0|0:0,0:0:0:0:
494,160,282200,1,0,1:0:0:0:
417,98,282339,2,0,P|413:129|420:235,1,112.5,2|0,0:0|0:0,0:0:0:0:
415,210,282617,2,0,P|392:214|334:232,1,75,8|0,0:0|3:0,0:0:0:0:
320,248,282825,1,0,3:0:0:0:
287,253,282895,1,2,3:0:0:0:
37,319,283173,2,0,P|34:337|35:365,2,37.5,2|0|0,0:0|0:0|0:0,0:0:0:0:
124,375,283450,2,0,P|118:313|126:249,1,112.5,8|0,0:0|1:0,0:0:0:0:
177,204,283728,2,0,P|129:188|79:182,1,100,2|0,0:0|1:0,0:0:0:0:
5,155,284006,21,2,3:0:0:0:
5,155,284284,1,0,0:0:0:0:
15,81,284423,1,0,1:0:0:0:
76,30,284561,2,0,B|119:23|144:27|144:27|155:34|155:34|179:36|234:25,1,150,0|8,0:0|0:0,0:0:0:0:
486,93,285024,1,0,1:0:0:0:
477,105,285117,86,0,P|452:113|381:122,1,75,2|0,3:0|0:0,0:0:0:0:
296,182,285395,1,2,0:0:0:0:
296,182,285673,2,0,P|324:183|424:216,1,112.5,8|0,0:0|1:0,0:0:0:0:
438,220,285950,1,2,0:0:0:0:
362,270,286089,2,0,P|344:275|319:288,2,37.5,0|0|2,3:0|3:0|3:0,0:0:0:0:
474,382,286367,1,0,0:0:0:0:
373,345,286506,1,0,0:0:0:0:
280,373,286645,1,0,1:0:0:0:
280,373,286784,2,0,B|205:329|218:378|130:316,1,150,2|8,0:0|0:0,0:0:0:0:
17,131,287247,1,0,1:0:0:0:
1,119,287339,22,0,L|89:105,1,75,2|0,3:0|0:0,0:0:0:0:
154,89,287617,1,2,0:0:0:0:
54,214,287756,1,0,0:0:0:0:
154,89,287895,2,0,B|177:104|196:127|196:127|192:178|151:228,1,150,8|2,0:0|0:0,0:0:0:0:
274,372,288358,1,0,1:0:0:0:
289,359,288450,86,0,L|278:267,1,75,6|0,3:0|0:0,0:0:0:0:
363,234,288728,2,0,L|444:263,1,75,0|0,0:0|1:0,0:0:0:0:
204,347,289006,2,0,B|171:360|171:360|110:350|42:395,1,150,2|8,0:0|0:0,0:0:0:0:
189,203,289469,1,0,3:0:0:0:
209,194,289561,22,0,P|223:161|220:100,1,75,6|0,3:0|0:0,0:0:0:0:
319,168,289839,2,0,P|333:152|342:130,2,37.5
174,29,290117,2,0,P|205:28|302:75,1,112.5,8|0,0:0|0:0,0:0:0:0:
280,55,290395,1,2,0:0:0:0:
431,236,290580,1,0,3:0:0:0:
444,221,290673,86,0,P|451:189|455:135,1,75
348,247,290950,1,0,0:0:0:0:
475,304,291089,1,0,1:0:0:0:
382,344,291228,2,0,B|325:353|325:353|300:349|300:349|228:362,1,150,2|8,0:0|0:0,0:0:0:0:
40,307,291645,1,0,1:0:0:0:
50,304,291714,1,0,1:0:0:0:
59,301,291784,1,8,3:0:0:0:
427,103,292061,5,8,3:0:0:0:
307,95,292200,1,8,3:0:0:0:
191,86,292339,1,8,0:0:0:0:
266,18,292478,5,0,1:0:0:0:
266,18,292548,1,0,1:0:0:0:
266,18,292617,1,2,0:0:0:0:
291,128,292756,1,8,0:0:0:0:
178,159,292895,1,10,3:0:0:0:
211,270,293034,1,0,3:0:0:0:
294,209,293173,101,8,3:0:0:0:
152,160,293311,1,8,3:0:0:0:
121,305,293450,2,0,P|67:310|18:317,1,75,8|0,0:0|0:0,0:0:0:0:
46,312,293728,1,0,1:0:0:0:
25,227,293867,1,0,1:0:0:0:
25,227,293936,1,0,1:0:0:0:
25,227,294006,1,2,3:0:0:0:
422,295,294284,5,14,3:0:0:0:
403,171,294423,1,8,3:0:0:0:
350,244,294561,1,8,0:0:0:0:
495,199,294700,101,0,1:0:0:0:
495,199,294770,1,0,1:0:0:0:
495,199,294839,1,2,0:0:0:0:
376,160,294978,1,8,0:0:0:0:
463,326,295117,1,2,3:0:0:0:
336,287,295256,1,0,1:0:0:0:
405,126,295395,5,8,3:0:0:0:
416,244,295534,1,8,3:0:0:0:
427,362,295673,1,8,0:0:0:0:
226,130,295950,2,0,P|268:134|305:147,1,75,0|0,1:0|1:0,0:0:0:0:
300,145,296159,1,0,1:0:0:0:
300,145,296228,102,0,B|322:101|322:101|324:54|280:7,1,150,2|4,3:1|3:0,0:0:0:0:
413,211,296645,2,0,B|447:198|447:198|494:208,1,75,2|8,3:1|0:0,0:0:0:0:
377,358,296923,1,0,1:0:0:0:
307,286,297061,2,0,B|273:273|273:273|226:283,1,75,2|8,0:0|0:0,0:0:0:0:
167,258,297270,1,0,1:0:0:0:
167,258,297339,6,0,L|156:164,1,75,6|0,3:0|1:0,0:0:0:0:
127,336,297617,1,8,3:0:0:0:
127,336,297756,1,8,3:0:0:0:
86,137,297895,2,0,P|42:151|47:256,1,150,8|0,0:0|1:0,0:0:0:0:
144,61,298311,1,0,1:0:0:0:
144,61,298381,1,0,1:0:0:0:
144,61,298450,102,0,P|163:108|178:142,1,75,2|0,3:0|0:0,0:0:0:0:
126,246,298728,1,12,3:0:0:0:
207,213,298867,1,8,3:0:0:0:
255,93,299006,5,8,0:0:0:0:
290,177,299145,1,0,1:0:0:0:
253,292,299284,1,2,0:0:0:0:
270,284,299353,1,0,1:0:0:0:
287,277,299423,1,8,0:0:0:0:
361,116,299561,102,0,P|387:180|396:196,1,75,6|0,3:0|1:0,0:0:0:0:
378,307,299839,1,8,3:0:0:0:
378,307,299978,1,8,3:0:0:0:
476,197,300117,2,0,P|471:246|465:353,1,150,8|0,0:0|1:0,0:0:0:0:
463,114,300534,1,0,3:0:0:0:
463,114,300603,1,0,3:0:0:0:
463,114,300673,1,2,3:0:0:0:
261,272,300950,5,8,3:0:0:0:
180,248,301089,1,8,3:0:0:0:
339,292,301228,1,8,0:0:0:0:
190,323,301367,1,0,1:0:0:0:
179,327,301436,1,2,0:0:0:0:
169,333,301506,1,0,1:0:0:0:
160,340,301575,1,0,3:0:0:0:
153,349,301645,1,8,1:0:0:0:
224,165,301784,102,0,P|248:214|260:289,1,112.5,2|0,3:2|0:0,0:0:0:0:
260,271,302061,1,10,3:0:0:0:
305,120,302200,1,10,3:0:0:0:
125,169,302339,2,0,P|115:122|148:10,1,150,8|0,0:0|1:0,0:0:0:0:
236,37,302756,1,0,3:0:0:0:
236,37,302825,1,0,3:0:0:0:
236,37,302895,1,2,3:0:0:0:
437,250,303173,5,12,3:0:0:0:
293,217,303311,1,8,3:0:0:0:
369,182,303450,1,8,0:0:0:0:
240,293,303589,2,0,L|183:309,2,37.5,0|0|2,1:0|1:0|0:0,0:0:0:0:
293,217,303867,1,0,1:0:0:0:
140,168,304006,1,2,3:0:0:0:
230,147,304145,1,0,1:0:0:0:
142,89,304284,101,8,3:0:0:0:
127,250,304423,1,8,3:0:0:0:
27,128,304561,1,8,0:0:0:0:
457,129,304839,2,0,P|407:129|370:118,1,75,0|0,1:0|1:0,0:0:0:0:
382,122,305048,1,0,1:0:0:0:
382,122,305117,6,0,B|356:153|356:153|311:178|242:156,1,150,2|12,3:1|3:0,0:0:0:0:
406,295,305534,2,0,B|430:328|430:328|430:373,1,75,2|8,3:1|0:0,0:0:0:0:
431,208,305811,1,0,1:0:0:0:
250,159,305950,2,0,B|252:120|252:120|279:91,1,75,2|8,0:0|0:0,0:0:0:0:
220,46,306159,1,0,1:0:0:0:
220,46,306228,102,0,L|133:33,1,75,6|0,3:0|1:0,0:0:0:0:
337,154,306506,1,8,3:0:0:0:
337,154,306645,1,8,3:0:0:0:
137,212,306784,2,0,P|154:172|266:173,1,150,8|0,0:0|1:0,0:0:0:0:
300,250,307200,1,0,3:0:0:0:
300,250,307270,1,0,3:0:0:0:
300,250,307339,6,0,P|295:300|290:375,1,112.5,2|0,3:2|0:0,0:0:0:0:
290,362,307617,1,12,3:0:0:0:
378,364,307756,1,8,3:0:0:0:
209,341,307895,2,0,P|167:347|133:352,1,75,8|0,0:0|1:0,0:0:0:0:
377,259,308173,2,0,P|405:262|424:265,2,37.5,2|0|0,0:0|1:0|1:0,0:0:0:0:
168,193,308450,102,0,P|161:153|155:108,1,75,8|0,1:0|0:0,0:0:0:0:
138,39,308728,1,0,1:0:0:0:
242,131,308867,2,0,P|235:91|229:46,1,75,8|0,1:0|3:0,0:0:0:0:
230,56,309075,1,0,1:0:0:0:
230,56,309145,1,0,1:0:0:0:
330,141,309284,1,8,1:0:0:0:
256,232,309423,5,0,3:0:0:0:
256,232,309492,1,0,3:0:0:0:
256,232,309561,1,6,3:2:0:0:
413,51,309839,1,8,3:0:0:0:
349,110,309978,1,8,3:0:0:0:
430,133,310117,1,8,1:0:0:0:
462,221,310256,1,0,1:0:0:0:
462,221,310325,1,0,1:0:0:0:
462,221,310395,2,0,P|447:265|442:308,1,75,2|0,0:0|3:0,0:0:0:0:
256,269,310673,53,6,3:0:0:0:
138,67,310950,1,8,3:0:0:0:
20,97,311089,1,8,3:0:0:0:
48,211,311228,2,0,P|98:202|139:198,1,75,8|0,1:0|0:0,0:0:0:0:
161,355,311506,2,0,P|111:346|70:342,1,75,0|0,1:0|3:0,0:0:0:0:
256,306,311784,37,6,3:0:0:0:
231,62,312061,1,2,3:2:0:0:
179,166,312200,1,8,3:0:0:0:
254,138,312339,1,8,1:0:0:0:
159,91,312478,1,0,1:0:0:0:
159,91,312548,1,0,1:0:0:0:
159,91,312617,1,2,0:0:0:0:
321,184,312756,1,8,3:0:0:0:
256,343,312895,53,6,3:0:0:0:
256,343,313173,1,8,3:0:0:0:
353,291,313311,1,8,3:0:0:0:
208,220,313450,1,8,1:0:0:0:
304,220,313589,1,0,3:0:0:0:
159,291,313728,1,0,1:0:0:0:
256,152,313867,69,0,3:0:0:0:
256,152,313936,1,0,3:0:0:0:
256,152,314006,1,6,3:0:0:0:
356,351,314284,1,10,3:0:0:0:
273,325,314423,1,8,3:0:0:0:
405,273,314561,1,8,1:0:0:0:
273,325,314700,2,0,L|238:340,2,37.5,0|0|2,1:0|1:0|0:0,0:0:0:0:
368,202,314978,1,8,3:0:0:0:
256,115,315118,53,6,3:0:0:0:
124,317,315395,1,10,3:0:0:0:
74,240,315534,1,8,3:0:0:0:
224,248,315673,2,0,P|213:289|209:331,1,75,8|0,1:0|0:0,0:0:0:0:
86,151,315950,2,0,P|97:110|101:68,1,75,0|0,1:0|0:0,0:0:0:0:
256,78,316229,37,6,3:0:0:0:
195,329,316506,1,8,3:0:0:0:
308,343,316645,1,8,3:0:0:0:
287,199,316784,1,8,1:0:0:0:
391,170,316923,1,0,1:0:0:0:
391,170,316992,1,0,1:0:0:0:
391,170,317061,1,2,1:2:0:0:
287,199,317200,1,8,3:0:0:0:
256,41,317340,53,6,3:0:0:0:
256,41,317617,1,8,3:0:0:0:
185,128,317756,1,8,3:0:0:0:
162,41,317895,1,8,1:0:0:0:
327,128,318034,1,2,0:0:0:0:
350,41,318173,1,0,1:0:0:0:
256,232,318311,69,0,3:0:0:0:
256,232,318381,1,0,3:0:0:0:
256,232,318450,1,6,3:0:0:0:
95,149,318589,1,0,3:0:0:0:
153,215,318728,2,0,P|168:175|175:139,1,75,0|0,1:0|3:0,0:0:0:0:
223,74,319006,1,8,1:0:0:0:
292,150,319145,1,0,1:0:0:0:
292,150,319214,1,0,1:0:0:0:
292,150,319284,1,2,1:2:0:0:
383,117,319423,1,0,3:0:0:0:
256,269,319562,53,6,3:0:0:0:
153,215,319700,1,0,3:0:0:0:
185,100,319839,1,0,1:0:0:0:
282,153,319978,1,0,1:0:0:0:
120,145,320117,37,8,1:0:0:0:
392,239,320395,1,0,1:0:0:0:
256,306,320534,53,0,3:0:0:0:
256,306,320603,1,0,3:0:0:0:
256,306,320673,1,6,3:0:0:0:
155,327,320811,1,0,3:0:0:0:
180,224,320950,1,0,1:0:0:0:
116,133,321089,1,0,1:0:0:0:
213,87,321228,69,8,1:0:0:0:
340,148,321367,2,0,L|347:94,2,37.5,0|0|2,1:0|1:0|0:0,0:0:0:0:
356,261,321645,1,8,3:0:0:0:
256,343,321784,53,6,3:0:0:0:
230,169,321923,1,0,1:2:0:0:
271,249,322061,1,8,3:0:0:0:
243,81,322200,1,8,3:0:0:0:
100,245,322339,37,8,1:0:0:0:
412,139,322617,1,2,1:2:0:0:
256,152,322756,53,0,3:0:0:0:
256,152,322825,1,0,3:0:0:0:
256,152,322895,1,6,3:0:0:0:
110,54,323034,1,2,0:0:0:0:
180,97,323173,2,0,P|172:144|149:176,1,75,0|0,1:0|3:0,0:0:0:0:
134,263,323450,1,8,1:0:0:0:
221,224,323589,1,0,1:0:0:0:
247,224,323659,1,0,1:0:0:0:
268,238,323728,1,2,1:2:0:0:
343,169,323867,1,8,3:0:0:0:
256,115,324007,69,6,3:0:0:0:
157,166,324145,1,0,1:0:0:0:
254,266,324284,1,8,3:0:0:0:
155,317,324422,1,8,3:0:0:0:
357,361,324561,53,8,1:0:0:0:
155,23,324839,1,2,1:3:0:0:
256,78,324978,1,0,3:0:0:0:
256,78,325048,1,0,3:0:0:0:
256,78,325117,38,0,L|238:154,1,75,6|0,0:0|0:0,0:0:0:0:
256,306,325395,2,0,L|274:230,1,75,0|0,1:0|3:0,0:0:0:0:
332,158,325673,53,2,1:2:0:0:
180,226,325811,1,8,1:0:0:0:
364,240,325950,1,2,0:0:0:0:
148,144,326089,1,0,3:2:0:0:
256,192,326229,21,2,3:0:0:0:
256,192,326506,1,0,0:0:0:0:
286,263,326645,2,0,P|283:301|282:343,1,75,0|0,1:0|0:0,0:0:0:0:
282,337,327061,1,0,1:0:0:0:
402,374,327200,1,0,3:0:0:0:
402,374,327270,1,0,3:0:0:0:
402,374,327339,1,6,3:2:0:0:
15,345,327617,69,0,1:0:0:0:
217,207,327756,2,0,B|196:224|196:224|159:232|113:190,1,97.4999955368044,2|8,1:0|1:0,0:0:0:0:
68,101,328034,69,0,1:0:0:0:
41,134,328103,1,0,1:0:0:0:
47,177,328173,1,0,0:0:0:0:
112,287,328311,1,8,1:0:0:0:
15,345,328450,2,0,P|81:322|197:337,1,168.750006437302,2|0,1:2|0:0,0:0:0:0:
259,369,328728,37,0,3:0:0:0:
259,369,328867,1,0,3:0:0:0:
484,263,329006,2,0,P|431:251|324:291,1,146.249993305207,8|0,1:0|0:0,0:0:0:0:
344,275,329284,2,0,P|371:240|356:180,1,97.4999955368044,8|0,1:0|0:0,0:0:0:0:
323,129,329492,1,0,3:0:0:0:
291,116,329561,1,0,1:0:0:0:
0,103,329839,69,0,3:0:0:0:
125,70,329978,1,0,3:0:0:0:
13,193,330117,2,0,P|53:190|145:147,1,97.4999955368044,8|0,1:0|0:0,0:0:0:0:
205,122,330395,1,0,3:0:0:0:
261,335,330534,1,8,1:0:0:0:
261,335,330603,1,0,1:0:0:0:
261,335,330673,37,2,0:0:0:0:
339,321,330811,1,0,3:0:0:0:
415,342,330950,1,2,1:3:0:0:
485,328,331089,1,0,1:0:0:0:
313,215,331228,1,8,1:0:0:0:
313,215,331506,1,6,1:2:0:0:
116,358,331645,1,2,1:2:0:0:
116,358,331714,1,0,1:0:0:0:
116,358,331784,70,0,B|129:312|125:294|125:294|120:286|120:286|113:269|130:208,1,146.249993305207,4|0,1:2|0:0,0:0:0:0:
175,192,332061,1,0,3:0:0:0:
66,139,332200,1,0,3:0:0:0:
245,27,332339,2,0,B|257:75|257:75|244:96|190:112,1,97.4999955368044,8|0,1:0|0:0,0:0:0:0:
66,139,332617,37,2,1:2:0:0:
229,254,332756,2,0,L|299:272,2,48.7499977684022,8|0|6,1:0|1:0|0:0,0:0:0:0:
114,344,333034,1,0,1:0:0:0:
279,381,333173,69,0,3:0:0:0:
279,381,333311,1,0,3:0:0:0:
54,282,333450,2,0,B|73:264|93:253|93:253|109:256|149:269,1,97.4999955368044,8|0,1:0|0:0,0:0:0:0:
371,330,333728,2,0,P|378:295|379:227,1,97.4999955368044,8|0,1:0|1:0,0:0:0:0:
379,233,333936,1,8,0:0:0:0:
379,233,334006,38,0,P|419:266|490:250,1,97.4999955368044,6|0,1:2|0:0,0:0:0:0:
433,149,334284,1,0,3:0:0:0:
287,299,334423,1,0,3:0:0:0:
248,170,334561,2,0,B|236:142|231:113|231:113|204:93|204:93|201:71|190:36,1,146.249993305207,8|0,1:0|0:0,0:0:0:0:
184,17,334839,1,2,1:2:0:0:
327,126,334978,1,8,1:0:0:0:
423,32,335117,2,0,B|406:30|390:20|390:20|355:18|326:54,1,97.4999955368044,2|0,3:0|0:0,0:0:0:0:
119,238,335395,1,6,3:0:0:0:
119,238,335534,1,0,3:0:0:0:
13,149,335673,2,0,B|30:143|57:125|57:125|113:112|158:168,1,146.249993305207,8|0,1:0|0:0,0:0:0:0:
174,182,335950,1,6,3:0:0:0:
258,380,336089,101,0,1:0:0:0:
258,380,336159,1,0,1:0:0:0:
258,380,336228,2,0,B|256:358|251:342|251:342|266:326|266:326|257:307|254:273,1,104.999996795654,6|0,1:0|0:0,0:0:0:0:
234,19,336506,37,0,3:0:0:0:
264,27,336645,1,0,3:0:0:0:
310,97,336784,101,8,1:0:0:0:
235,105,336923,1,0,1:0:0:0:
219,176,337061,1,2,1:2:0:0:
308,207,337200,1,8,1:0:0:0:
222,309,337339,101,2,1:3:0:0:
201,315,337478,1,0,1:0:0:0:
316,384,337617,69,0,3:0:0:0:
422,354,337756,1,0,3:0:0:0:
314,235,337895,2,0,B|356:268|356:268|301:291,1,104.999996795654,8|0,1:0|0:0,0:0:0:0:
512,287,338173,38,0,L|330:265,1,157.499995193482,2|0,1:0|0:0,0:0:0:0:
316,261,338450,69,2,3:0:0:0:
225,324,338589,1,0,3:0:0:0:
122,283,338728,1,0,1:0:0:0:
122,283,338798,1,0,1:0:0:0:
122,283,338867,1,0,1:0:0:0:
195,134,339006,37,8,1:0:0:0:
169,204,339145,1,0,1:0:0:0:
111,132,339284,1,2,1:2:0:0:
251,203,339423,1,8,1:0:0:0:
448,155,339561,21,2,3:0:0:0:
466,164,339700,1,0,1:0:0:0:
453,149,339839,1,0,1:0:0:0:
473,161,339978,1,0,1:0:0:0:
251,203,340117,101,12,1:0:0:0:
483,375,340395,2,0,P|500:362|503:315,1,52.4999983978272,0|2,1:0|0:0,0:0:0:0:
434,314,340534,2,0,P|426:289|405:275,1,52.4999983978272,0|2,1:0|0:0,0:0:0:0:
308,277,340673,102,0,L|140:291,1,157.499995193482,6|0,3:2|0:0,0:0:0:0:
151,290,340950,1,0,1:0:0:0:
57,338,341089,1,8,0:0:0:0:
0,196,341228,2,0,B|51:186|106:221|106:221|89:200|95:154,1,157.499995193482,8|0,1:0|0:0,0:0:0:0:
55,94,341506,70,0,B|103:99|103:99|108:97|108:97|167:104,1,104.999996795654,2|8,0:0|1:0,0:0:0:0:
233,111,341714,1,0,1:0:0:0:
239,102,341784,1,2,3:0:0:0:
320,131,341923,1,8,3:0:0:0:
405,113,342061,1,8,3:0:0:0:
512,143,342200,1,8,0:0:0:0:
295,258,342339,69,8,1:0:0:0:
449,210,342478,5,2,1:2:0:0:
449,210,342617,1,2,1:2:0:0:
449,210,342756,1,2,1:2:0:0:
299,263,342895,37,6,1:2:0:0:
342,280,343034,1,0,1:0:0:0:
219,263,343173,101,12,3:0:0:0:
277,328,343311,1,12,0:0:0:0:
149,343,343450,53,8,1:0:0:0:
342,280,343589,1,0,1:0:0:0:
262,81,343728,6,0,B|307:131|224:131|261:182,1,112.500004291535,2|2,0:3|0:0,0:0:0:0:
362,139,344006,69,2,1:3:0:0:
352,145,344075,1,2,1:3:0:0:
156,199,344214,1,2,1:3:0:0:
168,205,344284,1,2,1:3:0:0:
180,118,344423,101,10,1:2:0:0:
350,224,344561,1,10,1:2:0:0:
178,341,344700,101,8,1:3:0:0:
178,341,344770,1,8,1:3:0:0:
178,341,344839,1,10,3:1:0:0:
326,47,344978,1,10,3:1:0:0:
262,0,345117,22,2,B|374:227|137:145|243:376,1,408.000002490234,2|0,0:0|0:0,0:0:0:0:
195,101,356228,102,0,P|232:96|303:82,1,89.9999972534181,6|0,0:0|0:0,0:0:0:0:
195,101,356784,2,0,P|151:88|108:79,1,89.9999972534181,8|0,0:0|0:0,0:0:0:0:
48,136,357200,2,0,L|25:142,2,22.4999993133545,0|0|2,0:0|0:0|0:0,0:0:0:0:
229,260,357617,85,0,0:0:0:0:
306,284,357756,1,8,0:0:0:0:
306,284,357895,1,2,0:0:0:0:
341,118,358173,1,8,0:0:0:0:
411,75,358311,1,0,1:0:0:0:
411,75,358381,1,0,1:0:0:0:
411,75,358450,22,0,P|421:105|421:132,1,44.999998626709,2|0,0:0|0:0,0:0:0:0:
472,220,358728,2,0,P|483:197|484:167,1,44.999998626709
374,266,359006,2,0,P|366:300|369:348,1,67.4999979400635,8|0,0:0|0:0,0:0:0:0:
371,348,359284,1,0,1:0:0:0:
286,295,359423,1,0,0:0:0:0:
81,355,359561,2,0,P|120:359|217:338,1,134.999995880127,2|8,0:0|0:0,0:0:0:0:
286,295,360117,1,2,0:0:0:0:
174,75,360395,2,0,P|166:100|154:125,1,44.999998626709,8|0,0:0|0:0,0:0:0:0:
153,124,360603,1,0,1:0:0:0:
148,132,360673,86,0,L|51:142,1,89.9999972534181,2|0,0:0|0:0,0:0:0:0:
321,183,361228,2,0,L|355:288,1,89.9999972534181,8|0,0:0|0:0,0:0:0:0:
424,285,361645,2,0,L|458:273,2,22.4999993133545,0|0|2,0:0|0:0|0:0,0:0:0:0:
378,75,362061,21,0,0:0:0:0:
301,55,362200,1,8,0:0:0:0:
378,75,362339,1,2,0:0:0:0:
121,171,362617,1,8,0:0:0:0:
203,156,362756,1,0,1:0:0:0:
201,149,362825,1,0,1:0:0:0:
198,142,362895,85,2,0:0:0:0:
349,342,363173,1,0,0:0:0:0:
349,342,363311,1,0,0:0:0:0:
256,353,363450,2,0,P|257:314|263:245,1,89.9999972534181,8|0,0:0|0:0,0:0:0:0:
328,218,363867,1,0,1:0:0:0:
183,226,364006,2,0,P|186:181|187:136,1,89.9999972534181,2|0,1:2|0:0,0:0:0:0:
122,88,364423,1,8,0:0:0:0:
122,88,364561,1,2,0:0:0:0:
382,92,364839,2,0,P|416:98|434:100,1,44.999998626709,8|0,0:0|0:0,0:0:0:0:
435,99,365048,1,0,1:0:0:0:
443,98,365117,22,0,P|457:170|460:249,1,134.999995880127,2|0,0:0|0:0,0:0:0:0:
448,315,365673,1,8,0:0:0:0:
281,123,365950,2,0,P|252:117|229:114,1,44.999998626709
162,142,366228,85,2,1:2:0:0:
80,159,366367,1,0,0:0:0:0:
62,76,366506,1,0,0:0:0:0:
144,60,366645,1,8,0:0:0:0:
162,142,366784,2,0,P|158:177|156:241,1,89.9999972534181,2|8,0:0|0:0,0:0:0:0:
131,314,367200,1,0,1:0:0:0:
131,314,367270,1,0,1:0:0:0:
131,314,367339,1,2,0:0:0:0:
408,249,367617,22,0,L|438:256,2,22.4999993133545
335,204,367895,1,10,0:0:0:0:
343,352,368034,1,0,1:0:0:0:
343,352,368103,1,0,1:0:0:0:
343,352,368173,2,0,P|338:317|339:290,1,44.999998626709
278,140,368450,86,0,P|311:125|378:117,1,89.9999972534181,2|0,1:2|0:0,0:0:0:0:
242,211,368867,1,8,0:0:0:0:
218,86,369006,2,0,P|178:68|120:53,1,89.9999972534181,2|8,0:0|0:0,0:0:0:0:
26,246,369423,1,0,1:0:0:0:
26,246,369492,1,0,1:0:0:0:
26,246,369561,22,0,P|54:209|93:109,1,134.999995880127,2|0,1:2|0:0,0:0:0:0:
218,355,370117,2,0,P|261:351|305:349,1,67.4999979400635,10|0,0:0|1:0,0:0:0:0:
313,360,370395,2,0,L|318:290,1,59.9999981689454,0|0,0:0|1:0,0:0:0:0:
279,235,370673,85,2,0:0:0:0:
371,114,370950,1,0,0:0:0:0:
442,154,371089,1,8,0:0:0:0:
442,154,371228,1,2,0:0:0:0:
460,332,371506,1,8,0:0:0:0:
382,362,371645,1,0,1:0:0:0:
382,362,371714,1,0,1:0:0:0:
382,362,371784,22,0,P|365:327|378:223,1,134.999995880127,2|0,0:0|0:0,0:0:0:0:
333,46,372339,2,0,P|332:77|329:99,1,44.999998626709,8|0,0:0|0:0,0:0:0:0:
328,97,372548,1,0,1:0:0:0:
326,103,372617,2,0,P|332:145|335:158,1,44.999998626709,2|0,0:0|1:0,0:0:0:0:
242,70,372895,86,0,P|200:65|135:60,1,89.9999972534181,2|0,1:2|0:0,0:0:0:0:
84,104,373311,1,8,0:0:0:0:
293,210,373450,2,0,P|335:215|387:220,1,89.9999972534181,2|8,0:0|0:0,0:0:0:0:
216,334,373867,1,0,1:0:0:0:
216,334,373936,1,0,1:0:0:0:
216,334,374006,6,0,P|152:337|65:343,2,127.50000243187,6|2|0,3:0|0:0|1:0,0:0:0:0:
273,235,374700,1,0,0:0:0:0:
273,235,374770,1,0,3:0:0:0:
273,235,374839,1,0,3:0:0:0:
358,266,374978,1,0,0:0:0:0:
358,266,375117,2,0,P|375:232|370:138,1,127.50000243187,2|0,0:3|1:0,0:0:0:0:
372,144,375534,1,2,0:3:0:0:
341,63,375673,85,2,0:0:0:0:
426,67,375811,1,2,0:0:0:0:
270,115,375950,2,0,P|258:81|258:45,1,63.7500012159348,2|0,3:0|0:0,0:0:0:0:
218,192,376228,22,0,P|191:168|148:13,1,191.250003647804,2|0,3:2|0:0,0:0:0:0:
110,303,376784,1,8,0:0:0:0:
204,296,376923,1,0,0:0:0:0:
204,296,376992,1,0,3:0:0:0:
204,296,377061,2,0,P|241:309|295:355,1,95.6250018239022,4|0,3:0|0:0,0:0:0:0:
285,344,377339,2,0,P|326:318|353:307,1,63.7500012159348,2|0,0:0|1:0,0:0:0:0:
354,232,377617,1,2,0:0:0:0:
354,232,377756,1,0,1:0:0:0:
386,59,377895,86,0,P|387:108|425:199,1,127.50000243187,8|2,0:0|1:2,0:0:0:0:
308,140,378311,1,0,1:0:0:0:
90,187,378450,1,8,3:0:0:0:
90,187,378728,22,0,P|90:226|100:253,1,63.7500012159348
175,280,379006,2,0,P|177:313|163:356,1,63.7500012159348,2|0,1:2|0:0,0:0:0:0:
169,201,379284,1,6,3:0:0:0:
430,306,379561,2,0,P|393:304|323:329,1,95.6250018239022,2|0,0:3|0:0,0:0:0:0:
315,330,379839,1,0,1:0:0:0:
271,254,379978,1,0,1:0:0:0:
312,171,380117,1,2,0:0:0:0:
400,156,380256,1,0,1:0:0:0:
366,239,380395,85,8,3:0:0:0:
312,171,380534,1,0,3:0:0:0:
226,191,380673,2,0,P|191:196|141:196,1,63.7500012159348,2|0,3:0|0:0,0:0:0:0:
92,157,380950,2,0,L|62:141,2,31.8750006079674
92,253,381228,2,0,P|108:285|117:328,1,63.7500012159348,0|0,1:0|0:0,0:0:0:0:
118,321,381436,1,0,3:0:0:0:
120,330,381506,1,4,3:0:0:0:
273,210,381645,21,0,0:0:0:0:
273,210,381714,1,0,3:0:0:0:
273,210,381784,1,2,0:0:0:0:
238,284,381923,1,0,1:0:0:0:
301,340,382061,2,0,P|337:347|381:358,1,63.7500012159348,0|0,0:0|1:0,0:0:0:0:
467,239,382339,2,0,P|412:250|367:261,1,95.6250018239022,8|0,0:0|0:0,0:0:0:0:
363,259,382617,2,0,P|365:227|374:183,1,63.7500012159348,0|2,1:0|1:0,0:0:0:0:
466,144,382895,86,0,P|475:102|477:9,2,127.50000243187,2|0|0,3:0|0:0|1:0,0:0:0:0:
392,30,383589,1,0,0:0:0:0:
392,30,383659,1,0,3:0:0:0:
392,30,383728,1,2,3:0:0:0:
336,138,383867,1,0,0:0:0:0:
336,138,384006,2,0,P|278:122|195:137,1,127.50000243187,2|8,0:0|0:0,0:0:0:0:
140,172,384423,1,0,0:0:0:0:
9,36,384561,21,2,0:0:0:0:
72,104,384700,1,0,0:0:0:0:
72,104,384770,1,0,3:0:0:0:
72,104,384839,2,0,P|110:93|133:63,1,63.7500012159348,0|0,1:0|0:0,0:0:0:0:
211,130,385117,2,0,P|232:174|200:259,1,127.50000243187,2|0,1:3|0:0,0:0:0:0:
453,92,385673,86,0,P|418:83|344:81,1,95.6250018239022,8|0,0:0|0:0,0:0:0:0:
346,80,385950,1,2,3:0:0:0:
425,180,386089,1,0,3:0:0:0:
425,180,386159,1,0,3:0:0:0:
425,180,386228,2,0,P|418:224|416:255,1,63.7500012159348,2|0,0:0|1:0,0:0:0:0:
272,109,386506,2,0,P|264:75|253:40,1,63.7500012159348,2|0,0:0|1:0,0:0:0:0:
309,278,386784,2,0,P|313:322|313:349,1,63.7500012159348,8|0,0:0|0:0,0:0:0:0:
208,217,387061,1,0,1:0:0:0:
287,196,387200,1,0,1:0:0:0:
128,241,387339,21,6,3:0:0:0:
128,241,387617,2,0,P|121:282|118:313,1,63.7500012159348
40,330,387895,1,8,0:0:0:0:
51,151,388034,1,0,0:0:0:0:
51,151,388103,1,0,1:0:0:0:
51,151,388173,2,0,P|93:148|158:164,1,95.6250018239022,2|0,3:2|0:0,0:0:0:0:
156,164,388450,2,0,P|163:125|173:97,1,63.7500012159348,2|0,3:0|0:0,0:0:0:0:
238,37,388728,85,8,0:0:0:0:
295,110,388867,1,0,1:0:0:0:
376,69,389006,1,2,0:0:0:0:
376,163,389145,1,0,3:0:0:0:
376,69,389284,1,0,1:0:0:0:
464,113,389423,1,0,1:0:0:0:
464,113,389492,1,0,1:0:0:0:
464,113,389561,22,0,P|470:147|482:190,1,63.7500012159348,6|0,0:0|0:0,0:0:0:0:
442,248,389839,1,2,0:0:0:0:
442,248,389978,1,0,0:0:0:0:
346,147,390117,2,0,P|350:223|354:294,1,127.50000243187,8|4,0:0|3:0,0:0:0:0:
316,343,390534,1,0,1:0:0:0:
238,233,390673,37,6,0:3:0:0:
236,320,390811,1,0,3:0:0:0:
165,191,390950,1,8,3:0:0:0:
143,351,391089,1,8,3:0:0:0:
15,137,391228,1,12,1:0:0:0:
15,137,391506,2,0,P|10:104|61:58,1,95.6250018239022,6|0,0:3|0:0,0:0:0:0:
128,22,391784,102,0,L|288:40,1,142.49999619484,4|0,3:1|0:0,0:0:0:0:
339,106,392200,1,0,3:0:0:0:
463,14,392339,2,0,B|442:37|421:58|421:58|427:104|461:152,1,142.49999619484,2|8,0:0|1:0,0:0:0:0:
506,235,392756,53,2,0:0:0:0:
387,324,392895,1,2,0:2:0:0:
392,248,393034,1,2,1:2:0:0:
387,324,393173,1,2,3:2:0:0:
280,242,393311,2,0,P|279:217|269:163,1,71.2499980974198,2|8,0:0|1:0,0:0:0:0:
215,290,393589,1,0,0:0:0:0:
14,171,393728,2,0,P|52:175|132:209,1,106.87499714613,2|0,1:2|0:0,0:0:0:0:
115,198,394006,54,0,P|156:164|166:62,1,142.49999619484,6|0,3:0|0:0,0:0:0:0:
450,176,394561,2,0,P|470:144|464:46,1,106.87499714613,2|0,0:0|0:0,0:0:0:0:
475,76,394839,2,0,P|446:68|387:54,1,71.2499980974198,8|0,1:0|0:0,0:0:0:0:
182,36,395117,5,2,1:2:0:0:
319,88,395256,1,2,1:2:0:0:
227,137,395395,21,6,3:0:0:0:
233,111,395534,1,2,0:3:0:0:
341,211,395673,85,8,1:0:0:0:
181,290,395811,1,2,0:3:0:0:
181,290,395881,1,2,0:3:0:0:
181,290,395950,2,0,L|188:227,1,50.6249984550477,2|0,1:2|0:0,0:0:0:0:
207,230,396228,102,0,P|140:226|35:208,1,172.500003290176,4|0,3:1|0:0,0:0:0:0:
340,336,396645,2,0,P|373:340|493:365,1,142.49999619484,0|0,3:0|0:0,0:0:0:0:
413,236,397061,54,0,P|388:244|327:252,1,71.2499980974198,8|0,1:0|0:0,0:0:0:0:
117,344,397339,2,0,P|136:339|207:328,1,71.2499980974198,2|0,0:0|1:0,0:0:0:0:
256,229,397617,2,0,B|252:189|281:172|264:107,1,106.87499714613,2|0,3:0|0:0,0:0:0:0:
249,75,397895,1,8,1:0:0:0:
158,132,398034,1,0,0:0:0:0:
69,20,398173,1,6,0:3:0:0:
69,20,398311,1,2,1:2:0:0:
69,20,398450,54,0,P|87:21|145:48,1,67.4999979400635,6|0,3:0|0:0,0:0:0:0:
334,137,398867,53,0,3:0:0:0:
409,26,399006,2,0,P|377:32|331:55,1,71.2499980974198,2|0,2:3|0:0,0:0:0:0:
231,178,399284,2,0,L|247:346,1,142.49999619484,8|2,1:0|0:3,0:0:0:0:
156,367,399700,1,2,0:0:0:0:
121,372,399770,1,2,0:0:0:0:
87,380,399839,1,2,3:2:0:0:
0,256,399978,1,0,3:0:0:0:
87,193,400117,2,0,P|105:194|158:208,1,71.2499980974198,8|0,1:0|0:0,0:0:0:0:
410,324,400395,53,2,0:0:0:0:
410,324,400673,2,0,P|449:261|408:175,1,157.499995193482,4|0,3:1|0:0,0:0:0:0:
308,114,401089,1,0,3:0:0:0:
349,211,401228,2,0,P|314:239|205:240,1,142.49999619484,2|8,0:0|1:0,0:0:0:0:
134,158,401645,1,2,0:0:0:0:
119,162,401714,1,2,0:0:0:0:
99,162,401784,2,0,P|90:142|101:75,1,71.2499980974198,2|0,1:3|0:0,0:0:0:0:
0,248,402061,53,0,3:0:0:0:
0,248,402200,1,0,3:0:0:0:
91,93,402339,2,0,B|189:65|119:57|234:28,1,142.49999619484,8|0,1:0|0:0,0:0:0:0:
354,200,402756,1,2,0:0:0:0:
354,200,402825,1,2,0:0:0:0:
354,200,402895,54,0,P|381:199|528:219,1,157.499995193482,2|2,3:0|0:0,0:0:0:0:
399,278,403311,1,0,3:0:0:0:
482,336,403450,1,2,0:0:0:0:
482,336,403728,2,0,P|453:348|374:354,1,86.2500016450882,8|0,1:0|0:0,0:0:0:0:
152,280,404006,54,0,L|164:228,2,43.1250008225441,0|2|0,0:0|0:3|0:0,0:0:0:0:
252,361,404284,1,2,1:2:0:0:
409,267,404423,1,2,0:0:0:0:
379,247,404492,1,2,0:0:0:0:
343,249,404561,1,8,1:0:0:0:
57,359,404839,2,0,B|76:317|17:293|45:233,1,129.375002467632,2|0,0:0|0:0,0:0:0:0:
43,235,405117,54,0,B|79:261|131:221|131:221|187:247|165:287,1,172.500003290176,4|0,3:1|0:0,0:0:0:0:
266,179,405534,2,0,B|278:142|269:100|269:100|317:126|371:116,1,172.500003290176,0|0,3:0|0:0,0:0:0:0:
457,204,405950,2,0,P|418:213|379:215,1,78.7499975967408,8|0,1:0|0:0,0:0:0:0:
193,138,406228,53,2,0:0:0:0:
79,227,406367,1,2,0:0:0:0:
209,269,406506,1,0,3:0:0:0:
159,209,406645,1,0,1:0:0:0:
159,209,406714,1,0,1:0:0:0:
159,209,406784,2,0,P|160:263|165:380,1,157.499995193482,8|2,1:0|0:0,0:0:0:0:
417,340,407200,1,0,1:0:0:0:
421,335,407270,1,0,1:0:0:0:
426,331,407339,54,0,P|426:302|419:241,1,78.7499975967408,2|0,3:0|0:0,0:0:0:0:
377,161,407617,1,2,0:0:0:0:
405,68,407756,1,0,1:0:0:0:
476,184,407895,2,0,P|485:156|492:86,1,78.7499975967408,2|0,0:0|0:0,0:0:0:0:
321,222,408173,2,0,P|304:190|293:114,1,78.7499975967408,8|0,1:0|0:0,0:0:0:0:
198,170,408450,54,0,P|168:190|31:175,1,157.499995193482,2|0,1:2|0:0,0:0:0:0:
186,266,408867,1,2,0:0:0:0:
224,273,408936,1,2,0:0:0:0:
258,296,409006,1,8,1:0:0:0:
344,374,409145,1,0,0:0:0:0:
296,224,409284,2,0,P|301:190|343:152,1,78.7499975967408,6|0,0:0|0:0,0:0:0:0:
512,84,409561,53,4,3:1:0:0:
443,156,409700,1,0,0:0:0:0:
346,69,409839,1,2,0:0:0:0:
272,106,409978,2,0,B|241:120|202:115|202:115|177:156|120:158,1,157.499995193482,0|0,3:0|0:0,0:0:0:0:
22,231,410395,1,8,1:0:0:0:
155,284,410534,1,2,0:0:0:0:
155,284,410603,1,2,0:0:0:0:
155,284,410673,53,0,1:0:0:0:
130,354,410811,1,0,1:0:0:0:
240,265,410950,53,0,3:0:0:0:
253,356,411089,1,0,3:0:0:0:
417,294,411228,53,8,1:0:0:0:
417,294,411506,2,0,L|420:263,1,20.6250006294251,2|0,3:2|1:0,0:0:0:0:
379,235,411645,2,0,L|383:205,1,20.6250006294251,2|0,3:2|1:0,0:0:0:0:
311,149,411784,54,0,L|145:133,1,142.49999619484,2|2,3:3|0:0,0:0:0:0:
246,227,412200,2,0,B|148:243,2,71.2499980974198,2|2|0,3:3|0:0|0:0,0:0:0:0:
469,135,412617,1,8,1:0:0:0:
389,192,412756,1,0,0:0:0:0:
391,204,412825,1,0,0:0:0:0:
394,218,412895,1,2,0:0:0:0:
298,154,413034,1,2,0:0:0:0:
408,302,413173,1,0,3:0:0:0:
408,302,413450,2,0,P|384:295|307:284,1,71.2499980974198,8|0,1:0|0:0,0:0:0:0:
108,372,413728,2,0,P|119:345|133:258,1,106.87499714613,2|0,0:0|0:0,0:0:0:0:
132,268,414006,54,0,P|221:254|250:204,1,142.49999619484,4|0,3:2|0:0,0:0:0:0:
320,96,414423,2,0,P|231:110|202:160,1,142.49999619484,0|0,3:2|0:0,0:0:0:0:
312,256,414839,2,0,P|324:227|307:172,1,71.2499980974198,8|0,1:0|0:0,0:0:0:0:
214,25,415117,53,2,1:2:0:0:
298,9,415256,1,0,1:0:0:0:
389,34,415395,1,0,3:0:0:0:
499,15,415534,1,0,1:0:0:0:
499,15,415603,1,0,1:0:0:0:
499,15,415673,2,0,L|491:114,1,71.2499980974198,8|0,1:0|0:0,0:0:0:0:
405,227,415950,2,0,L|398:166,2,35.6249990487099,2|2|0,0:0|0:0|0:0,0:0:0:0:
512,336,416228,53,2,3:0:0:0:
512,336,416506,1,2,0:0:0:0:
428,317,416645,1,2,3:2:0:0:
341,347,416784,2,0,L|245:334,1,71.2499980974198,0|0,3:0|0:0,0:0:0:0:
246,344,416992,1,2,0:0:0:0:
229,328,417061,2,0,L|239:254,1,71.2499980974198,8|0,1:0|0:0,0:0:0:0:
262,110,417339,53,2,0:0:0:0:
317,214,417478,1,0,0:0:0:0:
324,230,417548,1,0,0:0:0:0:
332,244,417617,1,0,3:0:0:0:
338,127,417756,1,0,3:0:0:0:
120,140,417895,53,8,1:0:0:0:
502,251,418173,1,2,0:0:0:0:
512,175,418311,1,2,0:0:0:0:
502,251,418450,1,4,3:2:0:0:
256,192,418520,12,4,422895,0:0:0:0:
