osu file format v14

[General]
AudioFilename: audio.ogg
AudioLeadIn: 0
PreviewTime: 161292
Countdown: 0
SampleSet: Normal
StackLeniency: 0.7
Mode: 1
LetterboxInBreaks: 0
WidescreenStoryboard: 0

[Editor]
Bookmarks: 82092,102492,121692,161292,180492,209292,266892,286092
DistanceSpacing: 1
BeatDivisor: 4
GridSize: 32
TimelineZoom: 5.299998

[Metadata]
Title:Melaleuca
TitleUnicode:Melaleuca
Artist:ELECTROCUTICA
ArtistUnicode:ELECTROCUTICA
Creator:Antti
Version:Magnoliophytina
Source:
Tags:reversus リヴェルサス electronic instrumental japanese treow vocaloid 初音ミク hatsune miku idm experimental
BeatmapID:4198727
BeatmapSetID:2016778

[Difficulty]
HPDrainRate:6.2
CircleSize:2
OverallDifficulty:6.6
ApproachRate:10
SliderMultiplier:0.600000005960464
SliderTickRate:1

[Events]
//Background and Video events
0,0,"kuva11.jpg",0,0
//Break Periods
2,24693,33643
2,180692,189642
2,209492,218142
2,219092,227592
2,325475,345225
//Storyboard Layer 0 (Background)
//Storyboard Layer 1 (Fail)
//Storyboard Layer 2 (Pass)
//Storyboard Layer 3 (Foreground)
//Storyboard Layer 4 (Overlay)
//Storyboard Sound Samples

[TimingPoints]
650,300,4,1,0,50,1,0
650,-101.010101010101,4,1,0,50,0,0
789,-101.971447994562,4,1,0,50,0,0
939,-102.951269732327,4,1,0,50,0,0
1089,-103.950103950104,4,1,0,50,0,0
1239,-104.968509447166,4,1,0,50,0,0
1389,-106.007067137809,4,1,0,50,0,0
1539,-107.066381156317,4,1,0,50,0,0
1689,-108.147080028839,4,1,0,50,0,0
1839,-109.24981791697,4,1,0,50,0,0
1989,-110.37527593819,4,1,0,50,0,0
2139,-111.524163568773,4,1,0,50,0,0
2289,-112.697220135237,4,1,0,50,0,0
2439,-113.895216400911,4,1,0,50,0,0
2589,-115.118956254797,4,1,0,50,0,0
2739,-116.369278510473,4,1,0,50,0,0
2889,-100,4,1,0,50,0,0
3039,-100.946372239748,4,1,0,50,0,0
3189,-101.910828025478,4,1,0,50,0,0
3339,-102.893890675241,4,1,0,50,0,0
3489,-103.896103896104,4,1,0,50,0,0
3639,-104.918032786885,4,1,0,50,0,0
3789,-105.960264900662,4,1,0,50,0,0
3939,-107.023411371237,4,1,0,50,0,0
4089,-108.108108108108,4,1,0,50,0,0
4239,-109.215017064846,4,1,0,50,0,0
4389,-110.344827586207,4,1,0,50,0,0
4539,-111.498257839721,4,1,0,50,0,0
4689,-112.676056338028,4,1,0,50,0,0
4839,-113.879003558719,4,1,0,50,0,0
4989,-115.107913669065,4,1,0,50,0,0
5139,-116.363636363636,4,1,0,50,0,0
5289,-100,4,1,0,50,0,0
5439,-100.946372239748,4,1,0,50,0,0
5589,-101.910828025478,4,1,0,50,0,0
5739,-102.893890675241,4,1,0,50,0,0
5889,-103.896103896104,4,1,0,50,0,0
6039,-104.918032786885,4,1,0,50,0,0
6189,-105.960264900662,4,1,0,50,0,0
6339,-107.023411371237,4,1,0,50,0,0
6489,-108.108108108108,4,1,0,50,0,0
6639,-109.215017064846,4,1,0,50,0,0
6789,-110.344827586207,4,1,0,50,0,0
6939,-111.498257839721,4,1,0,50,0,0
7089,-112.676056338028,4,1,0,50,0,0
7239,-113.879003558719,4,1,0,50,0,0
7389,-115.107913669065,4,1,0,50,0,0
7539,-116.363636363636,4,1,0,50,0,0
7689,-100,4,1,0,50,0,0
7839,-100.946372239748,4,1,0,50,0,0
7989,-101.910828025478,4,1,0,50,0,0
8139,-102.893890675241,4,1,0,50,0,0
8289,-103.896103896104,4,1,0,50,0,0
8439,-104.918032786885,4,1,0,50,0,0
8589,-105.960264900662,4,1,0,50,0,0
8739,-107.023411371237,4,1,0,50,0,0
8889,-108.108108108108,4,1,0,50,0,0
9039,-109.215017064846,4,1,0,50,0,0
9189,-110.344827586207,4,1,0,50,0,0
9339,-111.498257839721,4,1,0,50,0,0
9489,-112.676056338028,4,1,0,50,0,0
9639,-113.879003558719,4,1,0,50,0,0
9789,-115.107913669065,4,1,0,50,0,0
9939,-116.363636363636,4,1,0,50,0,0
10089,-100,4,1,0,50,0,0
10239,-100.946372239748,4,1,0,50,0,0
10389,-101.910828025478,4,1,0,50,0,0
10539,-102.893890675241,4,1,0,50,0,0
10689,-103.896103896104,4,1,0,50,0,0
10839,-104.918032786885,4,1,0,50,0,0
10989,-105.960264900662,4,1,0,50,0,0
11139,-107.023411371237,4,1,0,50,0,0
11289,-108.108108108108,4,1,0,50,0,0
11439,-109.215017064846,4,1,0,50,0,0
11589,-110.344827586207,4,1,0,50,0,0
11739,-111.498257839721,4,1,0,50,0,0
11889,-112.676056338028,4,1,0,50,0,0
12039,-113.879003558719,4,1,0,50,0,0
12189,-115.107913669065,4,1,0,50,0,0
12339,-116.363636363636,4,1,0,50,0,0
12489,-100,4,1,0,50,0,0
12639,-100.946372239748,4,1,0,50,0,0
12789,-101.910828025478,4,1,0,50,0,0
12939,-102.893890675241,4,1,0,50,0,0
13089,-103.896103896104,4,1,0,50,0,0
13239,-104.918032786885,4,1,0,50,0,0
13389,-105.960264900662,4,1,0,50,0,0
13539,-107.023411371237,4,1,0,50,0,0
13689,-108.108108108108,4,1,0,50,0,0
13839,-109.215017064846,4,1,0,50,0,0
13989,-110.344827586207,4,1,0,50,0,0
14139,-111.498257839721,4,1,0,50,0,0
14289,-112.676056338028,4,1,0,50,0,0
14439,-113.879003558719,4,1,0,50,0,0
14589,-115.107913669065,4,1,0,50,0,0
14739,-116.363636363636,4,1,0,50,0,0
14889,-100,4,1,0,50,0,0
15039,-100.946372239748,4,1,0,50,0,0
15189,-101.910828025478,4,1,0,50,0,0
15339,-102.893890675241,4,1,0,50,0,0
15489,-103.896103896104,4,1,0,50,0,0
15639,-104.918032786885,4,1,0,50,0,0
15789,-105.960264900662,4,1,0,50,0,0
15939,-107.023411371237,4,1,0,50,0,0
16089,-108.108108108108,4,1,0,50,0,0
16239,-109.215017064846,4,1,0,50,0,0
16389,-110.344827586207,4,1,0,50,0,0
16539,-111.498257839721,4,1,0,50,0,0
16689,-112.676056338028,4,1,0,50,0,0
16839,-113.879003558719,4,1,0,50,0,0
16989,-115.107913669065,4,1,0,50,0,0
17139,-116.363636363636,4,1,0,50,0,0
17289,-100,4,1,0,50,0,0
17439,-100.946372239748,4,1,0,50,0,0
17589,-101.910828025478,4,1,0,50,0,0
17739,-102.893890675241,4,1,0,50,0,0
17889,-103.896103896104,4,1,0,50,0,0
18039,-104.918032786885,4,1,0,50,0,0
18189,-105.960264900662,4,1,0,50,0,0
18339,-107.023411371237,4,1,0,50,0,0
18489,-108.108108108108,4,1,0,50,0,0
18639,-109.215017064846,4,1,0,50,0,0
18789,-110.344827586207,4,1,0,50,0,0
18939,-111.498257839721,4,1,0,50,0,0
19089,-112.676056338028,4,1,0,50,0,0
19239,-113.879003558719,4,1,0,50,0,0
19389,-115.107913669065,4,1,0,53,0,0
19539,-116.363636363636,4,1,0,57,0,0
19689,-117.647058823529,4,1,0,59,0,0
19989,-112.224448897796,4,1,0,60,0,0
20139,-107.27969348659,4,1,0,60,0,0
20289,-102.752293577982,4,1,0,60,0,0
20439,-98.5915492957747,4,1,0,60,0,0
20589,-94.7546531302877,4,1,0,60,0,0
20739,-91.2052117263844,4,1,0,60,0,0
20889,-87.9120879120879,4,1,0,60,0,0
21039,-84.8484848484849,4,1,0,60,0,0
21189,-81.99121522694,4,1,0,60,0,0
21339,-79.3201133144476,4,1,0,60,0,0
21489,-76.8175582990398,4,1,0,60,0,0
21639,-74.468085106383,4,1,0,60,0,0
21789,-72.258064516129,4,1,0,60,0,0
21939,-70.1754385964912,4,1,0,60,0,0
22089,-68.2095006090134,4,1,0,60,0,0
22239,-66.3507109004739,4,1,0,60,0,0
22389,-64.5905420991926,4,1,0,60,0,0
22539,-62.9213483146067,4,1,0,60,0,0
22689,-61.3362541073384,4,1,0,60,0,0
22839,-59.8290598290598,4,1,0,60,0,0
22989,-58.3941605839416,4,1,0,60,0,0
23139,-57.0264765784114,4,1,0,60,0,0
23289,-55.7213930348259,4,1,0,60,0,0
23439,-54.4747081712062,4,1,0,60,0,0
23589,-53.2825880114177,4,1,0,60,0,0
23739,-52.1415270018622,4,1,0,60,0,0
23889,-51.0483135824977,4,1,0,60,0,0
24039,-50,4,1,0,60,0,0
24117,-33.3333333333333,4,1,0,60,0,0
24417,-33.3333333333333,4,1,0,70,0,0
24492,300,4,1,0,70,1,0
24492,-58.8235294117647,4,1,0,70,0,0
24493,-18.1818181818182,4,1,0,70,0,0
24642,-66.6666666666667,4,1,0,40,0,0
25842,-74.0740740740741,4,1,0,40,0,0
27042,-82.3045267489712,4,1,0,40,0,0
28242,-91.4494741655235,4,1,0,40,0,0
29442,-101.610526850582,4,1,0,40,0,0
30642,-112.900585389535,4,1,0,40,0,0
31842,-125.445094877261,4,1,0,40,0,0
33942,-139.372822299652,4,1,0,60,0,0
34093,-66.6666666666667,4,1,0,60,0,0
34239,-66.7826086956522,4,1,0,60,0,0
34314,-66.8407310704961,4,1,0,60,0,0
34389,-66.8989547038327,4,1,0,60,0,0
34464,-66.9572798605057,4,1,0,60,0,0
34539,-67.0157068062827,4,1,0,60,0,0
34842,-154.870682979712,4,1,0,60,0,0
36342,-172.117039586919,4,1,0,60,0,0
36493,-68.5714285714286,4,1,0,60,0,0
36639,-68.6940966010733,4,1,0,60,0,0
36714,-68.7555953446732,4,1,0,60,0,0
36789,-68.8172043010753,4,1,0,60,0,0
36864,-68.8789237668161,4,1,0,60,0,0
36939,-68.9407540394973,4,1,0,60,0,0
37092,-191.204588910134,4,1,0,60,0,0
37839,-69.6914700544465,4,1,0,60,0,0
37914,-69.7547683923706,4,1,0,60,0,0
37989,-69.8181818181818,4,1,0,60,0,0
38439,-70.2010968921389,4,1,0,60,0,0
38514,-70.2653247941446,4,1,0,60,0,0
38589,-70.3296703296703,4,1,0,60,0,0
38664,-70.3941338221815,4,1,0,60,0,0
38739,-70.4587155963303,4,1,0,60,0,0
38817,-212.314225053079,4,1,0,60,0,0
38893,-70.5882352941176,4,1,0,60,0,0
39039,-70.7182320441989,4,1,0,60,0,0
39114,-70.7834101382488,4,1,0,60,0,0
39189,-70.8487084870849,4,1,0,60,0,0
39264,-70.9141274238227,4,1,0,60,0,0
39339,-70.9796672828096,4,1,0,60,0,0
39792,-236.071765816808,4,1,0,60,0,0
40917,-262.260687123,4,1,0,60,0,0
41293,-72.7272727272727,4,1,0,60,0,0
41439,-72.865275142315,4,1,0,60,0,0
41514,-72.9344729344729,4,1,0,60,0,0
41589,-73.0038022813688,4,1,0,60,0,0
41664,-73.0732635585157,4,1,0,60,0,0
41739,-73.1428571428571,4,1,0,60,0,0
41892,-291.375291375291,4,1,0,60,0,0
42639,-73.9884393063584,4,1,0,60,0,0
42714,-74.0597878495661,4,1,0,60,0,0
42789,-74.1312741312741,4,1,0,60,0,0
43239,-74.5631067961165,4,1,0,60,0,0
43314,-74.6355685131195,4,1,0,60,0,0
43389,-74.7081712062257,4,1,0,60,0,0
43464,-74.7809152872444,4,1,0,60,0,0
43539,-74.8538011695906,4,1,0,60,0,0
43617,-323.834196891192,4,1,0,65,0,0
43693,-28.5714285714286,4,1,0,65,0,0
43839,-75.146771037182,4,1,0,65,0,0
43914,-75.2203721841332,4,1,0,65,0,0
43989,-75.2941176470588,4,1,0,65,0,0
44064,-75.3680078508341,4,1,0,65,0,0
44139,-75.4420432220039,4,1,0,65,0,0
44739,-76.039603960396,4,1,0,65,0,0
44817,-323.624595469256,4,1,0,65,0,0
45039,-76.3419483101392,4,1,0,65,0,0
45339,-76.6467065868263,4,1,0,65,0,0
45639,-76.9539078156313,4,1,0,65,0,0
45939,-77.2635814889336,4,1,0,65,0,0
46017,-322.58064516129,4,1,0,65,0,0
46093,-77.4193548387097,4,1,0,65,0,0
46239,-77.5757575757576,4,1,0,65,0,0
46314,-77.6541961577351,4,1,0,65,0,0
46389,-77.7327935222672,4,1,0,65,0,0
46464,-77.8115501519757,4,1,0,65,0,0
46539,-77.8904665314402,4,1,0,65,0,0
46689,-78.0487804878049,4,1,0,65,0,0
47139,-78.5276073619632,4,1,0,65,0,0
47217,-322.58064516129,4,1,0,65,0,0
47439,-78.8501026694045,4,1,0,65,0,0
47514,-78.9311408016444,4,1,0,65,0,0
47589,-79.0123456790123,4,1,0,65,0,0
47739,-79.1752577319588,4,1,0,65,0,0
47889,-79.3388429752066,4,1,0,65,0,0
48039,-79.5031055900621,4,1,0,65,0,0
48114,-79.5854922279793,4,1,0,65,0,0
48189,-79.6680497925311,4,1,0,65,0,0
48264,-79.7507788161994,4,1,0,65,0,0
48339,-79.8336798336798,4,1,0,65,0,0
48417,-322.58064516129,4,1,0,65,0,0
48493,-80,4,1,0,65,0,0
48639,-80.1670146137787,4,1,0,65,0,0
48714,-80.2507836990596,4,1,0,65,0,0
48789,-80.3347280334728,4,1,0,65,0,0
48864,-80.4188481675393,4,1,0,65,0,0
48939,-80.503144654088,4,1,0,65,0,0
49089,-80.672268907563,4,1,0,65,0,0
49239,-80.8421052631579,4,1,0,65,0,0
49389,-81.0126582278481,4,1,0,65,0,0
49539,-81.1839323467231,4,1,0,65,0,0
49617,-322.58064516129,4,1,0,65,0,0
49693,-81.3559322033898,4,1,0,65,0,0
49839,-81.5286624203822,4,1,0,65,0,0
49989,-81.7021276595745,4,1,0,65,0,0
50139,-81.8763326226013,4,1,0,65,0,0
50289,-82.0512820512821,4,1,0,65,0,0
50439,-82.2269807280514,4,1,0,65,0,0
50589,-82.4034334763948,4,1,0,65,0,0
50739,-82.5806451612903,4,1,0,65,0,0
50817,-322.58064516129,4,1,0,65,0,0
50893,-82.7586206896552,4,1,0,65,0,0
51039,-82.9373650107991,4,1,0,65,0,0
51114,-83.027027027027,4,1,0,65,0,0
51189,-83.1168831168831,4,1,0,65,0,0
51264,-83.2069339111593,4,1,0,65,0,0
51339,-83.2971800433839,4,1,0,65,0,0
51489,-83.4782608695652,4,1,0,65,0,0
51789,-83.8427947598253,4,1,0,65,0,0
51939,-84.0262582056893,4,1,0,65,0,0
52017,-322.58064516129,4,1,0,65,0,0
52093,-84.2105263157895,4,1,0,65,0,0
52239,-84.3956043956044,4,1,0,65,0,0
52314,-84.4884488448845,4,1,0,65,0,0
52389,-84.5814977973568,4,1,0,65,0,0
52539,-84.7682119205298,4,1,0,65,0,0
52689,-84.9557522123894,4,1,0,65,0,0
52839,-85.1441241685144,4,1,0,65,0,0
52914,-85.2386237513874,4,1,0,65,0,0
52989,-85.3333333333333,4,1,0,65,0,0
53064,-85.4282536151279,4,1,0,65,0,0
53139,-85.5233853006682,4,1,0,65,0,0
53217,-322.58064516129,4,1,0,65,0,0
53293,-85.7142857142857,4,1,0,65,0,0
53439,-85.9060402684564,4,1,0,65,0,0
53514,-86.0022396416573,4,1,0,65,0,0
53589,-86.0986547085202,4,1,0,65,0,0
53664,-86.1952861952862,4,1,0,65,0,0
53739,-86.2921348314607,4,1,0,65,0,0
53889,-86.4864864864865,4,1,0,65,0,0
54039,-86.6817155756208,4,1,0,65,0,0
54339,-87.0748299319728,4,1,0,65,0,0
54417,-322.58064516129,4,1,0,65,0,0
54493,-87.2727272727273,4,1,0,65,0,0
54639,-87.4715261958998,4,1,0,65,0,0
54789,-87.6712328767123,4,1,0,65,0,0
54939,-87.8718535469108,4,1,0,65,0,0
55089,-88.0733944954128,4,1,0,65,0,0
55239,-88.2758620689655,4,1,0,65,0,0
55389,-88.4792626728111,4,1,0,65,0,0
55539,-88.6836027713626,4,1,0,65,0,0
55617,-322.58064516129,4,1,0,65,0,0
55693,-88.8888888888889,4,1,0,65,0,0
55839,-89.0951276102088,4,1,0,65,0,0
55914,-89.198606271777,4,1,0,65,0,0
55989,-89.3023255813953,4,1,0,65,0,0
56064,-89.4062863795111,4,1,0,65,0,0
56139,-89.5104895104895,4,1,0,65,0,0
56289,-89.7196261682243,4,1,0,65,0,0
56439,-89.9297423887588,4,1,0,65,0,0
56739,-90.3529411764706,4,1,0,65,0,0
56817,-322.58064516129,4,1,0,65,0,0
56893,-90.5660377358491,4,1,0,65,0,0
57039,-90.7801418439716,4,1,0,65,0,0
57114,-90.887573964497,4,1,0,65,0,0
57189,-90.9952606635071,4,1,0,65,0,0
57339,-91.2114014251781,4,1,0,65,0,0
57489,-91.4285714285714,4,1,0,65,0,0
57639,-91.6467780429594,4,1,0,65,0,0
57714,-91.7562724014337,4,1,0,65,0,0
57789,-91.866028708134,4,1,0,65,0,0
57864,-91.9760479041916,4,1,0,65,0,0
57939,-92.0863309352518,4,1,0,65,0,0
58017,-322.58064516129,4,1,0,65,0,0
58093,-92.3076923076923,4,1,0,65,0,0
58239,-92.5301204819277,4,1,0,65,0,0
58314,-92.6417370325694,4,1,0,65,0,0
58389,-92.7536231884058,4,1,0,65,0,0
58464,-92.8657799274486,4,1,0,65,0,0
58539,-92.9782082324455,4,1,0,65,0,0
58689,-93.2038834951456,4,1,0,65,0,0
58839,-93.4306569343066,4,1,0,65,0,0
58914,-93.5444579780755,4,1,0,65,0,0
58989,-93.6585365853659,4,1,0,65,0,0
59139,-93.8875305623472,4,1,0,65,0,0
59217,-322.58064516129,4,1,0,65,0,0
59293,-94.1176470588235,4,1,0,65,0,0
59439,-94.3488943488944,4,1,0,65,0,0
59589,-94.5812807881773,4,1,0,65,0,0
59739,-94.8148148148148,4,1,0,65,0,0
59889,-95.0495049504951,4,1,0,65,0,0
60039,-95.2853598014888,4,1,0,65,0,0
60339,-95.7605985037407,4,1,0,65,0,0
60417,-222.222222222222,4,1,0,65,0,0
60493,-96,4,1,0,65,0,0
60639,-96.2406015037594,4,1,0,65,0,0
60714,-96.3613550815558,4,1,0,65,0,0
60789,-96.4824120603015,4,1,0,65,0,0
60864,-96.6037735849057,4,1,0,65,0,0
60939,-96.7254408060453,4,1,0,65,0,0
61014,-96.8474148802018,4,1,0,65,0,0
61089,-96.969696969697,4,1,0,65,0,0
61239,-97.2151898734177,4,1,0,65,0,0
61539,-97.7099236641221,4,1,0,65,0,0
61617,-142.857142857143,4,1,0,65,0,0
61693,-97.9591836734694,4,1,0,65,0,0
61839,-98.2097186700767,4,1,0,65,0,0
61914,-98.3354673495519,4,1,0,65,0,0
61989,-98.4615384615385,4,1,0,65,0,0
62139,-98.7146529562982,4,1,0,65,0,0
62289,-98.9690721649484,4,1,0,65,0,0
62439,-99.2248062015504,4,1,0,65,0,0
62514,-99.353169469599,4,1,0,65,0,0
62589,-99.4818652849741,4,1,0,65,0,0
62664,-99.6108949416342,4,1,0,65,0,0
62739,-99.7402597402597,4,1,0,65,0,0
62889,-100,4,1,0,65,0,0
63039,-99.7328584149599,4,1,0,65,0,0
63189,-99.4671403197158,4,1,0,65,0,0
63339,-99.2028343666962,4,1,0,65,0,0
63489,-98.9399293286219,4,1,0,65,0,0
63639,-98.6784140969163,4,1,0,65,0,0
63789,-98.4182776801406,4,1,0,65,0,0
63939,-98.159509202454,4,1,0,65,0,0
64089,-97.9020979020979,4,1,0,65,0,0
64239,-97.6460331299041,4,1,0,65,0,0
64389,-97.3913043478261,4,1,0,65,0,0
64539,-97.1379011274935,4,1,0,65,0,0
64689,-96.8858131487889,4,1,0,65,0,0
64839,-96.6350301984469,4,1,0,65,0,0
64989,-96.3855421686747,4,1,0,65,0,0
65064,-96.2612806188225,4,1,0,65,0,0
65139,-96.137339055794,4,1,0,65,0,0
65289,-95.8904109589041,4,1,0,65,0,0
65439,-95.6447480785653,4,1,0,65,0,0
65514,-95.5223880597015,4,1,0,65,0,0
65589,-95.4003407155026,4,1,0,65,0,0
65739,-95.1571792693288,4,1,0,65,0,0
65889,-94.9152542372881,4,1,0,65,0,0
66039,-94.6745562130178,4,1,0,65,0,0
66189,-94.4350758853288,4,1,0,65,0,0
66339,-94.1968040370059,4,1,0,65,0,0
66489,-93.9597315436242,4,1,0,65,0,0
66639,-93.7238493723849,4,1,0,65,0,0
66789,-93.4891485809683,4,1,0,65,0,0
66939,-93.255620316403,4,1,0,65,0,0
67089,-93.0232558139535,4,1,0,65,0,0
67239,-92.7920463960232,4,1,0,65,0,0
67389,-92.5619834710744,4,1,0,65,0,0
67464,-92.447379281882,4,1,0,65,0,0
67539,-92.3330585325639,4,1,0,65,0,0
67689,-92.1052631578947,4,1,0,65,0,0
67839,-91.8785890073831,4,1,0,65,0,0
67989,-91.6530278232406,4,1,0,65,0,0
68139,-91.4285714285714,4,1,0,65,0,0
68289,-91.2052117263844,4,1,0,65,0,0
68439,-90.982940698619,4,1,0,65,0,0
68589,-90.7617504051864,4,1,0,65,0,0
68739,-90.5416329830234,4,1,0,65,0,0
68889,-90.3225806451613,4,1,0,65,0,0
69039,-90.1045856798069,4,1,0,65,0,0
69189,-89.8876404494382,4,1,0,65,0,0
69339,-89.6717373899119,4,1,0,65,0,0
69489,-89.4568690095847,4,1,0,65,0,0
69639,-89.2430278884462,4,1,0,65,0,0
69789,-89.0302066772655,4,1,0,65,0,0
69939,-88.8183980967486,4,1,0,65,0,0
70089,-88.6075949367089,4,1,0,65,0,0
70239,-88.3977900552486,4,1,0,65,0,0
70389,-88.1889763779528,4,1,0,65,0,0
70539,-87.9811468970935,4,1,0,65,0,0
70689,-87.7742946708464,4,1,0,65,0,0
70839,-87.5684128225176,4,1,0,65,0,0
70989,-87.3634945397816,4,1,0,65,0,0
71139,-87.15953307393,4,1,0,65,0,0
71289,-86.9565217391304,4,1,0,65,0,0
71439,-86.7544539116964,4,1,0,65,0,0
71589,-86.5533230293663,4,1,0,65,0,0
71739,-86.3531225905937,4,1,0,65,0,0
71889,-86.1538461538461,4,1,0,65,0,0
72039,-85.9554873369148,4,1,0,65,0,0
72189,-85.7580398162328,4,1,0,65,0,0
72339,-85.5614973262032,4,1,0,65,0,0
72489,-85.3658536585366,4,1,0,65,0,0
72639,-85.171102661597,4,1,0,65,0,0
72789,-84.9772382397572,4,1,0,65,0,0
72939,-84.784254352763,4,1,0,65,0,0
73089,-84.5921450151057,4,1,0,65,0,0
73239,-84.4009042954032,4,1,0,65,0,0
73389,-84.2105263157895,4,1,0,65,0,0
73539,-84.0210052513128,4,1,0,65,0,0
73689,-83.8323353293413,4,1,0,65,0,0
73839,-83.6445108289768,4,1,0,65,0,0
73989,-83.4575260804769,4,1,0,65,0,0
74139,-83.271375464684,4,1,0,65,0,0
74289,-83.0860534124629,4,1,0,65,0,0
74439,-82.9015544041451,4,1,0,65,0,0
74589,-82.7178729689808,4,1,0,65,0,0
74739,-82.5350036845984,4,1,0,65,0,0
74889,-82.3529411764706,4,1,0,65,0,0
75039,-82.1716801173881,4,1,0,65,0,0
75189,-81.99121522694,4,1,0,65,0,0
75339,-81.8115412710007,4,1,0,65,0,0
75489,-81.6326530612245,4,1,0,65,0,0
75639,-81.4545454545455,4,1,0,65,0,0
75789,-81.2772133526851,4,1,0,65,0,0
75939,-81.1006517016655,4,1,0,65,0,0
76089,-80.9248554913295,4,1,0,65,0,0
76239,-80.7498197548666,4,1,0,65,0,0
76389,-80.5755395683453,4,1,0,65,0,0
76539,-80.4020100502513,4,1,0,65,0,0
76689,-80.2292263610315,4,1,0,65,0,0
76839,-80.0571837026447,4,1,0,65,0,0
76989,-79.885877318117,4,1,0,65,0,0
77139,-79.7153024911032,4,1,0,65,0,0
77289,-79.5454545454545,4,1,0,65,0,0
77439,-79.3763288447909,4,1,0,65,0,0
77589,-79.2079207920792,4,1,0,65,0,0
77739,-79.0402258292167,4,1,0,65,0,0
77889,-78.8732394366197,4,1,0,65,0,0
78039,-78.706957132818,4,1,0,65,0,0
78189,-78.5413744740533,4,1,0,65,0,0
78339,-78.3764870538838,4,1,0,65,0,0
78489,-78.2122905027933,4,1,0,65,0,0
78639,-78.0487804878049,4,1,0,65,0,0
78789,-77.8859527121001,4,1,0,65,0,0
78939,-77.7238029146426,4,1,0,65,0,0
79089,-77.5623268698061,4,1,0,65,0,0
79239,-77.4015203870076,4,1,0,65,0,0
79389,-77.2413793103448,4,1,0,65,0,0
79539,-77.0818995182381,4,1,0,65,0,0
79689,-62.5,4,1,0,65,0,0
79789,-62.1301775147929,4,1,0,65,0,0
79889,-61.7647058823529,4,1,0,65,0,0
79989,-61.4035087719298,4,1,0,65,0,0
80089,-61.046511627907,4,1,0,65,0,0
80189,-60.6936416184971,4,1,0,65,0,0
80289,-60.3448275862069,4,1,0,65,0,0
80389,-60,4,1,0,65,0,0
80489,-59.6590909090909,4,1,0,65,0,0
80589,-59.3220338983051,4,1,0,65,0,0
80689,-58.9887640449438,4,1,0,65,0,0
80789,-58.659217877095,4,1,0,65,0,0
80889,-58.3333333333333,4,1,0,65,0,0
81189,-57.3770491803279,4,1,0,65,0,0
81489,-56.4516129032258,4,1,0,65,0,0
81689,-55.8510638297872,4,1,0,65,0,0
81789,-55.5555555555556,4,1,0,65,0,0
81942,-22.2222222222222,4,1,0,90,0,0
82167,-44.4444444444445,4,1,0,90,0,0
99039,-44.2541042112777,4,1,0,90,0,0
99189,-44.0653873489694,4,1,0,90,0,0
99339,-43.8782731776362,4,1,0,90,0,0
99414,-43.7853107344633,4,1,0,90,0,0
99489,-43.69274136716,4,1,0,90,0,0
99639,-43.5087719298246,4,1,0,90,0,0
99714,-43.4173669467787,4,1,0,90,0,0
99789,-43.3263452131377,4,1,0,90,0,0
99864,-43.2357043235704,4,1,0,90,0,0
99939,-43.1454418928323,4,1,0,90,0,0
100014,-43.0555555555556,4,1,0,90,0,0
100089,-42.966042966043,4,1,0,90,0,0
100239,-42.7881297446515,4,1,0,90,0,0
100314,-42.6997245179063,4,1,0,90,0,0
100389,-42.6116838487973,4,1,0,90,0,0
100539,-42.4366872005476,4,1,0,90,0,0
100689,-42.2631220177232,4,1,0,90,0,0
100764,-42.1768707482993,4,1,0,90,0,0
100839,-42.0909708078751,4,1,0,90,0,0
100914,-42.0054200542005,4,1,0,90,0,0
100989,-41.920216362407,4,1,0,90,0,0
101139,-41.7508417508418,4,1,0,90,0,0
101214,-41.6666666666667,4,1,0,90,0,0
101292,-40,4,1,0,90,0,0
102492,300,4,1,0,60,1,0
102642,-100,4,1,0,50,0,0
111192,-95.2380952380952,4,1,0,50,0,0
111492,-97.5609756097561,4,1,0,50,0,0
111867,-100,4,1,0,50,0,0
118767,-97.5609756097561,4,1,0,50,0,0
119292,-100,4,1,0,50,0,0
119317,-95.2380952380952,4,1,0,50,0,0
119517,-93.0232558139535,4,1,0,50,0,0
120042,-90.9090909090909,4,1,0,50,0,0
120417,-100,4,1,0,50,0,0
121542,-100,4,1,0,80,0,0
121692,-33.3333333333333,4,1,0,80,0,0
121767,-66.6666666666667,4,1,0,70,0,0
122439,-50,4,1,0,70,0,0
122589,-53.030303030303,4,1,0,70,0,0
122739,-56.4516129032258,4,1,0,70,0,0
122814,-58.3333333333333,4,1,0,70,0,0
122889,-60.3448275862069,4,1,0,70,0,0
122964,-62.5,4,1,0,70,0,0
123042,-66.6666666666667,4,1,0,70,0,0
125589,-50,4,1,0,70,0,0
125664,-51.0204081632653,4,1,0,70,0,0
125739,-52.0833333333333,4,1,0,70,0,0
125814,-66.6666666666667,4,1,0,70,0,0
125889,-54.3478260869565,4,1,0,70,0,0
125964,-66.6666666666667,4,1,0,70,0,0
126039,-56.8181818181818,4,1,0,70,0,0
126189,-66.6666666666667,4,1,0,70,0,0
126339,-62.5,4,1,0,70,0,0
126417,-66.6666666666667,4,1,0,70,0,0
127239,-50,4,1,0,70,0,0
127389,-53.030303030303,4,1,0,70,0,0
127539,-56.4516129032258,4,1,0,70,0,0
127614,-58.3333333333333,4,1,0,70,0,0
127689,-60.3448275862069,4,1,0,70,0,0
127764,-62.5,4,1,0,70,0,0
127842,-66.6666666666667,4,1,0,70,0,0
128742,-60.9756097560976,4,1,0,70,0,0
128817,-63.6942675159236,4,1,0,70,0,0
128892,-66.6666666666667,4,1,0,70,0,0
130389,-50,4,1,0,70,0,0
130464,-51.0204081632653,4,1,0,70,0,0
130539,-52.0833333333333,4,1,0,70,0,0
130614,-66.6666666666667,4,1,0,70,0,0
130689,-54.3478260869565,4,1,0,70,0,0
130764,-66.6666666666667,4,1,0,70,0,0
130839,-56.8181818181818,4,1,0,70,0,0
130989,-59.5238095238095,4,1,0,70,0,0
131139,-62.5,4,1,0,70,0,0
131217,-28.5714285714286,4,1,0,80,0,0
131367,-66.6666666666667,4,1,0,70,0,0
132039,-50,4,1,0,70,0,0
132189,-52.6315789473684,4,1,0,70,0,0
132339,-55.5555555555556,4,1,0,70,0,0
132414,-57.1428571428571,4,1,0,70,0,0
132489,-58.8235294117647,4,1,0,70,0,0
132564,-66.6666666666667,4,1,0,70,0,0
132639,-62.5,4,1,0,70,0,0
132717,-66.6666666666667,4,1,0,70,0,0
135189,-50,4,1,0,70,0,0
135264,-51.0204081632653,4,1,0,70,0,0
135339,-52.0833333333333,4,1,0,70,0,0
135414,-66.6666666666667,4,1,0,70,0,0
135489,-54.3478260869565,4,1,0,70,0,0
135564,-66.6666666666667,4,1,0,70,0,0
135639,-56.8181818181818,4,1,0,70,0,0
135714,-66.6666666666667,4,1,0,70,0,0
135789,-59.5238095238095,4,1,0,70,0,0
135939,-62.5,4,1,0,70,0,0
136017,-66.6666666666667,4,1,0,70,0,0
136839,-50,4,1,0,70,0,0
136989,-52.0833333333333,4,1,0,70,0,0
137139,-54.3478260869565,4,1,0,70,0,0
137214,-55.5555555555556,4,1,0,70,0,0
137289,-56.8181818181818,4,1,0,70,0,0
137364,-66.6666666666667,4,1,0,70,0,0
137439,-59.5238095238095,4,1,0,70,0,0
137514,-66.6666666666667,4,1,0,70,0,0
137589,-62.5,4,1,0,70,0,0
137667,-66.6666666666667,4,1,0,70,0,0
138339,-50,4,1,0,70,0,0
138414,-51.7241379310345,4,1,0,70,0,0
138489,-53.5714285714286,4,1,0,70,0,0
138564,-66.6666666666667,4,1,0,70,0,0
138639,-57.6923076923077,4,1,0,70,0,0
138714,-66.6666666666667,4,1,0,70,0,0
138789,-62.5,4,1,0,70,0,0
138867,-66.6666666666667,4,1,0,70,0,0
139989,-52.6315789473684,4,1,0,70,0,0
140064,-54.176072234763,4,1,0,70,0,0
140139,-55.8139534883721,4,1,0,70,0,0
140214,-57.5539568345324,4,1,0,70,0,0
140289,-59.4059405940594,4,1,0,70,0,0
140364,-61.381074168798,4,1,0,70,0,0
140439,-63.4920634920635,4,1,0,70,0,0
140514,-65.7534246575343,4,1,0,70,0,0
140589,-68.1818181818182,4,1,0,70,0,0
140664,-70.7964601769911,4,1,0,70,0,0
140739,-73.6196319018405,4,1,0,70,0,0
140889,-80,4,1,0,70,0,0
141039,-79.8573975044563,4,1,0,70,0,0
141189,-79.7153024911032,4,1,0,70,0,0
141339,-79.5737122557726,4,1,0,70,0,0
141489,-79.4326241134752,4,1,0,70,0,0
141639,-79.2920353982301,4,1,0,70,0,0
141789,-79.1519434628975,4,1,0,70,0,0
141939,-79.0123456790123,4,1,0,70,0,0
142089,-78.8732394366197,4,1,0,70,0,0
142239,-78.7346221441125,4,1,0,70,0,0
142389,-78.5964912280702,4,1,0,70,0,0
142539,-78.4588441330998,4,1,0,70,0,0
142689,-78.3216783216783,4,1,0,70,0,0
142839,-78.1849912739965,4,1,0,70,0,0
142989,-78.0487804878049,4,1,0,70,0,0
143139,-77.9130434782609,4,1,0,70,0,0
143289,-77.7777777777778,4,1,0,70,0,0
143439,-77.6429809358752,4,1,0,70,0,0
143589,-77.5086505190312,4,1,0,70,0,0
143739,-77.3747841105354,4,1,0,70,0,0
143889,-77.2413793103448,4,1,0,70,0,0
144039,-77.1084337349398,4,1,0,70,0,0
144189,-76.9759450171821,4,1,0,70,0,0
144339,-76.8439108061749,4,1,0,70,0,0
144489,-76.7123287671233,4,1,0,70,0,0
144639,-76.5811965811966,4,1,0,70,0,0
144789,-76.4505119453925,4,1,0,70,0,0
144939,-76.320272572402,4,1,0,70,0,0
145089,-76.1904761904762,4,1,0,70,0,0
145239,-76.0611205432937,4,1,0,70,0,0
145389,-75.9322033898305,4,1,0,70,0,0
145539,-75.8037225042301,4,1,0,70,0,0
145689,-75.6756756756757,4,1,0,70,0,0
145839,-75.5480607082631,4,1,0,70,0,0
145989,-75.4208754208754,4,1,0,70,0,0
146139,-75.2941176470588,4,1,0,70,0,0
146289,-75.1677852348993,4,1,0,70,0,0
146439,-75.0418760469012,4,1,0,70,0,0
146589,-74.9163879598662,4,1,0,70,0,0
146739,-74.7913188647746,4,1,0,70,0,0
146889,-74.6666666666667,4,1,0,70,0,0
147039,-74.5424292845258,4,1,0,70,0,0
147189,-74.4186046511628,4,1,0,70,0,0
147339,-74.2951907131012,4,1,0,70,0,0
147489,-74.1721854304636,4,1,0,70,0,0
147639,-74.0495867768595,4,1,0,70,0,0
147789,-73.9273927392739,4,1,0,70,0,0
147939,-73.8056013179572,4,1,0,70,0,0
148089,-73.6842105263158,4,1,0,70,0,0
148239,-73.5632183908046,4,1,0,70,0,0
148389,-73.4426229508197,4,1,0,70,0,0
148539,-73.3224222585925,4,1,0,70,0,0
148689,-73.202614379085,4,1,0,70,0,0
148839,-73.0831973898858,4,1,0,70,0,0
148989,-72.9641693811075,4,1,0,70,0,0
149139,-72.8455284552846,4,1,0,70,0,0
149289,-72.7272727272727,4,1,0,70,0,0
149439,-72.6094003241491,4,1,0,70,0,0
149589,-72.4919093851133,4,1,0,70,0,0
149739,-72.3747980613893,4,1,0,70,0,0
149889,-72.258064516129,4,1,0,70,0,0
150039,-72.1417069243156,4,1,0,70,0,0
150189,-72.0257234726688,4,1,0,70,0,0
150339,-71.9101123595506,4,1,0,70,0,0
150489,-71.7948717948718,4,1,0,70,0,0
150639,-71.68,4,1,0,70,0,0
150789,-71.5654952076677,4,1,0,70,0,0
150939,-71.451355661882,4,1,0,70,0,0
151089,-71.3375796178344,4,1,0,70,0,0
151239,-71.2241653418124,4,1,0,70,0,0
151389,-71.1111111111111,4,1,0,70,0,0
151539,-70.9984152139461,4,1,0,70,0,0
151689,-70.8860759493671,4,1,0,70,0,0
151839,-70.7740916271722,4,1,0,70,0,0
151989,-70.6624605678233,4,1,0,70,0,0
152139,-70.5511811023622,4,1,0,70,0,0
152289,-70.440251572327,4,1,0,70,0,0
152439,-70.3296703296703,4,1,0,70,0,0
152589,-70.2194357366771,4,1,0,70,0,0
152739,-70.1095461658842,4,1,0,70,0,0
152889,-70,4,1,0,70,0,0
153039,-69.8907956318253,4,1,0,70,0,0
153189,-69.7819314641745,4,1,0,70,0,0
153339,-69.6734059097978,4,1,0,70,0,0
153489,-69.5652173913043,4,1,0,70,0,0
153639,-69.4573643410853,4,1,0,70,0,0
153789,-69.3498452012384,4,1,0,70,0,0
153939,-69.242658423493,4,1,0,70,0,0
154089,-69.1358024691358,4,1,0,70,0,0
154239,-69.0292758089368,4,1,0,70,0,0
154389,-68.9230769230769,4,1,0,70,0,0
154539,-68.8172043010753,4,1,0,70,0,0
154689,-68.7116564417178,4,1,0,70,0,0
154839,-68.6064318529862,4,1,0,70,0,0
154989,-68.5015290519878,4,1,0,70,0,0
155139,-68.3969465648855,4,1,0,70,0,0
155289,-68.2926829268293,4,1,0,70,0,0
155439,-68.1887366818874,4,1,0,70,0,0
155589,-68.0851063829787,4,1,0,70,0,0
155739,-67.9817905918058,4,1,0,70,0,0
155889,-67.8787878787879,4,1,0,70,0,0
156039,-67.7760968229955,4,1,0,70,0,0
156189,-67.6737160120846,4,1,0,70,0,0
156339,-67.5716440422323,4,1,0,70,0,0
156489,-67.4698795180723,4,1,0,70,0,0
156639,-67.3684210526316,4,1,0,70,0,0
156789,-67.2672672672673,4,1,0,70,0,0
156939,-67.1664167916042,4,1,0,70,0,0
157089,-67.0658682634731,4,1,0,70,0,0
157239,-66.965620328849,4,1,0,70,0,0
157389,-66.8656716417911,4,1,0,70,0,0
157539,-66.7660208643815,4,1,0,70,0,0
157689,-66.6666666666667,4,1,0,70,0,0
157839,-64,4,1,0,70,0,0
157989,-61.5384615384615,4,1,0,70,0,0
158139,-59.2592592592593,4,1,0,70,0,0
158289,-57.1428571428571,4,1,0,70,0,0
158439,-55.1724137931034,4,1,0,70,0,0
158589,-53.3333333333333,4,1,0,70,0,0
158739,-51.6129032258064,4,1,0,70,0,0
158889,-50,4,1,0,70,0,0
159039,-48.4848484848485,4,1,0,70,0,0
159189,-47.0588235294118,4,1,0,70,0,0
159339,-45.7142857142857,4,1,0,70,0,0
159489,-44.4444444444444,4,1,0,70,0,0
159639,-43.2432432432432,4,1,0,71,0,0
159789,-42.1052631578947,4,1,0,72,0,0
159939,-41.025641025641,4,1,0,73,0,0
160089,-40,4,1,0,74,0,0
160389,-38.0952380952381,4,1,0,75,0,0
160539,-37.2093023255814,4,1,0,76,0,0
160839,-35.5555555555556,4,1,0,78,0,0
160989,-34.7826086956522,4,1,0,80,0,0
161064,-34.4086021505376,4,1,0,84,0,0
161139,-34.0425531914894,4,1,0,85,0,0
161214,-33.6842105263158,4,1,0,87,0,0
161292,300,4,1,0,90,1,0
161292,-33.3333333333333,4,1,0,90,0,0
170892,-20,4,1,0,90,0,1
171492,-33.3333333333333,4,1,0,90,0,1
172092,-33.3333333333333,4,1,0,90,0,0
180492,-22.2222222222222,4,1,0,80,0,0
180642,-57.1428571428571,4,1,0,45,0,0
189942,-40,4,1,0,90,0,0
209217,-25,4,1,0,75,0,0
209442,-57.1428571428571,4,1,0,45,0,0
218517,-50,4,1,0,70,0,0
218817,-25,4,1,0,70,0,0
219042,-57.1428571428571,4,1,0,45,0,0
227892,-57.1428571428571,4,1,0,70,0,0
228114,-55.5555555555556,4,1,0,70,0,0
228189,-54.054054054054,4,1,0,70,0,0
228342,-25,4,1,0,80,0,0
228639,-40,4,1,0,80,0,0
228714,-40.2042118698149,4,1,0,80,0,0
228789,-40.410519563823,4,1,0,80,0,0
228864,-40.6189555125725,4,1,0,80,0,0
228939,-40.8295528191834,4,1,0,80,0,0
229014,-41.042345276873,4,1,0,80,0,0
229089,-41.2573673870334,4,1,0,80,0,0
229164,-41.4746543778802,4,1,0,80,0,0
229239,-41.6942422236929,4,1,0,80,0,0
229389,-42.1404682274247,4,1,0,80,0,0
229464,-42.3671822461332,4,1,0,80,0,0
229539,-42.5963488843813,4,1,0,80,0,0
229614,-42.8280081577158,4,1,0,80,0,0
229689,-43.0622009569378,4,1,0,80,0,0
229764,-43.298969072165,4,1,0,80,0,0
229839,-43.5383552176918,4,1,0,80,0,0
229914,-43.7804030576789,4,1,0,80,0,0
229989,-44.0251572327044,4,1,0,80,0,0
230064,-44.2726633872101,4,1,0,80,0,0
230139,-44.5229681978799,4,1,0,80,0,0
230214,-44.7761194029851,4,1,0,80,0,0
230289,-45.0321658327377,4,1,0,80,0,0
230364,-45.2911574406901,4,1,0,80,0,0
230439,-45.5531453362256,4,1,0,80,0,0
230589,-46.0863204096562,4,1,0,80,0,0
230739,-46.6321243523316,4,1,0,80,0,0
230814,-46.909903201787,4,1,0,80,0,0
230889,-47.1910112359551,4,1,0,80,0,0
230964,-47.4755086661643,4,1,0,80,0,0
231039,-47.7634571645186,4,1,0,80,0,0
231114,-48.0549199084668,4,1,0,80,0,0
231189,-48.3499616270146,4,1,0,80,0,0
231264,-48.6486486486487,4,1,0,80,0,0
231339,-48.951048951049,4,1,0,80,0,0
231414,-49.2572322126661,4,1,0,80,0,0
231489,-49.5672698662471,4,1,0,80,0,0
231564,-49.8812351543943,4,1,0,80,0,0
231639,-50.199203187251,4,1,0,80,0,0
231789,-50.8474576271186,4,1,0,80,0,0
231864,-51.1779041429732,4,1,0,80,0,0
231939,-51.5126737530662,4,1,0,80,0,0
232014,-51.8518518518519,4,1,0,80,0,0
232089,-52.1955260977631,4,1,0,80,0,0
232164,-52.5437864887406,4,1,0,80,0,0
232239,-52.896725440806,4,1,0,80,0,0
232314,-53.2544378698225,4,1,0,80,0,0
232389,-53.6170212765957,4,1,0,80,0,0
232464,-53.9845758354756,4,1,0,80,0,0
232539,-54.3572044866264,4,1,0,80,0,0
232614,-54.735013032146,4,1,0,80,0,0
232689,-55.1181102362205,4,1,0,80,0,0
232764,-55.5066079295154,4,1,0,80,0,0
232839,-55.9006211180124,4,1,0,80,0,0
232989,-56.7056705670567,4,1,0,80,0,0
233139,-57.5342465753425,4,1,0,80,0,0
233214,-57.9576816927323,4,1,0,80,0,0
233289,-58.3873957367933,4,1,0,80,0,0
233364,-58.8235294117647,4,1,0,80,0,0
233439,-59.2662276575729,4,1,0,80,0,0
233514,-59.7156398104265,4,1,0,80,0,0
233589,-60.1719197707736,4,1,0,80,0,0
233664,-60.6352261790183,4,1,0,80,0,0
233739,-61.105722599418,4,1,0,80,0,0
233814,-61.58357771261,4,1,0,80,0,0
233889,-62.0689655172414,4,1,0,80,0,0
233964,-62.5620655412115,4,1,0,80,0,0
234039,-63.0630630630631,4,1,0,80,0,0
234189,-64.089521871821,4,1,0,80,0,0
234264,-64.6153846153846,4,1,0,80,0,0
234339,-65.1499482936918,4,1,0,80,0,0
234414,-65.6934306569343,4,1,0,80,0,0
234489,-66.2460567823344,4,1,0,80,0,0
234564,-66.8080593849417,4,1,0,80,0,0
234639,-67.379679144385,4,1,0,80,0,0
234714,-67.9611650485437,4,1,0,80,0,0
234789,-68.5527747551687,4,1,0,80,0,0
234864,-69.1547749725576,4,1,0,80,0,0
234939,-69.7674418604651,4,1,0,80,0,0
235014,-70.391061452514,4,1,0,80,0,0
235089,-71.0259301014656,4,1,0,80,0,0
235164,-71.6723549488055,4,1,0,80,0,0
235239,-72.3306544202067,4,1,0,80,0,0
235389,-73.6842105263158,4,1,0,80,0,0
235539,-75.0893921334923,4,1,0,80,0,0
235614,-75.812274368231,4,1,0,80,0,0
235689,-76.5492102065614,4,1,0,80,0,0
235764,-77.3006134969325,4,1,0,80,0,0
235839,-78.0669144981413,4,1,0,80,0,0
235914,-78.8485607008761,4,1,0,80,0,0
235989,-79.646017699115,4,1,0,80,0,0
236064,-80.4597701149425,4,1,0,80,0,0
236139,-81.2903225806452,4,1,0,80,0,0
236214,-82.1382007822686,4,1,0,80,0,0
236289,-83.00395256917,4,1,0,80,0,0
236364,-83.8881491344874,4,1,0,80,0,0
236439,-84.7913862718708,4,1,0,80,0,0
236589,-86.6574965612105,4,1,0,80,0,0
236664,-87.6216968011127,4,1,0,80,0,0
236739,-88.6075949367089,4,1,0,80,0,0
236814,-89.6159317211949,4,1,0,80,0,0
236889,-90.6474820143885,4,1,0,80,0,0
236964,-91.703056768559,4,1,0,80,0,0
237039,-92.7835051546392,4,1,0,80,0,0
237114,-93.8897168405365,4,1,0,80,0,0
237189,-95.0226244343892,4,1,0,80,0,0
237264,-96.1832061068702,4,1,0,80,0,0
237339,-97.3724884080371,4,1,0,80,0,0
237414,-98.5915492957747,4,1,0,80,0,0
237489,-99.8415213946117,4,1,0,80,0,0
237564,-101.123595505618,4,1,0,80,0,0
237639,-102.439024390244,4,1,0,80,0,0
237789,-105.175292153589,4,1,0,80,0,0
237939,-108.061749571184,4,1,0,80,0,0
238089,-25,4,1,0,80,0,0
238239,-40,4,1,0,80,0,0
238314,-40.2042118698149,4,1,0,80,0,0
238389,-40.410519563823,4,1,0,80,0,0
238464,-40.6189555125725,4,1,0,80,0,0
238539,-40.8295528191834,4,1,0,80,0,0
238614,-41.042345276873,4,1,0,80,0,0
238689,-41.2573673870334,4,1,0,80,0,0
238764,-41.4746543778802,4,1,0,80,0,0
238839,-41.6942422236929,4,1,0,80,0,0
238989,-42.1404682274247,4,1,0,80,0,0
239064,-42.3671822461332,4,1,0,80,0,0
239139,-42.5963488843813,4,1,0,80,0,0
239214,-42.8280081577158,4,1,0,80,0,0
239289,-43.0622009569378,4,1,0,80,0,0
239364,-43.298969072165,4,1,0,80,0,0
239439,-43.5383552176918,4,1,0,80,0,0
239514,-43.7804030576789,4,1,0,80,0,0
239589,-44.0251572327044,4,1,0,80,0,0
239664,-44.2726633872101,4,1,0,80,0,0
239739,-44.5229681978799,4,1,0,80,0,0
239814,-44.7761194029851,4,1,0,80,0,0
239889,-45.0321658327377,4,1,0,80,0,0
239964,-45.2911574406901,4,1,0,80,0,0
240039,-45.5531453362256,4,1,0,80,0,0
240189,-46.0863204096562,4,1,0,80,0,0
240339,-46.6321243523316,4,1,0,80,0,0
240414,-46.909903201787,4,1,0,80,0,0
240489,-47.1910112359551,4,1,0,80,0,0
240564,-47.4755086661643,4,1,0,80,0,0
240639,-47.7634571645186,4,1,0,80,0,0
240714,-48.0549199084668,4,1,0,80,0,0
240789,-48.3499616270146,4,1,0,80,0,0
240864,-48.6486486486487,4,1,0,80,0,0
240939,-48.951048951049,4,1,0,80,0,0
241014,-49.2572322126661,4,1,0,80,0,0
241089,-49.5672698662471,4,1,0,80,0,0
241164,-49.8812351543943,4,1,0,80,0,0
241239,-50.199203187251,4,1,0,80,0,0
241389,-50.8474576271186,4,1,0,80,0,0
241464,-51.1779041429732,4,1,0,80,0,0
241539,-51.5126737530662,4,1,0,80,0,0
241614,-51.8518518518519,4,1,0,80,0,0
241689,-52.1955260977631,4,1,0,80,0,0
241764,-52.5437864887406,4,1,0,80,0,0
241839,-52.896725440806,4,1,0,80,0,0
241914,-53.2544378698225,4,1,0,80,0,0
241989,-53.6170212765957,4,1,0,80,0,0
242064,-53.9845758354756,4,1,0,80,0,0
242139,-54.3572044866264,4,1,0,80,0,0
242214,-54.735013032146,4,1,0,80,0,0
242289,-55.1181102362205,4,1,0,80,0,0
242364,-55.5066079295154,4,1,0,80,0,0
242439,-55.9006211180124,4,1,0,80,0,0
242589,-56.7056705670567,4,1,0,80,0,0
242739,-57.5342465753425,4,1,0,80,0,0
242814,-57.9576816927323,4,1,0,80,0,0
242889,-58.3873957367933,4,1,0,80,0,0
242964,-58.8235294117647,4,1,0,80,0,0
243039,-59.2662276575729,4,1,0,80,0,0
243114,-59.7156398104265,4,1,0,80,0,0
243189,-60.1719197707736,4,1,0,80,0,0
243264,-60.6352261790183,4,1,0,80,0,0
243339,-61.105722599418,4,1,0,80,0,0
243414,-61.58357771261,4,1,0,80,0,0
243489,-62.0689655172414,4,1,0,80,0,0
243564,-62.5620655412115,4,1,0,80,0,0
243639,-63.0630630630631,4,1,0,80,0,0
243789,-64.089521871821,4,1,0,80,0,0
243864,-64.6153846153846,4,1,0,80,0,0
243939,-65.1499482936918,4,1,0,80,0,0
244014,-65.6934306569343,4,1,0,80,0,0
244089,-66.2460567823344,4,1,0,80,0,0
244164,-66.8080593849417,4,1,0,80,0,0
244239,-67.379679144385,4,1,0,80,0,0
244314,-67.9611650485437,4,1,0,80,0,0
244389,-68.5527747551687,4,1,0,80,0,0
244464,-69.1547749725576,4,1,0,80,0,0
244539,-69.7674418604651,4,1,0,80,0,0
244614,-70.391061452514,4,1,0,80,0,0
244689,-71.0259301014656,4,1,0,80,0,0
244764,-71.6723549488055,4,1,0,80,0,0
244839,-72.3306544202067,4,1,0,80,0,0
244989,-73.6842105263158,4,1,0,80,0,0
245139,-75.0893921334923,4,1,0,80,0,0
245214,-75.812274368231,4,1,0,80,0,0
245289,-76.5492102065614,4,1,0,80,0,0
245364,-77.3006134969325,4,1,0,80,0,0
245439,-78.0669144981413,4,1,0,80,0,0
245514,-78.8485607008761,4,1,0,80,0,0
245589,-79.646017699115,4,1,0,80,0,0
245664,-80.4597701149425,4,1,0,80,0,0
245739,-81.2903225806452,4,1,0,80,0,0
245814,-82.1382007822686,4,1,0,80,0,0
245889,-83.00395256917,4,1,0,80,0,0
245964,-83.8881491344874,4,1,0,80,0,0
246039,-84.7913862718708,4,1,0,80,0,0
246189,-86.6574965612105,4,1,0,80,0,0
246264,-87.6216968011127,4,1,0,80,0,0
246339,-88.6075949367089,4,1,0,80,0,0
246414,-89.6159317211949,4,1,0,80,0,0
246489,-90.6474820143885,4,1,0,80,0,0
246564,-91.703056768559,4,1,0,80,0,0
246639,-92.7835051546392,4,1,0,80,0,0
246714,-93.8897168405365,4,1,0,80,0,0
246789,-95.0226244343892,4,1,0,80,0,0
246864,-96.1832061068702,4,1,0,80,0,0
246939,-97.3724884080371,4,1,0,80,0,0
247014,-98.5915492957747,4,1,0,80,0,0
247089,-99.8415213946117,4,1,0,80,0,0
247164,-101.123595505618,4,1,0,80,0,0
247239,-102.439024390244,4,1,0,80,0,0
247389,-105.175292153589,4,1,0,80,0,0
247539,-108.061749571184,4,1,0,80,0,0
247689,-25,4,1,0,80,0,0
247839,-40,4,1,0,80,0,0
247914,-40.1657634682818,4,1,0,80,0,0
247989,-40.3329065300896,4,1,0,80,0,0
248064,-40.5014464802314,4,1,0,80,0,0
248139,-40.6714009038089,4,1,0,80,0,0
248214,-40.8427876823339,4,1,0,80,0,0
248289,-41.015625,4,1,0,80,0,0
248364,-41.1899313501144,4,1,0,80,0,0
248439,-41.365725541694,4,1,0,80,0,0
248589,-41.7218543046358,4,1,0,80,0,0
248664,-41.9022281343532,4,1,0,80,0,0
248739,-42.0841683366733,4,1,0,80,0,0
248814,-42.2676954042268,4,1,0,80,0,0
248889,-42.4528301886792,4,1,0,80,0,0
248964,-42.6395939086294,4,1,0,80,0,0
249039,-42.8280081577158,4,1,0,80,0,0
249114,-43.0180949129396,4,1,0,80,0,0
249189,-43.2098765432099,4,1,0,80,0,0
249264,-43.4033758181192,4,1,0,80,0,0
249339,-43.598615916955,4,1,0,80,0,0
249414,-43.7956204379562,4,1,0,80,0,0
249489,-43.9944134078212,4,1,0,80,0,0
249564,-44.1950192914767,4,1,0,80,0,0
249639,-44.3974630021142,4,1,0,80,0,0
249789,-44.8079658605974,4,1,0,80,0,0
249939,-45.2261306532663,4,1,0,80,0,0
250014,-45.4381536242337,4,1,0,80,0,0
250089,-45.6521739130435,4,1,0,80,0,0
250164,-45.8682198762286,4,1,0,80,0,0
250239,-46.0863204096562,4,1,0,80,0,0
250314,-46.3065049614113,4,1,0,80,0,0
250389,-46.5288035450517,4,1,0,80,0,0
250464,-46.7532467532468,4,1,0,80,0,0
250539,-46.9798657718121,4,1,0,80,0,0
250614,-47.2086923941551,4,1,0,80,0,0
250689,-47.4397590361446,4,1,0,80,0,0
250764,-47.6730987514188,4,1,0,80,0,0
250839,-47.9087452471483,4,1,0,80,0,0
250989,-48.3870967741936,4,1,0,80,0,0
251064,-48.6298726360479,4,1,0,80,0,0
251139,-48.8750969743988,4,1,0,80,0,0
251214,-49.1228070175439,4,1,0,80,0,0
251289,-49.3730407523511,4,1,0,80,0,0
251364,-49.6258369436786,4,1,0,80,0,0
251439,-49.8812351543943,4,1,0,80,0,0
251514,-50.1392757660167,4,1,0,80,0,0
251589,-50.4,4,1,0,80,0,0
251664,-50.6634499396864,4,1,0,80,0,0
251739,-50.9296685529507,4,1,0,80,0,0
251814,-51.1986997155628,4,1,0,80,0,0
251889,-51.4705882352941,4,1,0,80,0,0
251964,-51.7453798767967,4,1,0,80,0,0
252039,-52.0231213872832,4,1,0,80,0,0
252189,-52.5876460767947,4,1,0,80,0,0
252339,-53.1645569620253,4,1,0,80,0,0
252414,-53.4577853203224,4,1,0,80,0,0
252489,-53.7542662116041,4,1,0,80,0,0
252564,-54.054054054054,4,1,0,80,0,0
252639,-54.3572044866264,4,1,0,80,0,0
252714,-54.6637744034707,4,1,0,80,0,0
252789,-54.9738219895288,4,1,0,80,0,0
252864,-55.2874067573497,4,1,0,80,0,0
252939,-55.6045895851721,4,1,0,80,0,0
253014,-55.9254327563249,4,1,0,80,0,0
253089,-56.25,4,1,0,80,0,0
253164,-56.5783565334531,4,1,0,80,0,0
253239,-56.9105691056911,4,1,0,80,0,0
253389,-57.5868372943327,4,1,0,80,0,0
253464,-57.9310344827586,4,1,0,80,0,0
253539,-58.2793709528215,4,1,0,80,0,0
253614,-58.6319218241042,4,1,0,80,0,0
253689,-58.9887640449438,4,1,0,80,0,0
253764,-59.349976448422,4,1,0,80,0,0
253839,-59.7156398104265,4,1,0,80,0,0
253914,-60.0858369098712,4,1,0,80,0,0
253989,-60.4606525911708,4,1,0,80,0,0
254064,-60.8401738290681,4,1,0,80,0,0
254139,-61.2244897959184,4,1,0,80,0,0
254214,-61.6136919315403,4,1,0,80,0,0
254289,-62.007874015748,4,1,0,80,0,0
254364,-62.407132243685,4,1,0,80,0,0
254439,-62.8115653040877,4,1,0,80,0,0
254589,-63.6363636363636,4,1,0,80,0,0
254739,-64.4831115660184,4,1,0,80,0,0
254814,-64.9149922720247,4,1,0,80,0,0
254889,-65.3526970954357,4,1,0,80,0,0
254964,-65.7963446475196,4,1,0,80,0,0
255039,-66.2460567823344,4,1,0,80,0,0
255114,-66.7019587083113,4,1,0,80,0,0
255189,-67.1641791044776,4,1,0,80,0,0
255264,-67.6328502415459,4,1,0,80,0,0
255339,-68.1081081081081,4,1,0,80,0,0
255414,-68.5900925421884,4,1,0,80,0,0
255489,-69.0789473684211,4,1,0,80,0,0
255564,-69.5748205411375,4,1,0,80,0,0
255639,-70.0778642936596,4,1,0,80,0,0
255789,-71.1060948081264,4,1,0,80,0,0
255864,-71.6316088686754,4,1,0,80,0,0
255939,-72.1649484536082,4,1,0,80,0,0
256014,-72.7062896710906,4,1,0,80,0,0
256089,-73.2558139534884,4,1,0,80,0,0
256164,-73.8137082601054,4,1,0,80,0,0
256239,-74.3801652892562,4,1,0,80,0,0
256314,-74.9553837001785,4,1,0,80,0,0
256389,-75.5395683453237,4,1,0,80,0,0
256464,-76.1329305135952,4,1,0,80,0,0
256539,-76.7356881851401,4,1,0,80,0,0
256614,-77.3480662983425,4,1,0,80,0,0
256689,-77.970297029703,4,1,0,80,0,0
256764,-78.6026200873362,4,1,0,80,0,0
256839,-79.2452830188679,4,1,0,80,0,0
256989,-80.5626598465473,4,1,0,80,0,0
257139,-81.924577373212,4,1,0,80,0,0
257289,-25,4,1,0,80,0,0
257439,-40,4,1,0,80,0,0
257514,-40.1273885350318,4,1,0,80,0,0
257589,-40.2555910543131,4,1,0,80,0,0
257664,-40.3846153846154,4,1,0,80,0,0
257739,-40.5144694533762,4,1,0,80,0,0
257814,-40.6451612903226,4,1,0,80,0,0
257889,-40.7766990291262,4,1,0,80,0,0
257964,-40.9090909090909,4,1,0,80,0,0
258039,-41.042345276873,4,1,0,80,0,0
258189,-41.3114754098361,4,1,0,80,0,0
258264,-41.4473684210526,4,1,0,80,0,0
258339,-41.5841584158416,4,1,0,80,0,0
258414,-41.7218543046358,4,1,0,80,0,0
258489,-41.8604651162791,4,1,0,80,0,0
258564,-42,4,1,0,80,0,0
258639,-42.1404682274247,4,1,0,80,0,0
258714,-42.2818791946309,4,1,0,80,0,0
258789,-42.4242424242424,4,1,0,80,0,0
258864,-42.5675675675676,4,1,0,80,0,0
258939,-42.7118644067797,4,1,0,80,0,0
259014,-42.8571428571429,4,1,0,80,0,0
259089,-43.0034129692833,4,1,0,80,0,0
259164,-43.1506849315068,4,1,0,80,0,0
259239,-43.298969072165,4,1,0,80,0,0
259389,-43.598615916955,4,1,0,80,0,0
259539,-43.9024390243902,4,1,0,80,0,0
259614,-44.0559440559441,4,1,0,80,0,0
259689,-44.2105263157895,4,1,0,80,0,0
259764,-44.3661971830986,4,1,0,80,0,0
259839,-44.5229681978799,4,1,0,80,0,0
259914,-44.6808510638298,4,1,0,80,0,0
259989,-44.8398576512456,4,1,0,80,0,0
260064,-45,4,1,0,80,0,0
260139,-45.1612903225806,4,1,0,80,0,0
260214,-45.3237410071942,4,1,0,80,0,0
260289,-45.4873646209386,4,1,0,80,0,0
260364,-45.6521739130435,4,1,0,80,0,0
260439,-45.8181818181818,4,1,0,80,0,0
260589,-46.1538461538462,4,1,0,80,0,0
260664,-46.3235294117647,4,1,0,80,0,0
260739,-46.4944649446495,4,1,0,80,0,0
260814,-46.6666666666667,4,1,0,80,0,0
260889,-46.8401486988848,4,1,0,80,0,0
260964,-47.0149253731343,4,1,0,80,0,0
261039,-47.1910112359551,4,1,0,80,0,0
261114,-47.3684210526316,4,1,0,80,0,0
261189,-47.5471698113207,4,1,0,80,0,0
261264,-47.7272727272727,4,1,0,80,0,0
261339,-47.9087452471483,4,1,0,80,0,0
261414,-48.0916030534351,4,1,0,80,0,0
261489,-48.2758620689655,4,1,0,80,0,0
261564,-48.4615384615385,4,1,0,80,0,0
261639,-48.6486486486487,4,1,0,80,0,0
261789,-49.0272373540856,4,1,0,80,0,0
261939,-49.4117647058824,4,1,0,80,0,0
262014,-49.6062992125984,4,1,0,80,0,0
262089,-49.802371541502,4,1,0,80,0,0
262164,-50,4,1,0,80,0,0
262239,-50.199203187251,4,1,0,80,0,0
262314,-50.4,4,1,0,80,0,0
262389,-50.6024096385542,4,1,0,80,0,0
262464,-50.8064516129032,4,1,0,80,0,0
262539,-51.0121457489878,4,1,0,80,0,0
262614,-51.219512195122,4,1,0,80,0,0
262689,-51.4285714285714,4,1,0,80,0,0
262764,-51.6393442622951,4,1,0,80,0,0
262839,-51.8518518518518,4,1,0,80,0,0
262989,-52.2821576763486,4,1,0,80,0,0
263064,-52.5,4,1,0,80,0,0
263139,-52.7196652719665,4,1,0,80,0,0
263214,-52.9411764705882,4,1,0,80,0,0
263289,-53.1645569620253,4,1,0,80,0,0
263364,-53.3898305084746,4,1,0,80,0,0
263439,-53.6170212765957,4,1,0,80,0,0
263514,-53.8461538461538,4,1,0,80,0,0
263589,-54.0772532188841,4,1,0,80,0,0
263664,-54.3103448275862,4,1,0,80,0,0
263739,-54.5454545454545,4,1,0,80,0,0
263814,-54.7826086956522,4,1,0,80,0,0
263889,-55.0218340611354,4,1,0,80,0,0
263964,-55.2631578947368,4,1,0,80,0,0
264039,-55.5066079295154,4,1,0,80,0,0
264189,-56,4,1,0,80,0,0
264339,-56.5022421524664,4,1,0,80,0,0
264414,-56.7567567567568,4,1,0,80,0,0
264489,-57.0135746606335,4,1,0,80,0,0
264564,-57.2727272727273,4,1,0,80,0,0
264639,-57.5342465753425,4,1,0,80,0,0
264714,-57.7981651376147,4,1,0,80,0,0
264789,-58.0645161290323,4,1,0,80,0,0
264864,-58.3333333333333,4,1,0,80,0,0
264939,-58.6046511627907,4,1,0,80,0,0
265014,-58.8785046728972,4,1,0,80,0,0
265089,-59.1549295774648,4,1,0,80,0,0
265164,-59.4339622641509,4,1,0,80,0,0
265239,-59.7156398104265,4,1,0,80,0,0
265389,-60.2870813397129,4,1,0,80,0,0
265464,-60.5769230769231,4,1,0,80,0,0
265539,-60.8695652173913,4,1,0,80,0,0
265614,-61.1650485436893,4,1,0,80,0,0
265689,-61.4634146341463,4,1,0,80,0,0
265764,-61.7647058823529,4,1,0,80,0,0
265839,-62.0689655172414,4,1,0,80,0,0
265914,-62.3762376237624,4,1,0,80,0,0
265989,-62.6865671641791,4,1,0,80,0,0
266064,-63,4,1,0,80,0,0
266139,-63.3165829145729,4,1,0,80,0,0
266214,-63.6363636363636,4,1,0,80,0,0
266289,-63.9593908629442,4,1,0,80,0,0
266364,-64.2857142857143,4,1,0,80,0,0
266439,-64.6153846153846,4,1,0,80,0,0
266589,-65.2849740932643,4,1,0,80,0,0
266739,-65.9685863874346,4,1,0,80,0,0
266889,-28.5714285714286,4,1,0,80,0,0
266967,-66.6666666666667,4,1,0,80,0,0
271617,-25,4,1,0,80,0,0
271767,-66.6666666666667,4,1,0,80,0,0
274017,-22.2222222222222,4,1,0,80,0,0
274167,-66.6666666666667,4,1,0,80,0,0
274314,-66.3157894736842,4,1,0,80,0,0
274389,-65.9685863874346,4,1,0,80,0,0
274464,-65.625,4,1,0,80,0,0
274539,-65.2849740932643,4,1,0,80,0,0
274614,-64.9484536082474,4,1,0,80,0,0
274689,-64.6153846153846,4,1,0,80,0,0
274764,-64.2857142857143,4,1,0,80,0,0
274839,-63.9593908629442,4,1,0,80,0,0
274989,-63.3165829145729,4,1,0,80,0,0
275064,-63,4,1,0,80,0,0
275139,-62.6865671641791,4,1,0,80,0,0
275289,-62.0689655172414,4,1,0,80,0,0
275364,-61.7647058823529,4,1,0,80,0,0
275439,-61.4634146341463,4,1,0,80,0,0
275514,-61.1650485436893,4,1,0,80,0,0
275589,-60.8695652173913,4,1,0,80,0,0
275664,-60.5769230769231,4,1,0,80,0,0
275739,-60.2870813397129,4,1,0,80,0,0
275889,-59.7156398104265,4,1,0,80,0,0
276039,-59.1549295774648,4,1,0,80,0,0
276189,-58.6046511627907,4,1,0,80,0,0
276339,-58.0645161290323,4,1,0,80,0,0
276414,-57.7981651376147,4,1,0,80,0,0
276489,-57.5342465753425,4,1,0,80,0,0
276564,-57.2727272727273,4,1,0,80,0,0
276639,-57.0135746606335,4,1,0,80,0,0
276714,-56.7567567567568,4,1,0,80,0,0
276789,-56.5022421524664,4,1,0,80,0,0
276864,-56.25,4,1,0,80,0,0
276939,-56,4,1,0,80,0,0
277014,-55.7522123893805,4,1,0,80,0,0
277089,-55.5066079295154,4,1,0,80,0,0
277164,-55.2631578947368,4,1,0,80,0,0
277239,-40,4,1,0,80,0,0
277389,-41.6666666666667,4,1,0,80,0,0
277539,-43.4782608695652,4,1,0,80,0,0
277614,-44.4444444444445,4,1,0,80,0,0
277689,-45.4545454545455,4,1,0,80,0,0
277764,-53.3898305084746,4,1,0,80,0,0
277839,-47.6190476190476,4,1,0,80,0,0
277914,-52.9411764705882,4,1,0,80,0,0
277989,-50,4,1,0,80,0,0
278139,-52.2821576763486,4,1,0,80,0,0
278289,-51.8518518518518,4,1,0,80,0,0
278364,-51.6393442622951,4,1,0,80,0,0
278439,-51.4285714285714,4,1,0,80,0,0
278589,-51.0121457489879,4,1,0,80,0,0
278739,-50.6024096385542,4,1,0,80,0,0
278814,-50.4,4,1,0,80,0,0
278889,-50.199203187251,4,1,0,80,0,0
278964,-50,4,1,0,80,0,0
279039,-49.802371541502,4,1,0,80,0,0
279114,-49.6062992125984,4,1,0,80,0,0
279189,-49.4117647058824,4,1,0,80,0,0
279264,-49.21875,4,1,0,80,0,0
279339,-49.0272373540856,4,1,0,80,0,0
279414,-48.8372093023256,4,1,0,80,0,0
279489,-48.6486486486487,4,1,0,80,0,0
279639,-48.2758620689655,4,1,0,80,0,0
279789,-47.9087452471483,4,1,0,80,0,0
279864,-47.7272727272727,4,1,0,80,0,0
279939,-47.5471698113207,4,1,0,80,0,0
280014,-47.3684210526316,4,1,0,80,0,0
280089,-47.1910112359551,4,1,0,80,0,0
280164,-47.0149253731343,4,1,0,80,0,0
280239,-46.8401486988848,4,1,0,80,0,0
280389,-35.7142857142857,4,1,0,80,0,0
280464,-36.3636363636364,4,1,0,80,0,0
280539,-37.037037037037,4,1,0,80,0,0
280614,-45.985401459854,4,1,0,80,0,0
280689,-38.4615384615385,4,1,0,80,0,0
280764,-45.6521739130435,4,1,0,80,0,0
280839,-40.0254129606099,4,1,0,80,0,0
280989,-45.1612903225806,4,1,0,80,0,0
281139,-43.4782608695652,4,1,0,80,0,0
281214,-44.6808510638298,4,1,0,80,0,0
281289,-44.5229681978799,4,1,0,80,0,0
281439,-44.2105263157895,4,1,0,80,0,0
281589,-43.9024390243902,4,1,0,80,0,0
281739,-43.598615916955,4,1,0,80,0,0
281814,-43.448275862069,4,1,0,80,0,0
281889,-43.298969072165,4,1,0,80,0,0
281964,-43.1506849315069,4,1,0,80,0,0
282039,-43.0034129692833,4,1,0,80,0,0
282114,-42.8571428571429,4,1,0,80,0,0
282189,-42.7118644067797,4,1,0,80,0,0
282339,-42.4242424242424,4,1,0,80,0,0
282414,-42.2818791946309,4,1,0,80,0,0
282489,-42.1404682274247,4,1,0,80,0,0
282639,-41.8604651162791,4,1,0,80,0,0
282789,-41.5841584158416,4,1,0,80,0,0
282939,-41.3114754098361,4,1,0,80,0,0
283089,-41.042345276873,4,1,0,80,0,0
283239,-40.7766990291262,4,1,0,80,0,0
283389,-40.5144694533762,4,1,0,80,0,0
283539,-40.2555910543131,4,1,0,80,0,0
283614,-40.1273885350318,4,1,0,80,0,0
283689,-33.3333333333333,4,1,0,80,0,0
283789,-33.0708661417323,4,1,0,80,0,0
283889,-32.8125,4,1,0,80,0,0
283989,-32.5581395348837,4,1,0,80,0,0
284089,-32.3076923076923,4,1,0,80,0,0
284189,-32.0610687022901,4,1,0,80,0,0
284289,-31.8181818181818,4,1,0,80,0,0
284389,-31.5789473684211,4,1,0,80,0,0
284489,-31.3432835820896,4,1,0,80,0,0
284589,-31.1111111111111,4,1,0,80,0,0
284689,-30.8823529411765,4,1,0,80,0,0
284789,-30.6569343065693,4,1,0,80,0,0
284889,-30.4347826086957,4,1,0,90,0,0
285189,-29.7872340425532,4,1,0,90,0,0
285489,-29.1666666666667,4,1,0,90,0,0
285689,-28.7671232876712,4,1,0,90,0,0
285789,-28.5714285714286,4,1,0,90,0,0
286092,306.122448979592,4,1,0,80,1,0
286092,-20,4,1,0,80,0,0
286168,-40,4,1,0,70,0,0
286395,-40.0449770154223,4,1,0,70,0,0
286599,-40.1352351699831,4,1,0,70,0,0
286701,-40.1805169953654,4,1,0,70,0,0
286905,-40.2713878695831,4,1,0,70,0,0
287007,-40.3169776140109,4,1,0,70,0,0
287109,-40.3626706963411,4,1,0,70,0,0
287211,-40.4084674683249,4,1,0,70,0,0
287313,-40.454368283312,4,1,0,70,0,0
287517,-40.5464834637408,4,1,0,70,0,0
287619,-40.5926985439551,4,1,0,70,0,0
287925,-40.7319780675689,4,1,0,70,0,0
288078,-40.801976861732,4,1,0,70,0,0
288231,-40.8722166589781,4,1,0,70,0,0
288333,-40.9191776964235,4,1,0,70,0,0
288435,-40.9662467718471,4,1,0,70,0,0
288537,-41.0134242585045,4,1,0,70,0,0
288643,-41.0761963442185,4,1,0,70,0,0
288844,-41.1560772228768,4,1,0,70,0,0
289048,-41.2514194867136,4,1,0,70,0,0
289150,-41.299256463312,4,1,0,70,0,0
289252,-41.3472045164815,4,1,0,70,0,0
289354,-41.3952640335483,4,1,0,70,0,0
289456,-41.4434354036417,4,1,0,70,0,0
289535,-41.5401152685024,4,1,0,70,0,0
289762,-41.5886245506377,4,1,0,70,0,0
289966,-41.6859837965619,4,1,0,70,0,0
290068,-41.7348345588235,4,1,0,70,0,0
290272,-41.8328803721959,4,1,0,70,0,0
290374,-41.8820762330804,4,1,0,70,0,0
290476,-41.9313879397913,4,1,0,70,0,0
290578,-41.9808159019993,4,1,0,70,0,0
290680,-42.0303605313093,4,1,0,70,0,0
290782,-42.0800222412715,4,1,0,70,0,0
290884,-42.1298014473928,4,1,0,70,0,0
290986,-42.1796985671489,4,1,0,70,0,0
291293,-42.3305948843442,4,1,0,70,0,0
291497,-42.4314632465454,4,1,0,70,0,0
291599,-42.4820779099276,4,1,0,70,0,0
291701,-42.5328134696219,4,1,0,70,0,0
291803,-42.583670359299,4,1,0,70,0,0
291905,-42.6346490147061,4,1,0,70,0,0
291984,-42.7369733761574,4,1,0,70,0,0
292211,-42.7883199641919,4,1,0,70,0,0
292517,-42.94310269414,4,1,0,70,0,0
292721,-43.0469148091531,4,1,0,70,0,0
292823,-43.0990093136382,4,1,0,70,0,0
292976,-43.17738791423,4,1,0,70,0,0
293129,-43.2560521082652,4,1,0,70,0,0
293231,-43.3086543390918,4,1,0,70,0,0
293333,-43.3613846612951,4,1,0,70,0,0
293435,-43.4142435433174,4,1,0,70,0,0
293515,-43.4782608695652,4,1,0,70,0,0
293742,-43.5741189453734,4,1,0,70,0,0
293859,-43.6810081527621,4,1,0,70,0,0
294048,-43.7346496508548,4,1,0,70,0,0
294150,-43.7884230574508,4,1,0,70,0,0
294252,-43.8423288597084,4,1,0,70,0,0
294354,-43.8963675471881,4,1,0,70,0,0
294433,-43.956043956044,4,1,0,70,0,0
294660,-44.0592858529012,4,1,0,70,0,0
294813,-44.141199343824,4,1,0,70,0,0
294966,-44.223417983492,4,1,0,70,0,0
295272,-44.3887775551102,4,1,0,70,0,0
295425,-44.4719219421422,4,1,0,70,0,0
295578,-44.5553783883233,4,1,0,70,0,0
295731,-44.6391486537965,4,1,0,70,0,0
295884,-44.7232345119669,4,1,0,70,0,0
296040,-44.8363964008442,4,1,0,70,0,0
296191,-44.8929149622453,4,1,0,70,0,0
296395,-45.0063806326118,4,1,0,70,0,0
296497,-45.0633288260907,4,1,0,70,0,0
296701,-45.1776586615593,4,1,0,70,0,0
296803,-45.2350414046448,4,1,0,70,0,0
296905,-45.2925701033627,4,1,0,70,0,0
297007,-45.3502453152894,4,1,0,70,0,0
297109,-45.408067600845,4,1,0,70,0,0
297313,-45.5241556488502,4,1,0,70,0,0
297415,-45.5824225465223,4,1,0,70,0,0
297721,-45.7581216068122,4,1,0,70,0,0
297874,-45.8464800464447,4,1,0,70,0,0
298027,-45.9351803846689,4,1,0,70,0,0
298129,-45.9945048683827,4,1,0,70,0,0
298231,-46.0539827833209,4,1,0,70,0,0
298333,-46.113614725484,4,1,0,70,0,0
298438,-46.2107208872458,4,1,0,70,0,0
298640,-46.2940306876689,4,1,0,70,0,0
298844,-46.4146989675969,4,1,0,70,0,0
298946,-46.4752693124536,4,1,0,70,0,0
299048,-46.5359979502946,4,1,0,70,0,0
299150,-46.59688550245,4,1,0,70,0,0
299252,-46.657932593506,4,1,0,70,0,0
299331,-46.7805079070726,4,1,0,70,0,0
299558,-46.8420373952289,4,1,0,70,0,0
299637,-46.9655832234375,4,1,0,70,0,0
299864,-47.0276008492569,4,1,0,70,0,0
300068,-47.1521287642783,4,1,0,70,0,0
300170,-47.2146403597702,4,1,0,70,0,0
300272,-47.2773179238898,4,1,0,70,0,0
300374,-47.3401621184872,4,1,0,70,0,0
300476,-47.4031736089362,4,1,0,70,0,0
300578,-47.4663530641579,4,1,0,70,0,0
300680,-47.5297011566442,4,1,0,70,0,0
300782,-47.593218562482,4,1,0,70,0,0
301089,-47.7854220655363,4,1,0,70,0,0
301293,-47.9140011871002,4,1,0,70,0,0
301395,-47.9785505791608,4,1,0,70,0,0
301497,-48.0432741267805,4,1,0,70,0,0
301599,-48.1081725357242,4,1,0,70,0,0
301701,-48.1732465155755,4,1,0,70,0,0
301780,-48.3039240455833,4,1,0,70,0,0
302007,-48.3695290342339,4,1,0,70,0,0
302313,-48.5674176081289,4,1,0,70,0,0
302517,-48.7002453379094,4,1,0,70,0,0
302619,-48.7669320302327,4,1,0,70,0,0
302772,-48.8673052087818,4,1,0,70,0,0
302925,-48.9680924200962,4,1,0,70,0,0
303027,-49.0355151793307,4,1,0,70,0,0
303129,-49.1031238594736,4,1,0,70,0,0
303231,-49.170919230613,4,1,0,70,0,0
303537,-49.375433254951,4,1,0,70,0,0
303742,-49.5133985769975,4,1,0,70,0,0
303844,-49.5823323869841,4,1,0,70,0,0
303946,-49.6514584073699,4,1,0,70,0,0
304048,-49.7207774431974,4,1,0,70,0,0
304150,-49.7902903040105,4,1,0,70,0,0
304229,-49.8877525567473,4,1,0,70,0,0
304456,-50,4,1,0,70,0,0
305530,-44.4444444444445,4,1,0,70,0,0
307058,-43.2432432432432,4,1,0,70,0,0
307211,-42.1052631578947,4,1,0,70,0,0
307364,-41.025641025641,4,1,0,70,0,0
307517,-40,4,1,0,70,0,0
307721,-41.3793103448276,4,1,0,70,0,0
307925,-42.8571428571429,4,1,0,70,0,0
308129,-44.4444444444444,4,1,0,70,0,0
310170,-42.8571428571429,4,1,0,70,0,0
310374,-41.3793103448276,4,1,0,70,0,0
310578,-40,4,1,0,70,0,0
311191,-42.1088785849219,4,1,0,70,0,0
311497,-44.4444444444444,4,1,0,70,0,0
312007,-42.8571428571429,4,1,0,70,0,0
312109,-42.1052631578947,4,1,0,70,0,0
312211,-41.3793103448276,4,1,0,70,0,0
312313,-40.6779661016949,4,1,0,70,0,0
312415,-40,4,1,0,70,0,0
312619,-40.8163265306122,4,1,0,70,0,0
312721,-41.6666666666667,4,1,0,70,0,0
312823,-42.5531914893617,4,1,0,70,0,0
312925,-43.4782608695652,4,1,0,70,0,0
313027,-44.4444444444444,4,1,0,70,0,0
314456,-40,4,1,0,70,0,0
314558,-40.4040404040404,4,1,0,70,0,0
314660,-40.8163265306122,4,1,0,70,0,0
314762,-41.2371134020619,4,1,0,70,0,0
314864,-41.6666666666667,4,1,0,70,0,0
315068,-42.5531914893617,4,1,0,70,0,0
315272,-43.4782608695652,4,1,0,70,0,0
315476,-44.4444444444444,4,1,0,70,0,0
318030,-39.8883127243718,4,1,0,70,0,0
318231,-40,4,1,0,70,0,0
318333,-40.1027759584866,4,1,0,70,0,0
318435,-40.2060814223659,4,1,0,70,0,0
318537,-40.3099204942523,4,1,0,70,0,0
318640,-40.4153232971999,4,1,0,70,0,0
318694,-40.5202473974904,4,1,0,70,0,0
318844,-40.6257177125067,4,1,0,70,0,0
318946,-40.7317385186133,4,1,0,70,0,0
319048,-40.8383141369315,4,1,0,70,0,0
319150,-40.9454489339266,4,1,0,70,0,0
319252,-41.0531473220042,4,1,0,70,0,0
319306,-41.1614137601158,4,1,0,70,0,0
319363,-41.2702527543746,4,1,0,70,0,0
319440,-41.262636682484,4,1,0,70,0,0
319503,-41.3796688586801,4,1,0,70,0,0
319574,-41.4896666753538,4,1,0,70,0,0
319762,-41.6002508557841,4,1,0,70,0,0
319864,-41.7114261010821,4,1,0,70,0,0
319966,-41.8231971627479,4,1,0,70,0,0
320068,-41.9355688433475,4,1,0,70,0,0
320170,-42.0485459972003,4,1,0,70,0,0
320272,-42.1621335310787,4,1,0,70,0,0
320374,-42.2763364049181,4,1,0,70,0,0
320527,-42.4488054607509,4,1,0,70,0,0
320680,-42.6226874782469,4,1,0,70,0,0
320833,-42.7979998924673,4,1,0,70,0,0
320986,-42.9747604265083,4,1,0,70,0,0
321293,-43.3338777287822,4,1,0,70,0,0
321446,-43.5151018176848,4,1,0,70,0,0
321599,-43.6978480456741,4,1,0,70,0,0
321752,-43.8821356707737,4,1,0,70,0,0
321905,-44.0679842772518,4,1,0,70,0,0
321981,-44.1608876560333,4,1,0,70,0,0
322058,-44.2554137825591,4,1,0,70,0,0
322211,-44.4444444444444,4,1,0,70,0,0
322367,-42.1052631578947,4,1,0,70,0,0
322823,-40,4,1,0,70,0,0
322925,-40.3359960471053,4,1,0,70,0,0
323027,-40.6776845776929,4,1,0,70,0,0
323129,-41.0252114917497,4,1,0,70,0,0
323231,-41.3787277181718,4,1,0,70,0,0
323333,-41.7383894333191,4,1,0,70,0,0
323435,-42.1043582910685,4,1,0,70,0,0
323537,-42.4768016650767,4,1,0,70,0,0
323640,-42.8596429821491,4,1,0,70,0,0
323742,-43.2456295249868,4,1,0,70,0,0
323844,-43.6386315039202,4,1,0,70,0,0
323946,-44.0388419349038,4,1,0,70,0,0
324048,-44.4464609800363,4,1,0,70,0,0
324150,-44.8616962813702,4,1,0,70,0,0
324252,-45.2847633136095,4,1,0,70,0,0
324354,-45.7158857569535,4,1,0,70,0,0
324456,-46.1552958914437,4,1,0,70,0,0
324558,-46.6032350142721,4,1,0,70,0,0
324660,-47.0599538816295,4,1,0,70,0,0
324762,-47.5257131767902,4,1,0,70,0,0
324864,-48.0007840062721,4,1,0,70,0,0
324966,-48.4854484260542,4,1,0,70,0,0
325068,-48.98,4,1,0,70,0,0
325275,300,68,1,0,70,1,0
325275,-51.0204081632653,5,1,0,70,0,0
325425,-51.0204081632653,5,1,0,55,0,0
325575,-51.0204081632653,5,1,0,45,0,0
325725,-51.0204081632653,5,1,0,36,0,0
325875,-51.0204081632653,5,1,0,30,0,0
345525,-51.0204081632653,5,1,0,50,0,0
345675,300,4,1,0,50,1,0
358575,-83.3333333333333,4,1,0,53,0,0
359475,-71.4285714285714,4,1,0,55,0,0
360525,-62.5,4,1,0,58,0,0
361500,-55.5555555555556,4,1,0,60,0,0
362100,-50,4,1,0,62,0,0
362925,-45.4545454545455,4,1,0,65,0,0
364050,-41.6666666666667,4,1,0,67,0,0
366075,300,4,1,0,70,1,8
366675,300,4,1,0,80,1,0
366675,-33.3333333333333,4,1,0,80,0,0
376275,-20,4,1,0,80,0,1
376725,-33.3333333333333,4,1,0,80,0,1
377475,-33.3333333333333,4,1,0,80,0,0
386172,-31.9148936170213,4,1,0,80,0,0
386322,-31.25,4,1,0,80,0,0
386475,-34.4827586206897,4,1,0,80,0,0
388272,-33.3333333333333,4,1,0,80,0,0
388422,-32.7868852459016,4,1,0,80,0,0
388722,-31.7460317460317,4,1,0,80,0,0
388872,-31.25,4,1,0,80,0,0
389325,-35.7142857142857,4,1,0,80,0,0
390672,-34.6638655462185,4,1,0,80,0,0
390897,-33.9157245632066,4,1,0,80,0,0
390972,-33.6734693877551,4,1,0,80,0,0
391122,-33.1991951710262,4,1,0,80,0,0
391272,-32.7380952380952,4,1,0,80,0,0
391422,-32.2896281800391,4,1,0,80,0,0
391497,-32.0699708454811,4,1,0,80,0,0
391722,-31.4285714285714,4,1,0,80,0,0
391872,-31.015037593985,4,1,0,80,0,0
392322,-29.8372513562387,4,1,0,80,0,0
392472,-29.4642857142857,4,1,0,80,0,0
392622,-29.1005291005291,4,1,0,80,0,0
392772,-28.7456445993031,4,1,0,80,0,0
392850,-28.5714285714286,4,1,0,80,0,1
394275,-100,4,1,0,80,0,0

[HitObjects]
256,192,500,5,8,0:0:0:0:
256,192,650,1,8,0:0:0:0:
256,192,800,1,0,0:0:0:0:
256,192,950,1,8,0:0:0:0:
256,192,1100,1,0,0:0:0:0:
256,192,1250,1,8,0:0:0:0:
256,192,1400,1,0,0:0:0:0:
256,192,1550,1,8,0:0:0:0:
256,192,1700,1,0,0:0:0:0:
256,192,1850,1,8,0:0:0:0:
256,192,2000,1,0,0:0:0:0:
256,192,2150,1,8,0:0:0:0:
256,192,2300,1,0,0:0:0:0:
256,192,2450,1,8,0:0:0:0:
256,192,2600,1,0,0:0:0:0:
256,192,2750,1,0,0:0:0:0:
256,192,2900,1,8,0:0:0:0:
256,192,3050,1,8,0:0:0:0:
256,192,3200,1,0,0:0:0:0:
256,192,3350,1,8,0:0:0:0:
256,192,3500,1,0,0:0:0:0:
256,192,3650,1,8,0:0:0:0:
256,192,3800,1,0,0:0:0:0:
256,192,3950,1,8,0:0:0:0:
256,192,4100,1,0,0:0:0:0:
256,192,4250,1,8,0:0:0:0:
256,192,4400,1,0,0:0:0:0:
256,192,4550,1,8,0:0:0:0:
256,192,4700,1,0,0:0:0:0:
256,192,4850,1,8,0:0:0:0:
256,192,5000,1,0,0:0:0:0:
256,192,5150,1,0,0:0:0:0:
256,192,5300,1,8,0:0:0:0:
256,192,5450,1,8,0:0:0:0:
256,192,5600,1,0,0:0:0:0:
256,192,5750,1,8,0:0:0:0:
256,192,5900,1,0,0:0:0:0:
256,192,6050,1,8,0:0:0:0:
256,192,6200,1,0,0:0:0:0:
256,192,6350,1,8,0:0:0:0:
256,192,6500,1,0,0:0:0:0:
256,192,6650,1,8,0:0:0:0:
256,192,6800,1,0,0:0:0:0:
256,192,6950,1,8,0:0:0:0:
256,192,7100,1,0,0:0:0:0:
256,192,7250,1,8,0:0:0:0:
256,192,7400,1,0,0:0:0:0:
256,192,7550,1,0,0:0:0:0:
256,192,7700,1,8,0:0:0:0:
256,192,7850,1,8,0:0:0:0:
256,192,8000,1,0,0:0:0:0:
256,192,8150,1,8,0:0:0:0:
256,192,8300,1,0,0:0:0:0:
256,192,8450,1,8,0:0:0:0:
256,192,8600,1,0,0:0:0:0:
256,192,8750,1,8,0:0:0:0:
256,192,8900,1,0,0:0:0:0:
256,192,9050,1,8,0:0:0:0:
256,192,9200,1,0,0:0:0:0:
256,192,9350,1,8,0:0:0:0:
256,192,9500,1,0,0:0:0:0:
256,192,9650,1,8,0:0:0:0:
256,192,9800,1,0,0:0:0:0:
256,192,9950,1,0,0:0:0:0:
256,192,10100,1,8,0:0:0:0:
256,192,10250,1,8,0:0:0:0:
256,192,10400,1,0,0:0:0:0:
256,192,10550,1,8,0:0:0:0:
256,192,10700,1,0,0:0:0:0:
256,192,10850,1,8,0:0:0:0:
256,192,11000,1,0,0:0:0:0:
256,192,11150,1,8,0:0:0:0:
256,192,11300,1,0,0:0:0:0:
256,192,11450,1,8,0:0:0:0:
256,192,11600,1,0,0:0:0:0:
256,192,11750,1,8,0:0:0:0:
256,192,11900,1,0,0:0:0:0:
256,192,12050,1,8,0:0:0:0:
256,192,12200,1,0,0:0:0:0:
256,192,12350,1,0,0:0:0:0:
256,192,12500,1,8,0:0:0:0:
256,192,12650,1,8,0:0:0:0:
256,192,12800,1,0,0:0:0:0:
256,192,12950,1,8,0:0:0:0:
256,192,13100,1,0,0:0:0:0:
256,192,13250,1,8,0:0:0:0:
256,192,13400,1,0,0:0:0:0:
256,192,13550,1,8,0:0:0:0:
256,192,13700,1,0,0:0:0:0:
256,192,13850,1,8,0:0:0:0:
256,192,14000,1,0,0:0:0:0:
256,192,14150,1,8,0:0:0:0:
256,192,14300,1,0,0:0:0:0:
256,192,14450,1,8,0:0:0:0:
256,192,14600,1,0,0:0:0:0:
256,192,14750,1,0,0:0:0:0:
256,192,14900,1,8,0:0:0:0:
256,192,15050,1,8,0:0:0:0:
256,192,15200,1,0,0:0:0:0:
256,192,15350,1,8,0:0:0:0:
256,192,15500,1,0,0:0:0:0:
256,192,15650,1,8,0:0:0:0:
256,192,15800,1,0,0:0:0:0:
256,192,15950,1,8,0:0:0:0:
256,192,16100,1,0,0:0:0:0:
256,192,16250,1,8,0:0:0:0:
256,192,16400,1,0,0:0:0:0:
256,192,16550,1,8,0:0:0:0:
256,192,16700,1,0,0:0:0:0:
256,192,16850,1,8,0:0:0:0:
256,192,17000,1,0,0:0:0:0:
256,192,17150,1,0,0:0:0:0:
256,192,17300,1,8,0:0:0:0:
256,192,17450,1,8,0:0:0:0:
256,192,17600,1,0,0:0:0:0:
256,192,17750,1,8,0:0:0:0:
256,192,17900,1,0,0:0:0:0:
256,192,18050,1,8,0:0:0:0:
256,192,18200,1,0,0:0:0:0:
256,192,18350,1,8,0:0:0:0:
256,192,18500,1,0,0:0:0:0:
256,192,18650,1,8,0:0:0:0:
256,192,18800,1,0,0:0:0:0:
256,192,18950,1,8,0:0:0:0:
256,192,19100,1,0,0:0:0:0:
256,192,19250,1,8,0:0:0:0:
256,192,19400,1,0,0:0:0:0:
256,192,19550,1,0,0:0:0:0:
256,192,19700,1,8,0:0:0:0:
256,192,19850,1,8,0:0:0:0:
256,192,20000,1,0,0:0:0:0:
256,192,20150,1,8,0:0:0:0:
256,192,20300,1,0,0:0:0:0:
256,192,20450,1,8,0:0:0:0:
256,192,20600,1,0,0:0:0:0:
256,192,20750,1,8,0:0:0:0:
256,192,20900,1,0,0:0:0:0:
256,192,21050,1,8,0:0:0:0:
256,192,21200,1,0,0:0:0:0:
256,192,21350,1,8,0:0:0:0:
256,192,21500,1,0,0:0:0:0:
256,192,21650,1,8,0:0:0:0:
256,192,21800,1,0,0:0:0:0:
256,192,21950,1,0,0:0:0:0:
256,192,22100,1,8,0:0:0:0:
256,192,22250,1,8,0:0:0:0:
256,192,22400,1,0,0:0:0:0:
256,192,22550,1,8,0:0:0:0:
256,192,22700,1,0,0:0:0:0:
256,192,22850,1,8,0:0:0:0:
256,192,23000,1,0,0:0:0:0:
256,192,23150,1,8,0:0:0:0:
256,192,23300,1,0,0:0:0:0:
256,192,23450,1,8,0:0:0:0:
256,192,23600,1,0,0:0:0:0:
256,192,23750,1,8,0:0:0:0:
256,192,23900,1,0,0:0:0:0:
256,192,24050,1,8,0:0:0:0:
256,192,24200,1,8,0:0:0:0:
256,192,24312,1,8,0:0:0:0:
256,192,24493,1,4,0:0:0:0:
256,192,34093,5,8,0:0:0:0:
256,192,34242,1,8,0:0:0:0:
256,192,34317,1,8,0:0:0:0:
256,192,34392,1,8,0:0:0:0:
256,192,34467,1,8,0:0:0:0:
256,192,34542,1,0,0:0:0:0:
256,192,36493,1,8,0:0:0:0:
256,192,36642,1,8,0:0:0:0:
256,192,36717,1,8,0:0:0:0:
256,192,36792,1,8,0:0:0:0:
256,192,36867,1,8,0:0:0:0:
256,192,36942,1,0,0:0:0:0:
256,192,37842,1,8,0:0:0:0:
256,192,37917,1,8,0:0:0:0:
256,192,37992,1,0,0:0:0:0:
256,192,38442,1,8,0:0:0:0:
256,192,38517,1,8,0:0:0:0:
256,192,38592,1,8,0:0:0:0:
256,192,38667,1,8,0:0:0:0:
256,192,38742,1,0,0:0:0:0:
256,192,38893,1,8,0:0:0:0:
256,192,39042,1,8,0:0:0:0:
256,192,39117,1,8,0:0:0:0:
256,192,39192,1,0,0:0:0:0:
256,192,39267,1,8,0:0:0:0:
256,192,39342,1,0,0:0:0:0:
256,192,41293,1,8,0:0:0:0:
256,192,41442,1,8,0:0:0:0:
256,192,41517,1,8,0:0:0:0:
256,192,41592,1,8,0:0:0:0:
256,192,41667,1,8,0:0:0:0:
256,192,41742,1,0,0:0:0:0:
256,192,42642,1,8,0:0:0:0:
256,192,42717,1,8,0:0:0:0:
256,192,42792,1,0,0:0:0:0:
256,192,43242,1,8,0:0:0:0:
256,192,43317,1,8,0:0:0:0:
256,192,43392,1,8,0:0:0:0:
256,192,43467,1,8,0:0:0:0:
256,192,43542,1,0,0:0:0:0:
256,192,43693,1,12,0:0:0:0:
256,192,43842,1,8,0:0:0:0:
256,192,43917,1,8,0:0:0:0:
256,192,43992,1,0,0:0:0:0:
256,192,44067,1,0,0:0:0:0:
256,192,44142,1,8,0:0:0:0:
256,192,44742,1,8,0:0:0:0:
256,192,45042,1,8,0:0:0:0:
256,192,45342,1,0,0:0:0:0:
256,192,45642,1,0,0:0:0:0:
256,192,45942,1,8,0:0:0:0:
256,192,46093,1,0,0:0:0:0:
256,192,46242,1,8,0:0:0:0:
256,192,46317,1,8,0:0:0:0:
256,192,46392,1,0,0:0:0:0:
256,192,46467,1,8,0:0:0:0:
256,192,46542,1,0,0:0:0:0:
256,192,46692,1,8,0:0:0:0:
256,192,47142,1,0,0:0:0:0:
256,192,47442,1,8,0:0:0:0:
256,192,47517,1,8,0:0:0:0:
256,192,47592,1,0,0:0:0:0:
256,192,47742,1,8,0:0:0:0:
256,192,47892,1,8,0:0:0:0:
256,192,48042,1,8,0:0:0:0:
256,192,48117,1,8,0:0:0:0:
256,192,48192,1,0,0:0:0:0:
256,192,48267,1,0,0:0:0:0:
256,192,48342,1,8,0:0:0:0:
256,192,48493,1,0,0:0:0:0:
256,192,48642,1,8,0:0:0:0:
256,192,48717,1,8,0:0:0:0:
256,192,48792,1,0,0:0:0:0:
256,192,48867,1,8,0:0:0:0:
256,192,48942,1,0,0:0:0:0:
256,192,49092,1,8,0:0:0:0:
256,192,49242,1,0,0:0:0:0:
256,192,49392,1,8,0:0:0:0:
256,192,49542,1,0,0:0:0:0:
256,192,49693,1,8,0:0:0:0:
256,192,49842,1,0,0:0:0:0:
256,192,49992,1,0,0:0:0:0:
256,192,50142,1,8,0:0:0:0:
256,192,50292,1,8,0:0:0:0:
256,192,50442,1,0,0:0:0:0:
256,192,50592,1,8,0:0:0:0:
256,192,50742,1,8,0:0:0:0:
256,192,50893,1,0,0:0:0:0:
256,192,51042,1,8,0:0:0:0:
256,192,51117,1,8,0:0:0:0:
256,192,51192,1,0,0:0:0:0:
256,192,51267,1,8,0:0:0:0:
256,192,51342,1,0,0:0:0:0:
256,192,51492,1,8,0:0:0:0:
256,192,51792,1,0,0:0:0:0:
256,192,51942,1,8,0:0:0:0:
256,192,52093,1,0,0:0:0:0:
256,192,52242,1,8,0:0:0:0:
256,192,52317,1,8,0:0:0:0:
256,192,52392,1,8,0:0:0:0:
256,192,52542,1,8,0:0:0:0:
256,192,52692,1,0,0:0:0:0:
256,192,52842,1,8,0:0:0:0:
256,192,52917,1,8,0:0:0:0:
256,192,52992,1,0,0:0:0:0:
256,192,53067,1,0,0:0:0:0:
256,192,53142,1,8,0:0:0:0:
256,192,53293,1,0,0:0:0:0:
256,192,53442,1,8,0:0:0:0:
256,192,53517,1,8,0:0:0:0:
256,192,53592,1,0,0:0:0:0:
256,192,53667,1,8,0:0:0:0:
256,192,53742,1,0,0:0:0:0:
256,192,53892,1,8,0:0:0:0:
256,192,54042,1,0,0:0:0:0:
256,192,54342,1,0,0:0:0:0:
256,192,54493,1,0,0:0:0:0:
256,192,54642,1,8,0:0:0:0:
256,192,54792,1,0,0:0:0:0:
256,192,54942,1,8,0:0:0:0:
256,192,55092,1,8,0:0:0:0:
256,192,55242,1,8,0:0:0:0:
256,192,55392,1,0,0:0:0:0:
256,192,55542,1,8,0:0:0:0:
256,192,55693,1,0,0:0:0:0:
256,192,55842,1,8,0:0:0:0:
256,192,55917,1,8,0:0:0:0:
256,192,55992,1,0,0:0:0:0:
256,192,56067,1,8,0:0:0:0:
256,192,56142,1,0,0:0:0:0:
256,192,56292,1,8,0:0:0:0:
256,192,56442,1,0,0:0:0:0:
256,192,56742,1,8,0:0:0:0:
256,192,56893,1,0,0:0:0:0:
256,192,57042,1,8,0:0:0:0:
256,192,57117,1,8,0:0:0:0:
256,192,57192,1,8,0:0:0:0:
256,192,57342,1,0,0:0:0:0:
256,192,57492,1,8,0:0:0:0:
256,192,57642,1,0,0:0:0:0:
256,192,57717,1,8,0:0:0:0:
256,192,57792,1,8,0:0:0:0:
256,192,57867,1,0,0:0:0:0:
256,192,57942,1,8,0:0:0:0:
256,192,58093,1,0,0:0:0:0:
256,192,58242,1,8,0:0:0:0:
256,192,58317,1,8,0:0:0:0:
256,192,58392,1,0,0:0:0:0:
256,192,58467,1,0,0:0:0:0:
256,192,58542,1,8,0:0:0:0:
256,192,58692,1,8,0:0:0:0:
256,192,58843,1,0,0:0:0:0:
256,192,58917,1,8,0:0:0:0:
256,192,58992,1,0,0:0:0:0:
256,192,59142,1,8,0:0:0:0:
256,192,59293,1,8,0:0:0:0:
256,192,59442,1,0,0:0:0:0:
256,192,59592,1,8,0:0:0:0:
256,192,59742,1,0,0:0:0:0:
256,192,59892,1,8,0:0:0:0:
256,192,60042,1,0,0:0:0:0:
256,192,60342,1,8,0:0:0:0:
256,192,60493,1,0,0:0:0:0:
256,192,60642,1,8,0:0:0:0:
256,192,60717,1,8,0:0:0:0:
256,192,60792,1,0,0:0:0:0:
256,192,60867,1,0,0:0:0:0:
256,192,60942,1,8,0:0:0:0:
256,192,61017,1,8,0:0:0:0:
256,192,61092,1,8,0:0:0:0:
256,192,61242,1,0,0:0:0:0:
256,192,61542,1,8,0:0:0:0:
256,192,61693,1,0,0:0:0:0:
256,192,61842,1,8,0:0:0:0:
256,192,61917,1,8,0:0:0:0:
256,192,61992,1,8,0:0:0:0:
256,192,62142,1,0,0:0:0:0:
256,192,62292,1,8,0:0:0:0:
256,192,62442,1,0,0:0:0:0:
256,192,62517,1,8,0:0:0:0:
256,192,62592,1,8,0:0:0:0:
256,192,62667,1,0,0:0:0:0:
256,192,62742,1,8,0:0:0:0:
256,192,62892,1,0,0:0:0:0:
256,192,63042,1,0,0:0:0:0:
256,192,63192,1,8,0:0:0:0:
256,192,63342,1,0,0:0:0:0:
256,192,63492,1,8,0:0:0:0:
256,192,63642,1,0,0:0:0:0:
256,192,63792,1,8,0:0:0:0:
256,192,63942,1,8,0:0:0:0:
256,192,64092,1,8,0:0:0:0:
256,192,64242,1,0,0:0:0:0:
256,192,64392,1,8,0:0:0:0:
256,192,64542,1,0,0:0:0:0:
256,192,64692,1,8,0:0:0:0:
256,192,64842,1,8,0:0:0:0:
256,192,64992,1,0,0:0:0:0:
256,192,65067,1,0,0:0:0:0:
256,192,65142,1,8,0:0:0:0:
256,192,65292,1,0,0:0:0:0:
256,192,65442,1,8,0:0:0:0:
256,192,65517,1,8,0:0:0:0:
256,192,65592,1,8,0:0:0:0:
256,192,65742,1,8,0:0:0:0:
256,192,65892,1,0,0:0:0:0:
256,192,66042,1,8,0:0:0:0:
256,192,66192,1,8,0:0:0:0:
256,192,66342,1,0,0:0:0:0:
256,192,66492,1,8,0:0:0:0:
256,192,66642,1,8,0:0:0:0:
256,192,66792,1,8,0:0:0:0:
256,192,66942,1,0,0:0:0:0:
256,192,67092,1,8,0:0:0:0:
256,192,67242,1,8,0:0:0:0:
256,192,67392,1,0,0:0:0:0:
256,192,67467,1,0,0:0:0:0:
256,192,67542,1,8,0:0:0:0:
256,192,67692,1,0,0:0:0:0:
256,192,67842,1,8,0:0:0:0:
256,192,67992,1,8,0:0:0:0:
256,192,68142,1,0,0:0:0:0:
256,192,68292,1,8,0:0:0:0:
256,192,68442,1,8,0:0:0:0:
256,192,68592,1,8,0:0:0:0:
256,192,68742,1,0,0:0:0:0:
256,192,68892,1,8,0:0:0:0:
256,192,69042,1,8,0:0:0:0:
256,192,69192,1,8,0:0:0:0:
256,192,69342,1,0,0:0:0:0:
256,192,69492,1,8,0:0:0:0:
256,192,69642,1,0,0:0:0:0:
256,192,69792,1,8,0:0:0:0:
256,192,69942,1,0,0:0:0:0:
256,192,70092,1,8,0:0:0:0:
256,192,70242,1,8,0:0:0:0:
256,192,70392,1,8,0:0:0:0:
256,192,70542,1,0,0:0:0:0:
256,192,70692,1,8,0:0:0:0:
256,192,70842,1,0,0:0:0:0:
256,192,70992,1,8,0:0:0:0:
256,192,71142,1,8,0:0:0:0:
256,192,71292,1,0,0:0:0:0:
256,192,71442,1,8,0:0:0:0:
256,192,71592,1,0,0:0:0:0:
256,192,71742,1,8,0:0:0:0:
256,192,71892,1,0,0:0:0:0:
256,192,72042,1,8,0:0:0:0:
256,192,72192,1,8,0:0:0:0:
256,192,72342,1,0,0:0:0:0:
256,192,72492,1,8,0:0:0:0:
256,192,72642,1,0,0:0:0:0:
256,192,72792,1,8,0:0:0:0:
256,192,72942,1,8,0:0:0:0:
256,192,73092,1,8,0:0:0:0:
256,192,73242,1,0,0:0:0:0:
256,192,73392,1,8,0:0:0:0:
256,192,73542,1,8,0:0:0:0:
256,192,73692,1,8,0:0:0:0:
256,192,73842,1,0,0:0:0:0:
256,192,73992,1,8,0:0:0:0:
256,192,74142,1,0,0:0:0:0:
256,192,74292,1,8,0:0:0:0:
256,192,74442,1,8,0:0:0:0:
256,192,74592,1,8,0:0:0:0:
256,192,74742,1,0,0:0:0:0:
256,192,74892,1,8,0:0:0:0:
256,192,75042,1,0,0:0:0:0:
256,192,75192,1,8,0:0:0:0:
256,192,75342,1,8,0:0:0:0:
256,192,75492,1,8,0:0:0:0:
256,192,75642,1,0,0:0:0:0:
256,192,75792,1,8,0:0:0:0:
256,192,75942,1,8,0:0:0:0:
256,192,76092,1,0,0:0:0:0:
256,192,76242,1,8,0:0:0:0:
256,192,76392,1,8,0:0:0:0:
256,192,76542,1,0,0:0:0:0:
256,192,76692,1,8,0:0:0:0:
256,192,76842,1,0,0:0:0:0:
256,192,76992,1,8,0:0:0:0:
256,192,77142,1,8,0:0:0:0:
256,192,77292,1,0,0:0:0:0:
256,192,77442,1,8,0:0:0:0:
256,192,77592,1,8,0:0:0:0:
256,192,77742,1,8,0:0:0:0:
256,192,77892,1,0,0:0:0:0:
256,192,78042,1,8,0:0:0:0:
256,192,78192,1,8,0:0:0:0:
256,192,78342,1,0,0:0:0:0:
256,192,78492,1,8,0:0:0:0:
256,192,78642,1,0,0:0:0:0:
256,192,78792,1,8,0:0:0:0:
256,192,78942,1,0,0:0:0:0:
256,192,79092,1,8,0:0:0:0:
256,192,79242,1,8,0:0:0:0:
256,192,79392,1,8,0:0:0:0:
256,192,79542,1,0,0:0:0:0:
256,192,79692,1,8,0:0:0:0:
256,192,79792,1,0,0:0:0:0:
256,192,79892,1,8,0:0:0:0:
256,192,79992,1,8,0:0:0:0:
256,192,80092,1,0,0:0:0:0:
256,192,80192,1,8,0:0:0:0:
256,192,80292,1,8,0:0:0:0:
256,192,80392,1,0,0:0:0:0:
256,192,80492,1,8,0:0:0:0:
256,192,80592,1,8,0:0:0:0:
256,192,80692,1,0,0:0:0:0:
256,192,80792,1,8,0:0:0:0:
256,192,80892,1,0,0:0:0:0:
256,192,81192,1,0,0:0:0:0:
256,192,81492,1,0,0:0:0:0:
256,192,81692,1,0,0:0:0:0:
256,192,81792,1,8,0:0:0:0:
256,192,82092,1,12,0:0:0:0:
256,192,82242,1,0,0:0:0:0:
256,192,82392,1,8,0:0:0:0:
256,192,82542,1,8,0:0:0:0:
256,192,82692,1,8,0:0:0:0:
256,192,82842,1,0,0:0:0:0:
256,192,82917,1,8,0:0:0:0:
256,192,82992,1,8,0:0:0:0:
256,192,83142,1,8,0:0:0:0:
256,192,83217,1,0,0:0:0:0:
256,192,83292,1,8,0:0:0:0:
256,192,83442,1,0,0:0:0:0:
256,192,83592,1,8,0:0:0:0:
256,192,83742,1,8,0:0:0:0:
256,192,83817,1,0,0:0:0:0:
256,192,83892,1,8,0:0:0:0:
256,192,84042,1,0,0:0:0:0:
256,192,84117,1,0,0:0:0:0:
256,192,84192,1,8,0:0:0:0:
256,192,84342,1,8,0:0:0:0:
256,192,84392,1,0,0:0:0:0:
256,192,84442,1,8,0:0:0:0:
256,192,84492,1,0,0:0:0:0:
256,192,84642,1,0,0:0:0:0:
256,192,84792,1,8,0:0:0:0:
256,192,84942,1,0,0:0:0:0:
256,192,85092,1,8,0:0:0:0:
256,192,85167,1,0,0:0:0:0:
256,192,85242,1,0,0:0:0:0:
256,192,85317,1,8,0:0:0:0:
256,192,85392,1,8,0:0:0:0:
256,192,85467,1,0,0:0:0:0:
256,192,85542,1,8,0:0:0:0:
256,192,85692,1,8,0:0:0:0:
256,192,85842,1,0,0:0:0:0:
256,192,85917,1,0,0:0:0:0:
256,192,85992,1,8,0:0:0:0:
256,192,86142,1,8,0:0:0:0:
256,192,86292,1,8,0:0:0:0:
256,192,86367,1,0,0:0:0:0:
256,192,86442,1,0,0:0:0:0:
256,192,86592,1,8,0:0:0:0:
256,192,86742,1,8,0:0:0:0:
256,192,86792,1,0,0:0:0:0:
256,192,86842,1,8,0:0:0:0:
256,192,86892,1,0,0:0:0:0:
256,192,87042,1,0,0:0:0:0:
256,192,87192,1,8,0:0:0:0:
256,192,87342,1,0,0:0:0:0:
256,192,87492,1,8,0:0:0:0:
256,192,87642,1,0,0:0:0:0:
256,192,87717,1,8,0:0:0:0:
256,192,87792,1,8,0:0:0:0:
256,192,87942,1,8,0:0:0:0:
256,192,88017,1,8,0:0:0:0:
256,192,88092,1,8,0:0:0:0:
256,192,88242,1,8,0:0:0:0:
256,192,88392,1,0,0:0:0:0:
256,192,88542,1,8,0:0:0:0:
256,192,88692,1,8,0:0:0:0:
256,192,88767,1,0,0:0:0:0:
256,192,88842,1,0,0:0:0:0:
256,192,88992,1,8,0:0:0:0:
256,192,89142,1,8,0:0:0:0:
256,192,89192,1,0,0:0:0:0:
256,192,89242,1,8,0:0:0:0:
256,192,89292,1,0,0:0:0:0:
256,192,89442,1,0,0:0:0:0:
256,192,89592,1,8,0:0:0:0:
256,192,89742,1,0,0:0:0:0:
256,192,89892,1,8,0:0:0:0:
256,192,90042,1,0,0:0:0:0:
256,192,90117,1,8,0:0:0:0:
256,192,90192,1,8,0:0:0:0:
256,192,90267,1,0,0:0:0:0:
256,192,90342,1,0,0:0:0:0:
256,192,90417,1,8,0:0:0:0:
256,192,90492,1,0,0:0:0:0:
256,192,90642,1,0,0:0:0:0:
256,192,90792,1,8,0:0:0:0:
256,192,90942,1,0,0:0:0:0:
256,192,91017,1,8,0:0:0:0:
256,192,91092,1,8,0:0:0:0:
256,192,91242,1,0,0:0:0:0:
256,192,91317,1,0,0:0:0:0:
256,192,91392,1,8,0:0:0:0:
256,192,91542,1,8,0:0:0:0:
256,192,91592,1,0,0:0:0:0:
256,192,91642,1,8,0:0:0:0:
256,192,91692,1,0,0:0:0:0:
256,192,91842,1,0,0:0:0:0:
256,192,91992,1,8,0:0:0:0:
256,192,92142,1,0,0:0:0:0:
256,192,92217,1,8,0:0:0:0:
256,192,92292,1,8,0:0:0:0:
256,192,92442,1,0,0:0:0:0:
256,192,92517,1,8,0:0:0:0:
256,192,92592,1,0,0:0:0:0:
256,192,92742,1,8,0:0:0:0:
256,192,92892,1,0,0:0:0:0:
256,192,93042,1,8,0:0:0:0:
256,192,93117,1,8,0:0:0:0:
256,192,93192,1,0,0:0:0:0:
256,192,93342,1,8,0:0:0:0:
256,192,93492,1,8,0:0:0:0:
256,192,93642,1,0,0:0:0:0:
256,192,93717,1,8,0:0:0:0:
256,192,93792,1,8,0:0:0:0:
256,192,93942,1,8,0:0:0:0:
256,192,93992,1,0,0:0:0:0:
256,192,94042,1,8,0:0:0:0:
256,192,94092,1,0,0:0:0:0:
256,192,94242,1,0,0:0:0:0:
256,192,94392,1,8,0:0:0:0:
256,192,94542,1,0,0:0:0:0:
256,192,94692,1,8,0:0:0:0:
256,192,94842,1,0,0:0:0:0:
256,192,94917,1,8,0:0:0:0:
256,192,94992,1,0,0:0:0:0:
256,192,95067,1,0,0:0:0:0:
256,192,95142,1,8,0:0:0:0:
256,192,95217,1,0,0:0:0:0:
256,192,95292,1,8,0:0:0:0:
256,192,95442,1,0,0:0:0:0:
256,192,95592,1,8,0:0:0:0:
256,192,95742,1,8,0:0:0:0:
256,192,95892,1,8,0:0:0:0:
256,192,96042,1,0,0:0:0:0:
256,192,96117,1,0,0:0:0:0:
256,192,96192,1,8,0:0:0:0:
256,192,96342,1,8,0:0:0:0:
256,192,96392,1,0,0:0:0:0:
256,192,96442,1,8,0:0:0:0:
256,192,96492,1,0,0:0:0:0:
256,192,96642,1,0,0:0:0:0:
256,192,96792,1,8,0:0:0:0:
256,192,96942,1,0,0:0:0:0:
256,192,97092,1,8,0:0:0:0:
256,192,97242,1,0,0:0:0:0:
256,192,97317,1,8,0:0:0:0:
256,192,97392,1,8,0:0:0:0:
256,192,97542,1,8,0:0:0:0:
256,192,97617,1,8,0:0:0:0:
256,192,97692,1,8,0:0:0:0:
256,192,97767,1,0,0:0:0:0:
256,192,97842,1,8,0:0:0:0:
256,192,97992,1,0,0:0:0:0:
256,192,98142,1,8,0:0:0:0:
256,192,98217,1,0,0:0:0:0:
256,192,98292,1,8,0:0:0:0:
256,192,98442,1,0,0:0:0:0:
256,192,98592,1,8,0:0:0:0:
256,192,98742,1,8,0:0:0:0:
256,192,98792,1,0,0:0:0:0:
256,192,98842,1,8,0:0:0:0:
256,192,98892,1,0,0:0:0:0:
256,192,99042,1,0,0:0:0:0:
256,192,99192,1,8,0:0:0:0:
256,192,99342,1,0,0:0:0:0:
256,192,99417,1,0,0:0:0:0:
256,192,99492,1,8,0:0:0:0:
256,192,99642,1,0,0:0:0:0:
256,192,99717,1,8,0:0:0:0:
256,192,99792,1,8,0:0:0:0:
256,192,99867,1,0,0:0:0:0:
256,192,99942,1,8,0:0:0:0:
256,192,100017,1,8,0:0:0:0:
256,192,100092,1,8,0:0:0:0:
256,192,100242,1,0,0:0:0:0:
256,192,100317,1,8,0:0:0:0:
256,192,100392,1,0,0:0:0:0:
256,192,100542,1,0,0:0:0:0:
256,192,100692,1,8,0:0:0:0:
256,192,100767,1,8,0:0:0:0:
256,192,100842,1,0,0:0:0:0:
256,192,100917,1,0,0:0:0:0:
256,192,100992,1,8,0:0:0:0:
256,192,101142,1,8,0:0:0:0:
256,192,101217,1,8,0:0:0:0:
256,192,102492,1,4,0:0:0:0:
256,192,104892,1,0,0:0:0:0:
256,192,106692,1,0,0:0:0:0:
256,192,107292,1,8,0:0:0:0:
256,192,109692,1,0,0:0:0:0:
256,192,111292,1,8,0:0:0:0:
256,192,111692,1,0,0:0:0:0:
256,192,112092,1,0,0:0:0:0:
256,192,114492,1,0,0:0:0:0:
256,192,116292,1,0,0:0:0:0:
256,192,116492,1,8,0:0:0:0:
256,192,116892,1,8,0:0:0:0:
256,192,118492,1,0,0:0:0:0:
256,192,118892,1,8,0:0:0:0:
256,192,119367,1,8,0:0:0:0:
256,192,119792,1,0,0:0:0:0:
256,192,120342,1,8,0:0:0:0:
256,192,121692,1,4,0:0:0:0:
256,192,121842,1,0,0:0:0:0:
256,192,121992,1,0,0:0:0:0:
256,192,122142,1,0,0:0:0:0:
256,192,122292,1,0,0:0:0:0:
256,192,122442,1,8,0:0:0:0:
256,192,122592,1,8,0:0:0:0:
256,192,122742,1,8,0:0:0:0:
256,192,122817,1,8,0:0:0:0:
256,192,122892,1,8,0:0:0:0:
256,192,122967,1,8,0:0:0:0:
256,192,123042,1,0,0:0:0:0:
256,192,123192,1,0,0:0:0:0:
256,192,123342,1,0,0:0:0:0:
256,192,123492,1,0,0:0:0:0:
256,192,123642,1,0,0:0:0:0:
256,192,123792,1,0,0:0:0:0:
256,192,123942,1,0,0:0:0:0:
256,192,124017,1,0,0:0:0:0:
256,192,124092,1,0,0:0:0:0:
256,192,124242,1,0,0:0:0:0:
256,192,124392,1,0,0:0:0:0:
256,192,124542,1,0,0:0:0:0:
256,192,124692,1,0,0:0:0:0:
256,192,124842,1,0,0:0:0:0:
256,192,124992,1,0,0:0:0:0:
256,192,125142,1,0,0:0:0:0:
256,192,125217,1,0,0:0:0:0:
256,192,125292,1,0,0:0:0:0:
256,192,125442,1,0,0:0:0:0:
256,192,125592,1,8,0:0:0:0:
256,192,125667,1,8,0:0:0:0:
256,192,125742,1,8,0:0:0:0:
256,192,125817,1,0,0:0:0:0:
256,192,125892,1,8,0:0:0:0:
256,192,125967,1,0,0:0:0:0:
256,192,126042,1,8,0:0:0:0:
256,192,126192,1,0,0:0:0:0:
256,192,126342,1,8,0:0:0:0:
256,192,126492,1,0,0:0:0:0:
256,192,126642,1,0,0:0:0:0:
256,192,126792,1,0,0:0:0:0:
256,192,126942,1,0,0:0:0:0:
256,192,127092,1,0,0:0:0:0:
256,192,127242,1,8,0:0:0:0:
256,192,127392,1,8,0:0:0:0:
256,192,127542,1,8,0:0:0:0:
256,192,127617,1,8,0:0:0:0:
256,192,127692,1,8,0:0:0:0:
256,192,127767,1,8,0:0:0:0:
256,192,127842,1,0,0:0:0:0:
256,192,127992,1,0,0:0:0:0:
256,192,128142,1,0,0:0:0:0:
256,192,128292,1,0,0:0:0:0:
256,192,128442,1,0,0:0:0:0:
256,192,128592,1,0,0:0:0:0:
256,192,128742,1,8,0:0:0:0:
256,192,128817,1,8,0:0:0:0:
256,192,128892,1,0,0:0:0:0:
256,192,129042,1,0,0:0:0:0:
256,192,129192,1,0,0:0:0:0:
256,192,129342,1,0,0:0:0:0:
256,192,129492,1,0,0:0:0:0:
256,192,129642,1,0,0:0:0:0:
256,192,129792,1,0,0:0:0:0:
256,192,129942,1,0,0:0:0:0:
256,192,130017,1,0,0:0:0:0:
256,192,130092,1,0,0:0:0:0:
256,192,130242,1,0,0:0:0:0:
256,192,130392,1,8,0:0:0:0:
256,192,130467,1,8,0:0:0:0:
256,192,130542,1,8,0:0:0:0:
256,192,130617,1,0,0:0:0:0:
256,192,130692,1,8,0:0:0:0:
256,192,130767,1,0,0:0:0:0:
256,192,130842,1,8,0:0:0:0:
256,192,130992,1,8,0:0:0:0:
256,192,131142,1,8,0:0:0:0:
256,192,131292,1,4,0:0:0:0:
256,192,131442,1,0,0:0:0:0:
256,192,131592,1,0,0:0:0:0:
256,192,131742,1,0,0:0:0:0:
256,192,131892,1,0,0:0:0:0:
256,192,132042,1,8,0:0:0:0:
256,192,132192,1,8,0:0:0:0:
256,192,132342,1,8,0:0:0:0:
256,192,132417,1,8,0:0:0:0:
256,192,132492,1,8,0:0:0:0:
256,192,132567,1,0,0:0:0:0:
256,192,132642,1,8,0:0:0:0:
256,192,132792,1,0,0:0:0:0:
256,192,132942,1,0,0:0:0:0:
256,192,133092,1,0,0:0:0:0:
256,192,133242,1,0,0:0:0:0:
256,192,133392,1,0,0:0:0:0:
256,192,133542,1,0,0:0:0:0:
256,192,133617,1,0,0:0:0:0:
256,192,133692,1,0,0:0:0:0:
256,192,133842,1,0,0:0:0:0:
256,192,133992,1,0,0:0:0:0:
256,192,134142,1,0,0:0:0:0:
256,192,134292,1,0,0:0:0:0:
256,192,134442,1,0,0:0:0:0:
256,192,134592,1,0,0:0:0:0:
256,192,134742,1,0,0:0:0:0:
256,192,134817,1,0,0:0:0:0:
256,192,134892,1,0,0:0:0:0:
256,192,135042,1,0,0:0:0:0:
256,192,135192,1,8,0:0:0:0:
256,192,135267,1,8,0:0:0:0:
256,192,135342,1,8,0:0:0:0:
256,192,135417,1,0,0:0:0:0:
256,192,135492,1,8,0:0:0:0:
256,192,135567,1,0,0:0:0:0:
256,192,135642,1,8,0:0:0:0:
256,192,135792,1,8,0:0:0:0:
256,192,135942,1,8,0:0:0:0:
256,192,136092,1,0,0:0:0:0:
256,192,136242,1,0,0:0:0:0:
256,192,136392,1,0,0:0:0:0:
256,192,136542,1,0,0:0:0:0:
256,192,136692,1,0,0:0:0:0:
256,192,136842,1,8,0:0:0:0:
256,192,136992,1,8,0:0:0:0:
256,192,137142,1,8,0:0:0:0:
256,192,137217,1,8,0:0:0:0:
256,192,137292,1,8,0:0:0:0:
256,192,137367,1,0,0:0:0:0:
256,192,137442,1,8,0:0:0:0:
256,192,137517,1,0,0:0:0:0:
256,192,137592,1,8,0:0:0:0:
256,192,137742,1,0,0:0:0:0:
256,192,137892,1,0,0:0:0:0:
256,192,138042,1,0,0:0:0:0:
256,192,138192,1,0,0:0:0:0:
256,192,138342,1,8,0:0:0:0:
256,192,138417,1,8,0:0:0:0:
256,192,138492,1,8,0:0:0:0:
256,192,138567,1,0,0:0:0:0:
256,192,138642,1,8,0:0:0:0:
256,192,138717,1,0,0:0:0:0:
256,192,138792,1,8,0:0:0:0:
256,192,138942,1,0,0:0:0:0:
256,192,139092,1,0,0:0:0:0:
256,192,139242,1,0,0:0:0:0:
256,192,139392,1,0,0:0:0:0:
256,192,139542,1,0,0:0:0:0:
256,192,139617,1,0,0:0:0:0:
256,192,139692,1,0,0:0:0:0:
256,192,139842,1,0,0:0:0:0:
256,192,139992,1,8,0:0:0:0:
256,192,140067,1,8,0:0:0:0:
256,192,140142,1,8,0:0:0:0:
256,192,140217,1,8,0:0:0:0:
256,192,140292,1,0,0:0:0:0:
256,192,140367,1,0,0:0:0:0:
256,192,140442,1,8,0:0:0:0:
256,192,140517,1,8,0:0:0:0:
256,192,140592,1,0,0:0:0:0:
256,192,140667,1,0,0:0:0:0:
256,192,140742,1,8,0:0:0:0:
256,192,140892,1,0,0:0:0:0:
256,192,141042,1,8,0:0:0:0:
256,192,141192,1,8,0:0:0:0:
256,192,141342,1,0,0:0:0:0:
256,192,141492,1,8,0:0:0:0:
256,192,141642,1,8,0:0:0:0:
256,192,141792,1,0,0:0:0:0:
256,192,141942,1,8,0:0:0:0:
256,192,142092,1,0,0:0:0:0:
256,192,142242,1,8,0:0:0:0:
256,192,142392,1,8,0:0:0:0:
256,192,142542,1,0,0:0:0:0:
256,192,142692,1,8,0:0:0:0:
256,192,142842,1,8,0:0:0:0:
256,192,142992,1,8,0:0:0:0:
256,192,143142,1,8,0:0:0:0:
256,192,143292,1,0,0:0:0:0:
256,192,143442,1,0,0:0:0:0:
256,192,143592,1,8,0:0:0:0:
256,192,143742,1,0,0:0:0:0:
256,192,143892,1,8,0:0:0:0:
256,192,144042,1,8,0:0:0:0:
256,192,144192,1,0,0:0:0:0:
256,192,144342,1,8,0:0:0:0:
256,192,144492,1,0,0:0:0:0:
256,192,144642,1,0,0:0:0:0:
256,192,144792,1,8,0:0:0:0:
256,192,144942,1,0,0:0:0:0:
256,192,145092,1,8,0:0:0:0:
256,192,145242,1,8,0:0:0:0:
256,192,145392,1,0,0:0:0:0:
256,192,145542,1,8,0:0:0:0:
256,192,145692,1,8,0:0:0:0:
256,192,145842,1,0,0:0:0:0:
256,192,145992,1,8,0:0:0:0:
256,192,146142,1,0,0:0:0:0:
256,192,146292,1,8,0:0:0:0:
256,192,146442,1,8,0:0:0:0:
256,192,146592,1,0,0:0:0:0:
256,192,146742,1,8,0:0:0:0:
256,192,146892,1,0,0:0:0:0:
256,192,147042,1,0,0:0:0:0:
256,192,147192,1,8,0:0:0:0:
256,192,147342,1,0,0:0:0:0:
256,192,147492,1,8,0:0:0:0:
256,192,147642,1,8,0:0:0:0:
256,192,147792,1,8,0:0:0:0:
256,192,147942,1,8,0:0:0:0:
256,192,148092,1,0,0:0:0:0:
256,192,148242,1,0,0:0:0:0:
256,192,148392,1,8,0:0:0:0:
256,192,148542,1,0,0:0:0:0:
256,192,148692,1,8,0:0:0:0:
256,192,148842,1,8,0:0:0:0:
256,192,148992,1,0,0:0:0:0:
256,192,149142,1,8,0:0:0:0:
256,192,149292,1,0,0:0:0:0:
256,192,149442,1,0,0:0:0:0:
256,192,149592,1,8,0:0:0:0:
256,192,149742,1,0,0:0:0:0:
256,192,149892,1,8,0:0:0:0:
256,192,150042,1,8,0:0:0:0:
256,192,150192,1,0,0:0:0:0:
256,192,150342,1,8,0:0:0:0:
256,192,150492,1,0,0:0:0:0:
256,192,150642,1,0,0:0:0:0:
256,192,150792,1,8,0:0:0:0:
256,192,150942,1,0,0:0:0:0:
256,192,151092,1,8,0:0:0:0:
256,192,151242,1,8,0:0:0:0:
256,192,151392,1,0,0:0:0:0:
256,192,151542,1,8,0:0:0:0:
256,192,151692,1,8,0:0:0:0:
256,192,151842,1,0,0:0:0:0:
256,192,151992,1,8,0:0:0:0:
256,192,152142,1,0,0:0:0:0:
256,192,152292,1,8,0:0:0:0:
256,192,152442,1,8,0:0:0:0:
256,192,152592,1,8,0:0:0:0:
256,192,152742,1,0,0:0:0:0:
256,192,152892,1,8,0:0:0:0:
256,192,153042,1,0,0:0:0:0:
256,192,153192,1,8,0:0:0:0:
256,192,153342,1,0,0:0:0:0:
256,192,153492,1,8,0:0:0:0:
256,192,153642,1,0,0:0:0:0:
256,192,153792,1,8,0:0:0:0:
256,192,153942,1,8,0:0:0:0:
256,192,154092,1,8,0:0:0:0:
256,192,154242,1,0,0:0:0:0:
256,192,154392,1,8,0:0:0:0:
256,192,154542,1,0,0:0:0:0:
256,192,154692,1,8,0:0:0:0:
256,192,154842,1,8,0:0:0:0:
256,192,154992,1,0,0:0:0:0:
256,192,155142,1,8,0:0:0:0:
256,192,155292,1,0,0:0:0:0:
256,192,155442,1,0,0:0:0:0:
256,192,155592,1,8,0:0:0:0:
256,192,155742,1,0,0:0:0:0:
256,192,155892,1,8,0:0:0:0:
256,192,156042,1,8,0:0:0:0:
256,192,156192,1,0,0:0:0:0:
256,192,156342,1,8,0:0:0:0:
256,192,156492,1,0,0:0:0:0:
256,192,156642,1,0,0:0:0:0:
256,192,156792,1,8,0:0:0:0:
256,192,156942,1,0,0:0:0:0:
256,192,157092,1,8,0:0:0:0:
256,192,157242,1,8,0:0:0:0:
256,192,157392,1,0,0:0:0:0:
256,192,157542,1,8,0:0:0:0:
256,192,157692,1,8,0:0:0:0:
256,192,157842,1,0,0:0:0:0:
256,192,157992,1,8,0:0:0:0:
256,192,158142,1,0,0:0:0:0:
256,192,158292,1,8,0:0:0:0:
256,192,158442,1,8,0:0:0:0:
256,192,158592,1,0,0:0:0:0:
256,192,158742,1,0,0:0:0:0:
256,192,158892,1,8,0:0:0:0:
256,192,159042,1,0,0:0:0:0:
256,192,159192,1,8,0:0:0:0:
256,192,159342,1,8,0:0:0:0:
256,192,159492,1,0,0:0:0:0:
256,192,159642,1,8,0:0:0:0:
256,192,159792,1,8,0:0:0:0:
256,192,159942,1,8,0:0:0:0:
256,192,160092,1,0,0:0:0:0:
256,192,160392,1,8,0:0:0:0:
256,192,160542,1,0,0:0:0:0:
256,192,160842,1,0,0:0:0:0:
256,192,160992,1,8,0:0:0:0:
256,192,161067,1,8,0:0:0:0:
256,192,161142,1,0,0:0:0:0:
256,192,161217,1,8,0:0:0:0:
256,192,161292,1,0,0:0:0:0:
256,192,161592,1,8,0:0:0:0:
256,192,161742,1,0,0:0:0:0:
256,192,161892,1,0,0:0:0:0:
256,192,162042,1,8,0:0:0:0:
256,192,162192,1,0,0:0:0:0:
256,192,162267,1,0,0:0:0:0:
256,192,162342,1,8,0:0:0:0:
256,192,162417,1,8,0:0:0:0:
256,192,162492,1,0,0:0:0:0:
256,192,162642,1,0,0:0:0:0:
256,192,162792,1,8,0:0:0:0:
256,192,162942,1,0,0:0:0:0:
256,192,163242,1,0,0:0:0:0:
256,192,163392,1,8,0:0:0:0:
256,192,163542,1,8,0:0:0:0:
256,192,163617,1,8,0:0:0:0:
256,192,163692,1,0,0:0:0:0:
256,192,163842,1,0,0:0:0:0:
256,192,164142,1,8,0:0:0:0:
256,192,164292,1,8,0:0:0:0:
256,192,164367,1,8,0:0:0:0:
256,192,164442,1,0,0:0:0:0:
256,192,164592,1,8,0:0:0:0:
256,192,164742,1,8,0:0:0:0:
256,192,164817,1,0,0:0:0:0:
256,192,164892,1,8,0:0:0:0:
256,192,164967,1,8,0:0:0:0:
256,192,165042,1,0,0:0:0:0:
256,192,165192,1,8,0:0:0:0:
256,192,165342,1,8,0:0:0:0:
256,192,165417,1,8,0:0:0:0:
256,192,165492,1,0,0:0:0:0:
256,192,165642,1,0,0:0:0:0:
256,192,165792,1,8,0:0:0:0:
256,192,165942,1,8,0:0:0:0:
256,192,166017,1,0,0:0:0:0:
256,192,166092,1,0,0:0:0:0:
256,192,166242,1,0,0:0:0:0:
256,192,166392,1,8,0:0:0:0:
256,192,166542,1,0,0:0:0:0:
256,192,166692,1,0,0:0:0:0:
256,192,166842,1,8,0:0:0:0:
256,192,166992,1,8,0:0:0:0:
256,192,167067,1,0,0:0:0:0:
256,192,167142,1,8,0:0:0:0:
256,192,167217,1,0,0:0:0:0:
256,192,167292,1,8,0:0:0:0:
256,192,167367,1,8,0:0:0:0:
256,192,167442,1,0,0:0:0:0:
256,192,167517,1,0,0:0:0:0:
256,192,167592,1,8,0:0:0:0:
256,192,167742,1,0,0:0:0:0:
256,192,168042,1,0,0:0:0:0:
256,192,168092,1,0,0:0:0:0:
256,192,168142,1,0,0:0:0:0:
256,192,168192,1,8,0:0:0:0:
256,192,168342,1,0,0:0:0:0:
256,192,168492,1,0,0:0:0:0:
256,192,168567,1,0,0:0:0:0:
256,192,168642,1,8,0:0:0:0:
256,192,168717,1,0,0:0:0:0:
256,192,168792,1,8,0:0:0:0:
256,192,168942,1,8,0:0:0:0:
256,192,169092,1,0,0:0:0:0:
256,192,169242,1,0,0:0:0:0:
256,192,169317,1,8,0:0:0:0:
256,192,169542,1,8,0:0:0:0:
256,192,169692,1,8,0:0:0:0:
256,192,169767,1,8,0:0:0:0:
256,192,169842,1,0,0:0:0:0:
256,192,169992,1,8,0:0:0:0:
256,192,170142,1,8,0:0:0:0:
256,192,170217,1,0,0:0:0:0:
256,192,170292,1,8,0:0:0:0:
256,192,170367,1,8,0:0:0:0:
256,192,170442,1,8,0:0:0:0:
256,192,170517,1,0,0:0:0:0:
256,192,170592,1,8,0:0:0:0:
256,192,170667,1,8,0:0:0:0:
256,192,170742,1,0,0:0:0:0:
256,192,170892,1,12,0:0:0:0:
256,192,171492,1,8,0:0:0:0:
256,192,171642,1,0,0:0:0:0:
256,192,171792,1,8,0:0:0:0:
256,192,171867,1,0,0:0:0:0:
256,192,171942,1,8,0:0:0:0:
256,192,172017,1,8,0:0:0:0:
256,192,172092,1,0,0:0:0:0:
256,192,172292,1,0,0:0:0:0:
256,192,172492,1,8,0:0:0:0:
256,192,172842,1,0,0:0:0:0:
256,192,172992,1,8,0:0:0:0:
256,192,173067,1,0,0:0:0:0:
256,192,173142,1,8,0:0:0:0:
256,192,173217,1,8,0:0:0:0:
256,192,173292,1,0,0:0:0:0:
256,192,173442,1,0,0:0:0:0:
256,192,173592,1,0,0:0:0:0:
256,192,173642,1,0,0:0:0:0:
256,192,173692,1,0,0:0:0:0:
256,192,173742,1,8,0:0:0:0:
256,192,173892,1,8,0:0:0:0:
256,192,173967,1,8,0:0:0:0:
256,192,174042,1,0,0:0:0:0:
256,192,174192,1,0,0:0:0:0:
256,192,174342,1,8,0:0:0:0:
256,192,174417,1,0,0:0:0:0:
256,192,174492,1,8,0:0:0:0:
256,192,174567,1,8,0:0:0:0:
256,192,174642,1,0,0:0:0:0:
256,192,174792,1,8,0:0:0:0:
256,192,174942,1,8,0:0:0:0:
256,192,175017,1,8,0:0:0:0:
256,192,175092,1,0,0:0:0:0:
256,192,175392,1,0,0:0:0:0:
256,192,175542,1,8,0:0:0:0:
256,192,175617,1,8,0:0:0:0:
256,192,175692,1,0,0:0:0:0:
256,192,175842,1,0,0:0:0:0:
256,192,175917,1,8,0:0:0:0:
256,192,175992,1,8,0:0:0:0:
256,192,176142,1,0,0:0:0:0:
256,192,176292,1,0,0:0:0:0:
256,192,176442,1,8,0:0:0:0:
256,192,176592,1,8,0:0:0:0:
256,192,176667,1,0,0:0:0:0:
256,192,176742,1,8,0:0:0:0:
256,192,176817,1,8,0:0:0:0:
256,192,176892,1,0,0:0:0:0:
256,192,177042,1,0,0:0:0:0:
256,192,177192,1,8,0:0:0:0:
256,192,177342,1,0,0:0:0:0:
256,192,177642,1,0,0:0:0:0:
256,192,177692,1,0,0:0:0:0:
256,192,177742,1,0,0:0:0:0:
256,192,177792,1,8,0:0:0:0:
256,192,177942,1,0,0:0:0:0:
256,192,178092,1,0,0:0:0:0:
256,192,178167,1,0,0:0:0:0:
256,192,178242,1,8,0:0:0:0:
256,192,178317,1,8,0:0:0:0:
256,192,178392,1,8,0:0:0:0:
256,192,178542,1,8,0:0:0:0:
256,192,178692,1,0,0:0:0:0:
256,192,178842,1,0,0:0:0:0:
256,192,178917,1,8,0:0:0:0:
256,192,179142,1,8,0:0:0:0:
256,192,179292,1,8,0:0:0:0:
256,192,179367,1,8,0:0:0:0:
256,192,179442,1,0,0:0:0:0:
256,192,179592,1,8,0:0:0:0:
256,192,179742,1,8,0:0:0:0:
256,192,179817,1,0,0:0:0:0:
256,192,179892,1,8,0:0:0:0:
256,192,179967,1,8,0:0:0:0:
256,192,180042,1,8,0:0:0:0:
256,192,180117,1,0,0:0:0:0:
256,192,180192,1,0,0:0:0:0:
256,192,180267,1,8,0:0:0:0:
256,192,180342,1,8,0:0:0:0:
256,192,180492,1,4,0:0:0:0:
256,192,190092,5,8,0:0:0:0:
256,192,190242,1,0,0:0:0:0:
256,192,190392,1,8,0:0:0:0:
256,192,190542,1,0,0:0:0:0:
256,192,190692,1,8,0:0:0:0:
256,192,190842,1,0,0:0:0:0:
256,192,190917,1,8,0:0:0:0:
256,192,190992,1,8,0:0:0:0:
256,192,191067,1,0,0:0:0:0:
256,192,191142,1,8,0:0:0:0:
256,192,191217,1,8,0:0:0:0:
256,192,191292,1,8,0:0:0:0:
256,192,191442,1,0,0:0:0:0:
256,192,191592,1,0,0:0:0:0:
256,192,191667,1,8,0:0:0:0:
256,192,191742,1,0,0:0:0:0:
256,192,191892,1,8,0:0:0:0:
256,192,191967,1,8,0:0:0:0:
256,192,192042,1,0,0:0:0:0:
256,192,192192,1,8,0:0:0:0:
256,192,192267,1,0,0:0:0:0:
256,192,192342,1,8,0:0:0:0:
256,192,192417,1,8,0:0:0:0:
256,192,192492,1,8,0:0:0:0:
256,192,192642,1,0,0:0:0:0:
256,192,192792,1,8,0:0:0:0:
256,192,192942,1,0,0:0:0:0:
256,192,193092,1,8,0:0:0:0:
256,192,193242,1,0,0:0:0:0:
256,192,193317,1,8,0:0:0:0:
256,192,193392,1,8,0:0:0:0:
256,192,193467,1,0,0:0:0:0:
256,192,193542,1,8,0:0:0:0:
256,192,193617,1,8,0:0:0:0:
256,192,193692,1,8,0:0:0:0:
256,192,193842,1,0,0:0:0:0:
256,192,193917,1,8,0:0:0:0:
256,192,193992,1,0,0:0:0:0:
256,192,194067,1,8,0:0:0:0:
256,192,194142,1,0,0:0:0:0:
256,192,194292,1,8,0:0:0:0:
256,192,194442,1,0,0:0:0:0:
256,192,194592,1,8,0:0:0:0:
256,192,194742,1,0,0:0:0:0:
256,192,194792,1,8,0:0:0:0:
256,192,194842,1,8,0:0:0:0:
256,192,194892,1,0,0:0:0:0:
256,192,195042,1,0,0:0:0:0:
256,192,195192,1,8,0:0:0:0:
256,192,195342,1,0,0:0:0:0:
256,192,195492,1,8,0:0:0:0:
256,192,195642,1,0,0:0:0:0:
256,192,195717,1,8,0:0:0:0:
256,192,195792,1,8,0:0:0:0:
256,192,195867,1,0,0:0:0:0:
256,192,195942,1,8,0:0:0:0:
256,192,196017,1,8,0:0:0:0:
256,192,196092,1,8,0:0:0:0:
256,192,196242,1,0,0:0:0:0:
256,192,196392,1,8,0:0:0:0:
256,192,196542,1,0,0:0:0:0:
256,192,196617,1,0,0:0:0:0:
256,192,196692,1,8,0:0:0:0:
256,192,196842,1,0,0:0:0:0:
256,192,196992,1,8,0:0:0:0:
256,192,197067,1,0,0:0:0:0:
256,192,197142,1,8,0:0:0:0:
256,192,197217,1,8,0:0:0:0:
256,192,197292,1,8,0:0:0:0:
256,192,197442,1,8,0:0:0:0:
256,192,197592,1,0,0:0:0:0:
256,192,197742,1,8,0:0:0:0:
256,192,197892,1,8,0:0:0:0:
256,192,198042,1,0,0:0:0:0:
256,192,198117,1,8,0:0:0:0:
256,192,198192,1,8,0:0:0:0:
256,192,198267,1,0,0:0:0:0:
256,192,198342,1,8,0:0:0:0:
256,192,198417,1,8,0:0:0:0:
256,192,198492,1,8,0:0:0:0:
256,192,198642,1,0,0:0:0:0:
256,192,198717,1,8,0:0:0:0:
256,192,198792,1,0,0:0:0:0:
256,192,198867,1,8,0:0:0:0:
256,192,198942,1,0,0:0:0:0:
256,192,199092,1,8,0:0:0:0:
256,192,199242,1,0,0:0:0:0:
256,192,199317,1,8,0:0:0:0:
256,192,199392,1,0,0:0:0:0:
256,192,199542,1,0,0:0:0:0:
256,192,199592,1,8,0:0:0:0:
256,192,199642,1,8,0:0:0:0:
256,192,199692,1,0,0:0:0:0:
256,192,199842,1,0,0:0:0:0:
256,192,199992,1,8,0:0:0:0:
256,192,200142,1,0,0:0:0:0:
256,192,200292,1,8,0:0:0:0:
256,192,200442,1,0,0:0:0:0:
256,192,200517,1,8,0:0:0:0:
256,192,200592,1,8,0:0:0:0:
256,192,200667,1,0,0:0:0:0:
256,192,200742,1,8,0:0:0:0:
256,192,200817,1,8,0:0:0:0:
256,192,200892,1,8,0:0:0:0:
256,192,201042,1,8,0:0:0:0:
256,192,201192,1,0,0:0:0:0:
256,192,201342,1,8,0:0:0:0:
256,192,201417,1,0,0:0:0:0:
256,192,201492,1,8,0:0:0:0:
256,192,201642,1,0,0:0:0:0:
256,192,201792,1,8,0:0:0:0:
256,192,201867,1,0,0:0:0:0:
256,192,201942,1,8,0:0:0:0:
256,192,202017,1,8,0:0:0:0:
256,192,202092,1,8,0:0:0:0:
256,192,202242,1,0,0:0:0:0:
256,192,202392,1,8,0:0:0:0:
256,192,202542,1,8,0:0:0:0:
256,192,202692,1,8,0:0:0:0:
256,192,202842,1,0,0:0:0:0:
256,192,202917,1,8,0:0:0:0:
256,192,202992,1,8,0:0:0:0:
256,192,203067,1,0,0:0:0:0:
256,192,203142,1,8,0:0:0:0:
256,192,203217,1,8,0:0:0:0:
256,192,203292,1,8,0:0:0:0:
256,192,203442,1,0,0:0:0:0:
256,192,203517,1,8,0:0:0:0:
256,192,203592,1,8,0:0:0:0:
256,192,203667,1,0,0:0:0:0:
256,192,203742,1,8,0:0:0:0:
256,192,203892,1,8,0:0:0:0:
256,192,204042,1,0,0:0:0:0:
256,192,204192,1,8,0:0:0:0:
256,192,204342,1,0,0:0:0:0:
256,192,204392,1,8,0:0:0:0:
256,192,204442,1,8,0:0:0:0:
256,192,204492,1,0,0:0:0:0:
256,192,204642,1,0,0:0:0:0:
256,192,204792,1,8,0:0:0:0:
256,192,204942,1,8,0:0:0:0:
256,192,205092,1,8,0:0:0:0:
256,192,205242,1,0,0:0:0:0:
256,192,205317,1,8,0:0:0:0:
256,192,205392,1,8,0:0:0:0:
256,192,205467,1,0,0:0:0:0:
256,192,205542,1,8,0:0:0:0:
256,192,205617,1,8,0:0:0:0:
256,192,205692,1,8,0:0:0:0:
256,192,205842,1,8,0:0:0:0:
256,192,205992,1,0,0:0:0:0:
256,192,206142,1,8,0:0:0:0:
256,192,206292,1,8,0:0:0:0:
256,192,206367,1,8,0:0:0:0:
256,192,206442,1,0,0:0:0:0:
256,192,206592,1,8,0:0:0:0:
256,192,206667,1,0,0:0:0:0:
256,192,206742,1,8,0:0:0:0:
256,192,206817,1,8,0:0:0:0:
256,192,206892,1,0,0:0:0:0:
256,192,207042,1,0,0:0:0:0:
256,192,207117,1,8,0:0:0:0:
256,192,207192,1,0,0:0:0:0:
256,192,207342,1,8,0:0:0:0:
256,192,207492,1,8,0:0:0:0:
256,192,207642,1,0,0:0:0:0:
256,192,207717,1,8,0:0:0:0:
256,192,207792,1,8,0:0:0:0:
256,192,207867,1,0,0:0:0:0:
256,192,207942,1,8,0:0:0:0:
256,192,208017,1,8,0:0:0:0:
256,192,208092,1,8,0:0:0:0:
256,192,208242,1,0,0:0:0:0:
256,192,208317,1,8,0:0:0:0:
256,192,208392,1,0,0:0:0:0:
256,192,208467,1,8,0:0:0:0:
256,192,208542,1,0,0:0:0:0:
256,192,208692,1,8,0:0:0:0:
256,192,208842,1,0,0:0:0:0:
256,192,208992,1,8,0:0:0:0:
256,192,209067,1,0,0:0:0:0:
256,192,209142,1,8,0:0:0:0:
256,192,209292,1,4,0:0:0:0:
256,192,218592,5,8,0:0:0:0:
256,192,218704,1,8,0:0:0:0:
256,192,218892,1,4,0:0:0:0:
256,192,228042,5,8,0:0:0:0:
256,192,228117,1,8,0:0:0:0:
256,192,228192,1,8,0:0:0:0:
256,192,228492,1,4,0:0:0:0:
256,192,228642,1,8,0:0:0:0:
256,192,228717,1,8,0:0:0:0:
256,192,228792,1,0,0:0:0:0:
256,192,228867,1,8,0:0:0:0:
256,192,228942,1,8,0:0:0:0:
256,192,229017,1,8,0:0:0:0:
256,192,229092,1,0,0:0:0:0:
256,192,229167,1,8,0:0:0:0:
256,192,229242,1,0,0:0:0:0:
256,192,229392,1,0,0:0:0:0:
256,192,229467,1,8,0:0:0:0:
256,192,229542,1,0,0:0:0:0:
256,192,229617,1,8,0:0:0:0:
256,192,229692,1,8,0:0:0:0:
256,192,229767,1,8,0:0:0:0:
256,192,229842,1,8,0:0:0:0:
256,192,229917,1,8,0:0:0:0:
256,192,229992,1,0,0:0:0:0:
256,192,230067,1,8,0:0:0:0:
256,192,230142,1,8,0:0:0:0:
256,192,230217,1,8,0:0:0:0:
256,192,230292,1,0,0:0:0:0:
256,192,230367,1,8,0:0:0:0:
256,192,230442,1,0,0:0:0:0:
256,192,230592,1,0,0:0:0:0:
256,192,230742,1,8,0:0:0:0:
256,192,230817,1,8,0:0:0:0:
256,192,230892,1,8,0:0:0:0:
256,192,230967,1,0,0:0:0:0:
256,192,231042,1,8,0:0:0:0:
256,192,231117,1,8,0:0:0:0:
256,192,231192,1,0,0:0:0:0:
256,192,231267,1,8,0:0:0:0:
256,192,231342,1,8,0:0:0:0:
256,192,231417,1,8,0:0:0:0:
256,192,231492,1,0,0:0:0:0:
256,192,231567,1,8,0:0:0:0:
256,192,231642,1,0,0:0:0:0:
256,192,231792,1,0,0:0:0:0:
256,192,231867,1,8,0:0:0:0:
256,192,231942,1,8,0:0:0:0:
256,192,232017,1,8,0:0:0:0:
256,192,232092,1,0,0:0:0:0:
256,192,232167,1,8,0:0:0:0:
256,192,232242,1,0,0:0:0:0:
256,192,232317,1,8,0:0:0:0:
256,192,232392,1,0,0:0:0:0:
256,192,232467,1,8,0:0:0:0:
256,192,232542,1,8,0:0:0:0:
256,192,232617,1,8,0:0:0:0:
256,192,232692,1,0,0:0:0:0:
256,192,232767,1,8,0:0:0:0:
256,192,232842,1,8,0:0:0:0:
256,192,232992,1,0,0:0:0:0:
256,192,233142,1,8,0:0:0:0:
256,192,233217,1,8,0:0:0:0:
256,192,233292,1,8,0:0:0:0:
256,192,233367,1,0,0:0:0:0:
256,192,233442,1,8,0:0:0:0:
256,192,233517,1,8,0:0:0:0:
256,192,233592,1,0,0:0:0:0:
256,192,233667,1,8,0:0:0:0:
256,192,233742,1,8,0:0:0:0:
256,192,233817,1,8,0:0:0:0:
256,192,233892,1,0,0:0:0:0:
256,192,233967,1,8,0:0:0:0:
256,192,234042,1,0,0:0:0:0:
256,192,234192,1,0,0:0:0:0:
256,192,234267,1,8,0:0:0:0:
256,192,234342,1,8,0:0:0:0:
256,192,234417,1,8,0:0:0:0:
256,192,234492,1,8,0:0:0:0:
256,192,234567,1,0,0:0:0:0:
256,192,234642,1,8,0:0:0:0:
256,192,234717,1,8,0:0:0:0:
256,192,234792,1,0,0:0:0:0:
256,192,234867,1,8,0:0:0:0:
256,192,234942,1,8,0:0:0:0:
256,192,235017,1,8,0:0:0:0:
256,192,235092,1,0,0:0:0:0:
256,192,235167,1,8,0:0:0:0:
256,192,235242,1,0,0:0:0:0:
256,192,235392,1,0,0:0:0:0:
256,192,235542,1,8,0:0:0:0:
256,192,235617,1,0,0:0:0:0:
256,192,235692,1,8,0:0:0:0:
256,192,235767,1,8,0:0:0:0:
256,192,235842,1,8,0:0:0:0:
256,192,235917,1,8,0:0:0:0:
256,192,235992,1,0,0:0:0:0:
256,192,236067,1,8,0:0:0:0:
256,192,236142,1,8,0:0:0:0:
256,192,236217,1,8,0:0:0:0:
256,192,236292,1,0,0:0:0:0:
256,192,236367,1,8,0:0:0:0:
256,192,236442,1,0,0:0:0:0:
256,192,236592,1,8,0:0:0:0:
256,192,236667,1,0,0:0:0:0:
256,192,236742,1,8,0:0:0:0:
256,192,236817,1,8,0:0:0:0:
256,192,236892,1,0,0:0:0:0:
256,192,236967,1,8,0:0:0:0:
256,192,237042,1,0,0:0:0:0:
256,192,237117,1,8,0:0:0:0:
256,192,237192,1,0,0:0:0:0:
256,192,237267,1,8,0:0:0:0:
256,192,237342,1,8,0:0:0:0:
256,192,237417,1,8,0:0:0:0:
256,192,237492,1,0,0:0:0:0:
256,192,237567,1,8,0:0:0:0:
256,192,237642,1,8,0:0:0:0:
256,192,237792,1,0,0:0:0:0:
256,192,237942,1,8,0:0:0:0:
256,192,238092,1,4,0:0:0:0:
256,192,238242,1,8,0:0:0:0:
256,192,238317,1,8,0:0:0:0:
256,192,238392,1,0,0:0:0:0:
256,192,238467,1,8,0:0:0:0:
256,192,238542,1,8,0:0:0:0:
256,192,238617,1,8,0:0:0:0:
256,192,238692,1,0,0:0:0:0:
256,192,238767,1,8,0:0:0:0:
256,192,238842,1,0,0:0:0:0:
256,192,238992,1,0,0:0:0:0:
256,192,239067,1,8,0:0:0:0:
256,192,239142,1,8,0:0:0:0:
256,192,239217,1,8,0:0:0:0:
256,192,239292,1,0,0:0:0:0:
256,192,239367,1,8,0:0:0:0:
256,192,239442,1,0,0:0:0:0:
256,192,239517,1,8,0:0:0:0:
256,192,239592,1,0,0:0:0:0:
256,192,239667,1,8,0:0:0:0:
256,192,239742,1,8,0:0:0:0:
256,192,239817,1,8,0:0:0:0:
256,192,239892,1,0,0:0:0:0:
256,192,239967,1,8,0:0:0:0:
256,192,240042,1,0,0:0:0:0:
256,192,240192,1,0,0:0:0:0:
256,192,240342,1,8,0:0:0:0:
256,192,240417,1,0,0:0:0:0:
256,192,240492,1,8,0:0:0:0:
256,192,240567,1,8,0:0:0:0:
256,192,240642,1,0,0:0:0:0:
256,192,240717,1,8,0:0:0:0:
256,192,240792,1,0,0:0:0:0:
256,192,240867,1,8,0:0:0:0:
256,192,240942,1,8,0:0:0:0:
256,192,241017,1,8,0:0:0:0:
256,192,241092,1,0,0:0:0:0:
256,192,241167,1,8,0:0:0:0:
256,192,241242,1,0,0:0:0:0:
256,192,241392,1,0,0:0:0:0:
256,192,241467,1,8,0:0:0:0:
256,192,241542,1,8,0:0:0:0:
256,192,241617,1,8,0:0:0:0:
256,192,241692,1,8,0:0:0:0:
256,192,241767,1,0,0:0:0:0:
256,192,241842,1,8,0:0:0:0:
256,192,241917,1,8,0:0:0:0:
256,192,241992,1,0,0:0:0:0:
256,192,242067,1,8,0:0:0:0:
256,192,242142,1,0,0:0:0:0:
256,192,242217,1,8,0:0:0:0:
256,192,242292,1,0,0:0:0:0:
256,192,242367,1,8,0:0:0:0:
256,192,242442,1,8,0:0:0:0:
256,192,242592,1,0,0:0:0:0:
256,192,242742,1,8,0:0:0:0:
256,192,242817,1,0,0:0:0:0:
256,192,242892,1,8,0:0:0:0:
256,192,242967,1,8,0:0:0:0:
256,192,243042,1,8,0:0:0:0:
256,192,243117,1,0,0:0:0:0:
256,192,243192,1,0,0:0:0:0:
256,192,243267,1,8,0:0:0:0:
256,192,243342,1,8,0:0:0:0:
256,192,243417,1,8,0:0:0:0:
256,192,243492,1,0,0:0:0:0:
256,192,243567,1,8,0:0:0:0:
256,192,243642,1,0,0:0:0:0:
256,192,243792,1,0,0:0:0:0:
256,192,243867,1,8,0:0:0:0:
256,192,243942,1,8,0:0:0:0:
256,192,244017,1,0,0:0:0:0:
256,192,244092,1,0,0:0:0:0:
256,192,244167,1,8,0:0:0:0:
256,192,244242,1,8,0:0:0:0:
256,192,244317,1,8,0:0:0:0:
256,192,244392,1,0,0:0:0:0:
256,192,244467,1,8,0:0:0:0:
256,192,244542,1,8,0:0:0:0:
256,192,244617,1,8,0:0:0:0:
256,192,244692,1,0,0:0:0:0:
256,192,244767,1,8,0:0:0:0:
256,192,244842,1,0,0:0:0:0:
256,192,244992,1,0,0:0:0:0:
256,192,245142,1,8,0:0:0:0:
256,192,245217,1,0,0:0:0:0:
256,192,245292,1,8,0:0:0:0:
256,192,245367,1,8,0:0:0:0:
256,192,245442,1,8,0:0:0:0:
256,192,245517,1,8,0:0:0:0:
256,192,245592,1,0,0:0:0:0:
256,192,245667,1,8,0:0:0:0:
256,192,245742,1,8,0:0:0:0:
256,192,245817,1,8,0:0:0:0:
256,192,245892,1,0,0:0:0:0:
256,192,245967,1,8,0:0:0:0:
256,192,246042,1,0,0:0:0:0:
256,192,246192,1,8,0:0:0:0:
256,192,246267,1,0,0:0:0:0:
256,192,246342,1,8,0:0:0:0:
256,192,246417,1,8,0:0:0:0:
256,192,246492,1,8,0:0:0:0:
256,192,246567,1,8,0:0:0:0:
256,192,246642,1,0,0:0:0:0:
256,192,246717,1,8,0:0:0:0:
256,192,246792,1,0,0:0:0:0:
256,192,246867,1,8,0:0:0:0:
256,192,246942,1,8,0:0:0:0:
256,192,247017,1,0,0:0:0:0:
256,192,247092,1,0,0:0:0:0:
256,192,247167,1,8,0:0:0:0:
256,192,247242,1,8,0:0:0:0:
256,192,247392,1,0,0:0:0:0:
256,192,247542,1,8,0:0:0:0:
256,192,247692,1,4,0:0:0:0:
256,192,247842,1,8,0:0:0:0:
256,192,247917,1,8,0:0:0:0:
256,192,247992,1,0,0:0:0:0:
256,192,248067,1,8,0:0:0:0:
256,192,248142,1,8,0:0:0:0:
256,192,248217,1,8,0:0:0:0:
256,192,248292,1,0,0:0:0:0:
256,192,248367,1,8,0:0:0:0:
256,192,248442,1,0,0:0:0:0:
256,192,248592,1,0,0:0:0:0:
256,192,248667,1,8,0:0:0:0:
256,192,248742,1,0,0:0:0:0:
256,192,248817,1,8,0:0:0:0:
256,192,248892,1,8,0:0:0:0:
256,192,248967,1,8,0:0:0:0:
256,192,249042,1,8,0:0:0:0:
256,192,249117,1,8,0:0:0:0:
256,192,249192,1,0,0:0:0:0:
256,192,249267,1,8,0:0:0:0:
256,192,249342,1,8,0:0:0:0:
256,192,249417,1,8,0:0:0:0:
256,192,249492,1,0,0:0:0:0:
256,192,249567,1,8,0:0:0:0:
256,192,249642,1,0,0:0:0:0:
256,192,249792,1,0,0:0:0:0:
256,192,249942,1,8,0:0:0:0:
256,192,250017,1,8,0:0:0:0:
256,192,250092,1,8,0:0:0:0:
256,192,250167,1,0,0:0:0:0:
256,192,250242,1,8,0:0:0:0:
256,192,250317,1,8,0:0:0:0:
256,192,250392,1,0,0:0:0:0:
256,192,250467,1,8,0:0:0:0:
256,192,250542,1,8,0:0:0:0:
256,192,250617,1,8,0:0:0:0:
256,192,250692,1,0,0:0:0:0:
256,192,250767,1,8,0:0:0:0:
256,192,250842,1,0,0:0:0:0:
256,192,250992,1,0,0:0:0:0:
256,192,251067,1,8,0:0:0:0:
256,192,251142,1,8,0:0:0:0:
256,192,251217,1,8,0:0:0:0:
256,192,251292,1,0,0:0:0:0:
256,192,251367,1,8,0:0:0:0:
256,192,251442,1,0,0:0:0:0:
256,192,251517,1,8,0:0:0:0:
256,192,251592,1,0,0:0:0:0:
256,192,251667,1,8,0:0:0:0:
256,192,251742,1,8,0:0:0:0:
256,192,251817,1,8,0:0:0:0:
256,192,251892,1,0,0:0:0:0:
256,192,251967,1,8,0:0:0:0:
256,192,252042,1,8,0:0:0:0:
256,192,252192,1,0,0:0:0:0:
256,192,252342,1,8,0:0:0:0:
256,192,252417,1,8,0:0:0:0:
256,192,252492,1,8,0:0:0:0:
256,192,252567,1,0,0:0:0:0:
256,192,252642,1,8,0:0:0:0:
256,192,252717,1,8,0:0:0:0:
256,192,252792,1,0,0:0:0:0:
256,192,252867,1,8,0:0:0:0:
256,192,252942,1,8,0:0:0:0:
256,192,253017,1,8,0:0:0:0:
256,192,253092,1,0,0:0:0:0:
256,192,253167,1,8,0:0:0:0:
256,192,253242,1,0,0:0:0:0:
256,192,253392,1,0,0:0:0:0:
256,192,253467,1,8,0:0:0:0:
256,192,253542,1,8,0:0:0:0:
256,192,253617,1,8,0:0:0:0:
256,192,253692,1,8,0:0:0:0:
256,192,253767,1,0,0:0:0:0:
256,192,253842,1,8,0:0:0:0:
256,192,253917,1,8,0:0:0:0:
256,192,253992,1,0,0:0:0:0:
256,192,254067,1,8,0:0:0:0:
256,192,254142,1,8,0:0:0:0:
256,192,254217,1,8,0:0:0:0:
256,192,254292,1,0,0:0:0:0:
256,192,254367,1,8,0:0:0:0:
256,192,254442,1,0,0:0:0:0:
256,192,254592,1,0,0:0:0:0:
256,192,254742,1,8,0:0:0:0:
256,192,254817,1,0,0:0:0:0:
256,192,254892,1,8,0:0:0:0:
256,192,254967,1,8,0:0:0:0:
256,192,255042,1,8,0:0:0:0:
256,192,255117,1,8,0:0:0:0:
256,192,255192,1,0,0:0:0:0:
256,192,255267,1,8,0:0:0:0:
256,192,255342,1,8,0:0:0:0:
256,192,255417,1,8,0:0:0:0:
256,192,255492,1,0,0:0:0:0:
256,192,255567,1,8,0:0:0:0:
256,192,255642,1,0,0:0:0:0:
256,192,255792,1,8,0:0:0:0:
256,192,255867,1,0,0:0:0:0:
256,192,255942,1,8,0:0:0:0:
256,192,256017,1,8,0:0:0:0:
256,192,256092,1,0,0:0:0:0:
256,192,256167,1,8,0:0:0:0:
256,192,256242,1,0,0:0:0:0:
256,192,256317,1,8,0:0:0:0:
256,192,256392,1,0,0:0:0:0:
256,192,256467,1,8,0:0:0:0:
256,192,256542,1,8,0:0:0:0:
256,192,256617,1,8,0:0:0:0:
256,192,256692,1,0,0:0:0:0:
256,192,256767,1,8,0:0:0:0:
256,192,256842,1,8,0:0:0:0:
256,192,256992,1,0,0:0:0:0:
256,192,257142,1,8,0:0:0:0:
256,192,257292,1,4,0:0:0:0:
256,192,257442,1,8,0:0:0:0:
256,192,257517,1,8,0:0:0:0:
256,192,257592,1,0,0:0:0:0:
256,192,257667,1,8,0:0:0:0:
256,192,257742,1,8,0:0:0:0:
256,192,257817,1,8,0:0:0:0:
256,192,257892,1,0,0:0:0:0:
256,192,257967,1,8,0:0:0:0:
256,192,258042,1,0,0:0:0:0:
256,192,258192,1,0,0:0:0:0:
256,192,258267,1,8,0:0:0:0:
256,192,258342,1,8,0:0:0:0:
256,192,258417,1,8,0:0:0:0:
256,192,258492,1,0,0:0:0:0:
256,192,258567,1,8,0:0:0:0:
256,192,258642,1,0,0:0:0:0:
256,192,258717,1,8,0:0:0:0:
256,192,258792,1,0,0:0:0:0:
256,192,258867,1,8,0:0:0:0:
256,192,258942,1,8,0:0:0:0:
256,192,259017,1,8,0:0:0:0:
256,192,259092,1,0,0:0:0:0:
256,192,259167,1,8,0:0:0:0:
256,192,259242,1,0,0:0:0:0:
256,192,259392,1,0,0:0:0:0:
256,192,259542,1,8,0:0:0:0:
256,192,259617,1,0,0:0:0:0:
256,192,259692,1,8,0:0:0:0:
256,192,259767,1,8,0:0:0:0:
256,192,259842,1,0,0:0:0:0:
256,192,259917,1,8,0:0:0:0:
256,192,259992,1,0,0:0:0:0:
256,192,260067,1,8,0:0:0:0:
256,192,260142,1,8,0:0:0:0:
256,192,260217,1,8,0:0:0:0:
256,192,260292,1,0,0:0:0:0:
256,192,260367,1,8,0:0:0:0:
256,192,260442,1,0,0:0:0:0:
256,192,260592,1,0,0:0:0:0:
256,192,260667,1,8,0:0:0:0:
256,192,260742,1,8,0:0:0:0:
256,192,260817,1,8,0:0:0:0:
256,192,260892,1,8,0:0:0:0:
256,192,260967,1,0,0:0:0:0:
256,192,261042,1,8,0:0:0:0:
256,192,261117,1,8,0:0:0:0:
256,192,261192,1,0,0:0:0:0:
256,192,261267,1,8,0:0:0:0:
256,192,261342,1,0,0:0:0:0:
256,192,261417,1,8,0:0:0:0:
256,192,261492,1,0,0:0:0:0:
256,192,261567,1,8,0:0:0:0:
256,192,261642,1,8,0:0:0:0:
256,192,261792,1,0,0:0:0:0:
256,192,261942,1,8,0:0:0:0:
256,192,262017,1,0,0:0:0:0:
256,192,262092,1,8,0:0:0:0:
256,192,262167,1,8,0:0:0:0:
256,192,262242,1,8,0:0:0:0:
256,192,262317,1,0,0:0:0:0:
256,192,262392,1,0,0:0:0:0:
256,192,262467,1,8,0:0:0:0:
256,192,262542,1,8,0:0:0:0:
256,192,262617,1,8,0:0:0:0:
256,192,262692,1,0,0:0:0:0:
256,192,262767,1,8,0:0:0:0:
256,192,262842,1,0,0:0:0:0:
256,192,262992,1,0,0:0:0:0:
256,192,263067,1,8,0:0:0:0:
256,192,263142,1,8,0:0:0:0:
256,192,263217,1,0,0:0:0:0:
256,192,263292,1,0,0:0:0:0:
256,192,263367,1,8,0:0:0:0:
256,192,263442,1,8,0:0:0:0:
256,192,263517,1,8,0:0:0:0:
256,192,263592,1,0,0:0:0:0:
256,192,263667,1,8,0:0:0:0:
256,192,263742,1,8,0:0:0:0:
256,192,263817,1,8,0:0:0:0:
256,192,263892,1,0,0:0:0:0:
256,192,263967,1,8,0:0:0:0:
256,192,264042,1,0,0:0:0:0:
256,192,264192,1,0,0:0:0:0:
256,192,264342,1,8,0:0:0:0:
256,192,264417,1,0,0:0:0:0:
256,192,264492,1,8,0:0:0:0:
256,192,264567,1,8,0:0:0:0:
256,192,264642,1,8,0:0:0:0:
256,192,264717,1,8,0:0:0:0:
256,192,264792,1,0,0:0:0:0:
256,192,264867,1,8,0:0:0:0:
256,192,264942,1,8,0:0:0:0:
256,192,265017,1,8,0:0:0:0:
256,192,265092,1,0,0:0:0:0:
256,192,265167,1,8,0:0:0:0:
256,192,265242,1,0,0:0:0:0:
256,192,265392,1,8,0:0:0:0:
256,192,265467,1,0,0:0:0:0:
256,192,265542,1,8,0:0:0:0:
256,192,265617,1,8,0:0:0:0:
256,192,265692,1,8,0:0:0:0:
256,192,265767,1,8,0:0:0:0:
256,192,265842,1,0,0:0:0:0:
256,192,265917,1,8,0:0:0:0:
256,192,265992,1,0,0:0:0:0:
256,192,266067,1,8,0:0:0:0:
256,192,266142,1,8,0:0:0:0:
256,192,266217,1,0,0:0:0:0:
256,192,266292,1,0,0:0:0:0:
256,192,266367,1,8,0:0:0:0:
256,192,266442,1,8,0:0:0:0:
256,192,266592,1,0,0:0:0:0:
256,192,266742,1,8,0:0:0:0:
256,192,266892,1,12,0:0:0:0:
256,192,267042,1,0,0:0:0:0:
256,192,267117,1,0,0:0:0:0:
256,192,267192,1,8,0:0:0:0:
256,192,267267,1,8,0:0:0:0:
256,192,267342,1,0,0:0:0:0:
256,192,267492,1,8,0:0:0:0:
256,192,267642,1,8,0:0:0:0:
256,192,267792,1,8,0:0:0:0:
256,192,267867,1,0,0:0:0:0:
256,192,267942,1,8,0:0:0:0:
256,192,268017,1,8,0:0:0:0:
256,192,268092,1,8,0:0:0:0:
256,192,268242,1,0,0:0:0:0:
256,192,268317,1,0,0:0:0:0:
256,192,268392,1,8,0:0:0:0:
256,192,268467,1,0,0:0:0:0:
256,192,268542,1,0,0:0:0:0:
256,192,268692,1,8,0:0:0:0:
256,192,268767,1,8,0:0:0:0:
256,192,268842,1,0,0:0:0:0:
256,192,268992,1,8,0:0:0:0:
256,192,269142,1,8,0:0:0:0:
256,192,269217,1,0,0:0:0:0:
256,192,269292,1,8,0:0:0:0:
256,192,269367,1,8,0:0:0:0:
256,192,269442,1,0,0:0:0:0:
256,192,269517,1,8,0:0:0:0:
256,192,269592,1,8,0:0:0:0:
256,192,269667,1,8,0:0:0:0:
256,192,269742,1,0,0:0:0:0:
256,192,269892,1,8,0:0:0:0:
256,192,270042,1,0,0:0:0:0:
256,192,270192,1,8,0:0:0:0:
256,192,270267,1,0,0:0:0:0:
256,192,270342,1,0,0:0:0:0:
256,192,270417,1,8,0:0:0:0:
256,192,270492,1,8,0:0:0:0:
256,192,270567,1,0,0:0:0:0:
256,192,270642,1,8,0:0:0:0:
256,192,270717,1,0,0:0:0:0:
256,192,270792,1,8,0:0:0:0:
256,192,270867,1,8,0:0:0:0:
256,192,270942,1,0,0:0:0:0:
256,192,271092,1,8,0:0:0:0:
256,192,271167,1,0,0:0:0:0:
256,192,271242,1,0,0:0:0:0:
256,192,271392,1,8,0:0:0:0:
256,192,271542,1,0,0:0:0:0:
256,192,271692,1,12,0:0:0:0:
256,192,271842,1,0,0:0:0:0:
256,192,271917,1,8,0:0:0:0:
256,192,271992,1,8,0:0:0:0:
256,192,272067,1,0,0:0:0:0:
256,192,272142,1,8,0:0:0:0:
256,192,272217,1,0,0:0:0:0:
256,192,272292,1,8,0:0:0:0:
256,192,272442,1,0,0:0:0:0:
256,192,272592,1,0,0:0:0:0:
256,192,272742,1,8,0:0:0:0:
256,192,272817,1,0,0:0:0:0:
256,192,272892,1,8,0:0:0:0:
256,192,272967,1,8,0:0:0:0:
256,192,273042,1,8,0:0:0:0:
256,192,273117,1,8,0:0:0:0:
256,192,273192,1,0,0:0:0:0:
256,192,273267,1,8,0:0:0:0:
256,192,273342,1,0,0:0:0:0:
256,192,273492,1,8,0:0:0:0:
256,192,273567,1,0,0:0:0:0:
256,192,273642,1,8,0:0:0:0:
256,192,273792,1,0,0:0:0:0:
256,192,273942,1,0,0:0:0:0:
256,192,274092,1,12,0:0:0:0:
256,192,274242,1,0,0:0:0:0:
256,192,274317,1,0,0:0:0:0:
256,192,274392,1,8,0:0:0:0:
256,192,274467,1,8,0:0:0:0:
256,192,274542,1,0,0:0:0:0:
256,192,274617,1,8,0:0:0:0:
256,192,274692,1,8,0:0:0:0:
256,192,274767,1,8,0:0:0:0:
256,192,274842,1,0,0:0:0:0:
256,192,274992,1,8,0:0:0:0:
256,192,275067,1,0,0:0:0:0:
256,192,275142,1,0,0:0:0:0:
256,192,275292,1,8,0:0:0:0:
256,192,275367,1,8,0:0:0:0:
256,192,275442,1,0,0:0:0:0:
256,192,275517,1,8,0:0:0:0:
256,192,275592,1,0,0:0:0:0:
256,192,275667,1,8,0:0:0:0:
256,192,275742,1,0,0:0:0:0:
256,192,275892,1,8,0:0:0:0:
256,192,276042,1,0,0:0:0:0:
256,192,276192,1,0,0:0:0:0:
256,192,276342,1,8,0:0:0:0:
256,192,276417,1,0,0:0:0:0:
256,192,276492,1,8,0:0:0:0:
256,192,276567,1,8,0:0:0:0:
256,192,276642,1,8,0:0:0:0:
256,192,276717,1,0,0:0:0:0:
256,192,276792,1,0,0:0:0:0:
256,192,276867,1,8,0:0:0:0:
256,192,276942,1,8,0:0:0:0:
256,192,277017,1,8,0:0:0:0:
256,192,277092,1,0,0:0:0:0:
256,192,277167,1,0,0:0:0:0:
256,192,277242,1,8,0:0:0:0:
256,192,277392,1,8,0:0:0:0:
256,192,277542,1,8,0:0:0:0:
256,192,277617,1,8,0:0:0:0:
256,192,277692,1,8,0:0:0:0:
256,192,277767,1,0,0:0:0:0:
256,192,277842,1,8,0:0:0:0:
256,192,277917,1,0,0:0:0:0:
256,192,277992,1,8,0:0:0:0:
256,192,278142,1,0,0:0:0:0:
256,192,278292,1,0,0:0:0:0:
256,192,278367,1,8,0:0:0:0:
256,192,278442,1,0,0:0:0:0:
256,192,278592,1,0,0:0:0:0:
256,192,278742,1,8,0:0:0:0:
256,192,278817,1,0,0:0:0:0:
256,192,278892,1,8,0:0:0:0:
256,192,278967,1,8,0:0:0:0:
256,192,279042,1,8,0:0:0:0:
256,192,279117,1,0,0:0:0:0:
256,192,279192,1,0,0:0:0:0:
256,192,279267,1,0,0:0:0:0:
256,192,279342,1,8,0:0:0:0:
256,192,279417,1,8,0:0:0:0:
256,192,279492,1,0,0:0:0:0:
256,192,279642,1,8,0:0:0:0:
256,192,279792,1,0,0:0:0:0:
256,192,279867,1,8,0:0:0:0:
256,192,279942,1,8,0:0:0:0:
256,192,280017,1,0,0:0:0:0:
256,192,280092,1,8,0:0:0:0:
256,192,280167,1,0,0:0:0:0:
256,192,280242,1,0,0:0:0:0:
256,192,280392,1,8,0:0:0:0:
256,192,280467,1,8,0:0:0:0:
256,192,280542,1,8,0:0:0:0:
256,192,280617,1,0,0:0:0:0:
256,192,280692,1,8,0:0:0:0:
256,192,280767,1,0,0:0:0:0:
256,192,280842,1,8,0:0:0:0:
256,192,280992,1,0,0:0:0:0:
256,192,281142,1,8,0:0:0:0:
256,192,281217,1,0,0:0:0:0:
256,192,281292,1,8,0:0:0:0:
256,192,281442,1,0,0:0:0:0:
256,192,281592,1,0,0:0:0:0:
256,192,281742,1,8,0:0:0:0:
256,192,281817,1,8,0:0:0:0:
256,192,281892,1,0,0:0:0:0:
256,192,281967,1,0,0:0:0:0:
256,192,282042,1,8,0:0:0:0:
256,192,282117,1,0,0:0:0:0:
256,192,282192,1,0,0:0:0:0:
256,192,282342,1,0,0:0:0:0:
256,192,282417,1,0,0:0:0:0:
256,192,282492,1,0,0:0:0:0:
256,192,282642,1,0,0:0:0:0:
256,192,282792,1,0,0:0:0:0:
256,192,282942,1,0,0:0:0:0:
256,192,283092,1,0,0:0:0:0:
256,192,283242,1,0,0:0:0:0:
256,192,283392,1,0,0:0:0:0:
256,192,283542,1,8,0:0:0:0:
256,192,283617,1,8,0:0:0:0:
256,192,283692,1,0,0:0:0:0:
256,192,283792,1,8,0:0:0:0:
256,192,283892,1,8,0:0:0:0:
256,192,283992,1,0,0:0:0:0:
256,192,284092,1,8,0:0:0:0:
256,192,284192,1,8,0:0:0:0:
256,192,284292,1,0,0:0:0:0:
256,192,284392,1,8,0:0:0:0:
256,192,284492,1,8,0:0:0:0:
256,192,284592,1,0,0:0:0:0:
256,192,284692,1,8,0:0:0:0:
256,192,284792,1,8,0:0:0:0:
256,192,284892,1,8,0:0:0:0:
256,192,285192,1,8,0:0:0:0:
256,192,285492,1,8,0:0:0:0:
256,192,285692,1,0,0:0:0:0:
256,192,285792,1,8,0:0:0:0:
256,192,286092,1,12,0:0:0:0:
256,192,286296,1,0,0:0:0:0:
256,192,286398,1,0,0:0:0:0:
256,192,286602,1,0,0:0:0:0:
256,192,286704,1,8,0:0:0:0:
256,192,286908,1,0,0:0:0:0:
256,192,287010,1,8,0:0:0:0:
256,192,287112,1,8,0:0:0:0:
256,192,287214,1,0,0:0:0:0:
256,192,287316,1,8,0:0:0:0:
256,192,287520,1,0,0:0:0:0:
256,192,287622,1,8,0:0:0:0:
256,192,287928,1,8,0:0:0:0:
256,192,288081,1,0,0:0:0:0:
256,192,288234,1,8,0:0:0:0:
256,192,288336,1,0,0:0:0:0:
256,192,288438,1,0,0:0:0:0:
256,192,288540,1,8,0:0:0:0:
256,192,288745,1,0,0:0:0:0:
256,192,288847,1,8,0:0:0:0:
256,192,289051,1,0,0:0:0:0:
256,192,289153,1,8,0:0:0:0:
256,192,289255,1,8,0:0:0:0:
256,192,289357,1,0,0:0:0:0:
256,192,289459,1,8,0:0:0:0:
256,192,289612,1,0,0:0:0:0:
256,192,289765,1,8,0:0:0:0:
256,192,289969,1,0,0:0:0:0:
256,192,290071,1,0,0:0:0:0:
256,192,290275,1,0,0:0:0:0:
256,192,290377,1,8,0:0:0:0:
256,192,290479,1,8,0:0:0:0:
256,192,290581,1,8,0:0:0:0:
256,192,290683,1,0,0:0:0:0:
256,192,290785,1,0,0:0:0:0:
256,192,290887,1,0,0:0:0:0:
256,192,290989,1,8,0:0:0:0:
256,192,291296,1,0,0:0:0:0:
256,192,291500,1,0,0:0:0:0:
256,192,291602,1,8,0:0:0:0:
256,192,291704,1,0,0:0:0:0:
256,192,291806,1,0,0:0:0:0:
256,192,291908,1,8,0:0:0:0:
256,192,292061,1,0,0:0:0:0:
256,192,292214,1,8,0:0:0:0:
256,192,292520,1,8,0:0:0:0:
256,192,292724,1,0,0:0:0:0:
256,192,292826,1,8,0:0:0:0:
256,192,293056,1,0,0:0:0:0:
256,192,293132,1,8,0:0:0:0:
256,192,293234,1,0,0:0:0:0:
256,192,293336,1,0,0:0:0:0:
256,192,293438,1,8,0:0:0:0:
256,192,293592,1,0,0:0:0:0:
256,192,293745,1,8,0:0:0:0:
256,192,293936,1,0,0:0:0:0:
256,192,294051,1,8,0:0:0:0:
256,192,294153,1,8,0:0:0:0:
256,192,294255,1,0,0:0:0:0:
256,192,294357,1,8,0:0:0:0:
256,192,294510,1,0,0:0:0:0:
256,192,294663,1,8,0:0:0:0:
256,192,294816,1,0,0:0:0:0:
256,192,294969,1,8,0:0:0:0:
256,192,295275,1,8,0:0:0:0:
256,192,295428,1,0,0:0:0:0:
256,192,295581,1,8,0:0:0:0:
256,192,295734,1,8,0:0:0:0:
256,192,295887,1,0,0:0:0:0:
256,192,296079,1,0,0:0:0:0:
256,192,296194,1,8,0:0:0:0:
256,192,296398,1,0,0:0:0:0:
256,192,296500,1,8,0:0:0:0:
256,192,296704,1,0,0:0:0:0:
256,192,296806,1,8,0:0:0:0:
256,192,296908,1,0,0:0:0:0:
256,192,297010,1,0,0:0:0:0:
256,192,297112,1,8,0:0:0:0:
256,192,297316,1,0,0:0:0:0:
256,192,297418,1,8,0:0:0:0:
256,192,297724,1,8,0:0:0:0:
256,192,297877,1,0,0:0:0:0:
256,192,298030,1,8,0:0:0:0:
256,192,298132,1,0,0:0:0:0:
256,192,298234,1,0,0:0:0:0:
256,192,298336,1,8,0:0:0:0:
256,192,298540,1,0,0:0:0:0:
256,192,298643,1,8,0:0:0:0:
256,192,298847,1,0,0:0:0:0:
256,192,298949,1,8,0:0:0:0:
256,192,299051,1,0,0:0:0:0:
256,192,299153,1,0,0:0:0:0:
256,192,299255,1,8,0:0:0:0:
256,192,299408,1,0,0:0:0:0:
256,192,299561,1,8,0:0:0:0:
256,192,299714,1,0,0:0:0:0:
256,192,299867,1,8,0:0:0:0:
256,192,300071,1,0,0:0:0:0:
256,192,300173,1,8,0:0:0:0:
256,192,300275,1,8,0:0:0:0:
256,192,300377,1,8,0:0:0:0:
256,192,300479,1,0,0:0:0:0:
256,192,300581,1,0,0:0:0:0:
256,192,300683,1,0,0:0:0:0:
256,192,300785,1,8,0:0:0:0:
256,192,301092,1,0,0:0:0:0:
256,192,301296,1,0,0:0:0:0:
256,192,301398,1,8,0:0:0:0:
256,192,301500,1,8,0:0:0:0:
256,192,301602,1,0,0:0:0:0:
256,192,301704,1,8,0:0:0:0:
256,192,301857,1,0,0:0:0:0:
256,192,302010,1,8,0:0:0:0:
256,192,302316,1,8,0:0:0:0:
256,192,302520,1,0,0:0:0:0:
256,192,302622,1,8,0:0:0:0:
256,192,302775,1,0,0:0:0:0:
256,192,302928,1,8,0:0:0:0:
256,192,303030,1,0,0:0:0:0:
256,192,303132,1,0,0:0:0:0:
256,192,303234,1,8,0:0:0:0:
256,192,303540,1,8,0:0:0:0:
256,192,303745,1,0,0:0:0:0:
256,192,303847,1,8,0:0:0:0:
256,192,303949,1,0,0:0:0:0:
256,192,304051,1,0,0:0:0:0:
256,192,304153,1,8,0:0:0:0:
256,192,304306,1,8,0:0:0:0:
256,192,304459,1,4,0:0:0:0:
256,192,305683,1,12,0:0:0:0:
256,192,305989,1,0,0:0:0:0:
256,192,306296,1,8,0:0:0:0:
256,192,306602,1,8,0:0:0:0:
256,192,306755,1,8,0:0:0:0:
256,192,306908,1,0,0:0:0:0:
256,192,307061,1,0,0:0:0:0:
256,192,307214,1,8,0:0:0:0:
256,192,307367,1,0,0:0:0:0:
256,192,307520,1,8,0:0:0:0:
256,192,307724,1,8,0:0:0:0:
256,192,307928,1,8,0:0:0:0:
256,192,308132,1,0,0:0:0:0:
256,192,308336,1,8,0:0:0:0:
256,192,308438,1,0,0:0:0:0:
256,192,308745,1,8,0:0:0:0:
256,192,309051,1,8,0:0:0:0:
256,192,309204,1,0,0:0:0:0:
256,192,309357,1,0,0:0:0:0:
256,192,309663,1,8,0:0:0:0:
256,192,309816,1,0,0:0:0:0:
256,192,309969,1,8,0:0:0:0:
256,192,310173,1,0,0:0:0:0:
256,192,310377,1,0,0:0:0:0:
256,192,310581,1,8,0:0:0:0:
256,192,310734,1,8,0:0:0:0:
256,192,310887,1,8,0:0:0:0:
256,192,311194,1,0,0:0:0:0:
256,192,311500,1,8,0:0:0:0:
256,192,311653,1,0,0:0:0:0:
256,192,311806,1,0,0:0:0:0:
256,192,312010,1,0,0:0:0:0:
256,192,312112,1,0,0:0:0:0:
256,192,312214,1,0,0:0:0:0:
256,192,312316,1,8,0:0:0:0:
256,192,312418,1,8,0:0:0:0:
256,192,312520,1,8,0:0:0:0:
256,192,312622,1,8,0:0:0:0:
256,192,312724,1,8,0:0:0:0:
256,192,312826,1,0,0:0:0:0:
256,192,312928,1,0,0:0:0:0:
256,192,313030,1,0,0:0:0:0:
256,192,313234,1,0,0:0:0:0:
256,192,313336,1,8,0:0:0:0:
256,192,313540,1,0,0:0:0:0:
256,192,313643,1,8,0:0:0:0:
256,192,313847,1,8,0:0:0:0:
256,192,313949,1,8,0:0:0:0:
256,192,314153,1,8,0:0:0:0:
256,192,314255,1,0,0:0:0:0:
256,192,314459,1,8,0:0:0:0:
256,192,314561,1,8,0:0:0:0:
256,192,314663,1,8,0:0:0:0:
256,192,314765,1,0,0:0:0:0:
256,192,314867,1,8,0:0:0:0:
256,192,315071,1,8,0:0:0:0:
256,192,315275,1,8,0:0:0:0:
256,192,315479,1,0,0:0:0:0:
256,192,315683,1,0,0:0:0:0:
256,192,315938,1,0,0:0:0:0:
256,192,315989,1,0,0:0:0:0:
256,192,316040,1,0,0:0:0:0:
256,192,316092,1,8,0:0:0:0:
256,192,316296,1,0,0:0:0:0:
256,192,316398,1,8,0:0:0:0:
256,192,316500,1,0,0:0:0:0:
256,192,316602,1,0,0:0:0:0:
256,192,316704,1,8,0:0:0:0:
256,192,316908,1,8,0:0:0:0:
256,192,317010,1,0,0:0:0:0:
256,192,317112,1,8,0:0:0:0:
256,192,317214,1,8,0:0:0:0:
256,192,317316,1,8,0:0:0:0:
256,192,317520,1,0,0:0:0:0:
256,192,317622,1,8,0:0:0:0:
256,192,317724,1,8,0:0:0:0:
256,192,317826,1,0,0:0:0:0:
256,192,317928,1,0,0:0:0:0:
256,192,318132,1,0,0:0:0:0:
256,192,318234,1,8,0:0:0:0:
256,192,318336,1,0,0:0:0:0:
256,192,318438,1,8,0:0:0:0:
256,192,318540,1,8,0:0:0:0:
256,192,318643,1,0,0:0:0:0:
256,192,318694,1,8,0:0:0:0:
256,192,318847,1,0,0:0:0:0:
256,192,318949,1,8,0:0:0:0:
256,192,319051,1,8,0:0:0:0:
256,192,319153,1,0,0:0:0:0:
256,192,319255,1,8,0:0:0:0:
256,192,319306,1,0,0:0:0:0:
256,192,319401,1,8,0:0:0:0:
256,192,319459,1,8,0:0:0:0:
256,192,319555,1,8,0:0:0:0:
256,192,319612,1,0,0:0:0:0:
256,192,319765,1,8,0:0:0:0:
256,192,319867,1,0,0:0:0:0:
256,192,319969,1,0,0:0:0:0:
256,192,320071,1,8,0:0:0:0:
256,192,320173,1,0,0:0:0:0:
256,192,320275,1,0,0:0:0:0:
256,192,320377,1,0,0:0:0:0:
256,192,320492,1,8,0:0:0:0:
256,192,320530,1,8,0:0:0:0:
256,192,320645,1,0,0:0:0:0:
256,192,320683,1,0,0:0:0:0:
256,192,320798,1,8,0:0:0:0:
256,192,320836,1,8,0:0:0:0:
256,192,320951,1,0,0:0:0:0:
256,192,320989,1,0,0:0:0:0:
256,192,321257,1,0,0:0:0:0:
256,192,321296,1,0,0:0:0:0:
256,192,321410,1,8,0:0:0:0:
256,192,321449,1,8,0:0:0:0:
256,192,321602,1,0,0:0:0:0:
256,192,321755,1,8,0:0:0:0:
256,192,321908,1,8,0:0:0:0:
256,192,321984,1,8,0:0:0:0:
256,192,322061,1,0,0:0:0:0:
256,192,322214,1,0,0:0:0:0:
256,192,322520,1,8,0:0:0:0:
256,192,322826,1,0,0:0:0:0:
256,192,322928,1,8,0:0:0:0:
256,192,322979,1,8,0:0:0:0:
256,192,323030,1,0,0:0:0:0:
256,192,323132,1,8,0:0:0:0:
256,192,323234,1,8,0:0:0:0:
256,192,323336,1,0,0:0:0:0:
256,192,323438,1,8,0:0:0:0:
256,192,323540,1,0,0:0:0:0:
256,192,323592,1,0,0:0:0:0:
256,192,323643,1,0,0:0:0:0:
256,192,323745,1,8,0:0:0:0:
256,192,323847,1,0,0:0:0:0:
256,192,323949,1,0,0:0:0:0:
256,192,324051,1,8,0:0:0:0:
256,192,324204,1,8,0:0:0:0:
256,192,324255,1,0,0:0:0:0:
256,192,324357,1,8,0:0:0:0:
256,192,324459,1,8,0:0:0:0:
256,192,324561,1,8,0:0:0:0:
256,192,324663,1,0,0:0:0:0:
256,192,324816,1,0,0:0:0:0:
256,192,324867,1,0,0:0:0:0:
256,192,324969,1,8,0:0:0:0:
256,192,325071,1,0,0:0:0:0:
256,192,325122,1,8,0:0:0:0:
256,192,325275,1,4,0:0:0:0:
256,192,345675,5,8,0:0:0:0:
256,192,348075,1,0,0:0:0:0:
256,192,350475,1,8,0:0:0:0:
256,192,352875,1,0,0:0:0:0:
256,192,354075,1,8,0:0:0:0:
256,192,355275,1,0,0:0:0:0:
256,192,357675,1,0,0:0:0:0:
256,192,360075,1,8,0:0:0:0:
256,192,362475,1,0,0:0:0:0:
256,192,366675,1,0,0:0:0:0:
256,192,366975,1,8,0:0:0:0:
256,192,367125,1,0,0:0:0:0:
256,192,367275,1,0,0:0:0:0:
256,192,367425,1,8,0:0:0:0:
256,192,367500,1,8,0:0:0:0:
256,192,367575,1,8,0:0:0:0:
256,192,367650,1,0,0:0:0:0:
256,192,367725,1,8,0:0:0:0:
256,192,367800,1,8,0:0:0:0:
256,192,367875,1,0,0:0:0:0:
256,192,368025,1,0,0:0:0:0:
256,192,368175,1,8,0:0:0:0:
256,192,368325,1,0,0:0:0:0:
256,192,368625,1,0,0:0:0:0:
256,192,368775,1,8,0:0:0:0:
256,192,368925,1,8,0:0:0:0:
256,192,369000,1,8,0:0:0:0:
256,192,369075,1,0,0:0:0:0:
256,192,369225,1,0,0:0:0:0:
256,192,369525,1,8,0:0:0:0:
256,192,369675,1,8,0:0:0:0:
256,192,369750,1,8,0:0:0:0:
256,192,369825,1,0,0:0:0:0:
256,192,369975,1,8,0:0:0:0:
256,192,370125,1,8,0:0:0:0:
256,192,370200,1,0,0:0:0:0:
256,192,370275,1,8,0:0:0:0:
256,192,370350,1,8,0:0:0:0:
256,192,370425,1,0,0:0:0:0:
256,192,370575,1,8,0:0:0:0:
256,192,370725,1,8,0:0:0:0:
256,192,370800,1,8,0:0:0:0:
256,192,370875,1,0,0:0:0:0:
256,192,371025,1,0,0:0:0:0:
256,192,371175,1,8,0:0:0:0:
256,192,371325,1,8,0:0:0:0:
256,192,371400,1,0,0:0:0:0:
256,192,371475,1,0,0:0:0:0:
256,192,371625,1,0,0:0:0:0:
256,192,371775,1,8,0:0:0:0:
256,192,371925,1,0,0:0:0:0:
256,192,372075,1,0,0:0:0:0:
256,192,372225,1,8,0:0:0:0:
256,192,372375,1,8,0:0:0:0:
256,192,372450,1,0,0:0:0:0:
256,192,372525,1,8,0:0:0:0:
256,192,372600,1,0,0:0:0:0:
256,192,372675,1,8,0:0:0:0:
256,192,372750,1,8,0:0:0:0:
256,192,372825,1,0,0:0:0:0:
256,192,372900,1,0,0:0:0:0:
256,192,372975,1,8,0:0:0:0:
256,192,373125,1,0,0:0:0:0:
256,192,373425,1,0,0:0:0:0:
256,192,373475,1,0,0:0:0:0:
256,192,373525,1,0,0:0:0:0:
256,192,373575,1,8,0:0:0:0:
256,192,373725,1,0,0:0:0:0:
256,192,373875,1,0,0:0:0:0:
256,192,373950,1,0,0:0:0:0:
256,192,374025,1,8,0:0:0:0:
256,192,374100,1,0,0:0:0:0:
256,192,374175,1,8,0:0:0:0:
256,192,374325,1,8,0:0:0:0:
256,192,374475,1,0,0:0:0:0:
256,192,374625,1,0,0:0:0:0:
256,192,374700,1,8,0:0:0:0:
256,192,374925,1,8,0:0:0:0:
256,192,375075,1,8,0:0:0:0:
256,192,375150,1,8,0:0:0:0:
256,192,375225,1,0,0:0:0:0:
256,192,375375,1,8,0:0:0:0:
256,192,375525,1,8,0:0:0:0:
256,192,375600,1,0,0:0:0:0:
256,192,375675,1,8,0:0:0:0:
256,192,375750,1,8,0:0:0:0:
256,192,375825,1,8,0:0:0:0:
256,192,375900,1,0,0:0:0:0:
256,192,375975,1,8,0:0:0:0:
256,192,376050,1,8,0:0:0:0:
256,192,376125,1,0,0:0:0:0:
256,192,376275,1,12,0:0:0:0:
256,192,376875,1,8,0:0:0:0:
256,192,377025,1,0,0:0:0:0:
256,192,377175,1,8,0:0:0:0:
256,192,377250,1,0,0:0:0:0:
256,192,377325,1,8,0:0:0:0:
256,192,377400,1,8,0:0:0:0:
256,192,377475,1,0,0:0:0:0:
256,192,377675,1,0,0:0:0:0:
256,192,377875,1,8,0:0:0:0:
256,192,378225,1,0,0:0:0:0:
256,192,378375,1,8,0:0:0:0:
256,192,378450,1,0,0:0:0:0:
256,192,378525,1,8,0:0:0:0:
256,192,378600,1,8,0:0:0:0:
256,192,378675,1,0,0:0:0:0:
256,192,378825,1,0,0:0:0:0:
256,192,379125,1,8,0:0:0:0:
256,192,379275,1,8,0:0:0:0:
256,192,379350,1,8,0:0:0:0:
256,192,379425,1,0,0:0:0:0:
256,192,379575,1,0,0:0:0:0:
256,192,379725,1,8,0:0:0:0:
256,192,379800,1,0,0:0:0:0:
256,192,379875,1,8,0:0:0:0:
256,192,379950,1,8,0:0:0:0:
256,192,380025,1,0,0:0:0:0:
256,192,380175,1,8,0:0:0:0:
256,192,380325,1,8,0:0:0:0:
256,192,380400,1,8,0:0:0:0:
256,192,380475,1,0,0:0:0:0:
256,192,380625,1,0,0:0:0:0:
256,192,380775,1,0,0:0:0:0:
256,192,380925,1,8,0:0:0:0:
256,192,381000,1,8,0:0:0:0:
256,192,381075,1,0,0:0:0:0:
256,192,381225,1,0,0:0:0:0:
256,192,381375,1,8,0:0:0:0:
256,192,381525,1,0,0:0:0:0:
256,192,381675,1,0,0:0:0:0:
256,192,381825,1,8,0:0:0:0:
256,192,381975,1,8,0:0:0:0:
256,192,382050,1,0,0:0:0:0:
256,192,382125,1,8,0:0:0:0:
256,192,382200,1,8,0:0:0:0:
256,192,382275,1,0,0:0:0:0:
256,192,382425,1,0,0:0:0:0:
256,192,382575,1,8,0:0:0:0:
256,192,382725,1,0,0:0:0:0:
256,192,383025,1,0,0:0:0:0:
256,192,383075,1,0,0:0:0:0:
256,192,383125,1,0,0:0:0:0:
256,192,383175,1,8,0:0:0:0:
256,192,383325,1,0,0:0:0:0:
256,192,383475,1,0,0:0:0:0:
256,192,383550,1,0,0:0:0:0:
256,192,383625,1,8,0:0:0:0:
256,192,383700,1,8,0:0:0:0:
256,192,383775,1,8,0:0:0:0:
256,192,383925,1,8,0:0:0:0:
256,192,384075,1,0,0:0:0:0:
256,192,384225,1,0,0:0:0:0:
256,192,384300,1,8,0:0:0:0:
256,192,384525,1,8,0:0:0:0:
256,192,384675,1,8,0:0:0:0:
256,192,384750,1,8,0:0:0:0:
256,192,384825,1,0,0:0:0:0:
256,192,384975,1,8,0:0:0:0:
256,192,385125,1,8,0:0:0:0:
256,192,385200,1,0,0:0:0:0:
256,192,385275,1,8,0:0:0:0:
256,192,385350,1,8,0:0:0:0:
256,192,385425,1,8,0:0:0:0:
256,192,385500,1,0,0:0:0:0:
256,192,385575,1,0,0:0:0:0:
256,192,385650,1,8,0:0:0:0:
256,192,385725,1,8,0:0:0:0:
256,192,385800,1,8,0:0:0:0:
256,192,385875,1,0,0:0:0:0:
256,192,386175,1,0,0:0:0:0:
256,192,386325,1,0,0:0:0:0:
256,192,387075,1,8,0:0:0:0:
256,192,387225,1,8,0:0:0:0:
256,192,387300,1,0,0:0:0:0:
256,192,387375,1,8,0:0:0:0:
256,192,387450,1,8,0:0:0:0:
256,192,387525,1,0,0:0:0:0:
256,192,387675,1,8,0:0:0:0:
256,192,387825,1,0,0:0:0:0:
256,192,387975,1,8,0:0:0:0:
256,192,388275,1,8,0:0:0:0:
256,192,388425,1,8,0:0:0:0:
256,192,388725,1,8,0:0:0:0:
256,192,388875,1,8,0:0:0:0:
256,192,389475,1,8,0:0:0:0:
256,192,389625,1,8,0:0:0:0:
256,192,389700,1,0,0:0:0:0:
256,192,389775,1,8,0:0:0:0:
256,192,389850,1,8,0:0:0:0:
256,192,389925,1,8,0:0:0:0:
256,192,390075,1,8,0:0:0:0:
256,192,390150,1,0,0:0:0:0:
256,192,390225,1,8,0:0:0:0:
256,192,390300,1,8,0:0:0:0:
256,192,390375,1,0,0:0:0:0:
256,192,390675,1,0,0:0:0:0:
256,192,390900,1,8,0:0:0:0:
256,192,390975,1,0,0:0:0:0:
256,192,391125,1,0,0:0:0:0:
256,192,391275,1,8,0:0:0:0:
256,192,391425,1,0,0:0:0:0:
256,192,391500,1,8,0:0:0:0:
256,192,391725,1,0,0:0:0:0:
256,192,391875,1,8,0:0:0:0:
256,192,392325,1,0,0:0:0:0:
256,192,392475,1,0,0:0:0:0:
256,192,392625,1,8,0:0:0:0:
256,192,392775,1,0,0:0:0:0:
256,192,392850,1,8,0:0:0:0:
