osu file format v14

[General]
AudioFilename: audio.mp3
AudioLeadIn: 0
PreviewTime: 110718
Countdown: 0
SampleSet: None
StackLeniency: 0.2
Mode: 1
LetterboxInBreaks: 0
WidescreenStoryboard: 0

[Editor]
Bookmarks: 29718,95949,110718,136564,166103,232333,247102,298795
DistanceSpacing: 1
BeatDivisor: 4
GridSize: 32
TimelineZoom: 1.9432

[Metadata]
Title:Dependence Intension
TitleUnicode:Dependence Intension
Artist:ELECTROCUTICA
ArtistUnicode:ELECTROCUTICA
Creator:Genjuro
Version:Reliance
Source:
Tags:electronic japanese treow haluna piece of cipher+ c90 naturale swansong
BeatmapID:2336024
BeatmapSetID:1118387

[Difficulty]
HPDrainRate:5
CircleSize:2
OverallDifficulty:6
ApproachRate:10
SliderMultiplier:1.4
SliderTickRate:1

[Events]
//Background and Video events
0,0,"bg.jpg",0,-135
//Break Periods
2,232333,246652
//Storyboard Layer 0 (Background)
//Storyboard Layer 1 (Fail)
//Storyboard Layer 2 (Pass)
//Storyboard Layer 3 (Foreground)
//Storyboard Layer 4 (Overlay)
//Storyboard Sound Samples

[TimingPoints]
180,461.538461538462,4,1,0,100,1,0
29718,461.538461538462,5,1,0,100,1,0
31795,461.538461538462,5,1,0,100,1,0
33872,461.538461538462,5,1,0,100,1,0
35949,461.538461538462,5,1,0,100,1,0
38026,461.538461538462,5,1,0,100,1,0
40103,461.538461538462,5,1,0,100,1,0
42180,461.538461538462,5,1,0,100,1,0
44256,461.538461538462,5,1,0,100,1,0
46333,461.538461538462,5,1,0,100,1,0
48410,461.538461538462,5,1,0,100,1,0
50487,461.538461538462,5,1,0,100,1,0
52564,461.538461538462,5,1,0,100,1,0
54641,461.538461538462,5,1,0,100,1,0
56718,461.538461538462,5,1,0,100,1,0
58795,461.538461538462,5,1,0,100,1,0
60872,461.538461538462,5,1,0,100,1,0
62949,461.538461538462,5,1,0,100,1,0
65026,461.538461538462,5,1,0,100,1,0
67103,461.538461538462,5,1,0,100,1,0
69180,461.538461538462,5,1,0,100,1,0
71256,461.538461538462,5,1,0,100,1,0
73333,461.538461538462,5,1,0,100,1,0
75410,461.538461538462,5,1,0,100,1,0
77487,461.538461538462,5,1,0,100,1,0
79564,461.538461538462,5,1,0,100,1,0
81641,461.538461538462,5,1,0,100,1,0
83718,461.538461538462,5,1,0,100,1,0
85795,461.538461538462,5,1,0,100,1,0
87872,461.538461538462,5,1,0,100,1,0
89949,461.538461538462,5,1,0,100,1,0
92026,461.538461538462,5,1,0,100,1,0
94103,461.538461538462,4,1,0,100,1,0
95949,461.538461538462,4,1,0,100,1,0
112333,461.538461538462,4,1,0,100,1,0
113949,461.538461538462,4,1,0,100,1,0
115564,461.538461538462,4,1,0,100,1,0
117180,461.538461538462,4,1,0,100,1,0
118795,461.538461538462,4,1,0,100,1,0
120410,461.538461538462,4,1,0,100,1,0
122026,461.538461538462,4,1,0,100,1,0
123641,461.538461538462,4,1,0,100,1,1
125256,461.538461538462,4,1,0,100,1,1
126872,461.538461538462,4,1,0,100,1,1
128487,461.538461538462,4,1,0,100,1,1
130103,461.538461538462,4,1,0,100,1,1
131718,461.538461538462,4,1,0,100,1,1
133333,461.538461538462,4,1,0,100,1,1
134949,461.538461538462,4,1,0,100,1,1
136564,461.538461538462,4,1,0,100,1,0
166103,461.538461538462,5,1,0,100,1,0
168180,461.538461538462,5,1,0,100,1,0
170256,461.538461538462,5,1,0,100,1,0
172333,461.538461538462,5,1,0,100,1,0
174410,461.538461538462,5,1,0,100,1,0
176487,461.538461538462,5,1,0,100,1,0
178564,461.538461538462,5,1,0,100,1,0
180641,461.538461538462,5,1,0,100,1,0
182718,461.538461538462,5,1,0,100,1,0
184795,461.538461538462,5,1,0,100,1,0
186872,461.538461538462,5,1,0,100,1,0
188949,461.538461538462,5,1,0,100,1,0
191026,461.538461538462,5,1,0,100,1,0
193103,461.538461538462,5,1,0,100,1,0
195180,461.538461538462,5,1,0,100,1,0
197256,461.538461538462,5,1,0,100,1,0
199333,461.538461538462,5,1,0,100,1,0
201410,461.538461538462,5,1,0,100,1,0
203487,461.538461538462,5,1,0,100,1,0
205564,461.538461538462,5,1,0,100,1,0
207641,461.538461538462,5,1,0,100,1,0
209718,461.538461538462,5,1,0,100,1,0
211795,461.538461538462,5,1,0,100,1,0
213872,461.538461538462,5,1,0,100,1,0
215949,461.538461538462,5,1,0,100,1,0
218026,461.538461538462,5,1,0,100,1,0
220103,461.538461538462,5,1,0,100,1,0
222180,461.538461538462,5,1,0,100,1,0
224256,461.538461538462,5,1,0,100,1,0
226333,461.538461538462,5,1,0,100,1,0
228410,461.538461538462,5,1,0,100,1,0
230487,461.538461538462,4,1,0,100,1,0
232333,461.538461538462,4,1,0,100,1,0
248718,461.538461538462,4,1,0,100,1,0
250333,461.538461538462,4,1,0,100,1,0
251949,461.538461538462,4,1,0,100,1,0
253564,461.538461538462,4,1,0,100,1,0
255180,461.538461538462,4,1,0,100,1,0
256795,461.538461538462,4,1,0,100,1,0
258410,461.538461538462,4,1,0,100,1,0
260026,461.538461538462,4,1,0,100,1,0
261641,461.538461538462,4,1,0,100,1,0
263256,461.538461538462,4,1,0,100,1,0
264872,461.538461538462,4,1,0,100,1,0
266487,461.538461538462,4,1,0,100,1,0
268103,461.538461538462,4,1,0,100,1,0
269718,461.538461538462,4,1,0,100,1,0
271333,461.538461538462,4,1,0,100,1,0
272949,461.538461538462,4,1,0,100,1,0
274564,461.538461538462,4,1,0,100,1,0
276180,461.538461538462,4,1,0,100,1,0
277795,461.538461538462,4,1,0,100,1,0
279410,461.538461538462,4,1,0,100,1,0
281026,461.538461538462,4,1,0,100,1,0
282641,461.538461538462,4,1,0,100,1,0
284256,461.538461538462,4,1,0,100,1,0
285872,461.538461538462,4,1,0,100,1,1
287487,461.538461538462,4,1,0,100,1,1
289103,461.538461538462,4,1,0,100,1,1
290718,461.538461538462,4,1,0,100,1,1
292333,461.538461538462,4,1,0,100,1,1
293949,461.538461538462,4,1,0,100,1,1
295564,461.538461538462,4,1,0,100,1,1
297180,461.538461538462,4,1,0,100,1,1
298795,461.538461538462,4,1,0,100,1,0

[HitObjects]
256,192,14949,5,0,0:0:0:0:
256,192,15872,1,8,0:0:0:0:
256,192,16564,1,8,0:0:0:0:
256,192,17256,1,0,0:0:0:0:
256,192,17487,1,0,0:0:0:0:
256,192,17603,1,0,0:0:0:0:
256,192,17718,1,8,0:0:0:0:
256,192,18641,1,0,0:0:0:0:
256,192,19564,1,8,0:0:0:0:
256,192,20256,1,8,0:0:0:0:
256,192,20718,1,0,0:0:0:0:
256,192,20949,1,0,0:0:0:0:
256,192,21180,1,0,0:0:0:0:
256,192,21295,1,0,0:0:0:0:
256,192,21410,1,8,0:0:0:0:
256,192,22333,1,0,0:0:0:0:
256,192,23256,1,8,0:0:0:0:
256,192,23949,1,8,0:0:0:0:
256,192,24641,1,0,0:0:0:0:
256,192,24872,1,0,0:0:0:0:
256,192,24987,1,0,0:0:0:0:
256,192,25103,1,8,0:0:0:0:
256,192,26026,1,0,0:0:0:0:
256,192,26949,1,8,0:0:0:0:
256,192,27641,1,8,0:0:0:0:
256,192,28103,1,0,0:0:0:0:
256,192,28333,1,0,0:0:0:0:
256,192,28795,1,0,0:0:0:0:
256,192,28910,1,0,0:0:0:0:
256,192,29026,1,0,0:0:0:0:
256,192,29141,1,0,0:0:0:0:
256,192,29256,1,8,0:0:0:0:
256,192,29718,1,4,0:0:0:0:
256,192,29948,1,0,0:0:0:0:
256,192,30179,1,8,0:0:0:0:
256,192,30525,1,0,0:0:0:0:
256,192,30756,1,0,0:0:0:0:
256,192,31102,1,8,0:0:0:0:
256,192,31333,1,0,0:0:0:0:
256,192,31448,1,8,0:0:0:0:
256,192,31679,1,8,0:0:0:0:
256,192,31795,1,0,0:0:0:0:
256,192,32025,1,0,0:0:0:0:
256,192,32256,1,8,0:0:0:0:
256,192,32602,1,0,0:0:0:0:
256,192,32833,1,0,0:0:0:0:
256,192,33179,1,8,0:0:0:0:
256,192,33295,1,0,0:0:0:0:
256,192,33410,1,0,0:0:0:0:
256,192,33525,1,8,0:0:0:0:
256,192,33641,1,0,0:0:0:0:
256,192,33756,1,8,0:0:0:0:
256,192,33872,1,0,0:0:0:0:
256,192,34102,1,0,0:0:0:0:
256,192,34333,1,8,0:0:0:0:
256,192,34679,1,0,0:0:0:0:
256,192,34910,1,0,0:0:0:0:
256,192,35256,1,8,0:0:0:0:
256,192,35372,1,0,0:0:0:0:
256,192,35487,1,0,0:0:0:0:
256,192,35602,1,8,0:0:0:0:
256,192,35833,1,8,0:0:0:0:
256,192,35949,1,0,0:0:0:0:
256,192,36064,1,0,0:0:0:0:
256,192,36179,1,0,0:0:0:0:
256,192,36410,1,8,0:0:0:0:
256,192,36756,1,0,0:0:0:0:
256,192,36987,1,0,0:0:0:0:
256,192,37333,1,8,0:0:0:0:
256,192,37449,1,8,0:0:0:0:
256,192,37564,1,8,0:0:0:0:
256,192,37679,1,0,0:0:0:0:
256,192,37795,1,8,0:0:0:0:
256,192,37910,1,8,0:0:0:0:
256,192,38026,1,0,0:0:0:0:
256,192,38256,1,0,0:0:0:0:
256,192,38487,1,8,0:0:0:0:
256,192,38833,1,0,0:0:0:0:
256,192,39064,1,0,0:0:0:0:
256,192,39410,1,8,0:0:0:0:
256,192,39641,1,0,0:0:0:0:
256,192,39756,1,8,0:0:0:0:
256,192,39987,1,8,0:0:0:0:
256,192,40103,1,0,0:0:0:0:
256,192,40333,1,0,0:0:0:0:
256,192,40564,1,8,0:0:0:0:
256,192,40910,1,0,0:0:0:0:
256,192,41141,1,0,0:0:0:0:
256,192,41487,1,8,0:0:0:0:
256,192,41603,1,0,0:0:0:0:
256,192,41718,1,0,0:0:0:0:
256,192,41833,1,8,0:0:0:0:
256,192,41949,1,0,0:0:0:0:
256,192,42064,1,8,0:0:0:0:
256,192,42180,1,0,0:0:0:0:
256,192,42410,1,0,0:0:0:0:
256,192,42641,1,8,0:0:0:0:
256,192,42987,1,0,0:0:0:0:
256,192,43218,1,0,0:0:0:0:
256,192,43564,1,8,0:0:0:0:
256,192,43680,1,0,0:0:0:0:
256,192,43795,1,0,0:0:0:0:
256,192,43910,1,8,0:0:0:0:
256,192,44141,1,8,0:0:0:0:
256,192,44371,1,0,0:0:0:0:
256,192,44486,1,0,0:0:0:0:
256,192,44717,1,8,0:0:0:0:
256,192,45063,1,0,0:0:0:0:
256,192,45294,1,0,0:0:0:0:
256,192,45640,1,0,0:0:0:0:
256,192,45756,1,0,0:0:0:0:
256,192,45871,1,8,0:0:0:0:
256,192,45986,1,0,0:0:0:0:
256,192,46102,1,8,0:0:0:0:
256,192,46333,1,4,0:0:0:0:
256,192,46563,1,0,0:0:0:0:
256,192,46794,1,8,0:0:0:0:
256,192,47140,1,0,0:0:0:0:
256,192,47371,1,0,0:0:0:0:
256,192,47486,1,0,0:0:0:0:
256,192,47717,1,8,0:0:0:0:
256,192,48063,1,8,0:0:0:0:
256,192,48179,1,8,0:0:0:0:
256,192,48410,1,0,0:0:0:0:
256,192,48640,1,0,0:0:0:0:
256,192,48871,1,8,0:0:0:0:
256,192,49217,1,0,0:0:0:0:
256,192,49448,1,0,0:0:0:0:
256,192,49679,1,0,0:0:0:0:
256,192,49794,1,8,0:0:0:0:
256,192,49910,1,8,0:0:0:0:
256,192,50140,1,8,0:0:0:0:
256,192,50256,1,8,0:0:0:0:
256,192,50371,1,8,0:0:0:0:
256,192,50487,1,0,0:0:0:0:
256,192,50717,1,0,0:0:0:0:
256,192,50948,1,8,0:0:0:0:
256,192,51294,1,0,0:0:0:0:
256,192,51525,1,0,0:0:0:0:
256,192,51640,1,0,0:0:0:0:
256,192,51871,1,8,0:0:0:0:
256,192,52217,1,8,0:0:0:0:
256,192,52333,1,8,0:0:0:0:
256,192,52679,1,0,0:0:0:0:
256,192,52794,1,0,0:0:0:0:
256,192,53025,1,8,0:0:0:0:
256,192,53371,1,0,0:0:0:0:
256,192,53602,1,0,0:0:0:0:
256,192,53833,1,0,0:0:0:0:
256,192,53948,1,8,0:0:0:0:
256,192,54064,1,8,0:0:0:0:
256,192,54294,1,8,0:0:0:0:
256,192,54410,1,8,0:0:0:0:
256,192,54525,1,8,0:0:0:0:
256,192,54641,1,0,0:0:0:0:
256,192,54871,1,0,0:0:0:0:
256,192,55102,1,8,0:0:0:0:
256,192,55448,1,0,0:0:0:0:
256,192,55679,1,0,0:0:0:0:
256,192,55794,1,0,0:0:0:0:
256,192,56025,1,8,0:0:0:0:
256,192,56371,1,8,0:0:0:0:
256,192,56487,1,8,0:0:0:0:
256,192,56718,1,0,0:0:0:0:
256,192,56948,1,0,0:0:0:0:
256,192,57179,1,8,0:0:0:0:
256,192,57525,1,0,0:0:0:0:
256,192,57756,1,0,0:0:0:0:
256,192,57987,1,0,0:0:0:0:
256,192,58102,1,8,0:0:0:0:
256,192,58218,1,8,0:0:0:0:
256,192,58448,1,8,0:0:0:0:
256,192,58564,1,8,0:0:0:0:
256,192,58795,1,0,0:0:0:0:
256,192,59025,1,0,0:0:0:0:
256,192,59256,1,8,0:0:0:0:
256,192,59602,1,0,0:0:0:0:
256,192,59833,1,0,0:0:0:0:
256,192,59948,1,0,0:0:0:0:
256,192,60179,1,8,0:0:0:0:
256,192,60525,1,8,0:0:0:0:
256,192,60641,1,8,0:0:0:0:
256,192,60756,1,0,0:0:0:0:
256,192,60872,1,0,0:0:0:0:
256,192,61333,8,0,62718,0:0:0:0:
256,192,62949,5,4,0:0:0:0:
256,192,63179,1,0,0:0:0:0:
256,192,63410,1,8,0:0:0:0:
256,192,63756,1,0,0:0:0:0:
256,192,63987,1,0,0:0:0:0:
256,192,64102,1,0,0:0:0:0:
256,192,64333,1,8,0:0:0:0:
256,192,64564,1,0,0:0:0:0:
256,192,64679,1,8,0:0:0:0:
256,192,64910,1,8,0:0:0:0:
256,192,65026,1,0,0:0:0:0:
256,192,65256,1,0,0:0:0:0:
256,192,65487,1,8,0:0:0:0:
256,192,65833,1,0,0:0:0:0:
256,192,66064,1,0,0:0:0:0:
256,192,66295,1,0,0:0:0:0:
256,192,66410,1,8,0:0:0:0:
256,192,66526,1,0,0:0:0:0:
256,192,66641,1,0,0:0:0:0:
256,192,66756,1,8,0:0:0:0:
256,192,66872,1,0,0:0:0:0:
256,192,66987,1,8,0:0:0:0:
256,192,67103,1,0,0:0:0:0:
256,192,67333,1,0,0:0:0:0:
256,192,67564,1,8,0:0:0:0:
256,192,67910,1,0,0:0:0:0:
256,192,68141,1,0,0:0:0:0:
256,192,68256,1,0,0:0:0:0:
256,192,68487,1,8,0:0:0:0:
256,192,68603,1,0,0:0:0:0:
256,192,68718,1,0,0:0:0:0:
256,192,68833,1,8,0:0:0:0:
256,192,69064,1,8,0:0:0:0:
256,192,69180,1,0,0:0:0:0:
256,192,69410,1,0,0:0:0:0:
256,192,69641,1,8,0:0:0:0:
256,192,69987,1,0,0:0:0:0:
256,192,70218,1,0,0:0:0:0:
256,192,70449,1,0,0:0:0:0:
256,192,70564,1,8,0:0:0:0:
256,192,70680,1,0,0:0:0:0:
256,192,70795,1,0,0:0:0:0:
256,192,70910,1,8,0:0:0:0:
256,192,71026,1,0,0:0:0:0:
256,192,71141,1,8,0:0:0:0:
256,192,71256,1,4,0:0:0:0:
256,192,71486,1,0,0:0:0:0:
256,192,71717,1,8,0:0:0:0:
256,192,72063,1,0,0:0:0:0:
256,192,72294,1,0,0:0:0:0:
256,192,72409,1,0,0:0:0:0:
256,192,72640,1,8,0:0:0:0:
256,192,72871,1,0,0:0:0:0:
256,192,72986,1,8,0:0:0:0:
256,192,73217,1,8,0:0:0:0:
256,192,73333,1,0,0:0:0:0:
256,192,73563,1,0,0:0:0:0:
256,192,73794,1,8,0:0:0:0:
256,192,74140,1,0,0:0:0:0:
256,192,74371,1,0,0:0:0:0:
256,192,74602,1,0,0:0:0:0:
256,192,74717,1,8,0:0:0:0:
256,192,74833,1,0,0:0:0:0:
256,192,74948,1,0,0:0:0:0:
256,192,75063,1,8,0:0:0:0:
256,192,75179,1,0,0:0:0:0:
256,192,75294,1,8,0:0:0:0:
256,192,75410,1,0,0:0:0:0:
256,192,75640,1,0,0:0:0:0:
256,192,75871,1,8,0:0:0:0:
256,192,76217,1,0,0:0:0:0:
256,192,76448,1,0,0:0:0:0:
256,192,76563,1,0,0:0:0:0:
256,192,76794,1,8,0:0:0:0:
256,192,76910,1,0,0:0:0:0:
256,192,77025,1,0,0:0:0:0:
256,192,77140,1,8,0:0:0:0:
256,192,77371,1,8,0:0:0:0:
256,192,79564,1,4,0:0:0:0:
256,192,79794,1,0,0:0:0:0:
256,192,80025,1,8,0:0:0:0:
256,192,80256,1,0,0:0:0:0:
256,192,80371,1,0,0:0:0:0:
256,192,80487,1,0,0:0:0:0:
256,192,80602,1,0,0:0:0:0:
256,192,80717,1,0,0:0:0:0:
256,192,80948,1,8,0:0:0:0:
256,192,81294,1,8,0:0:0:0:
256,192,81410,1,8,0:0:0:0:
256,192,81641,1,0,0:0:0:0:
256,192,81871,1,0,0:0:0:0:
256,192,82102,1,8,0:0:0:0:
256,192,82333,1,0,0:0:0:0:
256,192,82448,1,0,0:0:0:0:
256,192,82564,1,0,0:0:0:0:
256,192,82679,1,0,0:0:0:0:
256,192,82794,1,8,0:0:0:0:
256,192,83141,1,8,0:0:0:0:
256,192,83487,1,8,0:0:0:0:
256,192,83718,1,0,0:0:0:0:
256,192,83948,1,0,0:0:0:0:
256,192,84179,1,8,0:0:0:0:
256,192,84410,1,0,0:0:0:0:
256,192,84525,1,0,0:0:0:0:
256,192,84641,1,0,0:0:0:0:
256,192,84756,1,0,0:0:0:0:
256,192,84871,1,0,0:0:0:0:
256,192,85102,1,8,0:0:0:0:
256,192,85448,1,8,0:0:0:0:
256,192,85564,1,8,0:0:0:0:
256,192,85910,1,0,0:0:0:0:
256,192,86025,1,0,0:0:0:0:
256,192,86256,1,8,0:0:0:0:
256,192,86602,1,0,0:0:0:0:
256,192,86718,1,0,0:0:0:0:
256,192,86833,1,0,0:0:0:0:
256,192,86948,1,8,0:0:0:0:
256,192,87064,1,0,0:0:0:0:
256,192,87295,1,8,0:0:0:0:
256,192,87641,1,8,0:0:0:0:
256,192,87872,1,4,0:0:0:0:
256,192,89949,1,0,0:0:0:0:
256,192,90064,1,0,0:0:0:0:
256,192,90295,1,0,0:0:0:0:
256,192,90525,1,0,0:0:0:0:
256,192,90756,1,0,0:0:0:0:
256,192,90987,1,0,0:0:0:0:
256,192,91218,1,0,0:0:0:0:
256,192,91333,1,0,0:0:0:0:
256,192,91449,1,0,0:0:0:0:
256,192,91679,1,0,0:0:0:0:
256,192,92026,1,8,0:0:0:0:
256,192,92141,1,8,0:0:0:0:
256,192,92372,1,8,0:0:0:0:
256,192,92602,1,8,0:0:0:0:
256,192,92833,1,8,0:0:0:0:
256,192,93064,1,8,0:0:0:0:
256,192,93295,1,8,0:0:0:0:
256,192,93410,1,8,0:0:0:0:
256,192,93526,1,8,0:0:0:0:
256,192,93756,1,8,0:0:0:0:
256,192,94103,1,0,0:0:0:0:
256,192,94256,1,0,0:0:0:0:
256,192,94410,1,8,0:0:0:0:
256,192,94564,1,0,0:0:0:0:
256,192,94718,1,0,0:0:0:0:
256,192,94872,1,8,0:0:0:0:
256,192,95026,1,0,0:0:0:0:
256,192,95179,1,8,0:0:0:0:
256,192,95333,1,8,0:0:0:0:
256,192,95487,1,8,0:0:0:0:
256,192,95949,1,4,0:0:0:0:
256,192,96641,1,0,0:0:0:0:
256,192,97564,1,8,0:0:0:0:
256,192,98949,1,0,0:0:0:0:
256,192,99179,1,8,0:0:0:0:
256,192,99641,1,0,0:0:0:0:
256,192,100333,1,0,0:0:0:0:
256,192,101256,1,8,0:0:0:0:
256,192,101487,1,0,0:0:0:0:
256,192,101833,1,0,0:0:0:0:
256,192,102179,1,0,0:0:0:0:
256,192,102872,1,8,0:0:0:0:
256,192,103333,1,0,0:0:0:0:
256,192,104025,1,0,0:0:0:0:
256,192,104949,1,8,0:0:0:0:
256,192,105410,1,0,0:0:0:0:
256,192,105872,1,0,0:0:0:0:
256,192,106333,1,0,0:0:0:0:
256,192,106564,1,8,0:0:0:0:
256,192,107025,1,0,0:0:0:0:
256,192,107718,1,0,0:0:0:0:
256,192,108410,1,0,0:0:0:0:
256,192,108641,1,0,0:0:0:0:
256,192,108872,1,8,0:0:0:0:
256,192,109564,1,8,0:0:0:0:
256,192,110718,1,4,0:0:0:0:
256,192,111179,1,8,0:0:0:0:
256,192,111525,1,0,0:0:0:0:
256,192,111756,1,0,0:0:0:0:
256,192,111872,1,0,0:0:0:0:
256,192,112102,1,8,0:0:0:0:
256,192,112218,1,8,0:0:0:0:
256,192,112333,1,0,0:0:0:0:
256,192,112794,1,8,0:0:0:0:
256,192,113140,1,0,0:0:0:0:
256,192,113371,1,0,0:0:0:0:
256,192,113486,1,0,0:0:0:0:
256,192,113717,1,8,0:0:0:0:
256,192,113949,1,0,0:0:0:0:
256,192,114410,1,8,0:0:0:0:
256,192,114756,1,0,0:0:0:0:
256,192,114987,1,0,0:0:0:0:
256,192,115102,1,0,0:0:0:0:
256,192,115333,1,8,0:0:0:0:
256,192,115449,1,8,0:0:0:0:
256,192,115564,1,0,0:0:0:0:
256,192,116025,1,8,0:0:0:0:
256,192,116371,1,8,0:0:0:0:
256,192,116487,1,0,0:0:0:0:
256,192,116717,1,0,0:0:0:0:
256,192,116833,1,0,0:0:0:0:
256,192,116948,1,8,0:0:0:0:
256,192,117180,1,0,0:0:0:0:
256,192,117641,1,8,0:0:0:0:
256,192,117987,1,0,0:0:0:0:
256,192,118218,1,0,0:0:0:0:
256,192,118333,1,0,0:0:0:0:
256,192,118564,1,8,0:0:0:0:
256,192,118680,1,8,0:0:0:0:
256,192,118795,1,0,0:0:0:0:
256,192,119256,1,8,0:0:0:0:
256,192,119602,1,0,0:0:0:0:
256,192,119833,1,0,0:0:0:0:
256,192,119948,1,0,0:0:0:0:
256,192,120179,1,8,0:0:0:0:
256,192,120410,1,0,0:0:0:0:
256,192,120871,1,8,0:0:0:0:
256,192,121217,1,0,0:0:0:0:
256,192,121448,1,0,0:0:0:0:
256,192,121563,1,0,0:0:0:0:
256,192,121794,1,8,0:0:0:0:
256,192,121910,1,8,0:0:0:0:
256,192,122026,1,0,0:0:0:0:
256,192,122487,1,8,0:0:0:0:
256,192,122833,1,8,0:0:0:0:
256,192,122949,1,0,0:0:0:0:
256,192,123064,1,0,0:0:0:0:
256,192,123179,1,0,0:0:0:0:
256,192,123295,1,0,0:0:0:0:
256,192,123410,1,8,0:0:0:0:
256,192,123641,1,4,0:0:0:0:
256,192,124102,1,8,0:0:0:0:
256,192,124333,1,0,0:0:0:0:
256,192,124448,1,8,0:0:0:0:
256,192,124679,1,0,0:0:0:0:
256,192,124794,1,0,0:0:0:0:
256,192,125025,1,8,0:0:0:0:
256,192,125141,1,8,0:0:0:0:
256,192,125256,1,0,0:0:0:0:
256,192,125371,1,8,0:0:0:0:
256,192,125486,1,0,0:0:0:0:
256,192,125717,1,8,0:0:0:0:
256,192,125948,1,0,0:0:0:0:
256,192,126063,1,8,0:0:0:0:
256,192,126294,1,8,0:0:0:0:
256,192,126409,1,0,0:0:0:0:
256,192,126640,1,8,0:0:0:0:
256,192,126756,1,8,0:0:0:0:
256,192,126872,1,0,0:0:0:0:
256,192,127333,1,8,0:0:0:0:
256,192,127564,1,0,0:0:0:0:
256,192,127679,1,8,0:0:0:0:
256,192,127910,1,0,0:0:0:0:
256,192,128025,1,0,0:0:0:0:
256,192,128256,1,8,0:0:0:0:
256,192,128372,1,8,0:0:0:0:
256,192,128487,1,0,0:0:0:0:
256,192,128717,1,0,0:0:0:0:
256,192,128948,1,8,0:0:0:0:
256,192,129063,1,0,0:0:0:0:
256,192,129294,1,8,0:0:0:0:
256,192,129410,1,0,0:0:0:0:
256,192,129525,1,8,0:0:0:0:
256,192,129640,1,0,0:0:0:0:
256,192,129756,1,0,0:0:0:0:
256,192,129871,1,8,0:0:0:0:
256,192,130103,1,0,0:0:0:0:
256,192,130564,1,8,0:0:0:0:
256,192,130795,1,0,0:0:0:0:
256,192,130910,1,8,0:0:0:0:
256,192,131141,1,0,0:0:0:0:
256,192,131256,1,0,0:0:0:0:
256,192,131487,1,8,0:0:0:0:
256,192,131603,1,8,0:0:0:0:
256,192,131718,1,0,0:0:0:0:
256,192,131833,1,8,0:0:0:0:
256,192,131948,1,0,0:0:0:0:
256,192,132179,1,8,0:0:0:0:
256,192,132410,1,0,0:0:0:0:
256,192,132525,1,8,0:0:0:0:
256,192,132756,1,8,0:0:0:0:
256,192,132871,1,0,0:0:0:0:
256,192,133102,1,8,0:0:0:0:
256,192,133218,1,8,0:0:0:0:
256,192,133333,1,0,0:0:0:0:
256,192,133794,1,8,0:0:0:0:
256,192,134025,1,0,0:0:0:0:
256,192,134140,1,8,0:0:0:0:
256,192,134371,1,0,0:0:0:0:
256,192,134486,1,0,0:0:0:0:
256,192,134717,1,8,0:0:0:0:
256,192,134833,1,0,0:0:0:0:
256,192,134949,1,8,0:0:0:0:
256,192,135179,1,0,0:0:0:0:
256,192,135295,1,8,0:0:0:0:
256,192,135525,1,0,0:0:0:0:
256,192,135756,1,8,0:0:0:0:
256,192,135872,1,0,0:0:0:0:
256,192,136102,1,12,0:0:0:0:
256,192,136564,1,0,0:0:0:0:
256,192,137025,1,0,0:0:0:0:
256,192,137487,1,0,0:0:0:0:
256,192,137948,1,0,0:0:0:0:
256,192,138410,1,0,0:0:0:0:
256,192,138871,1,0,0:0:0:0:
256,192,139333,1,0,0:0:0:0:
256,192,139794,1,0,0:0:0:0:
256,192,140256,1,0,0:0:0:0:
256,192,140717,1,0,0:0:0:0:
256,192,141179,1,0,0:0:0:0:
256,192,141640,1,0,0:0:0:0:
256,192,142102,1,0,0:0:0:0:
256,192,142564,1,0,0:0:0:0:
256,192,143025,1,0,0:0:0:0:
256,192,143487,1,0,0:0:0:0:
256,192,143948,1,0,0:0:0:0:
256,192,144179,1,0,0:0:0:0:
256,192,144410,1,8,0:0:0:0:
256,192,144525,1,8,0:0:0:0:
256,192,144756,1,0,0:0:0:0:
256,192,144871,1,0,0:0:0:0:
256,192,145333,1,8,0:0:0:0:
256,192,145679,1,0,0:0:0:0:
256,192,145794,1,0,0:0:0:0:
256,192,146025,1,0,0:0:0:0:
256,192,146256,1,8,0:0:0:0:
256,192,146371,1,8,0:0:0:0:
256,192,146602,1,0,0:0:0:0:
256,192,146717,1,0,0:0:0:0:
256,192,147179,1,8,0:0:0:0:
256,192,147525,1,0,0:0:0:0:
256,192,147640,1,0,0:0:0:0:
256,192,147871,1,0,0:0:0:0:
256,192,148102,1,8,0:0:0:0:
256,192,148217,1,8,0:0:0:0:
256,192,148448,1,0,0:0:0:0:
256,192,148564,1,0,0:0:0:0:
256,192,149025,1,8,0:0:0:0:
256,192,149371,1,0,0:0:0:0:
256,192,149487,1,0,0:0:0:0:
256,192,149717,1,0,0:0:0:0:
256,192,149948,1,8,0:0:0:0:
256,192,150064,1,8,0:0:0:0:
256,192,150294,1,0,0:0:0:0:
256,192,150410,1,0,0:0:0:0:
256,192,150871,1,8,0:0:0:0:
256,192,151217,1,0,0:0:0:0:
256,192,151333,1,0,0:0:0:0:
256,192,151564,1,0,0:0:0:0:
256,192,151794,1,8,0:0:0:0:
256,192,152256,1,0,0:0:0:0:
256,192,152487,1,0,0:0:0:0:
256,192,152717,1,8,0:0:0:0:
256,192,153064,1,0,0:0:0:0:
256,192,153179,1,0,0:0:0:0:
256,192,153410,1,0,0:0:0:0:
256,192,153640,1,8,0:0:0:0:
256,192,154102,1,0,0:0:0:0:
256,192,154333,1,0,0:0:0:0:
256,192,154564,1,8,0:0:0:0:
256,192,154910,1,0,0:0:0:0:
256,192,155025,1,0,0:0:0:0:
256,192,155256,1,0,0:0:0:0:
256,192,155487,1,8,0:0:0:0:
256,192,155948,1,0,0:0:0:0:
256,192,156179,1,0,0:0:0:0:
256,192,156410,1,8,0:0:0:0:
256,192,156756,1,0,0:0:0:0:
256,192,156871,1,0,0:0:0:0:
256,192,157102,1,0,0:0:0:0:
256,192,157333,1,8,0:0:0:0:
256,192,157794,1,0,0:0:0:0:
256,192,158025,1,0,0:0:0:0:
256,192,158256,1,8,0:0:0:0:
256,192,158717,1,0,0:0:0:0:
256,192,159179,1,8,0:0:0:0:
256,192,159410,1,0,0:0:0:0:
256,192,159871,1,0,0:0:0:0:
256,192,160102,1,8,0:0:0:0:
256,192,160564,1,0,0:0:0:0:
256,192,161025,1,8,0:0:0:0:
256,192,161487,1,0,0:0:0:0:
256,192,161717,1,0,0:0:0:0:
256,192,161948,1,8,0:0:0:0:
256,192,162410,1,0,0:0:0:0:
256,192,162871,1,8,0:0:0:0:
256,192,163102,1,0,0:0:0:0:
256,192,163564,1,0,0:0:0:0:
256,192,163794,1,8,0:0:0:0:
256,192,164256,1,0,0:0:0:0:
256,192,164717,1,8,0:0:0:0:
256,192,165179,8,0,165640,0:0:0:0:
256,192,165871,5,8,0:0:0:0:
256,192,166103,1,4,0:0:0:0:
256,192,166333,1,0,0:0:0:0:
256,192,166564,1,8,0:0:0:0:
256,192,166910,1,0,0:0:0:0:
256,192,167141,1,0,0:0:0:0:
256,192,167487,1,8,0:0:0:0:
256,192,167833,1,8,0:0:0:0:
256,192,168180,1,0,0:0:0:0:
256,192,168410,1,0,0:0:0:0:
256,192,168641,1,8,0:0:0:0:
256,192,168756,1,0,0:0:0:0:
256,192,168987,1,0,0:0:0:0:
256,192,169218,1,0,0:0:0:0:
256,192,169564,1,8,0:0:0:0:
256,192,169910,1,8,0:0:0:0:
256,192,170256,1,0,0:0:0:0:
256,192,170486,1,0,0:0:0:0:
256,192,170717,1,8,0:0:0:0:
256,192,171063,1,0,0:0:0:0:
256,192,171294,1,0,0:0:0:0:
256,192,171640,1,8,0:0:0:0:
256,192,171986,1,8,0:0:0:0:
256,192,172217,1,8,0:0:0:0:
256,192,172448,1,0,0:0:0:0:
256,192,172563,1,0,0:0:0:0:
256,192,172794,1,8,0:0:0:0:
256,192,173140,1,0,0:0:0:0:
256,192,173371,1,0,0:0:0:0:
256,192,173717,1,8,0:0:0:0:
256,192,173833,1,0,0:0:0:0:
256,192,173948,1,8,0:0:0:0:
256,192,174063,1,8,0:0:0:0:
256,192,174294,1,8,0:0:0:0:
256,192,174410,1,0,0:0:0:0:
256,192,174640,1,0,0:0:0:0:
256,192,174871,1,8,0:0:0:0:
256,192,175217,1,0,0:0:0:0:
256,192,175448,1,0,0:0:0:0:
256,192,175794,1,8,0:0:0:0:
256,192,176140,1,8,0:0:0:0:
256,192,176487,1,0,0:0:0:0:
256,192,176717,1,0,0:0:0:0:
256,192,176948,1,8,0:0:0:0:
256,192,177063,1,0,0:0:0:0:
256,192,177294,1,0,0:0:0:0:
256,192,177525,1,0,0:0:0:0:
256,192,177871,1,8,0:0:0:0:
256,192,178217,1,8,0:0:0:0:
256,192,178564,1,0,0:0:0:0:
256,192,178794,1,0,0:0:0:0:
256,192,179025,1,8,0:0:0:0:
256,192,179371,1,0,0:0:0:0:
256,192,179602,1,0,0:0:0:0:
256,192,179948,1,8,0:0:0:0:
256,192,180294,1,8,0:0:0:0:
256,192,180641,1,0,0:0:0:0:
256,192,180987,8,0,182487,0:0:0:0:
256,192,182718,5,4,0:0:0:0:
256,192,182948,1,0,0:0:0:0:
256,192,183179,1,8,0:0:0:0:
256,192,183525,1,0,0:0:0:0:
256,192,183756,1,0,0:0:0:0:
256,192,184102,1,8,0:0:0:0:
256,192,184333,1,0,0:0:0:0:
256,192,184448,1,8,0:0:0:0:
256,192,184679,1,8,0:0:0:0:
256,192,184795,1,0,0:0:0:0:
256,192,185025,1,0,0:0:0:0:
256,192,185256,1,8,0:0:0:0:
256,192,185602,1,0,0:0:0:0:
256,192,185833,1,0,0:0:0:0:
256,192,186179,1,8,0:0:0:0:
256,192,186295,1,0,0:0:0:0:
256,192,186410,1,8,0:0:0:0:
256,192,186525,1,0,0:0:0:0:
256,192,186641,1,8,0:0:0:0:
256,192,186756,1,8,0:0:0:0:
256,192,186872,1,0,0:0:0:0:
256,192,187102,1,0,0:0:0:0:
256,192,187333,1,8,0:0:0:0:
256,192,187679,1,0,0:0:0:0:
256,192,187910,1,0,0:0:0:0:
256,192,188256,1,8,0:0:0:0:
256,192,188372,1,0,0:0:0:0:
256,192,188487,1,0,0:0:0:0:
256,192,188602,1,8,0:0:0:0:
256,192,188833,1,8,0:0:0:0:
256,192,189064,1,0,0:0:0:0:
256,192,189179,1,0,0:0:0:0:
256,192,189410,1,8,0:0:0:0:
256,192,189756,1,0,0:0:0:0:
256,192,189987,1,0,0:0:0:0:
256,192,190333,1,8,0:0:0:0:
256,192,190449,1,0,0:0:0:0:
256,192,190564,1,8,0:0:0:0:
256,192,190679,1,0,0:0:0:0:
256,192,190795,1,8,0:0:0:0:
256,192,190910,1,8,0:0:0:0:
256,192,191026,1,0,0:0:0:0:
256,192,191256,1,0,0:0:0:0:
256,192,191487,1,8,0:0:0:0:
256,192,191833,1,0,0:0:0:0:
256,192,192064,1,0,0:0:0:0:
256,192,192410,1,8,0:0:0:0:
256,192,192641,1,0,0:0:0:0:
256,192,192756,1,8,0:0:0:0:
256,192,192987,1,8,0:0:0:0:
256,192,193103,1,0,0:0:0:0:
256,192,193333,1,0,0:0:0:0:
256,192,193564,1,8,0:0:0:0:
256,192,193910,1,0,0:0:0:0:
256,192,194141,1,0,0:0:0:0:
256,192,194487,1,8,0:0:0:0:
256,192,194603,1,0,0:0:0:0:
256,192,194718,1,8,0:0:0:0:
256,192,194833,1,0,0:0:0:0:
256,192,194949,1,8,0:0:0:0:
256,192,195064,1,8,0:0:0:0:
256,192,195180,1,0,0:0:0:0:
256,192,195410,1,0,0:0:0:0:
256,192,195641,1,8,0:0:0:0:
256,192,195987,1,0,0:0:0:0:
256,192,196218,1,0,0:0:0:0:
256,192,196564,1,8,0:0:0:0:
256,192,196680,1,0,0:0:0:0:
256,192,196795,1,0,0:0:0:0:
256,192,196910,1,8,0:0:0:0:
256,192,197141,1,8,0:0:0:0:
256,192,197256,1,0,0:0:0:0:
256,192,197371,1,0,0:0:0:0:
256,192,197486,1,0,0:0:0:0:
256,192,197717,1,8,0:0:0:0:
256,192,198063,1,0,0:0:0:0:
256,192,198294,1,0,0:0:0:0:
256,192,198640,1,8,0:0:0:0:
256,192,198756,1,0,0:0:0:0:
256,192,198871,1,8,0:0:0:0:
256,192,198986,1,0,0:0:0:0:
256,192,199102,1,8,0:0:0:0:
256,192,199217,1,8,0:0:0:0:
256,192,199333,1,0,0:0:0:0:
256,192,199563,1,0,0:0:0:0:
256,192,199794,1,8,0:0:0:0:
256,192,200140,1,0,0:0:0:0:
256,192,200371,1,0,0:0:0:0:
256,192,200717,1,8,0:0:0:0:
256,192,200833,1,0,0:0:0:0:
256,192,200948,1,0,0:0:0:0:
256,192,201063,1,8,0:0:0:0:
256,192,201294,1,8,0:0:0:0:
256,192,201410,1,0,0:0:0:0:
256,192,201640,1,0,0:0:0:0:
256,192,201871,1,8,0:0:0:0:
256,192,202217,1,0,0:0:0:0:
256,192,202448,1,0,0:0:0:0:
256,192,202794,1,8,0:0:0:0:
256,192,202910,1,0,0:0:0:0:
256,192,203025,1,0,0:0:0:0:
256,192,203140,1,8,0:0:0:0:
256,192,203256,1,0,0:0:0:0:
256,192,203371,1,8,0:0:0:0:
256,192,203487,1,0,0:0:0:0:
256,192,203717,1,0,0:0:0:0:
256,192,203948,1,8,0:0:0:0:
256,192,204294,1,0,0:0:0:0:
256,192,204525,1,0,0:0:0:0:
256,192,204871,1,8,0:0:0:0:
256,192,205102,1,0,0:0:0:0:
256,192,205217,1,8,0:0:0:0:
256,192,205448,1,8,0:0:0:0:
256,192,205564,1,0,0:0:0:0:
256,192,205679,1,8,0:0:0:0:
256,192,205794,1,0,0:0:0:0:
256,192,205910,1,0,0:0:0:0:
256,192,206025,1,8,0:0:0:0:
256,192,206140,1,8,0:0:0:0:
256,192,206371,1,0,0:0:0:0:
256,192,206602,1,0,0:0:0:0:
256,192,206717,1,8,0:0:0:0:
256,192,206948,1,8,0:0:0:0:
256,192,207064,1,0,0:0:0:0:
256,192,207179,1,0,0:0:0:0:
256,192,207294,1,8,0:0:0:0:
256,192,207410,1,0,0:0:0:0:
256,192,207525,1,8,0:0:0:0:
256,192,207641,1,0,0:0:0:0:
256,192,207871,1,0,0:0:0:0:
256,192,208102,1,8,0:0:0:0:
256,192,208448,1,0,0:0:0:0:
256,192,208679,1,0,0:0:0:0:
256,192,209025,1,8,0:0:0:0:
256,192,209141,1,0,0:0:0:0:
256,192,209256,1,0,0:0:0:0:
256,192,209371,1,8,0:0:0:0:
256,192,209602,1,8,0:0:0:0:
256,192,209718,1,0,0:0:0:0:
256,192,209948,1,0,0:0:0:0:
256,192,210179,1,8,0:0:0:0:
256,192,210525,1,0,0:0:0:0:
256,192,210756,1,0,0:0:0:0:
256,192,211102,1,8,0:0:0:0:
256,192,211218,1,0,0:0:0:0:
256,192,211333,1,0,0:0:0:0:
256,192,211448,1,8,0:0:0:0:
256,192,211564,1,0,0:0:0:0:
256,192,211679,1,8,0:0:0:0:
256,192,211795,1,0,0:0:0:0:
256,192,212025,1,0,0:0:0:0:
256,192,212256,1,8,0:0:0:0:
256,192,212602,1,0,0:0:0:0:
256,192,212833,1,0,0:0:0:0:
256,192,213179,1,8,0:0:0:0:
256,192,213410,1,0,0:0:0:0:
256,192,213525,1,8,0:0:0:0:
256,192,213756,1,8,0:0:0:0:
256,192,213872,1,0,0:0:0:0:
256,192,213987,1,8,0:0:0:0:
256,192,214102,1,0,0:0:0:0:
256,192,214218,1,0,0:0:0:0:
256,192,214333,1,8,0:0:0:0:
256,192,214448,1,8,0:0:0:0:
256,192,214679,1,0,0:0:0:0:
256,192,214910,1,0,0:0:0:0:
256,192,215025,1,8,0:0:0:0:
256,192,215256,1,8,0:0:0:0:
256,192,215372,1,0,0:0:0:0:
256,192,215487,1,0,0:0:0:0:
256,192,215602,1,8,0:0:0:0:
256,192,215718,1,0,0:0:0:0:
256,192,215833,1,8,0:0:0:0:
256,192,215949,1,4,0:0:0:0:
256,192,216179,1,4,0:0:0:0:
256,192,216756,1,0,0:0:0:0:
256,192,216987,1,0,0:0:0:0:
256,192,217333,1,8,0:0:0:0:
256,192,217679,1,8,0:0:0:0:
256,192,218026,1,4,0:0:0:0:
256,192,218256,1,4,0:0:0:0:
256,192,218833,1,0,0:0:0:0:
256,192,219064,1,0,0:0:0:0:
256,192,219410,1,8,0:0:0:0:
256,192,219756,1,8,0:0:0:0:
256,192,220103,1,4,0:0:0:0:
256,192,220333,1,4,0:0:0:0:
256,192,220910,1,0,0:0:0:0:
256,192,221141,1,0,0:0:0:0:
256,192,221487,1,8,0:0:0:0:
256,192,221833,1,8,0:0:0:0:
256,192,222180,1,4,0:0:0:0:
256,192,222410,1,4,0:0:0:0:
256,192,222987,1,0,0:0:0:0:
256,192,223218,1,0,0:0:0:0:
256,192,223564,1,0,0:0:0:0:
256,192,223680,1,0,0:0:0:0:
256,192,223795,1,0,0:0:0:0:
256,192,223910,1,0,0:0:0:0:
256,192,224026,1,0,0:0:0:0:
256,192,224141,1,0,0:0:0:0:
256,192,224256,1,12,0:0:0:0:
256,192,224486,1,12,0:0:0:0:
256,192,226333,1,8,0:0:0:0:
256,192,226563,1,0,0:0:0:0:
256,192,226679,1,8,0:0:0:0:
256,192,226909,1,8,0:0:0:0:
256,192,227140,1,8,0:0:0:0:
256,192,227371,1,8,0:0:0:0:
256,192,227602,1,0,0:0:0:0:
256,192,227717,1,0,0:0:0:0:
256,192,227833,1,0,0:0:0:0:
256,192,228063,1,8,0:0:0:0:
256,192,228410,1,8,0:0:0:0:
256,192,228640,1,0,0:0:0:0:
256,192,228756,1,8,0:0:0:0:
256,192,228986,1,8,0:0:0:0:
256,192,229217,1,8,0:0:0:0:
256,192,229448,1,8,0:0:0:0:
256,192,229679,1,0,0:0:0:0:
256,192,229794,1,0,0:0:0:0:
256,192,229910,1,0,0:0:0:0:
256,192,230140,1,8,0:0:0:0:
256,192,230487,1,0,0:0:0:0:
256,192,230640,1,0,0:0:0:0:
256,192,230794,1,8,0:0:0:0:
256,192,230948,1,0,0:0:0:0:
256,192,231102,1,0,0:0:0:0:
256,192,231256,1,8,0:0:0:0:
256,192,231410,1,0,0:0:0:0:
256,192,231563,1,8,0:0:0:0:
256,192,231717,1,8,0:0:0:0:
256,192,231871,1,8,0:0:0:0:
256,192,247102,5,0,0:0:0:0:
256,192,247563,1,0,0:0:0:0:
256,192,248025,1,0,0:0:0:0:
256,192,248256,1,0,0:0:0:0:
256,192,248718,1,0,0:0:0:0:
256,192,249179,1,0,0:0:0:0:
256,192,249641,1,0,0:0:0:0:
256,192,250102,1,0,0:0:0:0:
256,192,250333,1,0,0:0:0:0:
256,192,250794,1,0,0:0:0:0:
256,192,251256,1,0,0:0:0:0:
256,192,251486,1,0,0:0:0:0:
256,192,251949,1,0,0:0:0:0:
256,192,252410,1,0,0:0:0:0:
256,192,252872,1,0,0:0:0:0:
256,192,253102,1,0,0:0:0:0:
256,192,253333,1,0,0:0:0:0:
256,192,253564,1,0,0:0:0:0:
256,192,254025,1,0,0:0:0:0:
256,192,254487,1,0,0:0:0:0:
256,192,254717,1,0,0:0:0:0:
256,192,255180,1,0,0:0:0:0:
256,192,255641,1,0,0:0:0:0:
256,192,256103,1,0,0:0:0:0:
256,192,256564,1,0,0:0:0:0:
256,192,256795,1,0,0:0:0:0:
256,192,257256,1,0,0:0:0:0:
256,192,257718,1,0,0:0:0:0:
256,192,257948,1,0,0:0:0:0:
256,192,258410,1,0,0:0:0:0:
256,192,258871,1,0,0:0:0:0:
256,192,259333,1,0,0:0:0:0:
256,192,259563,1,0,0:0:0:0:
256,192,259794,1,0,0:0:0:0:
256,192,260026,1,8,0:0:0:0:
256,192,260487,1,8,0:0:0:0:
256,192,260949,1,8,0:0:0:0:
256,192,261179,1,8,0:0:0:0:
256,192,261641,1,8,0:0:0:0:
256,192,262102,1,8,0:0:0:0:
256,192,262564,1,8,0:0:0:0:
256,192,263025,1,8,0:0:0:0:
256,192,263256,1,8,0:0:0:0:
256,192,263717,1,8,0:0:0:0:
256,192,264179,1,8,0:0:0:0:
256,192,264409,1,8,0:0:0:0:
256,192,264872,1,8,0:0:0:0:
256,192,265333,1,8,0:0:0:0:
256,192,265795,1,8,0:0:0:0:
256,192,266025,1,8,0:0:0:0:
256,192,266256,1,8,0:0:0:0:
256,192,266487,1,8,0:0:0:0:
256,192,266948,1,8,0:0:0:0:
256,192,267410,1,8,0:0:0:0:
256,192,267640,1,8,0:0:0:0:
256,192,268103,1,8,0:0:0:0:
256,192,268564,1,8,0:0:0:0:
256,192,269026,1,8,0:0:0:0:
256,192,269487,1,8,0:0:0:0:
256,192,269718,1,8,0:0:0:0:
256,192,270179,1,8,0:0:0:0:
256,192,270641,1,8,0:0:0:0:
256,192,270871,1,8,0:0:0:0:
256,192,271333,1,0,0:0:0:0:
256,192,271563,1,0,0:0:0:0:
256,192,271679,1,0,0:0:0:0:
256,192,271909,1,0,0:0:0:0:
256,192,272140,1,0,0:0:0:0:
256,192,272256,1,0,0:0:0:0:
256,192,272486,1,8,0:0:0:0:
256,192,272948,1,4,0:0:0:0:
256,192,273410,1,8,0:0:0:0:
256,192,273756,1,0,0:0:0:0:
256,192,273987,1,0,0:0:0:0:
256,192,274102,1,0,0:0:0:0:
256,192,274333,1,8,0:0:0:0:
256,192,274449,1,8,0:0:0:0:
256,192,274564,1,0,0:0:0:0:
256,192,275025,1,8,0:0:0:0:
256,192,275371,1,0,0:0:0:0:
256,192,275602,1,0,0:0:0:0:
256,192,275717,1,0,0:0:0:0:
256,192,275948,1,8,0:0:0:0:
256,192,276180,1,0,0:0:0:0:
256,192,276641,1,8,0:0:0:0:
256,192,276987,1,0,0:0:0:0:
256,192,277218,1,0,0:0:0:0:
256,192,277333,1,0,0:0:0:0:
256,192,277564,1,8,0:0:0:0:
256,192,277680,1,8,0:0:0:0:
256,192,277795,1,0,0:0:0:0:
256,192,278256,1,8,0:0:0:0:
256,192,278602,1,8,0:0:0:0:
256,192,278718,1,0,0:0:0:0:
256,192,278948,1,0,0:0:0:0:
256,192,279064,1,0,0:0:0:0:
256,192,279179,1,8,0:0:0:0:
256,192,279410,1,0,0:0:0:0:
256,192,279871,1,8,0:0:0:0:
256,192,280217,1,0,0:0:0:0:
256,192,280448,1,0,0:0:0:0:
256,192,280563,1,0,0:0:0:0:
256,192,280794,1,8,0:0:0:0:
256,192,280910,1,8,0:0:0:0:
256,192,281026,1,0,0:0:0:0:
256,192,281487,1,8,0:0:0:0:
256,192,281833,1,0,0:0:0:0:
256,192,282064,1,0,0:0:0:0:
256,192,282179,1,0,0:0:0:0:
256,192,282410,1,8,0:0:0:0:
256,192,282641,1,0,0:0:0:0:
256,192,283102,1,8,0:0:0:0:
256,192,283448,1,0,0:0:0:0:
256,192,283679,1,0,0:0:0:0:
256,192,283794,1,0,0:0:0:0:
256,192,284025,1,8,0:0:0:0:
256,192,284141,1,8,0:0:0:0:
256,192,284256,1,0,0:0:0:0:
256,192,284717,1,8,0:0:0:0:
256,192,285063,1,8,0:0:0:0:
256,192,285179,1,0,0:0:0:0:
256,192,285294,1,0,0:0:0:0:
256,192,285409,1,0,0:0:0:0:
256,192,285525,1,0,0:0:0:0:
256,192,285640,1,8,0:0:0:0:
256,192,285872,1,4,0:0:0:0:
256,192,286333,1,8,0:0:0:0:
256,192,286564,1,0,0:0:0:0:
256,192,286679,1,8,0:0:0:0:
256,192,286910,1,0,0:0:0:0:
256,192,287025,1,0,0:0:0:0:
256,192,287256,1,8,0:0:0:0:
256,192,287372,1,8,0:0:0:0:
256,192,287487,1,0,0:0:0:0:
256,192,287602,1,8,0:0:0:0:
256,192,287717,1,0,0:0:0:0:
256,192,287948,1,8,0:0:0:0:
256,192,288179,1,0,0:0:0:0:
256,192,288294,1,8,0:0:0:0:
256,192,288525,1,8,0:0:0:0:
256,192,288640,1,0,0:0:0:0:
256,192,288871,1,8,0:0:0:0:
256,192,288987,1,8,0:0:0:0:
256,192,289103,1,0,0:0:0:0:
256,192,289564,1,8,0:0:0:0:
256,192,289795,1,0,0:0:0:0:
256,192,289910,1,8,0:0:0:0:
256,192,290141,1,0,0:0:0:0:
256,192,290256,1,0,0:0:0:0:
256,192,290487,1,8,0:0:0:0:
256,192,290603,1,8,0:0:0:0:
256,192,290718,1,0,0:0:0:0:
256,192,290948,1,0,0:0:0:0:
256,192,291179,1,8,0:0:0:0:
256,192,291294,1,0,0:0:0:0:
256,192,291525,1,8,0:0:0:0:
256,192,291641,1,0,0:0:0:0:
256,192,291756,1,8,0:0:0:0:
256,192,291871,1,0,0:0:0:0:
256,192,291987,1,0,0:0:0:0:
256,192,292102,1,8,0:0:0:0:
256,192,292333,1,0,0:0:0:0:
256,192,292794,1,8,0:0:0:0:
256,192,293025,1,0,0:0:0:0:
256,192,293140,1,8,0:0:0:0:
256,192,293371,1,0,0:0:0:0:
256,192,293486,1,0,0:0:0:0:
256,192,293717,1,8,0:0:0:0:
256,192,293833,1,8,0:0:0:0:
256,192,293949,1,0,0:0:0:0:
256,192,294064,1,8,0:0:0:0:
256,192,294179,1,0,0:0:0:0:
256,192,294410,1,8,0:0:0:0:
256,192,294641,1,0,0:0:0:0:
256,192,294756,1,8,0:0:0:0:
256,192,294987,1,8,0:0:0:0:
256,192,295102,1,0,0:0:0:0:
256,192,295333,1,8,0:0:0:0:
256,192,295449,1,8,0:0:0:0:
256,192,295564,1,0,0:0:0:0:
256,192,296025,1,8,0:0:0:0:
256,192,296256,1,0,0:0:0:0:
256,192,296371,1,8,0:0:0:0:
256,192,296602,1,0,0:0:0:0:
256,192,296717,1,0,0:0:0:0:
256,192,296948,1,8,0:0:0:0:
256,192,297064,1,0,0:0:0:0:
256,192,297180,1,8,0:0:0:0:
256,192,297410,1,0,0:0:0:0:
256,192,297526,1,8,0:0:0:0:
256,192,297756,1,0,0:0:0:0:
256,192,297987,1,8,0:0:0:0:
256,192,298103,1,0,0:0:0:0:
256,192,298333,1,12,0:0:0:0:
256,192,298795,1,4,0:0:0:0:
