osu file format v14

[General]
AudioFilename: audio.mp3
AudioLeadIn: 0
PreviewTime: 173098
Countdown: 0
SampleSet: Soft
StackLeniency: 0.3
Mode: 0
LetterboxInBreaks: 0
WidescreenStoryboard: 0

[Editor]
DistanceSpacing: 1
BeatDivisor: 6
GridSize: 4
TimelineZoom: 5.499997

[Metadata]
Title:Blood Awakening
TitleUnicode:Blood Awakening
Artist:ELECTRIC RED
ArtistUnicode:ELECTRIC RED
Creator:-Ran Yakumo-
Version:Nightfall
Source:東方Project
Tags:
BeatmapID:1645728
BeatmapSetID:783743

[Difficulty]
HPDrainRate:6
CircleSize:4
OverallDifficulty:9.3
ApproachRate:9.7
SliderMultiplier:2
SliderTickRate:1

[Events]
//Background and Video events
0,0,"stretched-1366-768-660470.jpg",0,0
//Break Periods
2,209019,216417
//Storyboard Layer 0 (Background)
//Storyboard Layer 1 (Fail)
//Storyboard Layer 2 (Pass)
//Storyboard Layer 3 (Foreground)
//Storyboard Sound Samples

[TimingPoints]
546,461.538461538462,4,2,0,45,1,0
61471,279.06976744186,4,2,0,100,1,0
65936,-90.9090909090909,4,2,0,100,0,0
83796,-83.3333333333333,4,2,0,100,0,0
85750,-76.9230769230769,4,2,0,100,0,0
86029,-83.3333333333333,4,2,0,100,0,0
87703,-71.4285714285714,4,2,0,100,0,0
87982,-66.6666666666667,4,2,0,100,0,0
88261,-83.3333333333333,4,2,0,100,0,0
90215,-76.9230769230769,4,2,0,100,0,0
90494,-83.3333333333333,4,2,0,100,0,0
92447,-71.4285714285714,4,2,0,100,0,0
92726,-83.3333333333333,4,2,0,100,0,0
94680,-76.9230769230769,4,2,0,100,0,0
94959,-83.3333333333333,4,2,0,100,0,0
99284,-125,4,2,0,100,0,0
100401,-200,4,2,0,100,0,0
101657,-90.9090909090909,4,2,0,100,0,0
119517,-83.3333333333333,4,2,0,100,0,0
121470,-76.9230769230769,4,2,0,100,0,0
121750,-83.3333333333333,4,2,0,100,0,0
123424,-71.4285714285714,4,2,0,100,0,0
123703,-66.6666666666667,4,2,0,100,0,0
123982,-83.3333333333333,4,2,0,100,0,0
125936,-76.9230769230769,4,2,0,100,0,0
126215,-83.3333333333333,4,2,0,100,0,0
128168,-71.4285714285714,4,2,0,100,0,0
128447,-83.3333333333333,4,2,0,100,0,0
135005,-125,4,2,0,100,0,0
136122,-200,4,2,0,100,0,0
137377,-100,4,2,0,100,0,1
141284,-83.3333333333333,4,2,0,100,0,0
141843,-100,4,2,0,100,0,1
150215,-83.3333333333333,4,2,0,100,0,0
150773,-100,4,2,0,100,0,1
155238,-100,4,2,0,100,0,0
157470,-90.9090909090909,4,2,0,100,0,0
173098,-83.3333333333333,4,2,0,100,0,0
175052,-76.9230769230769,4,2,0,100,0,0
175331,-83.3333333333333,4,2,0,100,0,0
177005,-71.4285714285714,4,2,0,100,0,0
177284,-62.5,4,2,0,100,0,0
177564,-83.3333333333333,4,2,0,100,0,0
179517,-76.9230769230769,4,2,0,100,0,0
179796,-83.3333333333333,4,2,0,100,0,0
181750,-71.4285714285714,4,2,0,100,0,0
182029,-83.3333333333333,4,2,0,100,0,0
183982,-76.9230769230769,4,2,0,100,0,0
184261,-83.3333333333333,4,2,0,100,0,0
188587,-125,4,2,0,100,0,0
189703,-200,4,2,0,100,0,0
190959,-100,4,2,0,100,0,1
194866,-83.3333333333333,4,2,0,100,0,0
195424,-100,4,2,0,100,0,1
203796,-83.3333333333333,4,2,0,100,0,0
204354,-100,4,2,0,100,0,1
208819,-200,4,2,0,100,0,0
226680,-100,4,2,0,100,0,0
244540,-66.6666666666667,4,2,0,100,0,1
246773,-71.4285714285714,4,2,0,100,0,1
247889,-76.9230769230769,4,2,0,100,0,1
249005,-83.3333333333333,4,2,0,100,0,1
262401,-90.9090909090909,4,2,0,100,0,1
275796,-111.111111111111,4,2,0,100,0,1
276912,-100,4,2,0,100,0,1
278029,-90.9090909090909,4,2,0,100,0,1
280261,-83.3333333333333,4,2,0,100,0,0
282215,-76.9230769230769,4,2,0,100,0,0
282494,-83.3333333333333,4,2,0,100,0,0
284168,-66.6666666666667,4,2,0,100,0,0
284447,-58.8235294117647,4,2,0,100,0,0
284726,-83.3333333333333,4,2,0,100,0,0
286680,-76.9230769230769,4,2,0,100,0,0
286959,-83.3333333333333,4,2,0,100,0,0
288912,-71.4285714285714,4,2,0,100,0,0
289191,-83.3333333333333,4,2,0,100,0,0
291005,-66.6666666666667,4,2,0,100,0,0
291703,-83.3333333333333,4,2,0,100,0,0
295750,-125,4,2,0,100,0,0
296866,-200,4,2,0,100,0,0
298122,-100,4,2,0,100,0,1
302029,-83.3333333333333,4,2,0,100,0,0
302587,-100,4,2,0,100,0,1
310959,-83.3333333333333,4,2,0,100,0,0
311517,-100,4,2,0,100,0,1
315982,-200,4,2,0,100,0,0
319331,-100,4,2,0,100,0,0
324912,346.820809248555,3,2,0,5,1,0

[Colours]
Combo1 : 0,128,0
Combo2 : 0,0,206
Combo3 : 255,255,255
Combo4 : 210,0,0

[HitObjects]
90,81,546,6,0,L|214:71,1,100
288,173,1007,2,0,L|164:163,1,100
41,237,1469,1,0,0:0:0:0:
41,237,1699,1,0,0:0:0:0:
119,286,1930,2,0,L|100:396,1,100
244,272,2392,6,0,B|321:257|321:257|345:263,2,100
396,199,3084,2,0,B|319:184|319:184|295:190,2,100
276,118,3776,2,0,L|285:-5,1,100
266,278,4238,6,0,P|212:290|172:336,1,100
45,268,4699,2,0,P|61:215|41:157,1,100
149,41,5161,2,0,L|264:33,2,100
368,18,5853,1,0,0:0:0:0:
368,18,6084,6,0,L|360:146,1,100
452,56,6546,1,0,0:0:0:0:
428,150,6776,2,0,L|420:278,1,100
512,188,7238,1,0,0:0:0:0:
492,281,7469,2,0,L|484:409,1,100
394,270,7930,5,0,0:0:0:0:
387,369,8160,1,0,0:0:0:0:
317,205,8392,1,0,0:0:0:0:
310,304,8622,1,0,0:0:0:0:
224,361,8853,2,0,L|113:337,2,100
34,318,9546,1,0,0:0:0:0:
114,227,9776,6,0,L|106:118,2,100
16,83,10469,2,0,L|106:126,2,100
189,71,11161,2,0,L|106:127,1,100
449,239,11622,6,0,L|336:291,1,100
237,223,12084,2,0,L|327:181,1,100
442,76,12545,1,0,0:0:0:0:
442,76,12775,1,0,0:0:0:0:
375,6,13007,2,0,L|262:-1,1,100
124,69,13468,6,0,B|84:189,2,100
60,242,14160,2,0,B|112:238|112:238|157:215,2,100
172,288,14853,2,0,L|200:396,1,100
313,216,15315,5,0,0:0:0:0:
313,146,15546,1,0,0:0:0:0:
373,181,15776,1,0,0:0:0:0:
253,111,16007,5,0,0:0:0:0:
313,76,16237,1,0,0:0:0:0:
313,146,16468,1,0,0:0:0:0:
253,47,16699,2,0,L|143:34,1,100
86,336,17161,5,0,0:0:0:0:
87,236,17392,1,0,0:0:0:0:
173,286,17622,1,0,0:0:0:0:
1,286,17853,5,0,0:0:0:0:
0,186,18084,1,0,0:0:0:0:
87,236,18314,1,0,0:0:0:0:
6,376,18546,2,0,L|122:364,1,100
407,253,19007,5,0,0:0:0:0:
308,234,19237,1,0,0:0:0:0:
210,216,19468,1,0,0:0:0:0:
327,136,19699,5,0,0:0:0:0:
308,234,19929,1,0,0:0:0:0:
290,332,20160,1,0,0:0:0:0:
476,235,20392,2,0,P|449:193|402:180,1,100
426,350,20853,6,0,L|403:237,2,100
308,234,21546,2,0,L|331:121,2,100
352,37,22238,2,0,L|246:27,1,100
164,184,22699,5,0,0:0:0:0:
176,115,22930,1,0,0:0:0:0:
110,139,23160,1,0,0:0:0:0:
241,91,23392,5,0,0:0:0:0:
188,46,23622,1,0,0:0:0:0:
176,115,23853,1,0,0:0:0:0:
252,27,24084,2,0,L|363:38,1,100
398,363,24545,5,0,0:0:0:0:
414,264,24776,1,0,0:0:0:0:
321,298,25006,1,0,0:0:0:0:
490,328,25237,5,0,0:0:0:0:
509,230,25468,1,0,0:0:0:0:
414,264,25698,1,0,0:0:0:0:
320,298,25930,2,0,L|333:199,1,100
66,191,26391,5,0,0:0:0:0:
160,224,26621,1,0,0:0:0:0:
254,258,26852,1,0,0:0:0:0:
193,129,27084,5,0,0:0:0:0:
161,224,27315,1,0,0:0:0:0:
127,317,27546,1,0,0:0:0:0:
15,140,27776,2,0,P|58:117|106:129,1,100
0,319,28237,6,0,L|76:232,2,100
161,224,28930,2,0,L|197:114,2,100
226,41,29622,2,0,L|320:72,1,100
317,247,30084,5,0,0:0:0:0:
396,217,30315,1,0,0:0:0:0:
382,301,30546,1,0,0:0:0:0:
238,277,30776,5,0,0:0:0:0:
317,247,31007,1,0,0:0:0:0:
303,331,31238,1,0,0:0:0:0:
159,307,31469,5,0,0:0:0:0:
238,277,31699,2,0,L|216:223,1,50
119,90,31930,5,0,0:0:0:0:
105,174,32161,1,0,0:0:0:0:
184,144,32392,1,0,0:0:0:0:
263,114,32622,5,0,0:0:0:0:
198,60,32853,1,0,0:0:0:0:
184,144,33084,1,0,0:0:0:0:
342,84,33315,5,0,0:0:0:0:
263,114,33545,2,0,L|285:168,1,50
360,296,33776,5,0,0:0:0:0:
283,341,34007,1,0,0:0:0:0:
283,251,34238,1,0,0:0:0:0:
206,296,34469,5,0,0:0:0:0:
206,206,34700,1,0,0:0:0:0:
283,251,34931,1,0,0:0:0:0:
129,251,35161,5,0,0:0:0:0:
129,161,35392,2,0,L|128:104,1,50
205,116,35622,5,0,0:0:0:0:
283,161,35853,1,0,0:0:0:0:
283,71,36084,1,0,0:0:0:0:
205,206,36315,5,0,0:0:0:0:
283,251,36546,1,0,0:0:0:0:
283,161,36777,1,0,0:0:0:0:
127,251,37007,5,0,0:0:0:0:
205,296,37238,2,0,L|205:371,1,50
283,353,37469,6,0,L|412:338,2,100
371,273,38161,2,0,P|425:284|449:355,2,100
457,213,38853,1,0,0:0:0:0:
381,163,39084,2,0,L|375:97,1,50
368,23,39315,6,0,L|256:11,2,100
279,95,40007,2,0,L|179:105,2,100
90,124,40699,1,0,0:0:0:0:
11,77,40930,2,0,L|1:125,1,50
39,230,41161,6,0,P|40:286|12:341,2,100
112,324,41853,2,0,L|235:302,2,100
308,289,42546,1,0,0:0:0:0:
368,355,42776,2,0,L|425:344,1,50
470,269,43007,5,0,0:0:0:0:
404,130,43353,1,0,0:0:0:0:
308,289,43699,5,0,0:0:0:0:
251,24,44046,2,0,L|168:47,1,50
97,75,44507,5,0,0:0:0:0:
154,321,44853,5,0,0:0:0:0:
8,40,45315,1,0,0:0:0:0:
407,300,46699,5,0,0:0:0:0:
307,288,46929,1,0,0:0:0:0:
257,191,47161,1,0,0:0:0:0:
356,202,47391,1,0,0:0:0:0:
135,228,47622,5,0,0:0:0:0:
177,148,47853,1,0,0:0:0:0:
257,191,48084,1,0,0:0:0:0:
215,270,48315,1,0,0:0:0:0:
104,142,48546,6,0,P|133:88|179:78,2,100
225,14,49238,2,0,L|339:22,2,100
425,28,49930,2,0,B|412:84|412:84|422:146,1,100
463,230,50392,5,0,0:0:0:0:
450,329,50622,1,0,0:0:0:0:
344,375,50853,1,0,0:0:0:0:
356,275,51083,1,0,0:0:0:0:
162,368,51315,5,0,0:0:0:0:
178,279,51546,1,0,0:0:0:0:
267,296,51776,1,0,0:0:0:0:
249,384,52007,1,0,0:0:0:0:
98,308,52238,6,0,L|82:188,2,100
172,238,52930,2,0,L|185:138,2,100
198,35,53622,2,0,L|309:31,1,100
336,229,54084,5,0,0:0:0:0:
336,129,54314,1,0,0:0:0:0:
419,208,54546,1,0,0:0:0:0:
419,308,54776,1,0,0:0:0:0:
226,339,55007,5,0,0:0:0:0:
227,249,55238,1,0,0:0:0:0:
317,250,55469,1,0,0:0:0:0:
315,340,55699,1,0,0:0:0:0:
155,289,55930,6,0,L|130:172,2,100
42,207,56622,2,0,L|17:90,2,100
103,29,57315,2,0,B|155:10|155:10|223:13,1,100
316,71,57776,6,0,L|307:180,1,100
415,15,58238,2,0,L|424:124,1,100
439,241,58699,5,0,0:0:0:0:
469,326,58930,1,0,0:0:0:0:
384,356,59161,1,0,0:0:0:0:
354,270,59392,1,0,0:0:0:0:
232,366,59622,6,0,L|105:340,2,100
143,258,60315,2,0,L|16:232,2,100
157,54,61007,2,0,L|257:19,1,100
464,24,61471,6,0,B|440:140|440:140|372:224,1,200
176,124,61889,2,0,B|288:86|288:86|395:103,1,200
328,252,62308,2,0,B|289:151,1,100
156,332,62587,6,0,L|24:324,2,100
228,258,63005,2,0,L|360:250,2,100
139,202,63424,2,0,L|7:194,1,100
315,71,63703,5,0,0:0:0:0:
327,251,63843,1,0,0:0:0:0:
327,251,63912,1,0,0:0:0:0:
327,251,63982,1,0,0:0:0:0:
415,33,64122,1,0,0:0:0:0:
210,115,64261,5,0,0:0:0:0:
183,140,64330,1,0,0:0:0:0:
170,175,64400,1,0,0:0:0:0:
176,212,64470,1,0,0:0:0:0:
198,242,64540,1,0,0:0:0:0:
376,348,64680,5,0,0:0:0:0:
351,353,64749,1,0,0:0:0:0:
327,358,64819,1,0,0:0:0:0:
476,320,64959,6,0,L|480:248,1,50
352,228,65098,2,0,L|348:156,1,50
415,33,65238,1,0,0:0:0:0:
415,33,65308,1,0,0:0:0:0:
415,33,65377,1,0,0:0:0:0:
183,140,65517,1,0,0:0:0:0:
437,69,65657,1,0,0:0:0:0:
198,0,65796,1,0,0:0:0:0:
448,103,65936,6,0,L|438:168,3,55.0000016784668
423,246,66215,1,0,0:0:0:0:
382,239,66284,1,0,0:0:0:0:
344,253,66354,1,0,0:0:0:0:
317,284,66424,1,0,0:0:0:0:
310,324,66494,6,0,L|241:340,3,55.0000016784668
167,359,66773,1,0,0:0:0:0:
133,336,66842,1,0,0:0:0:0:
116,299,66912,1,0,0:0:0:0:
121,258,66982,1,0,0:0:0:0:
147,227,67052,6,0,L|135:163,3,55.0000016784668
117,88,67331,1,0,0:0:0:0:
126,48,67400,1,0,0:0:0:0:
156,21,67470,1,0,0:0:0:0:
196,15,67540,1,0,0:0:0:0:
233,32,67610,6,0,L|252:103,3,55.0000016784668
337,79,67889,2,0,L|318:149,3,55.0000016784668
291,215,68168,5,0,0:0:0:0:
251,202,68237,1,0,0:0:0:0:
211,209,68307,1,0,0:0:0:0:
177,232,68377,1,0,0:0:0:0:
158,268,68447,2,0,L|164:329,3,55.0000016784668
246,362,68726,5,0,0:0:0:0:
284,348,68795,1,0,0:0:0:0:
325,345,68865,1,0,0:0:0:0:
366,352,68935,1,0,0:0:0:0:
404,368,69005,2,0,L|435:301,3,55.0000016784668
381,229,69284,5,0,0:0:0:0:
358,194,69353,1,0,0:0:0:0:
354,154,69423,1,0,0:0:0:0:
370,116,69493,1,0,0:0:0:0:
401,89,69564,2,0,L|332:48,3,55.0000016784668
281,20,69843,5,0,0:0:0:0:
240,17,69912,1,0,0:0:0:0:
202,33,69982,1,0,0:0:0:0:
175,64,70052,1,0,0:0:0:0:
166,103,70122,1,0,0:0:0:0:
163,144,70191,1,0,0:0:0:0:
139,177,70261,1,0,0:0:0:0:
100,191,70331,1,0,0:0:0:0:
61,182,70401,6,0,L|45:274,3,55.0000016784668
102,312,70680,1,0,0:0:0:0:
123,287,70749,1,0,0:0:0:0:
153,273,70819,1,0,0:0:0:0:
186,272,70889,1,0,0:0:0:0:
216,283,70959,1,0,0:0:0:0:
240,306,71028,1,0,0:0:0:0:
253,336,71098,1,0,0:0:0:0:
278,357,71167,1,0,0:0:0:0:
310,365,71237,1,0,0:0:0:0:
342,359,71307,1,0,0:0:0:0:
368,339,71377,1,0,0:0:0:0:
384,310,71446,1,0,0:0:0:0:
385,278,71517,6,0,L|369:220,3,55.0000016784668
341,133,71796,1,0,0:0:0:0:
317,109,71865,1,0,0:0:0:0:
287,98,71935,1,0,0:0:0:0:
254,100,72005,1,0,0:0:0:0:
225,116,72075,1,0,0:0:0:0:
206,142,72144,1,0,0:0:0:0:
200,174,72214,1,0,0:0:0:0:
176,197,72284,1,0,0:0:0:0:
145,207,72354,1,0,0:0:0:0:
113,200,72424,1,0,0:0:0:0:
87,179,72494,1,0,0:0:0:0:
75,149,72563,1,0,0:0:0:0:
78,117,72633,6,0,L|115:71,2,55.0000016784668
97,281,72912,1,0,0:0:0:0:
69,286,72981,1,0,0:0:0:0:
42,291,73051,1,0,0:0:0:0:
200,174,73191,2,0,L|236:127,2,55.0000016784668
218,337,73470,1,0,0:0:0:0:
191,342,73539,1,0,0:0:0:0:
164,347,73609,1,0,0:0:0:0:
200,174,73750,5,0,0:0:0:0:
227,180,73820,1,0,0:0:0:0:
254,186,73889,1,0,0:0:0:0:
354,337,74029,1,0,0:0:0:0:
327,331,74098,1,0,0:0:0:0:
300,325,74168,1,0,0:0:0:0:
81,283,74308,5,0,0:0:0:0:
250,102,74447,1,0,0:0:0:0:
300,325,74587,1,0,0:0:0:0:
122,158,74726,1,0,0:0:0:0:
122,158,74796,1,0,0:0:0:0:
122,158,74866,6,0,L|112:83,3,55.0000016784668
99,15,75145,1,0,0:0:0:0:
137,0,75214,1,0,0:0:0:0:
177,5,75284,1,0,0:0:0:0:
212,27,75354,1,0,0:0:0:0:
232,63,75424,6,0,L|219:131,3,55.0000016784668
195,195,75703,1,0,0:0:0:0:
186,234,75772,1,0,0:0:0:0:
203,271,75842,1,0,0:0:0:0:
240,288,75912,1,0,0:0:0:0:
279,280,75982,6,0,L|323:239,3,55.0000016784668
386,173,76261,1,0,0:0:0:0:
426,166,76330,1,0,0:0:0:0:
463,183,76400,1,0,0:0:0:0:
485,217,76470,1,0,0:0:0:0:
485,258,76540,6,0,L|417:269,3,55.0000016784668
402,340,76819,2,0,L|333:329,3,55.0000016784668
257,314,77098,5,0,0:0:0:0:
217,302,77167,1,0,0:0:0:0:
176,306,77237,1,0,0:0:0:0:
140,326,77307,1,0,0:0:0:0:
114,357,77377,2,0,L|46:360,3,55.0000016784668
37,274,77657,5,0,0:0:0:0:
70,250,77726,1,0,0:0:0:0:
87,213,77796,1,0,0:0:0:0:
83,173,77866,1,0,0:0:0:0:
59,140,77936,2,0,L|54:77,3,55.0000016784668
131,29,78215,5,0,0:0:0:0:
168,12,78284,1,0,0:0:0:0:
208,15,78354,1,0,0:0:0:0:
242,38,78424,1,0,0:0:0:0:
261,74,78494,2,0,L|252:136,3,55.0000016784668
236,224,78773,5,0,0:0:0:0:
245,263,78842,1,0,0:0:0:0:
274,291,78912,1,0,0:0:0:0:
314,298,78982,1,0,0:0:0:0:
350,275,79052,1,0,0:0:0:0:
389,265,79121,1,0,0:0:0:0:
423,286,79191,1,0,0:0:0:0:
433,325,79261,1,0,0:0:0:0:
414,360,79331,6,0,L|341:363,3,55.0000016784668
274,291,79610,1,0,0:0:0:0:
292,264,79679,1,0,0:0:0:0:
298,231,79749,1,0,0:0:0:0:
288,200,79819,1,0,0:0:0:0:
267,176,79889,1,0,0:0:0:0:
236,163,79958,1,0,0:0:0:0:
204,165,80028,1,0,0:0:0:0:
171,166,80098,1,0,0:0:0:0:
142,152,80168,1,0,0:0:0:0:
122,126,80238,1,0,0:0:0:0:
117,94,80308,1,0,0:0:0:0:
127,63,80377,1,0,0:0:0:0:
151,41,80447,6,0,L|209:48,3,55.0000016784668
308,60,80726,1,0,0:0:0:0:
337,74,80795,1,0,0:0:0:0:
354,102,80865,1,0,0:0:0:0:
355,134,80935,1,0,0:0:0:0:
340,163,81005,1,0,0:0:0:0:
313,181,81074,1,0,0:0:0:0:
280,182,81144,1,0,0:0:0:0:
252,163,81215,1,0,0:0:0:0:
220,154,81284,1,0,0:0:0:0:
187,159,81354,1,0,0:0:0:0:
158,175,81424,1,0,0:0:0:0:
138,200,81494,1,0,0:0:0:0:
128,231,81564,6,0,L|135:304,3,55.0000016784668
198,342,81843,1,0,0:0:0:0:
222,312,81912,1,0,0:0:0:0:
255,293,81982,1,0,0:0:0:0:
293,287,82052,1,0,0:0:0:0:
331,293,82122,2,0,L|336:357,1,55.0000016784668
418,262,82261,2,0,L|421:207,1,55.0000016784668
317,140,82401,2,0,L|320:194,1,55.0000016784668
433,86,82540,2,0,L|437:32,3,36.6666677856446
214,21,82819,5,0,0:0:0:0:
214,21,82889,1,0,0:0:0:0:
214,21,82959,2,0,L|201:79,1,55.0000016784668
103,63,83098,2,0,L|116:121,1,55.0000016784668
142,203,83238,5,0,0:0:0:0:
179,199,83307,1,0,0:0:0:0:
214,215,83377,1,0,0:0:0:0:
235,247,83447,1,0,0:0:0:0:
237,285,83517,1,0,0:0:0:0:
219,318,83586,1,0,0:0:0:0:
187,338,83656,1,0,0:0:0:0:
149,338,83726,1,0,0:0:0:0:
118,320,83796,6,0,L|142:193,1,119.999996337891
169,37,84075,2,0,B|296:100|277:0|449:69,1,239.999992675781
313,282,84494,1,0,0:0:0:0:
336,112,84633,1,0,0:0:0:0:
445,202,84773,2,0,L|431:336,1,119.999996337891
161,189,85052,5,0,0:0:0:0:
352,212,85191,1,0,0:0:0:0:
225,337,85331,2,0,L|91:323,1,119.999996337891
247,179,85610,1,0,0:0:0:0:
50,106,85750,2,0,L|36:240,1,129.999994049073
158,29,86029,6,0,L|145:148,1,119.999996337891
225,337,86308,2,0,L|252:99,1,239.999992675781
443,228,86726,1,0,0:0:0:0:
274,197,86866,1,0,0:0:0:0:
401,370,87005,2,0,L|413:250,1,119.999996337891
241,69,87284,5,0,0:0:0:0:
153,240,87424,1,0,0:0:0:0:
324,327,87564,1,0,0:0:0:0:
412,156,87703,2,0,B|388:106|388:106|394:11,1,139.999995727539
193,166,87982,2,0,B|243:146|243:146|374:174,1,150.000005722046
72,36,88261,6,0,L|58:166,1,119.999996337891
104,364,88540,2,0,B|165:365|193:333|193:333|249:361|249:361|281:325|355:325,1,239.999992675781
308,80,88959,1,0,0:0:0:0:
238,271,89098,1,0,0:0:0:0:
361,212,89238,2,0,L|336:79,1,119.999996337891
106,130,89517,5,0,0:0:0:0:
279,164,89656,1,0,0:0:0:0:
134,46,89796,2,0,L|1:71,1,119.999996337891
248,28,90075,1,0,0:0:0:0:
106,130,90215,2,0,L|133:280,1,129.999994049073
361,212,90494,5,0,0:0:0:0:
194,166,90633,1,0,0:0:0:0:
195,384,90773,2,0,B|270:397|270:397|427:324,1,239.999992675781
287,131,91191,1,0,0:0:0:0:
258,319,91331,1,0,0:0:0:0:
385,188,91470,2,0,B|375:44,1,119.999996337891
102,191,91750,5,0,0:0:0:0:
287,131,91889,1,0,0:0:0:0:
102,71,92029,1,0,0:0:0:0:
217,229,92168,1,0,0:0:0:0:
217,34,92308,1,0,0:0:0:0:
134,287,92447,2,0,L|-20:298,1,139.999995727539
248,256,92726,6,0,L|367:248,1,119.999996337891
462,65,93005,2,0,L|481:320,1,239.999992675781
248,256,93424,1,0,0:0:0:0:
234,86,93563,1,0,0:0:0:0:
357,128,93703,2,0,L|368:262,1,119.999996337891
167,211,93982,5,0,0:0:0:0:
367,247,94121,1,0,0:0:0:0:
215,354,94261,2,0,L|80:365,1,119.999996337891,0|0,0:0|0:0,0:0:0:0:
191,188,94540,1,0,0:0:0:0:
0,160,94680,2,0,L|14:293,1,129.999994049073
216,160,94959,5,0,0:0:0:0:
60,100,95098,1,0,0:0:0:0:
128,269,95238,2,0,L|368:246,1,239.999992675781
400,16,95657,1,0,0:0:0:0:
384,128,95796,1,0,0:0:0:0:
488,64,95936,6,0,L|500:328,1,239.999992675781
305,328,96354,1,0,0:0:0:0:
168,139,96494,1,0,0:0:0:0:
389,211,96633,1,0,0:0:0:0:
168,283,96773,1,0,0:0:0:0:
305,95,96912,1,0,0:0:0:0:
404,303,97052,1,0,0:0:0:0:
92,213,97191,6,0,B|74:157|74:157|81:84,1,119.999996337891
16,267,97470,2,0,B|21:327|21:327|4:383,1,119.999996337891
103,380,97750,2,0,L|247:369,1,119.999996337891
307,183,98029,2,0,L|327:329,1,119.999996337891
180,96,98308,6,0,L|200:242,2,119.999996337891
284,20,98726,2,0,L|430:0,1,119.999996337891
387,236,99005,1,0,0:0:0:0:
396,108,99145,1,0,0:0:0:0:
508,165,99284,6,0,B|506:234|506:234|480:252|480:252|476:352,1,160
245,282,99703,2,0,B|305:248|305:248|334:262|334:262|422:216,1,160
386,235,100052,1,0,0:0:0:0:
386,235,100122,1,0,0:0:0:0:
304,336,100261,1,0,0:0:0:0:
328,176,100401,6,0,P|296:132|168:148,1,175
196,357,101029,2,0,L|247:189,1,175
183,13,101657,6,0,L|89:8,3,55.0000016784668
45,24,101936,1,0,0:0:0:0:
59,62,102005,1,0,0:0:0:0:
56,103,102075,1,0,0:0:0:0:
37,139,102145,1,0,0:0:0:0:
5,164,102215,6,0,L|15:224,3,55.0000016784668
31,302,102494,1,0,0:0:0:0:
69,287,102563,1,0,0:0:0:0:
110,287,102633,1,0,0:0:0:0:
148,301,102703,1,0,0:0:0:0:
179,328,102773,6,0,L|196:382,3,55.0000016784668
270,328,103052,1,0,0:0:0:0:
255,289,103121,1,0,0:0:0:0:
254,248,103191,1,0,0:0:0:0:
267,209,103261,1,0,0:0:0:0:
293,171,103331,2,0,L|367:182,3,55.0000016784668
418,126,103610,2,0,L|483:161,3,55.0000016784668
496,246,103889,5,0,0:0:0:0:
455,243,103958,1,0,0:0:0:0:
417,259,104028,1,0,0:0:0:0:
389,288,104098,1,0,0:0:0:0:
376,327,104168,2,0,L|303:308,3,55.0000016784668
224,288,104447,5,0,0:0:0:0:
234,248,104516,1,0,0:0:0:0:
223,209,104586,1,0,0:0:0:0:
192,183,104656,1,0,0:0:0:0:
152,176,104726,2,0,L|94:198,3,55.0000016784668
16,236,105005,5,0,0:0:0:0:
0,198,105074,1,0,0:0:0:0:
4,157,105144,1,0,0:0:0:0:
27,123,105214,1,0,0:0:0:0:
63,104,105284,2,0,L|74:35,3,55.0000016784668
155,20,105564,5,0,0:0:0:0:
190,5,105633,1,0,0:0:0:0:
227,10,105703,1,0,0:0:0:0:
258,33,105773,1,0,0:0:0:0:
272,69,105843,1,0,0:0:0:0:
304,95,105912,1,0,0:0:0:0:
343,106,105982,1,0,0:0:0:0:
384,101,106052,1,0,0:0:0:0:
412,74,106122,6,0,L|443:161,3,55.0000016784668
459,208,106401,5,0,0:0:0:0:
476,235,106470,1,0,0:0:0:0:
478,267,106540,1,0,0:0:0:0:
463,296,106610,1,0,0:0:0:0:
435,313,106680,1,0,0:0:0:0:
402,314,106749,1,0,0:0:0:0:
374,297,106819,1,0,0:0:0:0:
350,275,106888,1,0,0:0:0:0:
319,265,106958,1,0,0:0:0:0:
286,270,107028,1,0,0:0:0:0:
260,289,107098,1,0,0:0:0:0:
244,318,107167,1,0,0:0:0:0:
243,351,107238,6,0,L|155:368,3,55.0000016784668
108,345,107517,1,0,0:0:0:0:
119,314,107586,1,0,0:0:0:0:
122,281,107656,1,0,0:0:0:0:
116,248,107726,1,0,0:0:0:0:
103,219,107796,1,0,0:0:0:0:
81,194,107866,1,0,0:0:0:0:
60,169,107935,1,0,0:0:0:0:
53,137,108005,1,0,0:0:0:0:
63,106,108075,1,0,0:0:0:0:
87,83,108145,1,0,0:0:0:0:
118,75,108214,1,0,0:0:0:0:
150,83,108284,1,0,0:0:0:0:
174,105,108354,6,0,L|179:173,2,55.0000016784668
273,206,108633,1,0,0:0:0:0:
271,179,108702,1,0,0:0:0:0:
269,152,108772,1,0,0:0:0:0:
361,81,108912,2,0,L|366:149,2,55.0000016784668
460,182,109191,1,0,0:0:0:0:
458,155,109260,1,0,0:0:0:0:
456,128,109330,1,0,0:0:0:0:
474,304,109470,5,0,0:0:0:0:
448,293,109539,1,0,0:0:0:0:
421,295,109609,1,0,0:0:0:0:
310,383,109750,1,0,0:0:0:0:
337,384,109820,1,0,0:0:0:0:
362,374,109889,1,0,0:0:0:0:
174,105,110029,5,0,0:0:0:0:
108,345,110168,1,0,0:0:0:0:
273,206,110308,1,0,0:0:0:0:
63,106,110447,1,0,0:0:0:0:
63,106,110517,1,0,0:0:0:0:
63,106,110587,6,0,L|57:25,3,55.0000016784668
137,12,110866,1,0,0:0:0:0:
177,6,110935,1,0,0:0:0:0:
217,15,111005,1,0,0:0:0:0:
252,37,111075,1,0,0:0:0:0:
277,70,111145,2,0,L|267:146,3,55.0000016784668
245,221,111424,5,0,0:0:0:0:
237,260,111493,1,0,0:0:0:0:
254,297,111563,1,0,0:0:0:0:
288,318,111633,1,0,0:0:0:0:
329,316,111703,2,0,L|390:298,3,55.0000016784668
442,232,111982,5,0,0:0:0:0:
408,208,112051,1,0,0:0:0:0:
386,173,112121,1,0,0:0:0:0:
381,133,112191,1,0,0:0:0:0:
391,93,112261,2,0,L|361:33,3,55.0000016784668
277,70,112540,2,0,L|227:23,3,55.0000016784668
153,38,112819,5,0,0:0:0:0:
119,60,112888,1,0,0:0:0:0:
102,97,112958,1,0,0:0:0:0:
107,138,113028,1,0,0:0:0:0:
133,169,113098,2,0,L|146:244,3,55.0000016784668
159,308,113377,5,0,0:0:0:0:
198,295,113446,1,0,0:0:0:0:
238,299,113516,1,0,0:0:0:0:
274,318,113586,1,0,0:0:0:0:
300,350,113657,2,0,L|372:356,3,55.0000016784668
434,313,113936,5,0,0:0:0:0:
415,276,114005,1,0,0:0:0:0:
417,235,114075,1,0,0:0:0:0:
440,202,114145,1,0,0:0:0:0:
477,184,114215,2,0,L|481:113,3,55.0000016784668
488,45,114494,5,0,0:0:0:0:
450,28,114563,1,0,0:0:0:0:
410,33,114633,1,0,0:0:0:0:
378,59,114703,1,0,0:0:0:0:
365,97,114773,1,0,0:0:0:0:
359,135,114842,1,0,0:0:0:0:
326,159,114912,1,0,0:0:0:0:
286,165,114982,1,0,0:0:0:0:
247,153,115052,2,0,L|215:93,3,55.0000016784668
183,28,115331,5,0,0:0:0:0:
150,32,115400,1,0,0:0:0:0:
123,50,115470,1,0,0:0:0:0:
106,78,115540,1,0,0:0:0:0:
104,110,115610,1,0,0:0:0:0:
116,141,115680,1,0,0:0:0:0:
141,162,115749,1,0,0:0:0:0:
152,193,115819,1,0,0:0:0:0:
148,225,115889,1,0,0:0:0:0:
128,252,115959,1,0,0:0:0:0:
99,266,116028,1,0,0:0:0:0:
66,264,116098,1,0,0:0:0:0:
38,247,116168,6,0,L|27:315,3,55.0000016784668
95,366,116447,1,0,0:0:0:0:
126,355,116516,1,0,0:0:0:0:
158,351,116586,1,0,0:0:0:0:
191,355,116656,1,0,0:0:0:0:
223,365,116726,1,0,0:0:0:0:
251,381,116796,1,0,0:0:0:0:
283,377,116865,1,0,0:0:0:0:
310,358,116935,1,0,0:0:0:0:
325,329,117005,1,0,0:0:0:0:
325,296,117075,1,0,0:0:0:0:
309,268,117144,1,0,0:0:0:0:
282,249,117214,1,0,0:0:0:0:
250,245,117284,6,0,B|240:185|240:185|252:123,1,110.000003356934
440,266,117564,1,0,0:0:0:0:
311,180,117703,1,0,0:0:0:0:
464,78,117843,1,0,0:0:0:0:
433,66,117912,1,0,0:0:0:0:
402,55,117982,1,0,0:0:0:0:
488,364,118122,1,0,0:0:0:0:
402,174,118261,1,0,0:0:0:0:
296,366,118401,6,0,L|290:295,1,55.0000016784668
211,283,118540,2,0,L|207:338,1,55.0000016784668
130,371,118680,1,0,0:0:0:0:
97,367,118749,1,0,0:0:0:0:
70,348,118819,1,0,0:0:0:0:
56,319,118889,1,0,0:0:0:0:
57,286,118959,1,0,0:0:0:0:
73,258,119029,1,0,0:0:0:0:
95,234,119098,1,0,0:0:0:0:
95,202,119168,1,0,0:0:0:0:
73,178,119238,2,0,L|61:65,1,110.000003356934
321,142,119517,5,0,0:0:0:0:
149,117,119657,1,0,0:0:0:0:
387,40,119796,2,0,L|414:277,1,239.999992675781
174,91,120215,1,0,0:0:0:0:
307,0,120354,1,0,0:0:0:0:
329,228,120494,2,0,L|209:239,1,119.999996337891
73,178,120773,5,0,0:0:0:0:
193,69,120912,1,0,0:0:0:0:
209,239,121052,2,0,L|220:358,1,119.999996337891
222,52,121331,1,0,0:0:0:0:
360,242,121470,2,0,L|492:228,1,129.999994049073
341,38,121750,6,0,L|218:52,1,119.999996337891
10,83,122029,2,0,L|42:346,1,239.999992675781
285,165,122447,1,0,0:0:0:0:
119,99,122587,1,0,0:0:0:0:
142,276,122726,2,0,L|261:262,1,119.999996337891
223,44,123005,5,0,0:0:0:0:
199,348,123145,1,0,0:0:0:0:
392,140,123284,1,0,0:0:0:0:
119,99,123424,2,0,B|86:158|86:158|74:248,1,139.999995727539
199,348,123703,2,0,L|375:324,1,150.000005722046
365,61,123982,5,0,0:0:0:0:
313,240,124122,1,0,0:0:0:0:
502,163,124261,2,0,B|415:131|415:131|373:147|373:147|268:108,1,239.999992675781
116,70,124680,1,0,0:0:0:0:
288,21,124819,1,0,0:0:0:0:
292,218,124959,2,0,L|168:174,1,119.999996337891
29,118,125238,5,0,0:0:0:0:
201,69,125377,1,0,0:0:0:0:
77,254,125517,2,0,L|53:124,1,119.999996337891
95,353,125796,1,0,0:0:0:0:
269,326,125936,2,0,L|410:299,1,129.999994049073
490,44,126215,6,0,L|445:171,1,119.999996337891
292,218,126494,2,0,B|342:168|320:120|320:120|357:100|357:100|341:50|395:-2,1,239.999992675781
254,148,126912,1,0,0:0:0:0:
392,218,127052,1,0,0:0:0:0:
300,25,127191,2,0,L|182:46,1,119.999996337891
34,199,127470,5,0,0:0:0:0:
160,372,127610,1,0,0:0:0:0:
160,158,127750,1,0,0:0:0:0:
34,331,127890,1,0,0:0:0:0:
237,265,128029,1,0,0:0:0:0:
81,133,128168,2,0,B|89:65|89:65|123:-13,1,139.999995727539
283,99,128447,6,0,L|127:74,1,119.999996337891
414,121,128726,2,0,L|494:359,1,239.999992675781
203,262,129145,1,0,0:0:0:0:
389,208,129284,1,0,0:0:0:0:
353,378,129424,2,0,L|197:353,1,119.999996337891
24,324,129703,5,0,0:0:0:0:
234,247,129843,1,0,0:0:0:0:
91,384,129982,2,0,L|116:228,1,119.999996337891
144,70,130261,1,0,0:0:0:0:
0,162,130401,2,0,L|156:187,1,119.999996337891
333,204,130680,5,0,0:0:0:0:
228,92,130819,1,0,0:0:0:0:
254,275,130959,2,0,L|491:316,1,239.999992675781
336,95,131377,1,0,0:0:0:0:
409,198,131517,1,0,0:0:0:0:
247,179,131657,2,0,B|147:195|147:195|123:227|123:227|14:247,1,239.999992675781
330,310,132075,5,0,0:0:0:0:
169,118,132215,1,0,0:0:0:0:
415,75,132354,1,0,0:0:0:0:
194,260,132494,1,0,0:0:0:0:
278,26,132633,1,0,0:0:0:0:
440,217,132773,1,0,0:0:0:0:
230,347,132912,6,0,B|155:335|155:335|103:340,1,119.999996337891
7,172,133191,2,0,P|-10:231|0:291,1,119.999996337891
125,87,133470,2,0,B|277:104,1,119.999996337891
348,262,133749,2,0,B|337:211|337:211|354:142,1,119.999996337891
484,33,134029,6,0,L|477:152,2,119.999996337891
472,246,134447,2,0,L|465:365,1,119.999996337891
272,262,134726,1,0,0:0:0:0:
118,375,134866,1,0,0:0:0:0:
183,137,135005,6,0,L|174:330,1,160
28,225,135424,2,0,L|20:65,1,160
20,65,135773,1,0,0:0:0:0:
20,65,135843,1,0,0:0:0:0:
271,6,135982,1,0,0:0:0:0:
271,6,136122,2,0,L|451:44,1,175
200,80,136750,2,0,L|380:118,1,175
182,327,137377,5,0,0:0:0:0:
127,293,137470,1,0,0:0:0:0:
113,230,137563,1,0,0:0:0:0:
148,175,137656,1,0,0:0:0:0:
212,162,137749,1,0,0:0:0:0:
239,103,137843,1,0,0:0:0:0:
207,47,137936,5,0,0:0:0:0:
287,44,138029,1,0,0:0:0:0:
367,41,138122,1,0,0:0:0:0:
446,37,138215,2,0,L|461:120,2,66.6666666666667
485,261,138494,5,0,0:0:0:0:
454,274,138587,1,0,0:0:0:0:
421,278,138680,1,0,0:0:0:0:
394,143,138773,5,0,0:0:0:0:
417,167,138866,1,0,0:0:0:0:
432,197,138959,1,0,0:0:0:0:
352,344,139052,5,0,0:0:0:0:
335,280,139145,1,0,0:0:0:0:
356,218,139238,1,0,0:0:0:0:
288,127,139331,6,0,L|192:137,2,66.6666666666667
126,149,139610,1,0,0:0:0:0:
121,164,139703,1,0,0:0:0:0:
116,180,139796,1,0,0:0:0:0:
111,196,139889,5,0,0:0:0:0:
136,206,139982,1,0,0:0:0:0:
161,215,140075,1,0,0:0:0:0:
212,200,140168,1,0,0:0:0:0:
237,209,140261,1,0,0:0:0:0:
262,218,140354,1,0,0:0:0:0:
313,205,140447,1,0,0:0:0:0:
338,214,140540,1,0,0:0:0:0:
363,223,140633,1,0,0:0:0:0:
412,203,140726,5,0,0:0:0:0:
413,219,140819,1,0,0:0:0:0:
415,236,140912,1,0,0:0:0:0:
453,273,141005,1,0,0:0:0:0:
451,290,141098,1,0,0:0:0:0:
449,306,141191,1,0,0:0:0:0:
401,348,141284,6,0,L|288:360,1,79.9999975585938
306,216,141470,2,0,L|372:307,1,79.9999975585938
229,357,141657,2,0,L|275:253,1,79.9999975585938
355,130,141843,5,0,0:0:0:0:
341,66,141936,1,0,0:0:0:0:
286,31,142029,1,0,0:0:0:0:
222,42,142122,1,0,0:0:0:0:
182,94,142215,1,0,0:0:0:0:
189,159,142308,1,0,0:0:0:0:
240,202,142401,2,0,L|330:221,2,66.6666666666667
355,130,142680,2,0,L|445:149,2,66.6666666666667
459,220,142959,5,0,0:0:0:0:
493,275,143052,1,0,0:0:0:0:
481,338,143145,1,0,0:0:0:0:
428,377,143238,1,0,0:0:0:0:
364,368,143331,1,0,0:0:0:0:
323,318,143424,1,0,0:0:0:0:
266,282,143517,5,0,0:0:0:0:
240,289,143610,1,0,0:0:0:0:
177,264,143703,5,0,0:0:0:0:
146,277,143796,2,0,L|73:312,2,66.6666666666667
50,233,144075,5,0,0:0:0:0:
29,171,144168,1,0,0:0:0:0:
61,114,144261,1,0,0:0:0:0:
124,99,144354,2,0,L|195:130,2,66.6666666666667
201,49,144633,2,0,L|271:79,2,66.6666666666667
255,159,144912,2,0,L|325:189,2,66.6666666666667
403,122,145191,5,0,0:0:0:0:
404,138,145284,1,0,0:0:0:0:
405,155,145377,1,0,0:0:0:0:
456,198,145470,5,0,0:0:0:0:
454,220,145563,1,0,0:0:0:0:
453,242,145656,1,0,0:0:0:0:
399,282,145750,5,0,0:0:0:0:
402,315,145843,1,0,0:0:0:0:
406,348,145936,1,0,0:0:0:0:
347,378,146029,6,0,L|263:348,2,66.6666666666667
204,317,146308,1,0,0:0:0:0:
237,260,146401,1,0,0:0:0:0:
225,196,146494,1,0,0:0:0:0:
175,155,146587,1,0,0:0:0:0:
110,157,146680,1,0,0:0:0:0:
55,127,146773,1,0,0:0:0:0:
65,65,146866,5,0,0:0:0:0:
134,27,146959,1,0,0:0:0:0:
214,20,147052,1,0,0:0:0:0:
288,47,147145,2,0,L|378:33,2,66.6666666666667
454,21,147424,5,0,0:0:0:0:
451,43,147517,1,0,0:0:0:0:
448,65,147610,1,0,0:0:0:0:
369,111,147703,5,0,0:0:0:0:
359,142,147796,1,0,0:0:0:0:
349,174,147889,1,0,0:0:0:0:
271,208,147982,5,0,0:0:0:0:
252,272,148075,1,0,0:0:0:0:
233,336,148168,1,0,0:0:0:0:
147,362,148261,6,0,L|65:345,2,66.6666666666667
28,291,148540,1,0,0:0:0:0:
26,268,148633,1,0,0:0:0:0:
25,246,148726,1,0,0:0:0:0:
73,200,148819,5,0,0:0:0:0:
106,197,148912,1,0,0:0:0:0:
139,194,149005,1,0,0:0:0:0:
190,161,149098,1,0,0:0:0:0:
223,158,149191,1,0,0:0:0:0:
256,155,149284,1,0,0:0:0:0:
310,113,149377,1,0,0:0:0:0:
343,110,149470,1,0,0:0:0:0:
376,107,149563,1,0,0:0:0:0:
430,57,149657,5,0,0:0:0:0:
437,67,149750,1,0,0:0:0:0:
446,81,149843,1,0,0:0:0:0:
455,144,149936,1,0,0:0:0:0:
462,155,150029,1,0,0:0:0:0:
470,166,150122,1,0,0:0:0:0:
474,233,150215,6,0,L|434:323,1,79.9999975585938
307,252,150401,2,0,L|404:241,1,79.9999975585938
403,384,150587,2,0,L|345:304,1,79.9999975585938
256,169,150773,5,0,0:0:0:0:
188,146,150866,1,0,0:0:0:0:
128,184,150959,1,0,0:0:0:0:
118,254,151052,1,0,0:0:0:0:
150,318,151145,1,0,0:0:0:0:
219,338,151238,1,0,0:0:0:0:
280,302,151331,2,0,L|356:315,2,66.6666666666667
362,223,151610,2,0,L|437:235,2,66.6666666666667
440,148,151889,5,0,0:0:0:0:
442,76,151982,1,0,0:0:0:0:
390,27,152075,1,0,0:0:0:0:
319,33,152168,1,0,0:0:0:0:
282,96,152261,1,0,0:0:0:0:
217,130,152354,1,0,0:0:0:0:
152,156,152447,5,0,0:0:0:0:
133,128,152540,1,0,0:0:0:0:
65,100,152633,1,0,0:0:0:0:
49,70,152726,2,0,L|56:1,2,66.6666666666667
139,17,153005,5,0,0:0:0:0:
203,18,153098,1,0,0:0:0:0:
243,68,153191,1,0,0:0:0:0:
230,132,153284,2,0,L|164:184,2,66.6666666666667
303,173,153564,2,0,L|355:131,2,66.6666666666667
321,254,153843,2,0,L|255:306,2,66.6666666666667
205,354,154122,5,0,0:0:0:0:
172,347,154215,1,0,0:0:0:0:
139,341,154308,1,0,0:0:0:0:
61,293,154401,5,0,0:0:0:0:
53,249,154494,1,0,0:0:0:0:
46,205,154587,1,0,0:0:0:0:
200,194,154680,5,0,0:0:0:0:
165,222,154773,1,0,0:0:0:0:
131,250,154866,1,0,0:0:0:0:
46,121,154959,5,0,0:0:0:0:
87,137,155052,1,0,0:0:0:0:
128,152,155145,1,0,0:0:0:0:
111,58,155238,5,0,0:0:0:0:
210,89,157052,6,0,L|252:85,2,33.3333333333333
125,102,157191,1,0,0:0:0:0:
387,282,157470,5,0,0:0:0:0:
365,316,157539,1,0,0:0:0:0:
331,339,157609,1,0,0:0:0:0:
290,344,157679,1,0,0:0:0:0:
251,332,157750,2,0,L|245:266,3,55.0000016784668
236,194,158029,5,0,0:0:0:0:
216,158,158098,1,0,0:0:0:0:
182,135,158168,1,0,0:0:0:0:
141,130,158238,1,0,0:0:0:0:
103,144,158308,2,0,L|59:201,3,55.0000016784668
69,278,158587,5,0,0:0:0:0:
109,275,158656,1,0,0:0:0:0:
148,288,158726,1,0,0:0:0:0:
180,314,158796,1,0,0:0:0:0:
199,350,158866,2,0,L|265:358,3,55.0000016784668
345,366,159145,5,0,0:0:0:0:
385,350,159214,1,0,0:0:0:0:
413,317,159284,1,0,0:0:0:0:
421,274,159354,1,0,0:0:0:0:
407,233,159424,1,0,0:0:0:0:
375,204,159493,1,0,0:0:0:0:
343,175,159563,1,0,0:0:0:0:
331,133,159633,1,0,0:0:0:0:
343,91,159703,6,0,L|409:64,3,55.0000016784668
252,129,159982,1,0,0:0:0:0:
230,153,160051,1,0,0:0:0:0:
219,184,160121,1,0,0:0:0:0:
220,217,160191,1,0,0:0:0:0:
233,247,160261,1,0,0:0:0:0:
256,270,160330,1,0,0:0:0:0:
285,284,160400,1,0,0:0:0:0:
301,313,160470,1,0,0:0:0:0:
298,345,160540,1,0,0:0:0:0:
278,370,160610,1,0,0:0:0:0:
247,379,160679,1,0,0:0:0:0:
216,369,160749,1,0,0:0:0:0:
193,345,160819,6,0,L|124:333,3,55.0000016784668
55,320,161098,1,0,0:0:0:0:
35,293,161167,1,0,0:0:0:0:
28,261,161237,1,0,0:0:0:0:
33,228,161307,1,0,0:0:0:0:
51,201,161377,1,0,0:0:0:0:
79,184,161447,1,0,0:0:0:0:
109,174,161517,1,0,0:0:0:0:
141,168,161586,1,0,0:0:0:0:
168,150,161656,1,0,0:0:0:0:
186,122,161726,1,0,0:0:0:0:
190,90,161796,1,0,0:0:0:0:
180,58,161865,1,0,0:0:0:0:
159,33,161936,6,0,L|81:38,2,55.0000016784668
295,27,162215,1,0,0:0:0:0:
323,26,162285,1,0,0:0:0:0:
350,25,162354,1,0,0:0:0:0:
223,147,162494,2,0,L|144:151,2,55.0000016784668
359,140,162773,1,0,0:0:0:0:
386,139,162843,1,0,0:0:0:0:
414,138,162912,1,0,0:0:0:0:
292,274,163052,1,0,0:0:0:0:
264,275,163121,1,0,0:0:0:0:
237,276,163191,1,0,0:0:0:0:
431,272,163331,1,0,0:0:0:0:
458,271,163401,1,0,0:0:0:0:
486,270,163470,1,0,0:0:0:0:
277,372,163610,5,0,0:0:0:0:
223,147,163750,1,0,0:0:0:0:
368,304,163889,1,0,0:0:0:0:
160,352,164029,1,0,0:0:0:0:
160,352,164098,1,0,0:0:0:0:
160,352,164168,6,0,L|83:341,3,55.0000016784668
43,289,164447,1,0,0:0:0:0:
27,251,164516,1,0,0:0:0:0:
35,211,164586,1,0,0:0:0:0:
63,181,164656,1,0,0:0:0:0:
103,172,164726,6,0,L|157:199,3,55.0000016784668
223,240,165005,1,0,0:0:0:0:
263,234,165074,1,0,0:0:0:0:
293,207,165144,1,0,0:0:0:0:
303,168,165214,1,0,0:0:0:0:
289,130,165284,6,0,L|252:81,3,55.0000016784668
281,7,165564,1,0,0:0:0:0:
320,0,165633,1,0,0:0:0:0:
359,4,165703,1,0,0:0:0:0:
388,33,165773,1,0,0:0:0:0:
399,72,165843,6,0,L|392:129,3,55.0000016784668
479,179,166122,2,0,L|486:235,3,55.0000016784668
434,329,166401,5,0,0:0:0:0:
396,313,166470,1,0,0:0:0:0:
355,311,166540,1,0,0:0:0:0:
316,325,166610,1,0,0:0:0:0:
284,351,166680,2,0,L|203:342,3,55.0000016784668
140,335,166959,5,0,0:0:0:0:
165,303,167028,1,0,0:0:0:0:
172,263,167098,1,0,0:0:0:0:
158,224,167168,1,0,0:0:0:0:
127,198,167238,2,0,L|120:123,3,55.0000016784668
115,62,167517,5,0,0:0:0:0:
147,36,167586,1,0,0:0:0:0:
187,28,167656,1,0,0:0:0:0:
226,40,167726,1,0,0:0:0:0:
256,68,167796,2,0,L|321:49,3,55.0000016784668
395,29,168075,5,0,0:0:0:0:
433,41,168144,1,0,0:0:0:0:
461,71,168214,1,0,0:0:0:0:
471,111,168284,1,0,0:0:0:0:
461,150,168354,1,0,0:0:0:0:
439,185,168423,1,0,0:0:0:0:
434,225,168493,1,0,0:0:0:0:
447,264,168563,1,0,0:0:0:0:
475,293,168633,6,0,L|481:355,3,55.0000016784668
385,383,168912,1,0,0:0:0:0:
352,377,168981,1,0,0:0:0:0:
325,359,169051,1,0,0:0:0:0:
307,332,169121,1,0,0:0:0:0:
301,300,169191,1,0,0:0:0:0:
308,268,169260,1,0,0:0:0:0:
302,235,169330,1,0,0:0:0:0:
283,208,169400,1,0,0:0:0:0:
256,191,169470,1,0,0:0:0:0:
223,186,169539,1,0,0:0:0:0:
191,194,169609,1,0,0:0:0:0:
170,220,169680,1,0,0:0:0:0:
146,243,169750,6,0,L|72:224,3,55.0000016784668
35,163,170029,1,0,0:0:0:0:
23,132,170098,1,0,0:0:0:0:
23,99,170168,1,0,0:0:0:0:
34,68,170238,1,0,0:0:0:0:
55,43,170308,1,0,0:0:0:0:
84,27,170377,1,0,0:0:0:0:
116,22,170447,1,0,0:0:0:0:
148,28,170517,1,0,0:0:0:0:
176,45,170587,1,0,0:0:0:0:
205,61,170656,1,0,0:0:0:0:
237,67,170726,1,0,0:0:0:0:
270,63,170796,1,0,0:0:0:0:
299,47,170866,6,0,L|437:68,1,110.000003356934
451,278,171145,1,0,0:0:0:0:
325,169,171284,1,0,0:0:0:0:
325,169,171354,1,0,0:0:0:0:
325,169,171424,1,0,0:0:0:0:
368,369,171564,1,0,0:0:0:0:
437,171,171703,1,0,0:0:0:0:
241,322,171843,2,0,L|112:311,1,110.000003356934
32,124,172122,5,0,0:0:0:0:
183,211,172261,1,0,0:0:0:0:
25,277,172401,1,0,0:0:0:0:
140,107,172540,1,0,0:0:0:0:
173,78,172609,1,0,0:0:0:0:
215,66,172679,1,0,0:0:0:0:
258,72,172749,1,0,0:0:0:0:
295,96,172819,1,0,0:0:0:0:
319,132,172888,1,0,0:0:0:0:
324,176,172959,2,0,L|297:252,1,55.0000016784668
268,312,173098,6,0,L|122:324,1,119.999996337891
0,196,173377,2,0,B|99:185|99:185|139:214|139:214|250:204,1,239.999992675781
440,176,173796,1,0,0:0:0:0:
256,96,173936,1,0,0:0:0:0:
455,36,174075,2,0,L|467:182,1,119.999996337891
292,332,174354,1,0,0:0:0:0:
476,252,174494,1,0,0:0:0:0:
277,192,174633,2,0,L|265:338,1,119.999996337891
45,288,174912,1,0,0:0:0:0:
161,357,175052,2,0,L|173:228,1,129.999994049073
191,11,175331,6,0,L|181:131,1,119.999996337891
276,191,175610,2,0,B|406:244|381:153|521:218,1,239.999992675781
342,129,176029,1,0,0:0:0:0:
437,321,176168,1,0,0:0:0:0:
494,115,176308,2,0,L|368:105,1,119.999996337891
160,136,176587,5,0,0:0:0:0:
295,84,176726,1,0,0:0:0:0:
363,231,176866,1,0,0:0:0:0:
220,302,177005,2,0,B|146:297|146:297|67:309,1,139.999995727539
26,65,177284,2,0,B|56:80|84:52|84:52|116:76|116:76|148:48|192:56,1,160
376,18,177564,6,0,L|413:144,1,119.999996337891
431,274,177843,2,0,B|367:287|328:250|328:250|286:264|286:264|251:217|162:223,1,239.999992675781
319,335,178261,1,0,0:0:0:0:
273,111,178401,1,0,0:0:0:0:
183,332,178540,2,0,L|310:362,1,119.999996337891
247,91,178819,1,0,0:0:0:0:
23,137,178959,1,0,0:0:0:0:
244,227,179098,2,0,L|274:99,1,119.999996337891
103,3,179377,1,0,0:0:0:0:
38,170,179517,2,0,L|171:204,1,129.999994049073
365,253,179796,5,0,0:0:0:0:
247,91,179936,1,0,0:0:0:0:
183,332,180075,2,0,B|235:374|235:374|434:343,1,239.999992675781
368,100,180494,1,0,0:0:0:0:
262,294,180633,1,0,0:0:0:0:
392,240,180773,2,0,L|392:108,1,119.999996337891
176,249,181052,5,0,0:0:0:0:
44,68,181191,1,0,0:0:0:0:
257,137,181331,1,0,0:0:0:0:
44,206,181470,1,0,0:0:0:0:
176,25,181610,1,0,0:0:0:0:
88,315,181750,2,0,B|241:363,1,139.999995727539
468,358,182029,6,0,L|450:228,1,119.999996337891
432,44,182308,2,0,B|388:64|337:35|337:35|301:55|301:55|264:16|193:43,1,239.999992675781
192,184,182726,1,0,0:0:0:0:
362,170,182865,1,0,0:0:0:0:
320,293,183005,2,0,L|186:304,1,119.999996337891
211,86,183284,5,0,0:0:0:0:
175,286,183423,1,0,0:0:0:0:
68,134,183563,2,0,L|57:-1,1,119.999996337891
231,108,183842,1,0,0:0:0:0:
146,267,183982,2,0,L|4:281,1,129.999994049073
262,132,184261,2,0,L|277:295,1,119.999996337891
389,362,184540,2,0,B|339:225|421:255|352:103,1,239.999992675781
447,280,184959,1,0,0:0:0:0:
306,198,185098,1,0,0:0:0:0:
216,369,185238,2,0,B|150:374|119:348|119:348|79:363|79:363|49:328|-21:327,1,239.999992675781
14,131,185657,5,0,0:0:0:0:
189,107,185796,1,0,0:0:0:0:
123,271,185936,1,0,0:0:0:0:
94,68,186075,1,0,0:0:0:0:
203,207,186215,1,0,0:0:0:0:
33,227,186354,1,0,0:0:0:0:
219,89,186494,6,0,L|363:123,1,119.999996337891
461,287,186773,2,0,L|344:259,1,119.999996337891
439,67,187052,2,0,L|405:211,1,119.999996337891
241,309,187331,2,0,L|268:192,1,119.999996337891
170,173,187610,2,0,L|197:56,2,119.999996337891
128,323,188029,1,0,0:0:0:0:
128,323,188168,2,0,P|58:319|60:174,1,239.999992675781
197,56,188587,6,0,L|380:117,1,160
512,236,189005,2,0,L|360:185,1,160
360,185,189354,1,0,0:0:0:0:
360,185,189424,1,0,0:0:0:0:
454,335,189564,1,0,0:0:0:0:
454,335,189703,2,0,B|408:348|388:334|388:334|362:351|362:351|334:327|272:356,1,175
195,213,190331,2,0,B|229:246|227:270|227:270|254:284|254:284|248:320|304:360,1,175
262,38,190959,1,0,0:0:0:0:
327,21,191052,1,0,0:0:0:0:
391,35,191145,1,0,0:0:0:0:
443,76,191238,1,0,0:0:0:0:
472,135,191331,1,0,0:0:0:0:
472,201,191424,1,0,0:0:0:0:
442,261,191517,5,0,0:0:0:0:
379,226,191610,1,0,0:0:0:0:
306,222,191703,1,0,0:0:0:0:
239,251,191796,2,0,L|180:208,2,66.6666666666667
154,341,192075,5,0,0:0:0:0:
157,319,192168,1,0,0:0:0:0:
160,297,192261,1,0,0:0:0:0:
239,251,192354,5,0,0:0:0:0:
249,220,192447,1,0,0:0:0:0:
259,188,192540,1,0,0:0:0:0:
337,154,192633,5,0,0:0:0:0:
356,90,192726,1,0,0:0:0:0:
375,26,192819,1,0,0:0:0:0:
469,104,192912,2,0,L|441:205,2,66.6666666666667
359,181,193191,1,0,0:0:0:0:
361,204,193284,1,0,0:0:0:0:
362,226,193377,1,0,0:0:0:0:
314,272,193470,5,0,0:0:0:0:
281,275,193563,1,0,0:0:0:0:
248,278,193656,1,0,0:0:0:0:
196,319,193749,1,0,0:0:0:0:
163,322,193842,1,0,0:0:0:0:
130,325,193935,1,0,0:0:0:0:
83,372,194028,1,0,0:0:0:0:
50,375,194121,1,0,0:0:0:0:
17,378,194214,1,0,0:0:0:0:
0,310,194308,5,0,0:0:0:0:
1,294,194401,1,0,0:0:0:0:
3,277,194494,1,0,0:0:0:0:
41,240,194587,1,0,0:0:0:0:
39,223,194680,1,0,0:0:0:0:
37,207,194773,1,0,0:0:0:0:
77,160,194866,6,0,L|117:70,1,79.9999975585938
244,141,195052,2,0,L|147:152,1,79.9999975585938
148,9,195238,2,0,L|206:89,1,79.9999975585938
263,244,195424,5,0,0:0:0:0:
326,258,195517,1,0,0:0:0:0:
384,227,195610,1,0,0:0:0:0:
409,167,195703,1,0,0:0:0:0:
389,105,195796,1,0,0:0:0:0:
334,70,195889,1,0,0:0:0:0:
269,79,195982,2,0,L|241:144,2,66.6666666666667
164,150,196261,2,0,L|136:215,2,66.6666666666667
106,293,196540,5,0,0:0:0:0:
135,349,196633,1,0,0:0:0:0:
199,358,196726,1,0,0:0:0:0:
242,311,196819,1,0,0:0:0:0:
294,269,196912,1,0,0:0:0:0:
357,259,197005,1,0,0:0:0:0:
406,302,197098,5,0,0:0:0:0:
429,325,197191,1,0,0:0:0:0:
479,280,197284,5,0,0:0:0:0:
502,303,197377,2,0,L|493:209,2,66.6666666666667
424,193,197657,5,0,0:0:0:0:
445,131,197750,1,0,0:0:0:0:
413,74,197843,1,0,0:0:0:0:
350,59,197936,2,0,L|279:90,2,66.6666666666667
273,9,198215,2,0,L|203:39,2,66.6666666666667
219,119,198494,2,0,L|149:149,2,66.6666666666667
71,82,198773,5,0,0:0:0:0:
70,98,198866,1,0,0:0:0:0:
69,115,198959,1,0,0:0:0:0:
18,158,199052,5,0,0:0:0:0:
20,180,199145,1,0,0:0:0:0:
21,202,199238,1,0,0:0:0:0:
75,242,199332,5,0,0:0:0:0:
72,275,199425,1,0,0:0:0:0:
68,308,199518,1,0,0:0:0:0:
127,338,199611,6,0,L|211:308,2,66.6666666666667
269,286,199889,1,0,0:0:0:0:
246,224,199982,1,0,0:0:0:0:
269,164,200075,1,0,0:0:0:0:
326,133,200168,1,0,0:0:0:0:
390,149,200261,1,0,0:0:0:0:
451,132,200354,1,0,0:0:0:0:
461,70,200447,5,0,0:0:0:0:
383,47,200540,1,0,0:0:0:0:
306,25,200633,1,0,0:0:0:0:
230,2,200726,2,0,L|195:78,2,66.6666666666667
118,38,201005,5,0,0:0:0:0:
123,70,201098,1,0,0:0:0:0:
129,103,201191,1,0,0:0:0:0:
67,153,201284,1,0,0:0:0:0:
60,196,201377,1,0,0:0:0:0:
53,240,201470,1,0,0:0:0:0:
106,302,201564,6,0,L|192:272,1,66.6666666666667
272,319,201750,1,0,0:0:0:0:
272,319,201843,2,0,L|358:289,2,66.6666666666667
437,284,202122,5,0,0:0:0:0:
439,261,202215,1,0,0:0:0:0:
440,239,202308,1,0,0:0:0:0:
392,193,202401,5,0,0:0:0:0:
359,190,202494,1,0,0:0:0:0:
326,187,202587,1,0,0:0:0:0:
274,146,202680,1,0,0:0:0:0:
241,143,202773,1,0,0:0:0:0:
208,140,202866,1,0,0:0:0:0:
161,93,202959,1,0,0:0:0:0:
128,90,203052,1,0,0:0:0:0:
95,87,203145,1,0,0:0:0:0:
45,42,203239,5,0,0:0:0:0:
38,52,203332,1,0,0:0:0:0:
29,66,203425,1,0,0:0:0:0:
20,129,203518,1,0,0:0:0:0:
13,140,203611,1,0,0:0:0:0:
5,151,203704,1,0,0:0:0:0:
1,218,203797,6,0,L|41:308,1,79.9999975585938
168,237,203983,2,0,L|71:226,1,79.9999975585938
72,369,204169,2,0,L|130:289,1,79.9999975585938
209,156,204354,5,0,0:0:0:0:
245,110,204447,1,0,0:0:0:0:
303,102,204540,1,0,0:0:0:0:
349,138,204633,1,0,0:0:0:0:
358,196,204726,1,0,0:0:0:0:
323,243,204819,1,0,0:0:0:0:
265,231,204912,2,0,L|243:312,2,66.6666666666667
392,364,205191,2,0,L|409:299,2,66.6666666666667
433,213,205470,5,0,0:0:0:0:
467,158,205563,1,0,0:0:0:0:
455,95,205656,1,0,0:0:0:0:
402,56,205749,1,0,0:0:0:0:
338,65,205842,1,0,0:0:0:0:
297,115,205935,1,0,0:0:0:0:
240,151,206028,5,0,0:0:0:0:
214,144,206121,1,0,0:0:0:0:
151,169,206214,5,0,0:0:0:0:
120,156,206307,2,0,L|47:121,2,66.6666666666667
24,200,206586,5,0,0:0:0:0:
73,320,206866,5,0,0:0:0:0:
73,320,206936,1,0,0:0:0:0:
73,320,207005,1,0,0:0:0:0:
208,372,207145,5,0,0:0:0:0:
159,87,207424,5,0,0:0:0:0:
454,43,207703,6,0,L|462:131,2,66.6666666666667
474,211,207982,1,0,0:0:0:0:
474,211,208122,1,0,0:0:0:0:
38,173,208401,1,0,0:0:0:0:
38,173,208541,1,0,0:0:0:0:
146,105,208680,1,0,0:0:0:0:
90,371,208819,5,0,0:0:0:0:
166,101,216912,5,0,0:0:0:0:
445,265,217191,1,0,0:0:0:0:
445,265,217331,1,0,0:0:0:0:
65,319,217750,6,0,P|35:288|69:186,1,150
196,239,218308,2,0,L|78:255,1,100
321,225,218866,2,0,L|357:78,1,150
495,144,219424,2,0,P|447:143|404:183,1,100
390,312,219843,1,0,0:0:0:0:
390,312,219982,2,0,L|273:323,2,100
110,333,220819,6,0,L|104:271,1,50
93,189,221098,2,0,L|88:139,2,50
77,38,221657,1,0,0:0:0:0:
77,38,221936,2,0,L|141:48,1,50
237,62,222215,6,0,B|249:118|249:118|234:151|234:151|250:222,1,150
406,206,222773,2,0,L|314:165,1,100
261,364,223331,2,0,B|345:334|324:397|418:355,1,150
406,206,223889,2,0,L|365:298,1,100
314,165,224308,1,0,0:0:0:0:
314,165,224447,2,0,L|199:178,2,100
51,188,225284,6,0,L|59:136,1,50
79,49,225564,1,0,0:0:0:0:
79,49,225703,1,0,0:0:0:0:
79,49,225843,1,0,0:0:0:0:
141,302,226122,5,0,0:0:0:0:
365,106,226401,1,0,0:0:0:0:
365,106,226540,1,0,0:0:0:0:
365,106,226680,2,0,L|342:240,1,100
424,350,226959,2,0,L|440:251,1,100
310,297,227238,1,0,0:0:0:0:
208,53,227517,6,0,L|86:62,1,100
10,135,227796,1,0,0:0:0:0:
10,135,227936,1,0,0:0:0:0:
150,181,228075,1,0,0:0:0:0:
150,181,228215,1,0,0:0:0:0:
41,281,228354,1,0,0:0:0:0:
424,350,228633,6,0,L|412:226,1,100
393,76,228912,1,0,0:0:0:0:
393,76,229052,1,0,0:0:0:0:
288,194,229191,1,0,0:0:0:0:
288,194,229331,1,0,0:0:0:0:
505,129,229470,1,0,0:0:0:0:
294,28,229610,2,0,L|165:42,2,100
49,68,230029,2,0,L|35:184,1,100
143,277,230308,2,0,L|154:177,1,100
131,376,230587,1,0,0:0:0:0:
345,266,230726,5,0,0:0:0:0:
253,198,230866,1,0,0:0:0:0:
254,222,230935,1,0,0:0:0:0:
256,247,231005,1,0,0:0:0:0:
257,272,231075,1,0,0:0:0:0:
259,297,231145,2,0,L|323:386,1,100
377,173,231424,5,0,0:0:0:0:
377,173,231564,1,0,0:0:0:0:
143,277,231703,1,0,0:0:0:0:
58,70,231982,6,0,L|174:49,1,100
253,198,232261,1,0,0:0:0:0:
253,198,232401,1,0,0:0:0:0:
131,142,232540,1,0,0:0:0:0:
131,142,232680,1,0,0:0:0:0:
357,107,232819,1,0,0:0:0:0:
317,378,233098,5,0,0:0:0:0:
317,378,233238,1,0,0:0:0:0:
194,284,233377,2,0,L|179:407,1,100
86,260,233657,2,0,L|98:160,1,100
234,59,233936,1,0,0:0:0:0:
402,278,234215,5,0,0:0:0:0:
402,278,234354,2,0,L|386:149,1,100
316,313,234633,2,0,L|300:184,2,100
223,369,235052,1,0,0:0:0:0:
74,96,235331,6,0,L|214:88,1,100
425,82,235610,1,0,0:0:0:0:
425,82,235750,1,0,0:0:0:0:
279,195,235889,1,0,0:0:0:0:
279,195,236029,1,0,0:0:0:0:
254,2,236168,1,0,0:0:0:0:
417,210,236447,6,0,L|406:329,1,100
310,384,236726,2,0,L|319:284,1,100
202,328,237005,1,0,0:0:0:0:
202,328,237145,1,0,0:0:0:0:
16,264,237284,1,0,0:0:0:0:
154,13,237564,6,0,L|283:-2,1,100
354,199,237843,1,0,0:0:0:0:
354,199,237982,1,0,0:0:0:0:
170,131,238122,1,0,0:0:0:0:
170,131,238261,1,0,0:0:0:0:
313,68,238401,2,0,L|273:172,1,100
211,299,238680,6,0,L|85:286,1,100
383,322,238959,1,0,0:0:0:0:
383,322,239098,1,0,0:0:0:0:
176,384,239238,1,0,0:0:0:0:
176,384,239377,1,0,0:0:0:0:
277,161,239517,1,0,0:0:0:0:
40,232,239657,5,0,0:0:0:0:
39,215,239726,1,0,0:0:0:0:
38,198,239796,1,0,0:0:0:0:
37,182,239866,1,0,0:0:0:0:
36,165,239936,1,0,0:0:0:0:
35,148,240005,1,0,0:0:0:0:
34,132,240075,6,0,L|168:105,1,100
239,8,240354,2,0,L|141:27,1,100
185,194,240633,1,0,0:0:0:0:
357,292,240912,6,0,L|477:308,2,100
223,368,241331,2,0,L|103:384,2,100
492,215,241750,1,0,0:0:0:0:
256,52,242029,6,0,L|256:176,1,100
7,55,242308,5,0,0:0:0:0:
18,189,242447,1,0,0:0:0:0:
20,214,242517,1,0,0:0:0:0:
23,239,242586,1,0,0:0:0:0:
175,133,242726,5,0,0:0:0:0:
52,76,242865,1,0,0:0:0:0:
30,66,242935,1,0,0:0:0:0:
7,55,243004,1,0,0:0:0:0:
23,239,243145,5,0,0:0:0:0:
133,160,243284,1,0,0:0:0:0:
153,146,243354,1,0,0:0:0:0:
174,132,243423,1,0,0:0:0:0:
301,42,243564,1,0,0:0:0:0:
301,42,243633,1,0,0:0:0:0:
301,42,243703,5,0,0:0:0:0:
206,278,243843,1,0,0:0:0:0:
391,211,243982,1,0,0:0:0:0:
174,132,244122,1,0,0:0:0:0:
277,357,244261,1,0,0:0:0:0:
351,132,244401,1,0,0:0:0:0:
58,124,244540,5,0,0:0:0:0:
0,55,244633,1,0,0:0:0:0:
88,39,244726,1,0,0:0:0:0:
9,106,244819,1,0,0:0:0:0:
40,20,244912,1,0,0:0:0:0:
97,89,245005,1,0,0:0:0:0:
39,208,245098,2,0,L|138:194,2,100.000003814697
248,259,245377,2,0,L|149:272,2,100.000003814697
377,236,245657,5,0,0:0:0:0:
435,167,245750,1,0,0:0:0:0:
347,151,245843,1,0,0:0:0:0:
426,218,245936,1,0,0:0:0:0:
395,132,246029,1,0,0:0:0:0:
338,201,246122,1,0,0:0:0:0:
396,320,246215,2,0,L|296:306,2,100.000003814697
187,371,246494,2,0,L|286:384,2,100.000003814697
54,343,246773,5,0,0:0:0:0:
54,266,246866,1,0,0:0:0:0:
120,304,246959,1,0,0:0:0:0:
31,304,247052,1,0,0:0:0:0:
98,266,247145,1,0,0:0:0:0:
98,342,247238,1,0,0:0:0:0:
12,198,247331,6,0,L|25:97,2,93.3333304850261
119,109,247610,2,0,L|106:8,2,93.3333304850261
222,35,247889,5,0,0:0:0:0:
265,30,247982,1,0,0:0:0:0:
308,25,248075,1,0,0:0:0:0:
367,45,248168,1,0,0:0:0:0:
410,40,248261,1,0,0:0:0:0:
453,35,248354,1,0,0:0:0:0:
501,81,248447,5,0,0:0:0:0:
497,102,248540,1,0,0:0:0:0:
494,123,248633,1,0,0:0:0:0:
439,161,248726,1,0,0:0:0:0:
435,182,248819,1,0,0:0:0:0:
432,203,248912,1,0,0:0:0:0:
382,243,249005,6,0,B|324:275|286:251|286:251|260:284|260:284|210:263|139:292,1,239.999992675781
119,0,249564,2,0,B|154:98|154:98|190:114|190:114|229:215,1,239.999992675781
215,348,250122,5,0,0:0:0:0:
9,303,250261,1,0,0:0:0:0:
241,328,250401,5,0,0:0:0:0:
35,283,250540,1,0,0:0:0:0:
97,111,250680,2,0,L|109:205,1,59.9999981689454
134,371,250819,1,0,0:0:0:0:
218,191,250959,1,0,0:0:0:0:
403,363,251238,5,0,0:0:0:0:
385,313,251307,1,0,0:0:0:0:
408,266,251377,1,0,0:0:0:0:
458,251,251447,1,0,0:0:0:0:
485,205,251516,1,0,0:0:0:0:
476,153,251586,1,0,0:0:0:0:
435,119,251656,1,0,0:0:0:0:
383,118,251726,1,0,0:0:0:0:
356,165,251796,5,0,0:0:0:0:
325,182,251865,1,0,0:0:0:0:
289,182,251935,1,0,0:0:0:0:
258,164,252005,1,0,0:0:0:0:
246,133,252075,1,0,0:0:0:0:
242,98,252145,1,0,0:0:0:0:
230,64,252214,1,0,0:0:0:0:
203,41,252284,1,0,0:0:0:0:
168,34,252354,5,0,0:0:0:0:
141,47,252423,1,0,0:0:0:0:
114,60,252493,1,0,0:0:0:0:
86,72,252563,1,0,0:0:0:0:
59,85,252633,2,0,L|39:172,3,59.9999981689454
32,242,252912,6,0,B|80:238|120:275|120:275|156:253|156:253|183:288|249:278,1,239.999992675781
475,225,253470,5,0,0:0:0:0:
470,195,253539,1,0,0:0:0:0:
465,165,253609,1,0,0:0:0:0:
460,136,253679,1,0,0:0:0:0:
410,93,253750,5,0,0:0:0:0:
395,95,253819,1,0,0:0:0:0:
380,97,253889,1,0,0:0:0:0:
365,99,253959,1,0,0:0:0:0:
350,101,254029,5,0,0:0:0:0:
355,145,254098,1,0,0:0:0:0:
360,190,254168,1,0,0:0:0:0:
365,235,254238,1,0,0:0:0:0:
370,276,254308,5,0,0:0:0:0:
340,279,254377,1,0,0:0:0:0:
310,283,254447,1,0,0:0:0:0:
280,285,254517,1,0,0:0:0:0:
250,289,254587,5,0,0:0:0:0:
240,231,254656,1,0,0:0:0:0:
230,171,254726,1,0,0:0:0:0:
222,112,254796,1,0,0:0:0:0:
214,52,254866,5,0,0:0:0:0:
169,56,254935,1,0,0:0:0:0:
124,61,255005,1,0,0:0:0:0:
79,65,255075,1,0,0:0:0:0:
34,70,255145,5,0,0:0:0:0:
49,143,255214,1,0,0:0:0:0:
64,217,255284,1,0,0:0:0:0:
78,290,255354,1,0,0:0:0:0:
93,364,255424,5,0,0:0:0:0:
151,349,255493,1,0,0:0:0:0:
209,334,255563,1,0,0:0:0:0:
267,319,255633,1,0,0:0:0:0:
325,304,255703,5,0,0:0:0:0:
274,253,255772,1,0,0:0:0:0:
282,181,255842,1,0,0:0:0:0:
344,144,255912,1,0,0:0:0:0:
412,170,255982,5,0,0:0:0:0:
450,147,256051,1,0,0:0:0:0:
462,104,256121,1,0,0:0:0:0:
441,66,256191,1,0,0:0:0:0:
399,52,256261,6,0,L|321:48,1,59.9999981689454
252,1,256401,2,0,L|247:79,1,59.9999981689454
196,149,256540,2,0,L|274:153,1,59.9999981689454
341,204,256680,2,0,L|345:125,1,59.9999981689454
121,33,256819,5,0,0:0:0:0:
94,255,256959,1,0,0:0:0:0:
87,39,257098,5,0,0:0:0:0:
60,261,257238,1,0,0:0:0:0:
248,60,257377,1,0,0:0:0:0:
1,132,257517,1,0,0:0:0:0:
151,349,257657,2,0,L|281:316,1,119.999996337891
445,341,257936,5,0,0:0:0:0:
512,302,258029,1,0,0:0:0:0:
445,263,258122,1,0,0:0:0:0:
445,263,258215,2,0,L|349:274,1,79.9999975585938
385,190,258401,5,0,0:0:0:0:
411,117,258494,1,0,0:0:0:0:
334,130,258587,1,0,0:0:0:0:
334,130,258680,2,0,L|267:200,1,79.9999975585938
252,108,258866,5,0,0:0:0:0:
224,36,258959,1,0,0:0:0:0:
174,94,259052,1,0,0:0:0:0:
174,94,259145,2,0,L|167:190,1,79.9999975585938
157,300,259331,6,0,L|246:350,1,79.9999975585938
328,323,259517,2,0,L|398:363,2,79.9999975585938
334,130,259796,1,0,0:0:0:0:
334,130,259889,6,0,L|246:182,1,79.9999975585938
227,262,260075,2,0,L|123:318,2,79.9999975585938
398,363,260354,1,0,0:0:0:0:
398,363,260447,6,0,L|396:260,1,79.9999975585938
334,209,260633,2,0,L|333:129,2,79.9999975585938
91,209,260912,5,0,0:0:0:0:
91,209,261005,2,0,L|79:74,1,119.999996337891
359,14,261284,5,0,0:0:0:0:
334,209,261424,1,0,0:0:0:0:
334,209,261564,1,0,0:0:0:0:
449,95,261703,5,0,0:0:0:0:
424,290,261843,1,0,0:0:0:0:
424,290,261983,1,0,0:0:0:0:
253,130,262122,6,0,L|110:147,1,119.999996337891
21,284,262401,6,0,B|115:301|115:301|137:334|137:334|248:348,1,220.000006713867
218,156,262819,1,0,0:0:0:0:
218,155,262959,2,0,L|183:275,1,110.000003356934
81,64,263238,2,0,L|116:184,1,110.000003356934
254,40,263517,6,0,P|352:45|416:163,1,220.000006713867
377,384,263936,1,0,0:0:0:0:
377,384,264075,2,0,L|356:270,1,110.000003356934
189,136,264354,2,0,L|208:244,1,110.000003356934
167,29,264633,6,0,B|230:68|271:57|271:57|289:89|289:89|328:68|381:113,1,220.000006713867
455,226,265052,1,0,0:0:0:0:
455,226,265191,2,0,B|457:151|427:121|427:121|445:90|445:90|408:67|420:-1,1,220.000006713867
320,166,265610,1,0,0:0:0:0:
320,166,265749,2,0,B|254:201|243:242|243:242|207:241|207:241|205:285|140:309,1,220.000006713867
85,171,266168,1,0,0:0:0:0:
85,171,266308,2,0,L|209:161,1,110.000003356934
438,268,266587,2,0,L|314:258,1,110.000003356934
70,358,266866,5,0,0:0:0:0:
70,358,266936,1,0,0:0:0:0:
70,358,267005,1,0,0:0:0:0:
194,162,267145,1,0,0:0:0:0:
198,315,267284,1,0,0:0:0:0:
30,198,267424,1,0,0:0:0:0:
284,146,267564,1,0,0:0:0:0:
112,271,267703,1,0,0:0:0:0:
79,41,267843,1,0,0:0:0:0:
292,18,267982,5,0,0:0:0:0:
292,18,268052,1,0,0:0:0:0:
292,18,268122,1,0,0:0:0:0:
279,262,268261,1,0,0:0:0:0:
421,97,268401,1,0,0:0:0:0:
427,296,268540,1,0,0:0:0:0:
255,164,268680,1,0,0:0:0:0:
509,178,268819,1,0,0:0:0:0:
357,384,268959,1,0,0:0:0:0:
383,193,269098,5,0,0:0:0:0:
383,193,269168,1,0,0:0:0:0:
383,193,269238,1,0,0:0:0:0:
145,278,269377,1,0,0:0:0:0:
427,296,269517,1,0,0:0:0:0:
258,80,269657,1,0,0:0:0:0:
245,348,269796,1,0,0:0:0:0:
383,193,269936,1,0,0:0:0:0:
122,180,270075,1,0,0:0:0:0:
347,112,270215,6,0,B|405:91|434:11|434:11|491:20|515:89|515:89|469:145|516:204|516:204|494:239|494:239|493:275,1,440.000013427735
392,369,270912,2,0,L|277:351,2,110.000003356934
119,317,271331,6,0,B|96:224|96:224|64:207|64:207|39:117,1,220.000006713867
230,161,271750,1,0,0:0:0:0:
230,161,271889,2,0,L|85:145,1,110.000003356934
323,245,272168,2,0,L|468:229,1,110.000003356934
379,38,272447,6,0,L|136:22,1,220.000006713867
14,135,272866,1,0,0:0:0:0:
14,135,273005,2,0,L|41:241,1,110.000003356934
196,314,273284,2,0,L|165:192,1,110.000003356934
379,38,273564,6,0,B|408:72|379:96|379:96|408:125|408:125|382:163|414:214,1,165.000005035401
401,212,273843,2,0,L|362:323,1,110.000003356934
94,384,274122,6,0,B|70:350|70:350|85:321|85:321|48:277|76:229|76:229|49:189|49:189|81:138|39:106|39:106|54:77|54:77|52:54|36:32,1,385.000011749268
141,123,274680,6,0,B|220:141|220:141|254:120|254:120|351:139,1,220.000006713867
284,304,275098,1,0,0:0:0:0:
284,304,275238,2,0,L|268:189,1,110.000003356934
443,273,275517,2,0,L|427:381,1,110.000003356934
68,87,275796,6,0,L|278:72,1,179.999994506836
441,62,276215,1,0,0:0:0:0:
441,62,276354,2,0,P|430:119|462:184,1,89.9999972534181
284,304,276633,2,0,P|292:260|280:216,1,89.9999972534181
52,349,276912,2,0,P|117:276|215:264,1,200
66,194,277331,1,0,0:0:0:0:
163,347,277470,2,0,L|272:335,1,100
437,149,277750,2,0,L|337:159,1,100
49,165,278029,6,0,L|17:409,1,220.000006713867
154,137,278447,1,0,0:0:0:0:
154,137,278587,2,0,L|122:381,1,220.000006713867
181,6,279145,5,0,0:0:0:0:
466,53,279424,5,0,0:0:0:0:
298,358,279703,5,0,0:0:0:0:
252,111,279982,5,0,0:0:0:0:
446,255,280261,6,0,L|313:265,1,119.999996337891
95,276,280540,2,0,L|74:3,1,239.999992675781
284,100,280959,1,0,0:0:0:0:
125,163,281098,1,0,0:0:0:0:
308,291,281238,2,0,L|464:280,1,119.999996337891
153,188,281517,1,0,0:0:0:0:
216,347,281656,1,0,0:0:0:0:
345,156,281796,2,0,L|334:0,1,119.999996337891
176,206,282075,1,0,0:0:0:0:
338,310,282215,2,0,L|499:299,1,129.999994049073
97,323,282494,6,0,L|85:167,1,119.999996337891
249,150,282773,2,0,B|256:238|256:238|218:274|218:274|225:373,1,239.999992675781
346,156,283191,1,0,0:0:0:0:
176,206,283331,1,0,0:0:0:0:
366,328,283470,2,0,L|501:328,1,119.999996337891
279,47,283750,5,0,0:0:0:0:
209,325,283889,1,0,0:0:0:0:
383,221,284029,1,0,0:0:0:0:
105,151,284168,2,0,L|81:-6,1,150.000005722046
0,271,284447,2,0,L|175:245,1,170.000003242493
383,221,284726,5,0,0:0:0:0:
204,176,284866,1,0,0:0:0:0:
273,384,285005,2,0,L|521:346,1,239.999992675781
303,180,285424,1,0,0:0:0:0:
166,286,285564,1,0,0:0:0:0:
411,237,285703,2,0,L|389:89,1,119.999996337891
204,176,285982,1,0,0:0:0:0:
293,325,286122,1,0,0:0:0:0:
239,72,286261,2,0,L|88:97,1,119.999996337891
383,51,286540,1,0,0:0:0:0:
411,237,286680,2,0,L|432:366,1,129.999994049073
148,262,286959,5,0,0:0:0:0:
312,231,287098,1,0,0:0:0:0:
212,134,287238,2,0,L|253:383,1,239.999992675781
111,168,287657,1,0,0:0:0:0:
195,30,287796,1,0,0:0:0:0:
291,112,287936,2,0,L|312:233,1,119.999996337891
75,88,288215,1,0,0:0:0:0:
213,172,288354,1,0,0:0:0:0:
131,268,288494,2,0,L|10:289,1,119.999996337891
370,230,288773,1,0,0:0:0:0:
220,347,288912,2,0,L|79:375,1,139.999995727539
488,292,289191,5,0,0:0:0:0:
337,324,289331,1,0,0:0:0:0:
402,130,289470,2,0,B|344:138|312:101|312:101|278:115|278:115|238:73|160:78,1,239.999992675781
13,217,289889,1,0,0:0:0:0:
202,166,290029,1,0,0:0:0:0:
60,14,290168,2,0,L|97:157,1,119.999996337891
131,286,290447,1,0,0:0:0:0:
320,235,290587,1,0,0:0:0:0:
178,83,290726,2,0,L|216:226,1,119.999996337891
263,371,291005,1,0,0:0:0:0:
263,371,291145,2,0,L|419:329,1,150.000005722046
481,66,291424,5,0,0:0:0:0:
431,249,291564,1,0,0:0:0:0:
219,177,291703,2,0,L|475:151,1,239.999992675781
235,87,292122,5,0,0:0:0:0:
336,242,292261,1,0,0:0:0:0:
255,55,292401,2,0,L|115:37,1,119.999996337891
5,213,292680,1,0,0:0:0:0:
224,318,292819,1,0,0:0:0:0:
105,162,292959,1,0,0:0:0:0:
0,381,293098,1,0,0:0:0:0:
226,228,293238,1,0,0:0:0:0:
130,378,293377,1,0,0:0:0:0:
26,124,293517,1,0,0:0:0:0:
224,318,293657,6,0,L|367:339,1,119.999996337891
505,268,293936,2,0,L|386:250,1,119.999996337891
26,124,294215,2,0,L|144:106,1,119.999996337891
307,174,294494,2,0,L|188:191,1,119.999996337891
432,153,294773,2,0,L|449:27,2,119.999996337891
403,355,295191,1,0,0:0:0:0:
403,355,295331,2,0,L|284:372,1,119.999996337891
62,310,295610,1,0,0:0:0:0:
304,127,295750,6,0,L|335:321,1,160
172,230,296168,2,0,B|188:199|163:172|163:172|174:140|174:140|154:110|159:70,1,160
158,80,296517,1,0,0:0:0:0:
158,80,296587,1,0,0:0:0:0:
393,184,296726,1,0,0:0:0:0:
258,341,296866,6,0,L|70:309,1,175
172,230,297494,2,0,L|344:259,1,175
482,221,298122,5,0,0:0:0:0:
504,158,298215,1,0,0:0:0:0:
493,93,298308,1,0,0:0:0:0:
451,42,298401,1,0,0:0:0:0:
389,17,298494,1,0,0:0:0:0:
325,26,298587,1,0,0:0:0:0:
271,66,298680,5,0,0:0:0:0:
287,142,298773,1,0,0:0:0:0:
247,209,298866,1,0,0:0:0:0:
172,230,298959,2,0,L|93:211,2,66.6666666666667
124,347,299238,5,0,0:0:0:0:
156,340,299331,1,0,0:0:0:0:
189,333,299424,1,0,0:0:0:0:
271,361,299517,5,0,0:0:0:0:
309,351,299610,1,0,0:0:0:0:
348,342,299703,1,0,0:0:0:0:
393,268,299796,6,0,L|372:182,1,66.6666666666667
244,234,299982,2,0,L|328:258,1,66.6666666666667
351,126,300168,2,0,L|287:187,1,66.6666666666667
214,112,300354,5,0,0:0:0:0:
194,109,300447,1,0,0:0:0:0:
174,107,300540,1,0,0:0:0:0:
110,128,300633,5,0,0:0:0:0:
121,159,300726,1,0,0:0:0:0:
133,190,300819,1,0,0:0:0:0:
190,226,300912,1,0,0:0:0:0:
201,257,301005,1,0,0:0:0:0:
213,288,301098,1,0,0:0:0:0:
270,321,301191,1,0,0:0:0:0:
281,352,301284,1,0,0:0:0:0:
293,383,301377,1,0,0:0:0:0:
359,380,301470,5,0,0:0:0:0:
364,368,301563,1,0,0:0:0:0:
370,356,301656,1,0,0:0:0:0:
417,307,301750,1,0,0:0:0:0:
411,295,301843,1,0,0:0:0:0:
406,283,301936,1,0,0:0:0:0:
376,208,302029,6,0,L|392:117,1,79.9999975585938
290,224,302215,2,0,L|306:133,1,79.9999975585938
209,234,302401,2,0,L|225:143,1,79.9999975585938
100,215,302587,5,0,0:0:0:0:
65,270,302680,1,0,0:0:0:0:
74,335,302773,1,0,0:0:0:0:
122,379,302866,1,0,0:0:0:0:
187,381,302959,1,0,0:0:0:0:
239,342,303052,1,0,0:0:0:0:
257,279,303145,2,0,L|205:230,2,66.6666666666667
222,155,303424,2,0,L|170:106,2,66.6666666666667
107,51,303703,5,0,0:0:0:0:
45,59,303796,1,0,0:0:0:0:
14,116,303889,1,0,0:0:0:0:
44,173,303982,1,0,0:0:0:0:
65,236,304075,1,0,0:0:0:0:
53,299,304168,1,0,0:0:0:0:
92,352,304261,5,0,0:0:0:0:
123,340,304354,1,0,0:0:0:0:
188,351,304447,5,0,0:0:0:0:
219,339,304540,2,0,L|305:299,2,66.6666666666667
375,269,304819,1,0,0:0:0:0:
328,223,304912,1,0,0:0:0:0:
331,159,305005,1,0,0:0:0:0:
381,113,305098,2,0,L|458:141,2,66.6666666666667
297,77,305377,2,0,L|282:-3,2,66.6666666666667
222,119,305657,2,0,L|207:38,2,66.6666666666667
92,101,305936,5,0,0:0:0:0:
87,140,306029,1,0,0:0:0:0:
82,180,306122,1,0,0:0:0:0:
122,233,306215,5,0,0:0:0:0:
116,265,306308,1,0,0:0:0:0:
109,298,306401,1,0,0:0:0:0:
149,350,306494,5,0,0:0:0:0:
198,330,306587,1,0,0:0:0:0:
248,311,306680,1,0,0:0:0:0:
264,247,306773,6,0,L|277:160,2,66.6666666666667
374,150,307052,5,0,0:0:0:0:
396,213,307145,1,0,0:0:0:0:
385,278,307238,1,0,0:0:0:0:
343,329,307331,1,0,0:0:0:0:
281,354,307424,1,0,0:0:0:0:
217,345,307517,1,0,0:0:0:0:
163,305,307610,5,0,0:0:0:0:
179,229,307703,1,0,0:0:0:0:
139,162,307796,1,0,0:0:0:0:
64,141,307889,2,0,L|-15:160,2,66.6666666666667
123,37,308168,5,0,0:0:0:0:
156,44,308261,1,0,0:0:0:0:
189,51,308354,1,0,0:0:0:0:
271,23,308447,5,0,0:0:0:0:
309,33,308540,1,0,0:0:0:0:
348,42,308633,1,0,0:0:0:0:
393,116,308726,6,0,L|372:202,1,66.6666666666667
244,150,308912,2,0,L|328:126,1,66.6666666666667
351,258,309098,2,0,L|287:197,1,66.6666666666667
214,272,309284,5,0,0:0:0:0:
194,275,309377,1,0,0:0:0:0:
174,277,309470,1,0,0:0:0:0:
110,256,309563,5,0,0:0:0:0:
121,225,309656,1,0,0:0:0:0:
133,194,309749,1,0,0:0:0:0:
190,158,309842,1,0,0:0:0:0:
201,127,309935,1,0,0:0:0:0:
213,96,310028,1,0,0:0:0:0:
270,63,310121,1,0,0:0:0:0:
281,32,310214,1,0,0:0:0:0:
293,1,310307,1,0,0:0:0:0:
359,4,310400,5,0,0:0:0:0:
364,16,310493,1,0,0:0:0:0:
370,28,310586,1,0,0:0:0:0:
417,77,310680,1,0,0:0:0:0:
411,89,310773,1,0,0:0:0:0:
406,101,310866,1,0,0:0:0:0:
376,175,310959,6,0,L|392:267,1,79.9999975585938
303,238,311145,2,0,L|290:160,1,79.9999975585938
209,150,311331,2,0,L|225:241,1,79.9999975585938
100,169,311517,5,0,0:0:0:0:
65,114,311610,1,0,0:0:0:0:
74,49,311703,1,0,0:0:0:0:
122,5,311796,1,0,0:0:0:0:
187,3,311889,1,0,0:0:0:0:
239,42,311982,1,0,0:0:0:0:
257,105,312075,2,0,L|205:153,2,66.6666666666667
222,229,312354,2,0,L|170:277,2,66.6666666666667
107,333,312633,5,0,0:0:0:0:
45,325,312726,1,0,0:0:0:0:
14,268,312819,1,0,0:0:0:0:
44,210,312912,1,0,0:0:0:0:
65,148,313005,1,0,0:0:0:0:
53,85,313098,1,0,0:0:0:0:
92,32,313191,5,0,0:0:0:0:
123,44,313284,1,0,0:0:0:0:
188,33,313377,5,0,0:0:0:0:
218,46,313470,2,0,L|285:73,2,66.6666666666667
372,105,313750,1,0,0:0:0:0:
372,105,313843,1,0,0:0:0:0:
372,105,313936,1,0,0:0:0:0:
372,105,314029,1,0,0:0:0:0:
156,309,314308,6,0,L|72:297,2,50
377,345,314587,1,0,0:0:0:0:
377,345,314726,2,0,L|426:352,2,50
475,222,315005,5,0,0:0:0:0:
483,185,315074,1,0,0:0:0:0:
476,149,315144,1,0,0:0:0:0:
454,119,315214,1,0,0:0:0:0:
421,100,315284,2,0,L|356:106,1,50
327,35,315424,2,0,L|262:41,1,50
171,55,315564,1,0,0:0:0:0:
171,55,315633,1,0,0:0:0:0:
171,55,315703,2,0,L|152:136,1,66.6666666666667
138,218,315889,1,0,0:0:0:0:
117,318,315982,5,0,0:0:0:0:
141,330,316540,1,0,0:0:0:0:
340,315,317657,5,0,0:0:0:0:
141,330,317936,1,0,0:0:0:0:
240,323,318215,5,0,0:0:0:0:
241,303,318773,1,0,0:0:0:0:
79,138,319331,6,0,L|81:58,2,66.6666666666667
178,44,319610,1,0,0:0:0:0:
176,77,319703,1,0,0:0:0:0:
175,110,319796,1,0,0:0:0:0:
267,149,319889,2,0,L|269:69,2,66.6666666666667
366,55,320168,1,0,0:0:0:0:
364,88,320261,1,0,0:0:0:0:
363,121,320354,1,0,0:0:0:0:
447,183,320447,5,0,0:0:0:0:
99,331,321564,5,0,0:0:0:0:
95,297,321657,1,0,0:0:0:0:
91,264,321750,1,0,0:0:0:0:
152,237,321843,5,0,0:0:0:0:
155,203,321936,1,0,0:0:0:0:
159,170,322029,1,0,0:0:0:0:
92,161,322122,5,0,0:0:0:0:
88,128,322215,1,0,0:0:0:0:
85,95,322308,1,0,0:0:0:0:
145,67,322401,5,0,0:0:0:0:
148,33,322494,1,0,0:0:0:0:
152,0,322587,1,0,0:0:0:0:
236,28,322680,6,0,L|243:109,1,50
334,129,322819,2,0,L|338:79,1,50
325,222,322959,2,0,L|316:307,2,66.6666666666667
186,311,323238,1,0,0:0:0:0:
237,281,323331,1,0,0:0:0:0:
186,251,323424,1,0,0:0:0:0:
220,310,323517,1,0,0:0:0:0:
220,251,323610,1,0,0:0:0:0:
168,280,323703,1,0,0:0:0:0:
87,306,323796,6,0,L|73:248,2,33.3333333333333
58,193,323936,2,0,L|44:135,2,33.3333333333333
185,157,324075,2,0,L|199:99,2,33.3333333333333
172,43,324215,2,0,L|186:-15,2,33.3333333333333
283,26,324354,5,0,0:0:0:0:
283,26,324401,2,0,L|336:20,1,33.3333333333333
440,110,324540,1,0,0:0:0:0:
440,110,324587,2,0,L|387:104,1,33.3333333333333
79,113,324912,6,0,L|175:101,2,66.6666666666667
172,43,325258,2,0,L|134:132,2,66.6666666666667
185,157,325605,2,0,L|127:80,2,66.6666666666667
334,15,325952,6,0,L|346:111,2,66.6666666666667
404,108,326299,2,0,L|315:70,2,66.6666666666667
290,121,326646,2,0,L|367:63,2,66.6666666666667
432,270,326992,6,0,L|336:282,2,66.6666666666667
339,340,327339,2,0,L|377:251,2,66.6666666666667
326,226,327686,2,0,L|384:303,2,66.6666666666667
177,368,328033,6,0,L|165:272,2,66.6666666666667
107,275,328380,2,0,L|196:313,2,66.6666666666667
221,262,328727,2,0,L|144:320,2,66.6666666666667
334,15,329073,6,0,L|346:111,2,66.6666666666667
404,108,329420,2,0,L|315:70,2,66.6666666666667
290,121,329767,2,0,L|367:63,2,66.6666666666667
432,270,330114,6,0,L|336:282,2,66.6666666666667
339,340,330461,2,0,L|377:251,2,66.6666666666667
326,226,330807,2,0,L|384:303,2,66.6666666666667
177,368,331154,6,0,L|165:272,2,66.6666666666667
107,275,331501,2,0,L|196:313,2,66.6666666666667
221,262,331848,2,0,L|144:320,2,66.6666666666667
79,113,332195,6,0,L|175:101,2,66.6666666666667
172,43,332542,2,0,L|134:132,2,66.6666666666667
185,157,332888,2,0,L|127:80,2,66.6666666666667
325,372,333235,6,0,L|248:312,2,66.6666666666667
210,356,333582,2,0,L|299:320,2,66.6666666666667
281,266,333929,2,0,L|267:361,2,66.6666666666667
75,261,334276,6,0,L|135:184,2,66.6666666666667
91,146,334622,2,0,L|127:235,2,66.6666666666667
181,217,334969,2,0,L|86:203,2,66.6666666666667
186,11,335316,6,0,L|263:71,2,66.6666666666667
301,27,335663,2,0,L|212:63,2,66.6666666666667
230,117,336010,2,0,L|244:22,2,66.6666666666667
436,122,336357,6,0,L|376:199,2,66.6666666666667
420,237,336703,2,0,L|384:148,2,66.6666666666667
330,166,337050,2,0,L|425:180,2,66.6666666666667
75,261,337397,6,0,L|135:184,2,66.6666666666667
91,146,337744,2,0,L|127:235,2,66.6666666666667
181,217,338091,2,0,L|86:203,2,66.6666666666667
186,11,338438,6,0,L|263:71,2,66.6666666666667
301,27,338784,2,0,L|212:63,2,66.6666666666667
230,117,339131,2,0,L|244:22,2,66.6666666666667
436,122,339478,6,0,L|376:199,2,66.6666666666667
420,237,339825,2,0,L|384:148,2,66.6666666666667
330,166,340172,2,0,L|425:180,2,66.6666666666667
325,372,340518,6,0,L|248:312,2,66.6666666666667
210,356,340865,2,0,L|299:320,2,66.6666666666667
281,266,341212,2,0,L|267:361,2,66.6666666666667
212,148,341559,5,0,0:0:0:0:
256,192,341732,12,0,346761,0:0:0:0:
