osu file format v14

[General]
AudioFilename: audio.mp3
AudioLeadIn: 0
PreviewTime: 38752
Countdown: 0
SampleSet: Soft
StackLeniency: 0.7
Mode: 3
LetterboxInBreaks: 0
SpecialStyle: 0
WidescreenStoryboard: 1
SamplesMatchPlaybackRate: 1

[Editor]
DistanceSpacing: 1.7
BeatDivisor: 4
GridSize: 4
TimelineZoom: 1.4

[Metadata]
Title:CHEEKY (Cut Ver.)
TitleUnicode:CHEEKY (Cut Ver.)
Artist:EL7Z UP
ArtistUnicode:엘즈업
Creator:Sani_
Version:Slowpoke104's Normal!
Source:
Tags:kpop korean pop hannody Kei Yeeun Yeoreum Yeonhee Nana Hwiseo Yuki 케이 예은 여름 연희 나나 휘서 유키 Purple Kiss H1-Key Woo!ah! Rocket Punch WJSN CLC Lovelyz Seoul South Korea girls group girl Chrisse Slowpoke104 ainer Apple Monster DG Entertainment 7+UP ELZZUP kinohimari 퍼플키스 하이키 우아! 로켓펀치 우주소녀 씨엘씨 러블리즈
BeatmapID:4437591
BeatmapSetID:2113494

[Difficulty]
HPDrainRate:7
CircleSize:4
OverallDifficulty:7
ApproachRate:5
SliderMultiplier:1.4
SliderTickRate:1

[Events]
//Background and Video events
0,0,"EL7Z-UP-1st-Mini-Album-7-UP-Concept-Photos-documents-22.jpeg",0,0
Video,-120,"Cheekyyyy-1.mp4"
//Break Periods
//Storyboard Layer 0 (Background)
//Storyboard Layer 1 (Fail)
//Storyboard Layer 2 (Pass)
//Storyboard Layer 3 (Foreground)
//Storyboard Layer 4 (Overlay)
//Storyboard Sound Samples

[TimingPoints]
-20,352.941176470588,4,2,1,30,1,0
39509,-100,4,2,1,30,0,1
50450,-100,4,2,1,30,0,0
50803,-100,4,2,1,30,0,1
62097,-100,4,2,1,30,0,0

[HitObjects]
192,192,5274,128,0,5627:0:0:0:0:
448,192,5627,128,0,6332:0:0:0:0:
64,192,5979,1,0,0:0:0:0:
320,192,6156,1,0,0:0:0:0:
192,192,6332,1,0,0:0:0:0:
64,192,6332,1,0,0:0:0:0:
448,192,6685,1,0,0:0:0:0:
320,192,6685,1,0,0:0:0:0:
192,192,6862,1,0,0:0:0:0:
448,192,7038,128,0,7391:0:0:0:0:
64,192,7391,128,0,7744:0:0:0:0:
448,192,7744,128,0,8097:0:0:0:0:
192,192,7744,1,0,0:0:0:0:
320,192,8097,128,0,8450:0:0:0:0:
64,192,8450,128,0,9156:0:0:0:0:
448,192,8803,1,0,0:0:0:0:
192,192,8979,1,0,0:0:0:0:
320,192,9156,1,0,0:0:0:0:
448,192,9156,1,0,0:0:0:0:
64,192,9509,1,0,0:0:0:0:
192,192,9509,1,0,0:0:0:0:
320,192,9685,1,0,0:0:0:0:
64,192,9862,128,0,10215:0:0:0:0:
448,192,10215,128,0,10568:0:0:0:0:
64,192,10568,128,0,10921:0:0:0:0:
320,192,10568,1,0,0:0:0:0:
320,192,10921,1,0,0:0:0:0:
64,192,11274,1,0,0:0:0:0:
320,192,11450,1,0,0:0:0:0:
192,192,11627,1,0,0:0:0:0:
448,192,11803,1,0,0:0:0:0:
320,192,11979,1,0,0:0:0:0:
64,192,11979,128,0,12332:0:0:0:0:
448,192,12332,1,0,0:0:0:0:
192,192,12509,1,0,0:0:0:0:
320,192,12685,1,0,0:0:0:0:
64,192,12862,1,0,0:0:0:0:
448,192,13038,1,0,0:0:0:0:
320,192,13215,1,0,0:0:0:0:
192,192,13391,1,0,0:0:0:0:
64,192,13391,128,0,13744:0:0:0:0:
448,192,13744,1,0,0:0:0:0:
64,192,14097,1,0,0:0:0:0:
448,192,14274,1,0,0:0:0:0:
192,192,14450,1,0,0:0:0:0:
320,192,14627,1,0,0:0:0:0:
64,192,14803,1,0,0:0:0:0:
448,192,14803,128,0,15156:0:0:0:0:
320,192,15156,1,0,0:0:0:0:
192,192,15332,1,0,0:0:0:0:
448,192,15509,1,0,0:0:0:0:
64,192,15685,1,0,0:0:0:0:
320,192,15862,128,0,16215:0:0:0:0:
64,192,16215,1,0,0:0:0:0:
448,192,16215,1,0,0:0:0:0:
192,192,16391,1,0,0:0:0:0:
320,192,16568,1,0,0:0:0:0:
448,192,16744,1,0,0:0:0:0:
64,192,16921,128,0,17627:0:0:0:0:
192,192,16921,1,0,0:0:0:0:
320,192,17274,1,0,0:0:0:0:
320,192,17627,1,0,0:0:0:0:
448,192,17627,1,0,0:0:0:0:
192,192,17979,1,0,0:0:0:0:
64,192,18156,1,0,0:0:0:0:
320,192,18332,1,0,0:0:0:0:
192,192,18509,1,0,0:0:0:0:
448,192,18685,1,0,0:0:0:0:
320,192,18862,1,0,0:0:0:0:
64,192,19038,1,0,0:0:0:0:
192,192,19038,1,0,0:0:0:0:
192,192,19391,1,0,0:0:0:0:
64,192,19568,1,0,0:0:0:0:
448,192,19744,128,0,20450:0:0:0:0:
320,192,19744,1,0,0:0:0:0:
192,192,20097,1,0,0:0:0:0:
192,192,20450,1,0,0:0:0:0:
64,192,20450,1,0,0:0:0:0:
320,192,20803,1,0,0:0:0:0:
448,192,20979,1,0,0:0:0:0:
192,192,21156,1,0,0:0:0:0:
320,192,21332,1,0,0:0:0:0:
64,192,21509,1,0,0:0:0:0:
192,192,21685,1,0,0:0:0:0:
448,192,21862,1,0,0:0:0:0:
320,192,21862,1,0,0:0:0:0:
64,192,22215,128,0,22568:0:0:0:0:
448,192,22568,1,0,0:0:0:0:
192,192,22744,1,0,0:0:0:0:
320,192,22921,1,0,0:0:0:0:
448,192,22921,1,0,0:0:0:0:
64,192,23097,1,0,0:0:0:0:
320,192,23450,1,0,0:0:0:0:
64,192,23627,1,0,0:0:0:0:
192,192,23627,1,0,0:0:0:0:
448,192,23803,1,0,0:0:0:0:
192,192,24156,1,0,0:0:0:0:
320,192,24332,1,0,0:0:0:0:
448,192,24332,1,0,0:0:0:0:
64,192,24509,1,0,0:0:0:0:
320,192,24685,1,0,0:0:0:0:
192,192,24862,1,0,0:0:0:0:
64,192,25038,128,0,25391:0:0:0:0:
448,192,25391,128,0,25656:0:0:0:0:
192,192,25656,128,0,25921:0:0:0:0:
320,192,25921,1,0,0:0:0:0:
448,192,26097,1,0,0:0:0:0:
64,192,26097,128,0,26450:0:0:0:0:
192,192,26274,1,0,0:0:0:0:
320,192,26450,1,0,0:0:0:0:
448,192,26627,1,0,0:0:0:0:
320,192,26803,128,0,27068:0:0:0:0:
192,192,27068,128,0,27332:0:0:0:0:
64,192,27332,128,0,28215:0:0:0:0:
320,192,27509,1,0,0:0:0:0:
448,192,27685,1,0,0:0:0:0:
192,192,27862,1,0,0:0:0:0:
320,192,28038,1,0,0:0:0:0:
448,192,28215,128,0,31038:0:0:0:0:
192,192,28921,128,0,29627:0:0:0:0:
320,192,29627,128,0,29979:0:0:0:0:
64,192,29979,128,0,30332:0:0:0:0:
320,192,30332,128,0,30685:0:0:0:0:
64,192,30685,1,0,0:0:0:0:
192,192,30862,1,0,0:0:0:0:
320,192,31038,128,0,32450:0:0:0:0:
192,192,31391,128,0,31744:0:0:0:0:
448,192,31744,128,0,32097:0:0:0:0:
64,192,32097,128,0,32803:0:0:0:0:
320,192,32627,128,0,32803:0:0:0:0:
320,192,33156,128,0,33509:0:0:0:0:
64,192,33509,128,0,33862:0:0:0:0:
448,192,33685,1,0,0:0:0:0:
192,192,33862,128,0,34215:0:0:0:0:
448,192,34215,128,0,34568:0:0:0:0:
64,192,34568,128,0,34921:0:0:0:0:
320,192,34921,128,0,35715:0:0:0:0:
192,192,35538,128,0,35715:0:0:0:0:
64,192,36332,128,0,36685:0:0:0:0:
320,192,36685,128,0,37391:0:0:0:0:
64,192,37215,128,0,37391:0:0:0:0:
192,192,37391,128,0,38097:0:0:0:0:
448,192,37921,128,0,38097:0:0:0:0:
320,192,38097,128,0,38450:0:0:0:0:
448,192,38803,128,0,39509:0:0:0:0:
64,192,38803,128,0,39156:0:0:0:0:
64,192,39509,128,0,40215:0:0:0:0:
192,192,39509,128,0,39862:0:0:0:0:
320,192,39862,1,0,0:0:0:0:
448,192,40038,1,0,0:0:0:0:
192,192,40215,1,0,0:0:0:0:
320,192,40391,1,0,0:0:0:0:
64,192,40568,1,0,0:0:0:0:
320,192,40744,1,0,0:0:0:0:
192,192,40921,1,0,0:0:0:0:
448,192,41097,1,0,0:0:0:0:
64,192,41274,1,0,0:0:0:0:
448,192,41450,1,0,0:0:0:0:
192,192,41627,1,0,0:0:0:0:
64,192,41627,1,0,0:0:0:0:
320,192,41803,1,0,0:0:0:0:
192,192,41979,1,0,0:0:0:0:
64,192,42156,1,0,0:0:0:0:
448,192,42332,128,0,43038:0:0:0:0:
320,192,42332,128,0,42685:0:0:0:0:
192,192,42685,1,0,0:0:0:0:
64,192,42862,1,0,0:0:0:0:
320,192,43038,1,0,0:0:0:0:
192,192,43215,1,0,0:0:0:0:
448,192,43391,1,0,0:0:0:0:
192,192,43568,1,0,0:0:0:0:
320,192,43744,1,0,0:0:0:0:
64,192,43921,1,0,0:0:0:0:
448,192,44097,1,0,0:0:0:0:
64,192,44274,1,0,0:0:0:0:
448,192,44450,1,0,0:0:0:0:
320,192,44450,1,0,0:0:0:0:
192,192,44627,1,0,0:0:0:0:
320,192,44803,1,0,0:0:0:0:
448,192,44979,1,0,0:0:0:0:
64,192,45156,128,0,45862:0:0:0:0:
192,192,45156,128,0,45509:0:0:0:0:
320,192,45509,128,0,45862:0:0:0:0:
192,192,45862,128,0,46215:0:0:0:0:
448,192,45862,1,0,0:0:0:0:
448,192,46215,128,0,46568:0:0:0:0:
192,192,46391,1,0,0:0:0:0:
320,192,46568,128,0,46921:0:0:0:0:
64,192,46921,1,0,0:0:0:0:
448,192,47274,128,0,47627:0:0:0:0:
64,192,47274,1,0,0:0:0:0:
192,192,47450,1,0,0:0:0:0:
320,192,47627,1,0,0:0:0:0:
64,192,47803,1,0,0:0:0:0:
448,192,47979,128,0,48685:0:0:0:0:
320,192,47979,128,0,48332:0:0:0:0:
192,192,48332,128,0,48685:0:0:0:0:
320,192,48685,128,0,49038:0:0:0:0:
64,192,48685,1,0,0:0:0:0:
64,192,49038,128,0,49744:0:0:0:0:
192,192,49038,128,0,49391:0:0:0:0:
448,192,49391,128,0,49744:0:0:0:0:
192,192,49744,1,0,0:0:0:0:
320,192,49921,1,0,0:0:0:0:
64,192,50097,1,0,0:0:0:0:
192,192,50185,1,0,0:0:0:0:
320,192,50274,1,0,0:0:0:0:
448,192,50450,1,0,0:0:0:0:
64,192,50627,1,0,0:0:0:0:
448,192,50803,128,0,51509:0:0:0:0:
320,192,50803,128,0,51156:0:0:0:0:
192,192,51156,1,0,0:0:0:0:
64,192,51332,1,0,0:0:0:0:
320,192,51509,1,0,0:0:0:0:
192,192,51685,1,0,0:0:0:0:
448,192,51862,1,0,0:0:0:0:
192,192,52038,1,0,0:0:0:0:
320,192,52215,1,0,0:0:0:0:
64,192,52391,1,0,0:0:0:0:
448,192,52568,1,0,0:0:0:0:
64,192,52744,1,0,0:0:0:0:
320,192,52921,1,0,0:0:0:0:
448,192,52921,1,0,0:0:0:0:
192,192,53097,1,0,0:0:0:0:
320,192,53274,1,0,0:0:0:0:
448,192,53450,1,0,0:0:0:0:
64,192,53627,128,0,54332:0:0:0:0:
192,192,53627,128,0,53979:0:0:0:0:
320,192,53979,1,0,0:0:0:0:
448,192,54156,1,0,0:0:0:0:
192,192,54332,1,0,0:0:0:0:
320,192,54509,1,0,0:0:0:0:
64,192,54685,1,0,0:0:0:0:
320,192,54862,1,0,0:0:0:0:
192,192,55038,1,0,0:0:0:0:
448,192,55215,1,0,0:0:0:0:
64,192,55391,1,0,0:0:0:0:
448,192,55568,1,0,0:0:0:0:
64,192,55744,1,0,0:0:0:0:
192,192,55744,1,0,0:0:0:0:
320,192,55921,1,0,0:0:0:0:
192,192,56097,1,0,0:0:0:0:
64,192,56274,1,0,0:0:0:0:
448,192,56450,128,0,57156:0:0:0:0:
320,192,56450,128,0,56803:0:0:0:0:
192,192,56803,128,0,57156:0:0:0:0:
320,192,57156,128,0,57509:0:0:0:0:
64,192,57156,1,0,0:0:0:0:
64,192,57509,128,0,57862:0:0:0:0:
320,192,57685,1,0,0:0:0:0:
192,192,57862,128,0,58215:0:0:0:0:
448,192,58038,1,0,0:0:0:0:
320,192,58215,1,0,0:0:0:0:
64,192,58391,1,0,0:0:0:0:
448,192,58568,128,0,58921:0:0:0:0:
192,192,58568,1,0,0:0:0:0:
320,192,58744,1,0,0:0:0:0:
64,192,58921,128,0,59274:0:0:0:0:
192,192,59097,1,0,0:0:0:0:
448,192,59274,1,0,0:0:0:0:
192,192,59450,1,0,0:0:0:0:
320,192,59627,1,0,0:0:0:0:
64,192,59803,1,0,0:0:0:0:
320,192,59979,1,0,0:0:0:0:
448,192,59979,1,0,0:0:0:0:
192,192,60156,1,0,0:0:0:0:
448,192,60332,128,0,60685:0:0:0:0:
64,192,60685,128,0,61038:0:0:0:0:
448,192,61038,1,0,0:0:0:0:
320,192,61215,1,0,0:0:0:0:
64,192,61391,1,0,0:0:0:0:
192,192,61391,1,0,0:0:0:0:
448,192,61568,1,0,0:0:0:0:
64,192,61744,1,0,0:0:0:0:
320,192,61921,1,0,0:0:0:0:
192,192,62097,1,0,0:0:0:0:
320,192,62274,1,0,0:0:0:0:
448,192,62450,1,0,0:0:0:0:
192,192,62803,1,0,0:0:0:0:
320,192,62979,1,0,0:0:0:0:
448,192,63156,1,0,0:0:0:0:
192,192,63509,1,0,0:0:0:0:
320,192,63685,1,0,0:0:0:0:
448,192,63862,1,0,0:0:0:0:
64,192,64215,128,0,64568:0:0:0:0:
192,192,64568,1,0,0:0:0:0:
320,192,64921,1,0,0:0:0:0:
192,192,65097,1,0,0:0:0:0:
64,192,65274,1,0,0:0:0:0:
448,192,65627,1,0,0:0:0:0:
320,192,65803,1,0,0:0:0:0:
192,192,65979,1,0,0:0:0:0:
320,192,66332,1,0,0:0:0:0:
192,192,66509,1,0,0:0:0:0:
64,192,66685,1,0,0:0:0:0:
448,192,67038,128,0,67391:0:0:0:0:
192,192,67038,1,0,0:0:0:0:
320,192,67215,1,0,0:0:0:0:
64,192,67391,1,0,0:0:0:0:
192,192,67568,1,0,0:0:0:0:
320,192,67744,1,0,0:0:0:0:
448,192,67921,1,0,0:0:0:0:
64,192,68097,1,0,0:0:0:0:
320,192,68450,1,0,0:0:0:0:
448,192,68627,1,0,0:0:0:0:
64,192,68803,1,0,0:0:0:0:
320,192,69156,1,0,0:0:0:0:
448,192,69332,1,0,0:0:0:0:
64,192,69509,1,0,0:0:0:0:
192,192,69685,1,0,0:0:0:0:
448,192,69862,128,0,70215:0:0:0:0:
320,192,70215,1,0,0:0:0:0:
192,192,70568,1,0,0:0:0:0:
320,192,70744,1,0,0:0:0:0:
448,192,70921,1,0,0:0:0:0:
64,192,71274,1,0,0:0:0:0:
320,192,71274,1,0,0:0:0:0:
192,192,71450,1,0,0:0:0:0:
448,192,71627,1,0,0:0:0:0:
192,192,71979,1,0,0:0:0:0:
320,192,72156,1,0,0:0:0:0:
448,192,72332,1,0,0:0:0:0:
192,192,72509,1,0,0:0:0:0:
64,192,72685,128,0,73038:0:0:0:0:
