osu file format v14

[General]
AudioFilename: audio.mp3
AudioLeadIn: 0
PreviewTime: 38752
Countdown: 0
SampleSet: Soft
StackLeniency: 0.7
Mode: 3
LetterboxInBreaks: 0
SpecialStyle: 0
WidescreenStoryboard: 1
SamplesMatchPlaybackRate: 1

[Editor]
DistanceSpacing: 1.7
BeatDivisor: 4
GridSize: 4
TimelineZoom: 1.8

[Metadata]
Title:CHEEKY (Cut Ver.)
TitleUnicode:CHEEKY (Cut Ver.)
Artist:EL7Z UP
ArtistUnicode:엘즈업
Creator:Sani_
Version:Ainer's Cheeky!
Source:
Tags:kpop korean pop hannody Kei Yeeun Yeoreum Yeonhee Nana Hwiseo Yuki 케이 예은 여름 연희 나나 휘서 유키 Purple Kiss H1-Key Woo!ah! Rocket Punch WJSN CLC Lovelyz Seoul South Korea girls group girl Chrisse Slowpoke104 ainer Apple Monster DG Entertainment 7+UP ELZZUP kinohimari 퍼플키스 하이키 우아! 로켓펀치 우주소녀 씨엘씨 러블리즈
BeatmapID:4441463
BeatmapSetID:2113494

[Difficulty]
HPDrainRate:7.8
CircleSize:4
OverallDifficulty:7.7
ApproachRate:5
SliderMultiplier:1.4
SliderTickRate:1

[Events]
//Background and Video events
0,0,"EL7Z-UP-1st-Mini-Album-7-UP-Concept-Photos-documents-22.jpeg",0,0
Video,-120,"Cheekyyyy-1.mp4"
//Break Periods
//Storyboard Layer 0 (Background)
//Storyboard Layer 1 (Fail)
//Storyboard Layer 2 (Pass)
//Storyboard Layer 3 (Foreground)
//Storyboard Layer 4 (Overlay)
//Storyboard Sound Samples

[TimingPoints]
-20,352.941176470588,4,2,1,30,1,0
39509,-100,4,2,1,30,0,1
50450,-100,4,2,1,30,0,0
50803,-100,4,2,1,30,0,1
62097,-100,4,2,1,30,0,0

[HitObjects]
448,192,5274,128,0,5450:0:0:0:0:
320,192,5627,128,0,5979:0:0:0:0:
64,192,5627,1,0,0:0:0:0:
448,192,5627,128,0,6156:0:0:0:0:
192,192,5979,1,0,0:0:0:0:
192,192,6156,1,0,0:0:0:0:
320,192,6332,128,0,6509:0:0:0:0:
448,192,6332,128,0,6509:0:0:0:0:
64,192,6509,1,0,0:0:0:0:
448,192,6685,1,0,0:0:0:0:
192,192,6685,128,0,7038:0:0:0:0:
320,192,6862,128,0,7038:0:0:0:0:
64,192,7038,128,0,7215:0:0:0:0:
320,192,7215,128,0,7568:0:0:0:0:
64,192,7391,1,0,0:0:0:0:
192,192,7391,128,0,7568:0:0:0:0:
448,192,7568,1,0,0:0:0:0:
320,192,7744,1,0,0:0:0:0:
192,192,7744,128,0,7921:0:0:0:0:
448,192,7921,1,0,0:0:0:0:
64,192,8097,128,0,8274:0:0:0:0:
192,192,8450,128,0,8803:0:0:0:0:
448,192,8450,1,0,0:0:0:0:
64,192,8450,128,0,8979:0:0:0:0:
320,192,8803,1,0,0:0:0:0:
320,192,8979,1,0,0:0:0:0:
192,192,9156,1,0,0:0:0:0:
64,192,9156,128,0,9332:0:0:0:0:
448,192,9332,1,0,0:0:0:0:
64,192,9509,1,0,0:0:0:0:
320,192,9509,128,0,9862:0:0:0:0:
192,192,9685,128,0,9862:0:0:0:0:
448,192,9862,128,0,10038:0:0:0:0:
192,192,10038,128,0,10391:0:0:0:0:
320,192,10215,128,0,10391:0:0:0:0:
448,192,10215,1,0,0:0:0:0:
64,192,10391,1,0,0:0:0:0:
192,192,10568,1,0,0:0:0:0:
448,192,10568,128,0,10921:0:0:0:0:
320,192,10744,1,0,0:0:0:0:
192,192,10921,128,0,11097:0:0:0:0:
64,192,11009,128,0,11274:0:0:0:0:
448,192,11274,1,0,0:0:0:0:
320,192,11274,128,0,11362:0:0:0:0:
320,192,11450,128,0,11979:0:0:0:0:
64,192,11627,128,0,11715:0:0:0:0:
64,192,11803,128,0,12156:0:0:0:0:
192,192,11979,128,0,12156:0:0:0:0:
448,192,11979,128,0,12332:0:0:0:0:
320,192,12156,1,0,0:0:0:0:
64,192,12332,1,0,0:0:0:0:
192,192,12332,128,0,12421:0:0:0:0:
192,192,12509,128,0,13038:0:0:0:0:
448,192,12685,128,0,12774:0:0:0:0:
448,192,12862,128,0,13215:0:0:0:0:
320,192,13038,128,0,13215:0:0:0:0:
64,192,13038,128,0,13391:0:0:0:0:
192,192,13215,1,0,0:0:0:0:
320,192,13391,128,0,13568:0:0:0:0:
448,192,13391,128,0,13568:0:0:0:0:
64,192,13568,1,0,0:0:0:0:
192,192,13744,128,0,13921:0:0:0:0:
448,192,13921,1,0,0:0:0:0:
192,192,14097,1,0,0:0:0:0:
64,192,14097,128,0,14185:0:0:0:0:
64,192,14274,128,0,14803:0:0:0:0:
320,192,14450,128,0,14538:0:0:0:0:
320,192,14627,128,0,14979:0:0:0:0:
448,192,14803,128,0,14979:0:0:0:0:
192,192,14803,128,0,15156:0:0:0:0:
64,192,14979,1,0,0:0:0:0:
320,192,15156,1,0,0:0:0:0:
448,192,15156,128,0,15244:0:0:0:0:
448,192,15332,128,0,15862:0:0:0:0:
192,192,15509,128,0,15597:0:0:0:0:
192,192,15685,128,0,16038:0:0:0:0:
64,192,15862,128,0,16038:0:0:0:0:
320,192,15862,128,0,16215:0:0:0:0:
448,192,16038,1,0,0:0:0:0:
192,192,16215,128,0,16391:0:0:0:0:
64,192,16215,128,0,16391:0:0:0:0:
320,192,16391,1,0,0:0:0:0:
448,192,16391,1,0,0:0:0:0:
192,192,16568,128,0,16744:0:0:0:0:
320,192,16744,1,0,0:0:0:0:
448,192,16921,1,0,0:0:0:0:
192,192,16921,128,0,17450:0:0:0:0:
64,192,16921,128,0,17274:0:0:0:0:
320,192,17097,1,0,0:0:0:0:
448,192,17274,1,0,0:0:0:0:
448,192,17450,1,0,0:0:0:0:
64,192,17627,128,0,17803:0:0:0:0:
192,192,17627,128,0,17803:0:0:0:0:
320,192,17803,1,0,0:0:0:0:
192,192,17979,1,0,0:0:0:0:
448,192,17979,128,0,18332:0:0:0:0:
64,192,18156,128,0,18332:0:0:0:0:
320,192,18332,128,0,18509:0:0:0:0:
64,192,18509,128,0,18862:0:0:0:0:
320,192,18685,1,0,0:0:0:0:
448,192,18685,128,0,18862:0:0:0:0:
192,192,18862,1,0,0:0:0:0:
64,192,19038,1,0,0:0:0:0:
448,192,19038,128,0,19215:0:0:0:0:
192,192,19215,1,0,0:0:0:0:
320,192,19391,128,0,19568:0:0:0:0:
192,192,19568,1,0,0:0:0:0:
448,192,19744,128,0,20097:0:0:0:0:
64,192,19744,1,0,0:0:0:0:
320,192,19744,128,0,20274:0:0:0:0:
192,192,19921,1,0,0:0:0:0:
64,192,20097,1,0,0:0:0:0:
64,192,20274,1,0,0:0:0:0:
448,192,20450,1,0,0:0:0:0:
320,192,20450,128,0,20627:0:0:0:0:
192,192,20627,1,0,0:0:0:0:
320,192,20803,1,0,0:0:0:0:
64,192,20803,128,0,21156:0:0:0:0:
448,192,20979,128,0,21156:0:0:0:0:
192,192,21156,128,0,21332:0:0:0:0:
448,192,21332,128,0,21685:0:0:0:0:
64,192,21509,128,0,21685:0:0:0:0:
192,192,21509,1,0,0:0:0:0:
320,192,21685,1,0,0:0:0:0:
448,192,21862,1,0,0:0:0:0:
192,192,21862,128,0,22215:0:0:0:0:
64,192,22038,128,0,22215:0:0:0:0:
320,192,22215,128,0,22391:0:0:0:0:
448,192,22259,128,0,22568:0:0:0:0:
192,192,22391,1,0,0:0:0:0:
320,192,22568,1,0,0:0:0:0:
64,192,22568,1,0,0:0:0:0:
64,192,22744,128,0,22832:0:0:0:0:
64,192,22921,128,0,23009:0:0:0:0:
64,192,23097,128,0,23274:0:0:0:0:
192,192,23141,128,0,23274:0:0:0:0:
448,192,23274,1,0,0:0:0:0:
320,192,23274,1,0,0:0:0:0:
448,192,23450,128,0,23538:0:0:0:0:
448,192,23627,128,0,23715:0:0:0:0:
192,192,23627,1,0,0:0:0:0:
448,192,23803,128,0,23979:0:0:0:0:
320,192,23847,128,0,23979:0:0:0:0:
64,192,23979,1,0,0:0:0:0:
64,192,24156,128,0,24332:0:0:0:0:
192,192,24332,128,0,24421:0:0:0:0:
448,192,24332,1,0,0:0:0:0:
192,192,24509,128,0,24685:0:0:0:0:
64,192,24553,128,0,24685:0:0:0:0:
320,192,24685,1,0,0:0:0:0:
448,192,24685,1,0,0:0:0:0:
192,192,24862,1,0,0:0:0:0:
320,192,25038,1,0,0:0:0:0:
64,192,25215,1,0,0:0:0:0:
192,192,25391,1,0,0:0:0:0:
448,192,25391,128,0,25568:0:0:0:0:
192,192,25568,128,0,25744:0:0:0:0:
64,192,25656,128,0,25744:0:0:0:0:
320,192,25744,1,0,0:0:0:0:
320,192,25921,128,0,26274:0:0:0:0:
192,192,26097,128,0,26274:0:0:0:0:
64,192,26097,128,0,26274:0:0:0:0:
448,192,26274,1,0,0:0:0:0:
64,192,26450,1,0,0:0:0:0:
320,192,26450,128,0,26803:0:0:0:0:
192,192,26627,128,0,26979:0:0:0:0:
64,192,26803,128,0,26979:0:0:0:0:
320,192,26979,128,0,27156:0:0:0:0:
448,192,27068,128,0,27156:0:0:0:0:
192,192,27156,1,0,0:0:0:0:
64,192,27156,1,0,0:0:0:0:
192,192,27332,128,0,27685:0:0:0:0:
64,192,27509,128,0,27685:0:0:0:0:
448,192,27509,1,0,0:0:0:0:
320,192,27685,128,0,27862:0:0:0:0:
448,192,27685,128,0,28038:0:0:0:0:
192,192,27862,1,0,0:0:0:0:
320,192,28038,1,0,0:0:0:0:
64,192,28215,128,0,31038:0:0:0:0:
192,192,28215,128,0,28921:0:0:0:0:
448,192,28921,128,0,29979:0:0:0:0:
320,192,29627,128,0,30332:0:0:0:0:
192,192,29979,128,0,30685:0:0:0:0:
448,192,30332,128,0,30685:0:0:0:0:
320,192,30685,128,0,31038:0:0:0:0:
192,192,31038,128,0,33862:0:0:0:0:
448,192,31038,128,0,31744:0:0:0:0:
320,192,31391,128,0,32627:0:0:0:0:
64,192,31744,128,0,32097:0:0:0:0:
448,192,32097,128,0,32627:0:0:0:0:
64,192,32627,1,0,0:0:0:0:
320,192,33156,128,0,33509:0:0:0:0:
64,192,33509,128,0,33862:0:0:0:0:
448,192,33862,128,0,36685:0:0:0:0:
320,192,33862,128,0,34568:0:0:0:0:
64,192,34215,128,0,35627:0:0:0:0:
192,192,34568,128,0,34921:0:0:0:0:
320,192,34921,128,0,35627:0:0:0:0:
192,192,35627,1,0,0:0:0:0:
192,192,36332,128,0,36685:0:0:0:0:
320,192,36685,128,0,38097:0:0:0:0:
64,192,36685,128,0,37391:0:0:0:0:
192,192,37215,128,0,37391:0:0:0:0:
448,192,37391,128,0,38097:0:0:0:0:
64,192,37921,128,0,38097:0:0:0:0:
192,192,38097,128,0,38450:0:0:0:0:
64,192,38759,128,0,39332:0:0:0:0:
448,192,38759,128,0,39332:0:0:0:0:
192,192,38803,128,0,39332:0:0:0:0:
320,192,38803,128,0,39332:0:0:0:0:
320,192,39509,128,0,39862:0:0:0:0:
448,192,39509,128,0,39685:0:0:0:0:
64,192,39509,128,0,40038:0:0:0:0:
192,192,39685,1,0,0:0:0:0:
448,192,39862,128,0,40038:0:0:0:0:
320,192,40038,128,0,40215:0:0:0:0:
448,192,40215,1,0,0:0:0:0:
192,192,40215,1,0,0:0:0:0:
64,192,40215,128,0,40391:0:0:0:0:
192,192,40391,128,0,40568:0:0:0:0:
64,192,40568,128,0,40921:0:0:0:0:
192,192,40744,128,0,40921:0:0:0:0:
448,192,40744,128,0,40921:0:0:0:0:
320,192,40921,128,0,41009:0:0:0:0:
320,192,41097,128,0,41274:0:0:0:0:
64,192,41274,128,0,41362:0:0:0:0:
192,192,41274,1,0,0:0:0:0:
64,192,41450,128,0,41803:0:0:0:0:
192,192,41627,128,0,41803:0:0:0:0:
448,192,41627,1,0,0:0:0:0:
320,192,41627,1,0,0:0:0:0:
448,192,41803,128,0,42156:0:0:0:0:
64,192,41979,128,0,42156:0:0:0:0:
192,192,42156,1,0,0:0:0:0:
320,192,42244,1,0,0:0:0:0:
448,192,42332,128,0,42862:0:0:0:0:
192,192,42332,128,0,42685:0:0:0:0:
64,192,42332,128,0,42509:0:0:0:0:
320,192,42509,1,0,0:0:0:0:
64,192,42685,128,0,42862:0:0:0:0:
192,192,42862,128,0,43038:0:0:0:0:
448,192,43038,1,0,0:0:0:0:
320,192,43038,1,0,0:0:0:0:
64,192,43038,128,0,43391:0:0:0:0:
320,192,43215,128,0,43391:0:0:0:0:
448,192,43391,128,0,43744:0:0:0:0:
192,192,43568,128,0,43744:0:0:0:0:
64,192,43568,128,0,43744:0:0:0:0:
320,192,43744,128,0,43832:0:0:0:0:
320,192,43921,128,0,44097:0:0:0:0:
64,192,44097,1,0,0:0:0:0:
192,192,44097,128,0,44185:0:0:0:0:
192,192,44274,128,0,44450:0:0:0:0:
320,192,44450,1,0,0:0:0:0:
448,192,44450,1,0,0:0:0:0:
64,192,44450,128,0,44803:0:0:0:0:
448,192,44627,128,0,44979:0:0:0:0:
192,192,44627,1,0,0:0:0:0:
320,192,44803,128,0,44979:0:0:0:0:
64,192,44979,128,0,45156:0:0:0:0:
192,192,45156,128,0,45685:0:0:0:0:
320,192,45156,128,0,45509:0:0:0:0:
448,192,45156,128,0,45332:0:0:0:0:
64,192,45332,1,0,0:0:0:0:
448,192,45509,128,0,45862:0:0:0:0:
64,192,45685,1,0,0:0:0:0:
192,192,45862,1,0,0:0:0:0:
320,192,45862,1,0,0:0:0:0:
64,192,45862,128,0,46215:0:0:0:0:
448,192,46038,1,0,0:0:0:0:
320,192,46215,128,0,46568:0:0:0:0:
192,192,46391,128,0,46568:0:0:0:0:
64,192,46391,128,0,46568:0:0:0:0:
448,192,46568,128,0,46921:0:0:0:0:
192,192,46744,1,0,0:0:0:0:
64,192,46921,1,0,0:0:0:0:
320,192,46921,1,0,0:0:0:0:
320,192,47097,1,0,0:0:0:0:
448,192,47274,1,0,0:0:0:0:
64,192,47274,1,0,0:0:0:0:
192,192,47274,128,0,47627:0:0:0:0:
320,192,47450,1,0,0:0:0:0:
448,192,47450,1,0,0:0:0:0:
64,192,47627,1,0,0:0:0:0:
192,192,47803,1,0,0:0:0:0:
448,192,47891,1,0,0:0:0:0:
320,192,47979,128,0,48509:0:0:0:0:
192,192,47979,128,0,48332:0:0:0:0:
64,192,47979,128,0,48156:0:0:0:0:
448,192,48156,1,0,0:0:0:0:
64,192,48332,128,0,48685:0:0:0:0:
448,192,48509,1,0,0:0:0:0:
192,192,48685,1,0,0:0:0:0:
320,192,48685,1,0,0:0:0:0:
448,192,48685,128,0,49038:0:0:0:0:
64,192,48862,1,0,0:0:0:0:
320,192,49038,128,0,49391:0:0:0:0:
192,192,49038,128,0,49744:0:0:0:0:
448,192,49215,1,0,0:0:0:0:
64,192,49391,128,0,49744:0:0:0:0:
320,192,49568,1,0,0:0:0:0:
320,192,49744,1,0,0:0:0:0:
448,192,49744,1,0,0:0:0:0:
192,192,49921,1,0,0:0:0:0:
64,192,49921,1,0,0:0:0:0:
64,192,50097,1,0,0:0:0:0:
320,192,50097,1,0,0:0:0:0:
448,192,50097,1,0,0:0:0:0:
192,192,50185,1,0,0:0:0:0:
448,192,50274,1,0,0:0:0:0:
320,192,50274,1,0,0:0:0:0:
192,192,50450,1,0,0:0:0:0:
64,192,50450,1,0,0:0:0:0:
320,192,50627,1,0,0:0:0:0:
448,192,50627,1,0,0:0:0:0:
192,192,50803,128,0,51156:0:0:0:0:
64,192,50803,128,0,50979:0:0:0:0:
448,192,50803,128,0,51332:0:0:0:0:
320,192,50979,1,0,0:0:0:0:
64,192,51156,128,0,51332:0:0:0:0:
192,192,51332,128,0,51509:0:0:0:0:
64,192,51509,1,0,0:0:0:0:
320,192,51509,1,0,0:0:0:0:
448,192,51509,128,0,51685:0:0:0:0:
320,192,51685,128,0,51862:0:0:0:0:
448,192,51862,128,0,52215:0:0:0:0:
320,192,52038,128,0,52215:0:0:0:0:
64,192,52038,128,0,52215:0:0:0:0:
192,192,52215,128,0,52303:0:0:0:0:
192,192,52391,128,0,52568:0:0:0:0:
448,192,52568,128,0,52656:0:0:0:0:
320,192,52568,1,0,0:0:0:0:
448,192,52744,128,0,53097:0:0:0:0:
320,192,52921,128,0,53097:0:0:0:0:
64,192,52921,1,0,0:0:0:0:
192,192,52921,1,0,0:0:0:0:
64,192,53097,128,0,53450:0:0:0:0:
448,192,53274,128,0,53450:0:0:0:0:
320,192,53450,1,0,0:0:0:0:
192,192,53538,1,0,0:0:0:0:
64,192,53627,128,0,54156:0:0:0:0:
320,192,53627,128,0,53979:0:0:0:0:
448,192,53627,128,0,53803:0:0:0:0:
192,192,53803,1,0,0:0:0:0:
448,192,53979,128,0,54156:0:0:0:0:
320,192,54156,128,0,54332:0:0:0:0:
64,192,54332,1,0,0:0:0:0:
192,192,54332,1,0,0:0:0:0:
448,192,54332,128,0,54685:0:0:0:0:
192,192,54509,128,0,54685:0:0:0:0:
64,192,54685,128,0,55038:0:0:0:0:
320,192,54862,128,0,55038:0:0:0:0:
448,192,54862,128,0,55038:0:0:0:0:
192,192,55038,128,0,55127:0:0:0:0:
192,192,55215,128,0,55391:0:0:0:0:
448,192,55391,1,0,0:0:0:0:
320,192,55391,128,0,55479:0:0:0:0:
320,192,55568,128,0,55744:0:0:0:0:
192,192,55744,1,0,0:0:0:0:
64,192,55744,1,0,0:0:0:0:
448,192,55744,128,0,55921:0:0:0:0:
320,192,55921,1,0,0:0:0:0:
64,192,55921,128,0,56097:0:0:0:0:
192,192,56097,128,0,56274:0:0:0:0:
448,192,56097,1,0,0:0:0:0:
448,192,56274,128,0,56450:0:0:0:0:
64,192,56274,1,0,0:0:0:0:
320,192,56450,128,0,56979:0:0:0:0:
192,192,56450,128,0,56803:0:0:0:0:
64,192,56450,128,0,56627:0:0:0:0:
448,192,56627,1,0,0:0:0:0:
64,192,56803,128,0,57156:0:0:0:0:
448,192,56979,1,0,0:0:0:0:
320,192,57156,1,0,0:0:0:0:
192,192,57156,1,0,0:0:0:0:
448,192,57156,128,0,57509:0:0:0:0:
64,192,57332,1,0,0:0:0:0:
192,192,57509,128,0,57862:0:0:0:0:
320,192,57685,128,0,57862:0:0:0:0:
448,192,57685,128,0,57862:0:0:0:0:
64,192,57862,128,0,58215:0:0:0:0:
320,192,58038,128,0,58215:0:0:0:0:
192,192,58215,1,0,0:0:0:0:
448,192,58215,128,0,58391:0:0:0:0:
192,192,58391,1,0,0:0:0:0:
64,192,58568,1,0,0:0:0:0:
320,192,58568,128,0,58744:0:0:0:0:
448,192,58568,128,0,58921:0:0:0:0:
192,192,58744,1,0,0:0:0:0:
64,192,58744,1,0,0:0:0:0:
192,192,58921,128,0,59097:0:0:0:0:
448,192,59097,1,0,0:0:0:0:
64,192,59185,1,0,0:0:0:0:
320,192,59274,128,0,59627:0:0:0:0:
448,192,59274,128,0,59450:0:0:0:0:
192,192,59274,128,0,59803:0:0:0:0:
64,192,59450,128,0,59803:0:0:0:0:
448,192,59627,128,0,59803:0:0:0:0:
320,192,59803,128,0,59979:0:0:0:0:
192,192,59979,1,0,0:0:0:0:
64,192,59979,1,0,0:0:0:0:
448,192,59979,128,0,60332:0:0:0:0:
192,192,60156,128,0,60685:0:0:0:0:
64,192,60332,128,0,60509:0:0:0:0:
320,192,60332,128,0,60862:0:0:0:0:
448,192,60509,1,0,0:0:0:0:
64,192,60685,128,0,61038:0:0:0:0:
192,192,60862,1,0,0:0:0:0:
320,192,61038,1,0,0:0:0:0:
448,192,61038,1,0,0:0:0:0:
64,192,61215,1,0,0:0:0:0:
320,192,61215,128,0,61391:0:0:0:0:
192,192,61391,1,0,0:0:0:0:
64,192,61391,1,0,0:0:0:0:
448,192,61391,128,0,61744:0:0:0:0:
192,192,61568,1,0,0:0:0:0:
320,192,61568,128,0,61744:0:0:0:0:
64,192,61744,128,0,62097:0:0:0:0:
192,192,61921,128,0,62097:0:0:0:0:
320,192,61921,1,0,0:0:0:0:
320,192,62097,1,0,0:0:0:0:
448,192,62097,128,0,62185:0:0:0:0:
448,192,62274,128,0,62715:0:0:0:0:
64,192,62450,128,0,62538:0:0:0:0:
64,192,62627,128,0,63068:0:0:0:0:
320,192,62803,1,0,0:0:0:0:
448,192,62803,128,0,62891:0:0:0:0:
448,192,62979,128,0,63421:0:0:0:0:
192,192,63156,1,0,0:0:0:0:
64,192,63156,128,0,63244:0:0:0:0:
64,192,63332,128,0,63774:0:0:0:0:
448,192,63509,128,0,63597:0:0:0:0:
448,192,63685,128,0,64127:0:0:0:0:
64,192,63862,128,0,63950:0:0:0:0:
192,192,63862,1,0,0:0:0:0:
64,192,64038,128,0,64391:0:0:0:0:
320,192,64215,128,0,64391:0:0:0:0:
448,192,64215,128,0,64391:0:0:0:0:
192,192,64391,1,0,0:0:0:0:
448,192,64568,1,0,0:0:0:0:
64,192,64744,1,0,0:0:0:0:
448,192,64921,128,0,65009:0:0:0:0:
320,192,64921,1,0,0:0:0:0:
448,192,65097,128,0,65715:0:0:0:0:
64,192,65274,128,0,65362:0:0:0:0:
64,192,65450,128,0,66068:0:0:0:0:
320,192,65627,128,0,65715:0:0:0:0:
192,192,65627,1,0,0:0:0:0:
320,192,65803,128,0,66421:0:0:0:0:
192,192,65979,128,0,66068:0:0:0:0:
448,192,65979,1,0,0:0:0:0:
192,192,66156,128,0,66774:0:0:0:0:
448,192,66332,128,0,66421:0:0:0:0:
448,192,66509,128,0,66950:0:0:0:0:
64,192,66685,128,0,66774:0:0:0:0:
320,192,66685,1,0,0:0:0:0:
64,192,66862,128,0,67038:0:0:0:0:
320,192,67038,128,0,67215:0:0:0:0:
448,192,67038,128,0,67215:0:0:0:0:
192,192,67215,1,0,0:0:0:0:
64,192,67215,1,0,0:0:0:0:
192,192,67391,1,0,0:0:0:0:
64,192,67391,1,0,0:0:0:0:
64,192,67568,1,0,0:0:0:0:
192,192,67568,1,0,0:0:0:0:
320,192,67744,1,0,0:0:0:0:
448,192,67744,128,0,67832:0:0:0:0:
320,192,67921,1,0,0:0:0:0:
448,192,67921,128,0,68097:0:0:0:0:
64,192,68097,128,0,68185:0:0:0:0:
64,192,68274,128,0,68450:0:0:0:0:
320,192,68450,1,0,0:0:0:0:
448,192,68450,128,0,68538:0:0:0:0:
448,192,68627,128,0,69068:0:0:0:0:
192,192,68803,1,0,0:0:0:0:
64,192,68803,128,0,68891:0:0:0:0:
64,192,68979,128,0,69421:0:0:0:0:
448,192,69156,128,0,69244:0:0:0:0:
448,192,69332,128,0,69774:0:0:0:0:
64,192,69509,128,0,69597:0:0:0:0:
192,192,69509,1,0,0:0:0:0:
64,192,69685,128,0,70038:0:0:0:0:
320,192,69862,128,0,70038:0:0:0:0:
448,192,69862,128,0,70038:0:0:0:0:
192,192,70038,1,0,0:0:0:0:
320,192,70215,1,0,0:0:0:0:
64,192,70391,1,0,0:0:0:0:
448,192,70568,128,0,70656:0:0:0:0:
320,192,70568,1,0,0:0:0:0:
448,192,70744,128,0,71362:0:0:0:0:
64,192,70921,128,0,71009:0:0:0:0:
64,192,71097,128,0,71715:0:0:0:0:
320,192,71274,128,0,71362:0:0:0:0:
192,192,71274,1,0,0:0:0:0:
320,192,71450,128,0,72068:0:0:0:0:
192,192,71627,128,0,71715:0:0:0:0:
448,192,71627,1,0,0:0:0:0:
192,192,71803,128,0,72421:0:0:0:0:
448,192,71979,128,0,72068:0:0:0:0:
448,192,72156,128,0,72597:0:0:0:0:
320,192,72156,128,0,72244:0:0:0:0:
64,192,72332,128,0,72421:0:0:0:0:
320,192,72332,1,0,0:0:0:0:
64,192,72509,128,0,72862:0:0:0:0:
192,192,72509,128,0,72597:0:0:0:0:
320,192,72685,128,0,72862:0:0:0:0:
448,192,72685,128,0,72862:0:0:0:0:
